osu file format v14

[General]
AudioFilename: audio.mp3
AudioLeadIn: 0
PreviewTime: 42198
Countdown: 0
SampleSet: Soft
StackLeniency: 0.7
Mode: 0
LetterboxInBreaks: 0
WidescreenStoryboard: 0

[Editor]
Bookmarks: 2485,14571,28384,35291
DistanceSpacing: 1
BeatDivisor: 4
GridSize: 32
TimelineZoom: 1.5

[Metadata]
Title:Flyers (TV Size)
TitleUnicode:Flyers (TV Size)
Artist:BRADIO
ArtistUnicode:BRADIO
Creator:[-Evil-]
Version:Put Your Hands UP!
Source:デス・パレード
Tags:KaedeharaKazuha Addy2607 -Magic- -Lian- Lian2002 Ryxliee Crissa Funk Rock Pop J-Pop Jpop Power of Life Anime Opening OP Death Parade Japanese Takaaki Shingyoji Soichi Ohyama Ryosuke Sakai Yuki Tanabe 真行寺貴秋 大山聡一 酒井亮輔 田邊有希 HERO MUSIC ENTERTAINMENT J-Rock JRock
BeatmapID:3367638
BeatmapSetID:1649895

[Difficulty]
HPDrainRate:5.5
CircleSize:5.5
OverallDifficulty:9
ApproachRate:9.4
SliderMultiplier:2.5
SliderTickRate:1

[Events]
//Background and Video events
0,0,"72637689_p0_master1200.jpg",0,0
Video,600,"Flyers.mp4"
//Break Periods
//Storyboard Layer 0 (Background)
//Storyboard Layer 1 (Fail)
//Storyboard Layer 2 (Pass)
//Storyboard Layer 3 (Foreground)
//Storyboard Layer 4 (Overlay)
//Storyboard Sound Samples

[TimingPoints]
759,431.654676258993,4,2,2,65,1,0
759,-83.3333333333333,4,2,2,65,0,0
2701,-74.0740740740741,4,2,1,65,0,0
3780,-222.222222222221,4,2,1,65,0,0
4104,-222.222222222221,4,2,1,5,0,0
4212,-83.3333333333333,4,2,2,65,0,0
5723,-222.222222222221,4,2,2,65,0,0
5830,-222.222222222221,4,2,2,5,0,0
5938,-43.4782608695652,4,2,2,65,0,0
6262,-50,4,2,2,65,0,0
6478,-50,4,2,2,5,0,0
6586,-43.4782608695652,4,2,2,65,0,0
6802,-43.4782608695652,4,2,2,5,0,0
6910,-43.4782608695652,4,2,2,65,0,0
7017,-71.4285714285714,4,2,2,65,0,0
7125,-71.4285714285714,4,2,2,5,0,0
7233,-58.8235294117647,4,2,2,65,0,0
7341,-71.4285714285714,4,2,2,5,0,0
7449,-50,4,2,2,65,0,0
7557,-71.4285714285714,4,2,2,5,0,0
7665,-66.6666666666667,4,2,2,65,0,0
9392,-153.846153846153,4,2,2,65,0,0
9607,-71.4285714285714,4,2,2,5,0,0
9715,-66.6666666666667,4,2,2,65,0,0
9931,-66.6666666666667,4,2,2,5,0,0
10039,-66.6666666666667,4,2,2,65,0,0
10255,-50,4,2,2,65,0,0
10579,-66.6666666666667,4,2,2,5,0,0
10687,-66.6666666666667,4,2,2,65,0,0
10794,-66.6666666666667,4,2,2,5,0,0
10902,-66.6666666666667,4,2,2,65,0,0
11010,-66.6666666666667,4,2,2,5,0,0
11118,-66.6666666666667,4,2,2,65,0,0
12845,-43.4782608695652,4,2,2,65,0,0
13061,-66.6666666666667,4,2,2,5,0,0
13169,-50,4,2,2,65,0,0
13384,-66.6666666666667,4,2,2,5,0,0
13492,-37.037037037037,4,2,2,65,0,0
13654,-66.6666666666667,4,2,2,5,0,0
13708,-43.4782608695652,4,2,2,65,0,0
13924,-71.4285714285714,4,2,2,65,0,0
14140,-58.8235294117647,4,2,2,65,0,0
14356,-50,4,2,2,65,0,0
14571,-76.9230769230769,4,2,1,50,0,0
17269,-66.6666666666667,4,2,1,5,0,0
17377,-133.333333333333,4,2,1,50,0,0
17809,-200,4,2,1,50,0,0
17917,-66.6666666666667,4,2,1,5,0,0
18025,-76.9230769230769,4,2,1,50,0,0
18348,-76.9230769230769,4,2,1,5,0,0
18456,-76.9230769230769,4,2,1,50,0,0
18888,-76.9230769230769,4,2,1,50,0,0
18996,-76.9230769230769,4,2,1,5,0,0
19104,-76.9230769230769,4,2,1,50,0,0
19212,-76.9230769230769,4,2,1,5,0,0
19320,-76.9230769230769,4,2,1,50,0,0
19428,-76.9230769230769,4,2,1,5,0,0
19535,-76.9230769230769,4,2,1,50,0,0
19643,-76.9230769230769,4,2,1,5,0,0
19751,-76.9230769230769,4,2,1,50,0,0
20615,-80,4,2,1,50,0,0
20938,-68.9655172413793,4,2,1,5,0,0
21046,-90.9090909090909,4,2,1,50,0,0
21154,-68.9655172413793,4,2,1,5,0,0
21262,-133.333333333333,4,2,1,50,0,0
21370,-68.9655172413793,4,2,1,5,0,0
21478,-76.9230769230769,4,2,1,50,0,0
21910,-76.9230769230769,4,2,1,50,0,0
22341,-76.9230769230769,4,2,1,50,0,0
23852,-68.9655172413793,4,2,1,50,0,0
24176,-68.9655172413793,4,2,1,5,0,0
24284,-181.818181818181,4,2,1,50,0,0
24931,-76.9230769230769,4,2,1,50,0,0
27089,-76.9230769230769,4,2,1,50,0,0
27197,-76.9230769230769,4,2,1,5,0,0
27305,-76.9230769230769,4,2,1,50,0,0
27413,-76.9230769230769,4,2,1,5,0,0
27521,-76.9230769230769,4,2,1,50,0,0
27953,-90.9090909090909,4,2,1,50,0,0
28276,-90.9090909090909,4,2,1,5,0,0
28384,-58.8235294117647,4,2,1,55,0,0
28816,-66.6666666666667,4,2,1,55,0,0
29248,-76.9230769230769,4,2,1,55,0,0
29679,-86.9565217391304,4,2,1,55,0,0
29787,-86.9565217391304,4,2,1,5,0,0
29895,-86.9565217391304,4,2,1,55,0,0
30003,-86.9565217391304,4,2,1,5,0,0
30111,-86.9565217391304,4,2,1,55,0,0
30651,-86.9565217391304,4,2,1,5,0,0
30759,-86.9565217391304,4,2,1,55,0,0
31190,-222.222222222221,4,2,1,50,0,0
31298,-86.9565217391304,4,2,1,5,0,0
31406,-76.9230769230769,4,2,1,50,0,0
31514,-86.9565217391304,4,2,1,5,0,0
31622,-76.9230769230769,4,2,1,50,0,0
31730,-86.9565217391304,4,2,1,5,0,0
31838,-62.5,4,2,1,50,0,0
32161,-62.5,4,2,1,5,0,0
32269,-62.5,4,2,1,50,0,0
32377,-62.5,4,2,1,5,0,0
32485,-62.5,4,2,1,50,0,0
33025,-62.5,4,2,1,5,0,0
33133,-62.5,4,2,1,50,0,0
33241,-62.5,4,2,1,5,0,0
33349,-62.5,4,2,1,50,0,0
33456,-62.5,4,2,1,5,0,0
33564,-62.5,4,2,1,50,0,0
34104,-62.5,4,2,1,5,0,0
34212,-62.5,4,2,1,50,0,0
34643,-71.4285714285714,4,2,1,50,0,0
35075,-76.9230769230769,4,2,1,50,0,0
35183,-76.9230769230769,4,2,1,5,0,0
35291,-58.8235294117647,4,2,1,55,0,0
35723,-66.6666666666667,4,2,1,55,0,0
36154,-76.9230769230769,4,2,1,55,0,0
36586,-86.9565217391304,4,2,1,55,0,0
36694,-86.9565217391304,4,2,1,5,0,0
36802,-86.9565217391304,4,2,1,55,0,0
36910,-86.9565217391304,4,2,1,5,0,0
37017,-86.9565217391304,4,2,1,55,0,0
37341,-86.9565217391304,4,2,1,5,0,0
37449,-86.9565217391304,4,2,1,55,0,0
37557,-86.9565217391304,4,2,1,5,0,0
37665,-76.9230769230769,4,2,1,55,0,0
37989,-86.9565217391304,4,2,1,5,0,0
38097,-222.222222222221,4,2,1,60,0,0
38205,-86.9565217391304,4,2,1,5,0,0
38312,-76.9230769230769,4,2,1,60,0,0
38420,-76.9230769230769,4,2,1,5,0,0
38528,-76.9230769230769,4,2,1,60,0,0
38636,-76.9230769230769,4,2,1,5,0,0
38744,-68.9655172413793,4,2,1,60,0,0
38852,-68.9655172413793,4,2,1,5,0,0
38960,-68.9655172413793,4,2,1,60,0,0
39068,-68.9655172413793,4,2,1,5,0,0
39176,-68.9655172413793,4,2,1,60,0,0
39284,-133.333333333333,4,2,1,60,0,0
39392,-133.333333333333,4,2,1,5,0,0
39500,-80,4,2,1,60,0,0
40039,-68.9655172413793,4,2,1,60,0,0
40147,-68.9655172413793,4,2,1,5,0,0
40255,-68.9655172413793,4,2,1,60,0,0
40363,-68.9655172413793,4,2,1,5,0,0
40471,-68.9655172413793,4,2,1,60,0,0
40579,-68.9655172413793,4,2,1,5,0,0
40687,-68.9655172413793,4,2,1,60,0,0
40794,-68.9655172413793,4,2,1,5,0,0
40902,-133.333333333333,4,2,1,60,0,0
41334,-66.6666666666667,4,2,1,60,0,0
42197,-62.5,4,2,3,75,0,1
42305,-62.5,4,2,2,5,0,1
42413,-50,4,2,2,75,0,1
42953,-50,4,2,2,5,0,1
43061,-50,4,2,2,75,0,1
43169,-50,4,2,2,5,0,1
43277,-50,4,2,2,75,0,1
43384,-50,4,2,2,5,0,1
43492,-66.6666666666667,4,2,2,75,0,1
43600,-50,4,2,2,5,0,1
43708,-66.6666666666667,4,2,2,75,0,1
43816,-50,4,2,2,5,0,1
43924,-166.666666666667,4,2,2,75,0,1
44032,-166.666666666667,4,2,2,5,0,1
44140,-50,4,2,2,75,0,1
44679,-50,4,2,2,5,0,1
44787,-50,4,2,2,75,0,1
45111,-50,4,2,2,5,0,1
45219,-50,4,2,2,75,0,1
45866,-50,4,2,2,75,0,1
46190,-58.8235294117647,4,2,2,75,0,1
46406,-58.8235294117647,4,2,2,5,0,1
46514,-58.8235294117647,4,2,2,75,0,1
46838,-58.8235294117647,4,2,2,5,0,1
46946,-64.5161290322581,4,2,2,75,0,1
47053,-64.5161290322581,4,2,2,5,0,1
47161,-64.5161290322581,4,2,2,75,0,1
47268,-64.5161290322581,4,2,2,5,0,1
47377,-166.666666666667,4,2,2,75,0,1
47485,-166.666666666667,4,2,2,5,0,1
47593,-55.5555555555556,4,2,2,75,0,1
47701,-166.666666666667,4,2,2,5,0,1
47809,-50,4,2,2,75,0,1
47917,-166.666666666667,4,2,2,5,0,1
48025,-45.4545454545455,4,2,2,75,0,1
48133,-166.666666666667,4,2,2,5,0,1
48241,-50,4,2,2,75,0,1
48564,-50,4,2,2,5,0,1
48672,-50,4,2,2,75,0,1
48780,-166.666666666667,4,2,2,5,0,1
48888,-50,4,2,2,75,0,1
48996,-166.666666666667,4,2,2,5,0,1
49104,-58.8235294117647,4,2,2,75,0,1
49212,-166.666666666667,4,2,2,5,0,1
49320,-50,4,2,2,75,0,1
49428,-50,4,2,2,5,0,1
49535,-50,4,2,2,75,0,1
49751,-50,4,2,2,75,0,1
49858,-50,4,2,2,75,0,1
50291,-58.8235294117647,4,2,2,75,0,1
50723,-58.8235294117647,4,2,2,5,0,1
50830,-55.5555555555556,4,2,2,75,0,1
50938,-55.5555555555556,4,2,2,5,0,1
51046,-55.5555555555556,4,2,2,75,0,1
51154,-55.5555555555556,4,2,2,5,0,1
51262,-45.4545454545455,4,2,2,75,0,1
51370,-45.4545454545455,4,2,2,5,0,1
51478,-45.4545454545455,4,2,2,75,0,1
51586,-45.4545454545455,4,2,2,5,0,1
51694,-50,4,2,2,75,0,1
52233,-50,4,2,2,5,0,1
52341,-50,4,2,2,75,0,1
52449,-50,4,2,2,5,0,1
52557,-166.666666666667,4,2,2,75,0,1
52665,-166.666666666667,4,2,2,5,0,1
52773,-50,4,2,2,75,0,1
52881,-50,4,2,2,5,0,1
52989,-50,4,2,2,75,0,1
53097,-50,4,2,2,5,0,1
53205,-50,4,2,2,75,0,1
53312,-50,4,2,2,5,0,1
53420,-50,4,2,2,75,0,1
53636,-50,4,2,2,75,0,1
53744,-55.5555555555556,4,2,2,75,0,1
53960,-50,4,2,2,5,0,1
54068,-76.9230769230769,4,2,2,75,0,1
54176,-50,4,2,2,5,0,1
54284,-62.5,4,2,2,75,0,1
54392,-50,4,2,2,5,0,1
54500,-50,4,2,2,75,0,1
54607,-50,4,2,2,5,0,1
54715,-50,4,2,2,75,0,1
54823,-50,4,2,2,5,0,1
54931,-50,4,2,2,75,0,1
55039,-50,4,2,2,5,0,1
55147,-50,4,2,2,75,0,1
55902,-76.9230769230769,4,2,2,75,0,0
56010,-62.5,4,2,2,75,0,1
56118,-50,4,2,2,5,0,1
56226,-50,4,2,2,75,0,1
56766,-50,4,2,2,5,0,1
56874,-50,4,2,2,75,0,1
56982,-50,4,2,2,5,0,1
57090,-50,4,2,2,75,0,1
57197,-50,4,2,2,5,0,1
57305,-66.6666666666667,4,2,2,75,0,1
57413,-50,4,2,2,5,0,1
57521,-66.6666666666667,4,2,2,75,0,1
57629,-50,4,2,2,5,0,1
57737,-166.666666666667,4,2,2,75,0,1
57845,-50,4,2,2,5,0,1
57953,-50,4,2,2,75,0,1
58492,-50,4,2,2,5,0,1
58600,-50,4,2,2,75,0,1
58924,-50,4,2,2,5,0,1
59032,-50,4,2,2,75,0,1
59464,-166.666666666667,4,2,2,75,0,1
59571,-166.666666666667,4,2,2,5,0,1
59679,-50,4,2,2,75,0,1
60219,-50,4,2,2,5,0,1
60327,-50,4,2,2,75,0,1
60651,-50,4,2,2,5,0,1
60759,-64.5161290322581,4,2,2,75,0,1
60866,-50,4,2,2,5,0,1
60974,-64.5161290322581,4,2,2,75,0,1
61082,-50,4,2,2,5,0,1
61190,-166.666666666667,4,2,2,75,0,1
61298,-50,4,2,2,5,0,1
61406,-55.5555555555556,4,2,2,75,0,1
61514,-50,4,2,2,5,0,1
61622,-50,4,2,2,75,0,1
61730,-50,4,2,2,5,0,1
61838,-45.4545454545455,4,2,2,75,0,1
61946,-50,4,2,2,5,0,1
62053,-50,4,2,2,75,0,1
62377,-50,4,2,2,5,0,1
62485,-50,4,2,2,75,0,1
62593,-50,4,2,2,5,0,1
62701,-50,4,2,2,75,0,1
62809,-50,4,2,2,5,0,1
62917,-58.8235294117647,4,2,2,75,0,1
63025,-50,4,2,2,5,0,1
63133,-50,4,2,2,75,0,1
63241,-50,4,2,2,5,0,1
63349,-50,4,2,2,75,0,1
63672,-58.8235294117647,4,2,2,75,0,1
63888,-50,4,2,2,5,0,1
63996,-58.8235294117647,4,2,2,75,0,1
64535,-50,4,2,2,5,0,1
64643,-55.5555555555556,4,2,2,75,0,1
64751,-50,4,2,2,5,0,1
64859,-55.5555555555556,4,2,2,75,0,1
64967,-50,4,2,2,5,0,1
65075,-45.4545454545455,4,2,2,75,0,1
65183,-50,4,2,2,5,0,1
65291,-45.4545454545455,4,2,2,75,0,1
65399,-50,4,2,2,5,0,1
65507,-50,4,2,2,75,0,1
66046,-50,4,2,2,5,0,1
66154,-50,4,2,2,75,0,1
66262,-50,4,2,2,5,0,1
66370,-58.8235294117647,4,2,2,75,0,1
66478,-50,4,2,2,5,0,1
66586,-50,4,2,2,75,0,1
66694,-50,4,2,2,5,0,1
66802,-50,4,2,2,75,0,1
66910,-50,4,2,2,5,0,1
67018,-50,4,2,2,75,0,1
67125,-50,4,2,2,5,0,1
67233,-50,4,2,2,75,0,1
67449,-50,4,2,2,5,0,1
67557,-50,4,2,2,75,0,1
67773,-50,4,2,2,5,0,1
67881,-50,4,2,2,75,0,1
67989,-50,4,2,2,5,0,1
68097,-47.6190476190476,4,2,2,75,0,1
68205,-47.6190476190476,4,2,2,5,0,1
68312,-45.4545454545455,4,2,2,75,0,1
68420,-50,4,2,2,5,0,1
68528,-45.4545454545455,4,2,2,75,0,1
68636,-50,4,2,2,5,0,1
68744,-45.4545454545455,4,2,2,75,0,1
68852,-50,4,2,2,5,0,1
68960,-50,4,2,2,75,0,1
69823,-50,4,2,1,65,0,0
70039,-50,4,2,1,65,0,0
70147,-50,4,2,1,65,0,0
70363,-50,4,2,1,5,0,0
70471,-71.4285714285714,4,2,1,65,0,0
70579,-50,4,2,1,5,0,0
70687,-58.8235294117647,4,2,1,65,0,0
70794,-50,4,2,1,5,0,0
70902,-55.5555555555556,4,2,1,65,0,0
71010,-50,4,2,1,5,0,0
71118,-50,4,2,1,65,0,0
71226,-50,4,2,1,5,0,0
71334,-50,4,2,1,65,0,0
71442,-50,4,2,1,5,0,0
71550,-50,4,2,1,65,0,0
71766,-50,4,2,1,65,0,0
71874,-50,4,2,1,65,0,0
71982,-55.5555555555556,4,2,1,65,0,0
72089,-50,4,2,1,5,0,0
72197,-55.5555555555556,4,2,1,65,0,0
72305,-50,4,2,1,5,0,0
72413,-58.8235294117647,4,2,1,65,0,0
72521,-50,4,2,1,5,0,0
72629,-58.8235294117647,4,2,1,65,0,0
72737,-58.8235294117647,4,2,1,5,0,0
72845,-58.8235294117647,4,2,1,65,0,0
73061,-76.9230769230769,4,2,1,65,0,0
73169,-58.8235294117647,4,2,1,5,0,0
73276,-133.333333333333,4,2,1,65,0,0
73384,-58.8235294117647,4,2,1,5,0,0
73492,-55.5555555555556,4,2,1,65,0,0
74032,-50,4,2,1,5,0,0
74140,-55.5555555555556,4,2,1,65,0,0
74679,-50,4,2,1,5,0,0
74787,-55.5555555555556,4,2,1,65,0,0
74895,-50,4,2,1,5,0,0
75003,-50,4,2,1,65,0,0
75111,-50,4,2,1,5,0,0
75219,-50,4,2,1,65,0,0
75327,-50,4,2,1,5,0,0
75435,-50,4,2,1,65,0,0
75974,-50,4,2,1,5,0,0
76082,-45.4545454545455,4,2,1,65,0,0
76622,-50,4,2,1,5,0,0
76765,413.793103448276,4,2,1,65,1,0
77902,-100,4,2,1,5,0,0
78006,-100,4,2,1,65,0,0
78240,437.956204379562,4,2,1,65,1,0
78240,-83.3333333333333,4,2,1,65,0,0
78458,437.956204379562,4,2,2,65,1,0
79917,-100,4,2,2,45,0,0

[Colours]
Combo1 : 121,121,255
Combo2 : 255,128,192
Combo3 : 255,128,255
Combo4 : 255,128,128
Combo5 : 0,217,217

[HitObjects]
173,110,759,6,0,B|216:103|228:51|180:0|134:-1|27:61|53:133|86:237|178:163|174:255|152:332|152:332|168:275|137:233|93:200|51:215|-9:269|77:350|141:312|102:232,1,749.999977111817,6|0,1:2|0:0,0:0:0:0:
279,302,2053,5,4,1:2:0:0:
379,245,2269,6,0,B|396:224|446:239|484:287|484:287|445:238|443:196|363:191|321:257|343:292|246:314|162:262|219:250|228:183|131:185|98:201|98:201|179:141|227:198|221:253|307:281|361:225|336:143|282:132|280:194,1,899.99997253418,6|2,1:2|0:0,0:0:0:0:
240,101,3780,6,0,P|215:70|228:11,1,84.3749974250794,2|0,0:0|0:0,0:0:0:0:
300,45,4212,6,0,B|310:92|281:123|236:126|183:133|107:185|145:283|170:310|213:327|213:327|172:297|169:237|178:174|262:138|347:182|372:250|244:269|297:313|367:328|457:289|462:224|383:167|346:202|356:247|380:224,1,749.999977111817,6|0,1:2|0:2,0:0:0:0:
326,360,5507,5,4,1:2:0:0:
456,288,5723,38,0,P|472:301|486:303,1,28.1249991416931,4|0,1:2|0:0,0:0:0:0:
461,86,5938,5,2,0:0:0:0:
441,147,6046,2,0,B|468:152|473:207|473:207|468:152|497:138,1,143.750002741814,2|8,0:0|0:0,0:0:0:0:
333,216,6262,5,2,0:0:0:0:
350,278,6370,2,0,B|326:282|322:330|322:330|326:282|301:270,1,125,2|0,0:0|0:0,0:0:0:0:
461,86,6586,5,10,2:3:0:0:
441,147,6694,2,0,B|468:152|473:207|473:207|468:152|497:138,1,143.750002741814,2|0,0:0|0:0,0:0:0:0:
333,216,6910,5,2,0:0:0:0:
350,278,7017,6,0,B|347:305|324:317|324:317|332:296|321:268,1,87.499997329712,6|0,2:3|0:0,0:0:0:0:
247,343,7233,2,0,B|217:356|192:339|192:339|218:336|240:309,1,106.250002026558,6|0,2:3|0:0,0:0:0:0:
134,286,7449,2,0,B|104:265|107:232|107:232|125:255|162:260,1,125,6|0,2:3|0:0,0:0:0:0:
55,328,7665,6,0,B|48:383|-21:386|-69:349|-50:232|80:198|204:356,3,375.000014305115,6|0|0|0,1:2|1:2|1:2|1:2,0:0:0:0:
465,13,9392,6,0,P|427:51|388:36,1,81.2499962806703,2|0,1:2|0:0,0:0:0:0:
335,17,9715,2,0,P|451:58|533:117,1,187.500007152558,2|0,0:0|0:0,0:0:0:0:
504,172,10039,1,2,0:0:0:0:
208,176,10255,6,0,B|156:127|47:144|115:221|2:269|-77:221|-42:101|15:40|139:216,1,375,2|0,1:2|0:0,0:0:0:0:
185,241,10687,6,0,P|183:274|206:344,1,93.7500035762788,2|0,1:2|0:0,0:0:0:0:
114,348,10902,2,0,P|116:315|93:245,1,93.7500035762788,2|0,0:0|0:0,0:0:0:0:
195,99,11118,6,0,B|133:243|266:324|408:279|340:107|255:196,3,375.000014305115,6|0|0|0,1:2|1:2|1:2|1:2,0:0:0:0:
492,2,12845,5,2,1:2:0:0:
472,71,12953,2,0,P|450:114|463:67,1,143.750002741814,2|0,0:0|0:0,0:0:0:0:
288,86,13169,5,2,0:0:0:0:
295,152,13277,2,0,P|315:191|306:149,1,125,14|0,0:0|0:0,0:0:0:0:
492,2,13492,6,0,P|451:144|419:321,1,253.125000965595,2|0,0:0|0:0,0:0:0:0:
470,313,13708,5,8,0:0:0:0:
439,339,13816,1,10,0:0:0:0:
398,334,13923,1,10,0:0:0:0:
374,302,14031,1,8,0:0:0:0:
295,309,14140,5,10,0:0:0:0:
255,294,14247,1,8,0:0:0:0:
239,258,14355,1,10,0:0:0:0:
255,220,14463,1,8,0:0:0:0:
298,158,14571,6,0,B|251:150|194:175|270:222|175:235|84:210,1,162.499992561341,6|2,1:2|0:0,0:0:0:0:
127,90,15003,2,0,B|158:97|170:152|170:152|168:96|209:75,1,162.499992561341,10|2,0:0|0:0,0:0:0:0:
50,3,15435,6,0,P|42:112|-1:203,1,162.499992561341,2|2,1:2|0:0,0:0:0:0:
137,234,15866,2,0,P|117:185|17:174,1,162.499992561341,10|2,0:0|0:0,0:0:0:0:
14,351,16298,5,2,1:2:0:0:
88,315,16514,1,2,0:0:0:0:
6,231,16730,1,10,0:0:0:0:
100,376,16946,6,0,B|124:325|177:302|231:320|231:320|250:373|320:363,1,243.749988842011,2|0,0:0|0:0,0:0:0:0:
334,281,17377,2,0,P|304:346|316:364,1,93.7500035762788,2|8,0:0|0:0,0:0:0:0:
467,260,17809,6,0,P|444:252|433:228,1,31.25,2|0,0:0|0:0,0:0:0:0:
408,157,18025,5,2,1:2:0:0:
408,157,18133,1,2,0:0:0:0:
408,157,18241,2,0,P|428:236|388:274,1,81.2499962806703,2|0,0:0|0:0,0:0:0:0:
270,150,18456,6,0,B|317:151|374:126|298:79|393:66|485:95,1,162.499992561341,10|2,0:0|0:0,0:0:0:0:
264,3,18888,6,0,P|264:51|286:95,1,81.2499962806703,2|0,1:2|0:0,0:0:0:0:
191,93,19104,2,0,P|191:45|169:1,1,81.2499962806703,2|0,0:0|0:0,0:0:0:0:
12,160,19320,6,0,P|27:197|28:237,1,81.2499962806703,10|0,0:0|0:0,0:0:0:0:
112,218,19536,2,0,P|96:180|95:140,1,81.2499962806703,2|0,0:0|0:0,0:0:0:0:
205,284,19751,6,0,B|178:285|171:352|171:352|163:284|139:281,1,162.499992561341,2|2,1:2|0:0,0:0:0:0:
349,229,20183,2,0,P|262:220|202:304,1,162.499992561341,10|2,0:0|0:0,0:0:0:0:
479,369,20615,6,0,P|456:207|449:78,1,234.375,2|0,1:2|0:0,0:0:0:0:
390,104,21046,2,0,P|447:111|456:143,1,68.7500020980836,8|0,0:0|0:0,0:0:0:0:
339,171,21262,6,0,P|334:142|298:130,1,46.8750017881394,2|0,0:0|0:0,0:0:0:0:
256,55,21478,6,0,P|181:128|105:101,1,162.499992561341,2|2,1:2|0:0,0:0:0:0:
59,100,21910,2,0,B|21:68|45:28|110:26|126:58|140:110|109:163,1,162.499992561341,10|2,0:0|0:0,0:0:0:0:
38,231,22341,5,2,1:2:0:0:
64,161,22557,1,2,0:0:0:0:
139,312,22773,5,10,0:0:0:0:
113,242,22989,1,2,0:0:0:0:
0,365,23205,6,0,P|50:314|155:337,2,162.499992561341,2|2|10,1:2|0:0|0:0,0:0:0:0:
118,236,23852,6,0,B|139:309|255:374|298:290|265:209|204:239,1,271.875008296967,2|0,0:0|0:0,0:0:0:0:
185,167,24284,2,0,P|183:210|205:230,1,68.7500020980836,2|8,0:0|0:0,0:0:0:0:
476,347,24715,5,2,0:0:0:0:
467,352,24931,2,0,P|376:306|383:231,1,162.499992561341,2|2,1:2|0:0,0:0:0:0:
436,136,25363,2,0,B|447:161|476:166|476:166|454:225|448:309,1,162.499992561341,10|2,0:0|0:0,0:0:0:0:
238,185,25794,5,2,1:2:0:0:
310,76,26010,1,2,0:0:0:0:
364,212,26226,1,10,0:0:0:0:
248,101,26442,5,2,0:0:0:0:
248,101,26550,1,2,0:0:0:0:
248,101,26658,2,0,P|328:116|410:138,1,162.499992561341,2|2,1:2|0:0,0:0:0:0:
164,96,27089,6,0,P|141:65|161:15,1,81.2499962806703,10|0,0:0|0:0,0:0:0:0:
229,16,27305,2,0,P|252:47|232:97,1,81.2499962806703,2|0,0:0|0:0,0:0:0:0:
174,168,27521,5,2,1:2:0:0:
155,102,27737,1,2,0:0:0:0:
48,88,27953,6,0,P|68:180|83:297,1,206.250006294251,10|0,0:0|0:0,0:0:0:0:
92,360,28384,6,0,P|80:288|109:355,1,212.500004053116,6|0,1:2|0:0,0:0:0:0:
194,244,28816,6,0,P|217:185|206:248,1,187.500007152558,10|0,0:0|0:0,0:0:0:0:
93,172,29248,6,0,P|91:116|105:170,1,162.499992561341,2|0,1:2|0:0,0:0:0:0:
190,251,29679,6,0,P|217:223|264:234,1,71.8750013709069,10|0,0:0|0:0,0:0:0:0:
277,290,29895,2,0,P|249:317|202:306,1,71.8750013709069,2|0,0:0|0:0,0:0:0:0:
74,260,30111,6,0,B|115:254|161:275|109:311|180:326|241:311,1,143.750002741814,2|0,1:2|0:0,0:0:0:0:
269,150,30543,6,0,P|217:156|194:202,1,71.8750013709069,10|0,0:0|0:0,0:0:0:0:
197,243,30759,2,0,P|284:241|331:168,1,143.750002741814,2|0,0:0|1:2,0:0:0:0:
420,44,31190,6,0,P|435:67|434:91,1,28.1249991416931,2|0,0:0|0:0,0:0:0:0:
482,9,31406,6,0,P|444:67|443:146,1,81.2499962806703,10|0,0:0|0:0,0:0:0:0:
340,91,31622,2,0,P|371:152|439:193,1,81.2499962806703,2|0,0:0|0:0,0:0:0:0:
450,306,31838,6,0,B|474:320|534:314|535:219|485:182|419:191|359:244|350:312,1,300,2|0,1:2|0:0,0:0:0:0:
279,343,32269,6,0,P|306:349|350:294,1,100,10|0,0:0|0:0,0:0:0:0:
232,192,32485,2,0,B|262:189|280:272|280:272|279:187|312:178,1,200,2|0,0:0|1:0,0:0:0:0:
351,9,32917,6,0,P|336:51|271:68,1,100,2|0,0:0|0:0,0:0:0:0:
208,108,33133,2,0,P|164:116|116:68,1,100,10|0,0:0|0:0,0:0:0:0:
139,22,33348,2,0,P|182:13|230:61,1,100,2|0,0:0|0:0,0:0:0:0:
19,87,33564,6,0,B|73:79|134:106|65:154|159:174|240:154,1,200,2|0,1:2|0:0,0:0:0:0:
31,193,33996,2,0,P|26:158|39:190,1,100,10|0,0:0|0:0,0:0:0:0:
121,319,34212,6,0,B|80:285|105:219|105:219|145:277|122:320,1,200,2|0,0:0|1:0,0:0:0:0:
29,208,34643,6,0,B|64:179|42:121|42:121|7:171|28:208,1,174.999994659424,2|8,0:0|0:0,0:0:0:0:
126,72,35075,6,0,B|108:57|119:28|119:28|136:53|126:72,1,81.2499962806703,2|0,0:0|0:0,0:0:0:0:
328,138,35291,6,0,B|287:146|271:222|271:222|274:145|238:125,1,212.500004053116,2|0,1:2|0:0,0:0:0:0:
94,216,35723,6,0,B|130:223|144:289|144:289|142:222|173:205,1,187.500007152558,10|0,0:0|0:0,0:0:0:0:
281,282,36154,6,0,B|249:287|232:344|232:344|239:284|212:267,1,162.499992561341,2|0,1:2|0:0,0:0:0:0:
260,154,36586,6,0,P|267:198|225:244,1,71.8750013709069,10|0,0:0|0:0,0:0:0:0:
184,217,36802,2,0,P|177:173|219:127,1,71.8750013709069,2|0,0:0|0:0,0:0:0:0:
141,42,37017,6,0,B|113:78|168:112|248:84|273:57|280:11|243:6,1,215.625004112721,2|0,1:2|0:0,0:0:0:0:
223,3,37449,6,0,P|226:81|274:99,1,71.8750013709069,10|0,0:0|0:0,0:0:0:0:
299,126,37665,6,0,B|308:149|360:157|373:111|382:80|333:42|269:18|223:100,1,243.749988842011,2|0,0:0|0:0,0:0:0:0:
227,301,38097,6,0,P|220:285|201:270,1,28.1249991416931,2|0,0:0|0:0,0:0:0:0:
240,195,38312,6,0,P|197:273|199:292,1,81.2499962806703,10|0,0:0|0:0,0:0:0:0:
107,287,38528,2,0,P|128:373|121:391,1,81.2499962806703,2|0,0:0|0:0,0:0:0:0:
25,277,38744,6,0,P|79:259|103:209,1,90.6250027656556,2|0,1:2|0:0,0:0:0:0:
220,344,38960,2,0,P|190:295|203:241,1,90.6250027656556,2|0,0:0|0:0,0:0:0:0:
190,77,39176,5,10,0:0:0:0:
190,77,39284,2,0,P|166:117|168:144,1,46.8750017881394,2|0,0:0|0:0,0:0:0:0:
92,47,39500,6,0,B|167:25|202:93|155:124|219:188|298:135,1,234.375,2|0,0:0|0:0,0:0:0:0:
438,17,40039,6,0,P|408:45|413:124,1,90.6250027656556,10|0,0:0|0:0,0:0:0:0:
335,161,40255,2,0,P|344:200|415:236,1,90.6250027656556,2|0,0:0|0:0,0:0:0:0:
260,305,40471,6,0,P|299:293|365:336,1,90.6250027656556,2|0,1:2|0:0,0:0:0:0:
454,368,40687,2,0,P|422:330|429:261,1,90.6250027656556,2|0,0:0|0:0,0:0:0:0:
472,100,40902,5,10,0:0:0:0:
472,100,41010,2,0,P|483:134|429:164,1,93.7500035762788,2|2,0:0|0:0,0:0:0:0:
351,66,41334,5,8,0:0:0:0:
306,64,41441,1,8,0:0:0:0:
266,83,41549,1,10,0:0:0:0:
239,118,41657,1,8,0:0:0:0:
155,84,41766,5,8,0:0:0:0:
117,139,41873,1,8,0:0:0:0:
112,207,41981,1,8,0:0:0:0:
137,267,42089,1,8,0:0:0:0:
227,250,42197,6,0,P|175:246|138:296,1,100,6|0,1:2|0:0,0:0:0:0:
54,301,42413,6,0,B|-5:295|-4:389|40:393|70:398|138:379|147:299|134:258,1,250,2|8,0:0|0:0,0:0:0:0:
239,347,42737,2,0,B|178:359|129:302|172:234|140:178|13:214,1,250,2|0,0:0|0:0,0:0:0:0:
8,105,43061,6,0,P|30:53|13:-12,1,125,2|0,1:2|0:0,0:0:0:0:
128,3,43276,2,0,P|106:55|123:120,1,125
310,172,43492,6,0,P|276:131|218:127,1,93.7500035762788,10|0,0:0|0:0,0:0:0:0:
197,185,43708,2,0,P|231:226|289:230,1,93.7500035762788,2|0,0:0|0:0,0:0:0:0:
406,97,43924,6,0,P|416:110|423:132,1,37.4999988555909,0|0,1:2|0:0,0:0:0:0:
470,7,44140,6,0,P|406:157|404:275,1,250,2|8,0:0|0:0,0:0:0:0:
472,343,44464,2,0,B|516:358|543:316|542:276|498:236|462:217|372:277,1,250,2|0,0:0|0:0,0:0:0:0:
279,354,44787,6,0,B|264:326|274:269|314:307|327:250|304:202|304:202|357:226|366:287|338:359|270:363,1,375,2|0,1:2|0:0,0:0:0:0:
110,337,45219,6,0,B|119:425|225:404|248:352|234:238|148:237|113:333|0:267|11:155|87:104|188:137|158:228,1,500,10|0,0:0|1:2,0:0:0:0:
64,64,45866,6,0,B|92:26|33:-16|4:28|8:50|8:50|11:72|25:124|25:124|62:65,1,250,2|8,0:0|0:0,0:0:0:0:
150,37,46190,2,0,B|199:1|260:11|283:62|283:62|249:48|222:77,1,212.500004053116,2|0,0:0|0:0,0:0:0:0:
120,108,46514,6,0,P|147:206|127:104,1,318.750006079674,2|0,1:2|0:0,0:0:0:0:
51,276,46946,6,0,P|79:225|157:215,1,96.8750007390976,10|0,0:0|0:0,0:0:0:0:
210,186,47161,2,0,P|267:185|314:247,1,96.8750007390976,2|0,0:0|0:0,0:0:0:0:
299,346,47377,6,0,P|307:331|325:321,1,37.4999988555909,0|0,1:2|0:0,0:0:0:0:
450,276,47593,6,0,B|434:280|419:319|419:319|421:277|408:260,1,112.499996566773,2|0,0:0|0:0,0:0:0:0:
458,161,47809,2,0,B|476:163|492:212|492:212|487:162|501:151,1,125,10|0,0:0|0:0,0:0:0:0:
440,32,48025,2,0,B|421:37|413:92|413:92|409:38|392:29,1,137.500004196167,2|0,0:0|0:0,0:0:0:0:
294,77,48241,6,0,B|277:130|234:150|167:108|147:48|202:-12|253:-21|361:-37|431:76,1,375,2|0,1:2|0:0,0:0:0:0:
376,152,48672,6,0,P|338:99|261:95,1,125,10|0,0:0|0:0,0:0:0:0:
247,147,48888,2,0,P|281:197|341:209,1,125,2|0,0:0|0:0,0:0:0:0:
33,24,49104,6,0,P|39:60|28:25,1,106.250002026558,4|0,1:2|0:0,0:0:0:0:
0,155,49320,6,0,P|78:155|104:209,1,125,2|0,0:0|0:0,0:0:0:0:
225,254,49535,1,8,0:0:0:0:
225,254,49643,6,0,P|147:268|131:325,1,125,2|0,0:0|0:0,0:0:0:0:
34,317,49859,1,2,0:0:0:0:
34,317,49967,6,0,B|-27:292|-34:396|4:411|97:407|141:340|141:302|127:202,1,250,2|2,1:2|0:0,0:0:0:0:
125,194,50291,2,0,P|245:240|268:216,1,106.250002026558,2|8,0:0|0:0,0:0:0:0:
273,331,50507,1,0,0:0:0:0:
273,331,50615,6,0,P|372:250|363:218,1,106.250002026558,2|0,0:0|0:0,0:0:0:0:
458,112,50830,6,0,P|461:151|448:114,1,112.499996566773,2|0,1:2|0:0,0:0:0:0:
437,36,51046,2,0,P|421:2|441:34,1,112.499996566773,2|0,0:0|0:0,0:0:0:0:
291,213,51262,6,0,P|272:254|294:215,1,137.500004196167,10|0,0:0|0:0,0:0:0:0:
317,119,51478,2,0,P|342:80|311:114,1,137.500004196167,2|0,0:0|0:0,0:0:0:0:
476,323,51694,6,0,B|419:344|356:307|431:237|353:170|292:209,1,250,2|0,1:2|0:0,0:0:0:0:
70,283,52125,6,0,B|91:289|103:334|103:334|100:288|120:273,1,125,10|0,0:0|0:0,0:0:0:0:
194,263,52341,2,0,P|147:254|89:193,1,125,2|0,0:0|0:0,0:0:0:0:
154,48,52557,6,0,P|146:72|135:89,1,37.4999988555909,0|0,1:2|0:0,0:0:0:0:
0,55,52773,6,0,B|16:43|13:-2|13:-2|25:42|46:49,1,125,2|0,0:0|0:0,0:0:0:0:
152,103,52989,2,0,P|68:93|50:42,1,125,10|0,0:0|0:0,0:0:0:0:
14,179,53205,2,0,P|98:189|116:240,1,125,2|0,0:0|0:0,0:0:0:0:
115,325,53420,6,0,B|125:378|87:395|36:376|18:335|59:252|121:216,1,250,2|0,1:2|0:0,0:0:0:0:
322,279,53744,2,0,B|268:223|200:244|200:244|178:318|63:304,1,224.999993133545,2|0,0:0|0:0,0:0:0:0:
260,364,54068,2,0,B|270:341|246:314|246:314|239:346|260:365,1,81.2499962806703,2|0,0:0|0:0,0:0:0:0:
420,339,54284,6,0,P|419:372|417:339,1,100,2|0,1:2|0:0,0:0:0:0:
428,148,54500,6,0,P|456:204|522:222,1,125,2|0,0:0|0:0,0:0:0:0:
343,165,54715,2,0,P|335:227|279:267,1,125,14|0,0:0|0:0,0:0:0:0:
437,283,54931,2,0,B|417:302|419:339|419:339|411:301|385:289,1,125,2|0,0:0|0:0,0:0:0:0:
439,145,55147,5,10,0:0:0:0:
403,139,55254,1,8,0:0:0:0:
373,120,55362,1,8,0:0:0:0:
354,90,55470,1,8,0:0:0:0:
407,38,55579,5,10,0:0:0:0:
338,47,55686,1,8,0:0:0:0:
270,56,55794,1,10,0:0:0:0:
202,65,55902,1,8,0:0:0:0:
107,25,56010,6,0,P|148:21|189:81,1,100,4|0,1:2|0:0,0:0:0:0:
100,184,56226,6,0,B|75:168|91:127|106:164|127:117|129:82|129:82|158:120|139:168|118:193|95:186,1,250,2|8,0:0|0:0,0:0:0:0:
0,116,56550,2,0,P|188:174|224:209,1,250,2|0,0:0|0:0,0:0:0:0:
0,306,56874,6,0,P|27:341|107:337,1,125,2|0,1:2|0:0,0:0:0:0:
128,262,57089,2,0,P|99:225|19:228,1,125
173,372,57305,6,0,P|199:321|273:302,1,93.7500035762788,10|0,0:0|0:0,0:0:0:0:
280,244,57521,2,0,P|337:241|390:295,1,93.7500035762788,2|0,0:0|0:0,0:0:0:0:
472,355,57737,6,0,P|462:341|464:322,1,37.4999988555909,0|0,1:2|0:0,0:0:0:0:
373,157,57953,6,0,B|426:161|443:249|443:249|441:157|500:144,1,250,2|8,0:0|0:0,0:0:0:0:
300,78,58276,2,0,B|240:60|265:-11|332:-31|375:31|382:78|385:131|355:186,1,250,2|0,0:0|0:0,0:0:0:0:
167,176,58600,6,0,B|215:188|262:157|231:132|269:102|321:100|321:100|277:71|228:71|176:109|159:191,1,375,2|0,1:2|0:0,0:0:0:0:
0,348,59032,6,0,B|30:363|69:329|69:329|109:293|157:312|157:312|203:328|230:300,1,250,10|2,0:0|0:0,0:0:0:0:
356,373,59356,1,0,0:0:0:0:
356,373,59464,6,0,P|361:351|379:334,1,37.4999988555909,0|0,1:2|0:0,0:0:0:0:
448,205,59679,6,0,B|516:179|537:281|472:302|420:285|348:242|368:175,1,250,2|8,0:0|0:0,0:0:0:0:
245,225,60003,2,0,B|289:234|306:325|306:325|306:234|355:207,1,250,2|0,0:0|0:0,0:0:0:0:
281,35,60327,6,0,B|265:86|228:104|228:104|271:119|292:177|292:177|300:119|342:97|342:97|302:83|280:29,1,375,2|0,1:2|0:0,0:0:0:0:
409,156,60759,6,0,P|366:113|279:127,1,96.8750007390976,10|0,0:0|0:0,0:0:0:0:
278,60,60974,2,0,P|219:75|187:158,1,96.8750007390976,2|0,0:0|0:0,0:0:0:0:
38,18,61190,6,0,P|57:53|57:63,1,37.4999988555909,0|0,1:2|0:0,0:0:0:0:
15,168,61406,6,0,P|9:126|40:156,1,112.499996566773,2|0,0:0|0:0,0:0:0:0:
66,266,61622,2,0,P|30:297|39:250,1,125,10|0,0:0|0:0,0:0:0:0:
131,175,61838,2,0,P|184:190|137:217,1,137.500004196167,2|0,0:0|0:0,0:0:0:0:
0,367,62053,6,0,P|79:278|342:287,1,375,2|0,1:2|0:0,0:0:0:0:
239,351,62485,6,0,P|238:394|228:352,1,125,10|0,0:0|0:0,0:0:0:0:
202,232,62701,2,0,P|178:195|191:236,1,125,2|0,0:0|0:0,0:0:0:0:
432,331,62917,6,0,B|446:356|423:379|423:379|411:350|432:329,1,106.250002026558,4|0,1:2|0:0,0:0:0:0:
512,201,63133,6,0,P|490:233|398:247,1,125,2|0,0:0|0:0,0:0:0:0:
309,321,63348,1,8,0:0:0:0:
309,321,63456,6,0,P|270:317|212:245,1,125,2|0,0:0|0:0,0:0:0:0:
116,172,63672,5,2,0:0:0:0:
116,172,63780,2,0,B|133:179|140:214|140:214|136:178|154:161,1,106.250002026558,2|0,1:2|0:0,0:0:0:0:
257,87,63996,5,0,0:0:0:0:
257,87,64104,2,0,B|239:94|232:129|232:129|236:93|218:76,1,106.250002026558,2|8,0:0|0:0,0:0:0:0:
130,54,64320,1,0,0:0:0:0:
130,54,64428,6,0,P|186:51|210:-1,1,106.250002026558,2|0,0:0|0:0,0:0:0:0:
26,71,64643,6,0,P|54:113|52:183,1,112.499996566773,2|0,1:2|0:0,0:0:0:0:
152,140,64859,2,0,P|123:97|125:27,1,112.499996566773,2|0,0:0|0:0,0:0:0:0:
254,257,65075,6,0,P|237:300|244:254,1,137.500004196167,10|0,0:0|0:0,0:0:0:0:
254,151,65291,2,0,P|270:107|263:153,1,137.500004196167,2|0,0:0|0:0,0:0:0:0:
118,291,65507,6,0,B|148:277|186:312|186:312|225:349|273:332|273:332|320:318|346:346,1,250,2|0,1:2|0:0,0:0:0:0:
476,377,65830,1,0,0:0:0:0:
476,377,65938,6,0,P|431:331|444:243,1,125,10|0,0:0|0:0,0:0:0:0:
360,229,66154,2,0,P|369:166|452:133,1,125,2|0,0:0|0:0,0:0:0:0:
183,58,66370,6,0,B|197:44|191:8|191:8|200:42|227:53,1,106.250002026558,4|0,1:2|0:0,0:0:0:0:
72,116,66586,6,0,P|107:79|188:74,1,125,2|0,0:0|0:0,0:0:0:0:
225,178,66802,2,0,P|190:215|109:220,1,125,10|0,0:0|0:0,0:0:0:0:
61,126,67017,2,0,P|42:88|66:122,1,125,2|0,0:0|0:0,0:0:0:0:
121,246,67233,6,0,B|50:235|-9:265|-29:302|-8:365|56:360|91:315|47:269,1,250,2|0,1:2|0:0,0:0:0:0:
344,234,67557,2,0,B|391:270|344:347|266:330|252:282|276:232|240:205|162:236,1,250,2|0,0:0|0:0,0:0:0:0:
171,365,67881,2,0,B|195:337|177:290|177:290|153:316|167:343,1,125,2|0,0:0|0:0,0:0:0:0:
345,229,68097,6,0,B|383:218|408:252|408:252|377:247|346:286,1,131.249995994568,0|0,1:2|0:0,0:0:0:0:
266,111,68312,6,0,P|316:90|343:3,1,137.500004196167,2|0,0:0|0:0,0:0:0:0:
434,254,68528,2,0,P|391:220|302:240,1,137.500004196167,10|0,0:0|0:0,0:0:0:0:
472,37,68744,2,0,P|464:90|526:157,1,137.500004196167,2|0,0:0|0:0,0:0:0:0:
508,279,68960,5,10,0:0:0:0:
459,261,69067,1,8,0:0:0:0:
411,244,69175,1,8,0:0:0:0:
362,228,69283,1,8,0:0:0:0:
400,153,69392,5,10,0:0:0:0:
329,178,69499,1,8,0:0:0:0:
260,203,69607,1,10,0:0:0:0:
190,226,69715,1,8,0:0:0:0:
131,165,69823,6,0,B|113:138|148:93|210:105|221:145|216:260|110:271,1,250,6|0,1:2|0:0,0:0:0:0:
17,261,70147,2,0,P|113:265|217:374,1,250,2|0,0:0|0:0,0:0:0:0:
126,371,70471,6,0,P|88:369|54:312,1,87.499997329712,2|0,0:0|0:0,0:0:0:0:
245,212,70687,6,0,B|223:232|226:261|226:261|223:233|190:213,1,106.250002026558,2|0,1:2|0:0,0:0:0:0:
105,144,70902,2,0,B|126:164|123:193|123:193|126:165|159:145,1,112.499996566773,2|0,0:0|0:0,0:0:0:0:
177,44,71118,6,0,P|226:44|207:100,1,125,14|0,0:0|0:0,0:0:0:0:
62,80,71334,2,0,P|53:31|111:40,1,125,2|0,0:0|0:0,0:0:0:0:
301,20,71550,6,0,B|339:62|396:96|509:83|474:13|409:31|389:72,1,250,6|0,1:2|0:0,0:0:0:0:
287,146,71874,1,2,0:0:0:0:
287,146,71982,6,0,P|317:207|324:268,1,112.499996566773,10|0,0:0|0:0,0:0:0:0:
473,227,72197,2,0,P|443:288|436:349,1,112.499996566773,2|0,0:0|0:0,0:0:0:0:
281,368,72413,6,0,P|320:369|360:311,1,106.250002026558,2|0,1:2|0:0,0:0:0:0:
234,184,72629,2,0,P|212:260|204:331,1,106.250002026558,2|0,0:0|0:0,0:0:0:0:
68,363,72845,5,14,0:0:0:0:
79,373,72953,1,2,0:0:0:0:
92,379,73061,2,0,P|125:385|165:360,1,81.2499962806703,2|0,0:0|0:0,0:0:0:0:
70,192,73276,6,0,P|80:222|115:248,1,46.8750017881394,4|0,1:2|0:0,0:0:0:0:
34,311,73492,6,0,P|77:231|122:50,1,224.999993133545,10|2,0:0|1:2,0:0:0:0:
2,62,73816,1,8,0:0:0:0:
2,62,73924,2,0,B|22:63|37:102|37:102|32:60|78:28,1,112.499996566773,2|0,0:0|0:0,0:0:0:0:
276,68,74140,6,0,P|249:26|166:24,1,112.499996566773,6|0,1:2|0:0,0:0:0:0:
309,127,74356,2,0,P|358:124|402:53,1,112.499996566773,2|8,0:0|0:0,0:0:0:0:
512,27,74571,6,0,P|490:-6|501:32,1,112.499996566773,2|0,1:2|0:0,0:0:0:0:
387,80,74787,2,0,P|409:47|398:85,1,112.499996566773,10|0,0:0|0:0,0:0:0:0:
502,214,75003,6,0,P|451:168|391:181,1,125,2|0,1:2|0:0,0:0:0:0:
249,80,75219,2,0,P|314:101|333:159,1,125,14|0,0:0|0:0,0:0:0:0:
261,344,75435,6,0,B|241:313|254:288|266:310|292:284|290:245|290:245|349:309|267:362|257:358,1,250,2|2,0:0|0:0,0:0:0:0:
196,242,75759,1,0,0:0:0:0:
196,242,75866,6,0,P|150:201|42:244,1,125,10|0,2:3|0:0,0:0:0:0:
90,328,76082,6,0,B|93:395|1:384|-19:343|19:240|93:202|210:203|258:272|258:272|191:222|189:303|129:228|94:243|55:149|176:52,1,687.500020980836,2|0,0:0|0:0,0:0:0:0:
177,13,76765,5,6,1:2:0:0:
256,192,76868,12,0,77902,1:2:0:0:
191,18,78006,5,4,1:2:0:0:
366,80,78240,6,0,B|343:-44|534:-27|547:97|470:178|355:199|222:94|140:252|140:252|203:145|395:139|438:234|421:318|390:391|255:305|335:241,1,1049.99996795654,4|0,1:2|0:0,0:0:0:0:
394,225,79917,2,0,P|408:246|413:276,2,41.6666666666667,2|2|2,0:0|0:0|0:0,0:0:0:0:
