osu file format v14

[General]
AudioFilename: audio.mp3
AudioLeadIn: 0
PreviewTime: 42198
Countdown: 0
SampleSet: Soft
StackLeniency: 0.7
Mode: 0
LetterboxInBreaks: 0
WidescreenStoryboard: 1

[Editor]
DistanceSpacing: 1
BeatDivisor: 4
GridSize: 32
TimelineZoom: 1.5

[Metadata]
Title:Flyers (TV Size)
TitleUnicode:Flyers (TV Size)
Artist:BRADIO
ArtistUnicode:BRADIO
Creator:[-Evil-]
Version:-Magic-'s Normal
Source:デス・パレード
Tags:KaedeharaKazuha Addy2607 -Magic- -Lian- Lian2002 Ryxliee Crissa Funk Rock Pop J-Pop Jpop Power of Life Anime Opening OP Death Parade Japanese Takaaki Shingyoji Soichi Ohyama Ryosuke Sakai Yuki Tanabe 真行寺貴秋 大山聡一 酒井亮輔 田邊有希 HERO MUSIC ENTERTAINMENT J-Rock JRock
BeatmapID:3375609
BeatmapSetID:1649895

[Difficulty]
HPDrainRate:3.8
CircleSize:3.2
OverallDifficulty:4.8
ApproachRate:5.2
SliderMultiplier:1.22
SliderTickRate:1

[Events]
//Background and Video events
0,0,"72637689_p0_master1200.jpg",0,0
Video,600,"Flyers.mp4"
//Break Periods
//Storyboard Layer 0 (Background)
//Storyboard Layer 1 (Fail)
//Storyboard Layer 2 (Pass)
//Storyboard Layer 3 (Foreground)
//Storyboard Layer 4 (Overlay)
//Storyboard Sound Samples

[TimingPoints]
759,431.654676258993,4,2,2,65,1,0
759,-108.695652173913,4,2,2,65,0,0
2701,-108.695652173913,4,2,1,65,0,0
4212,-108.695652173913,4,2,2,65,0,0
7665,-98.0392156862745,4,2,2,65,0,0
14571,-98.0392156862745,4,2,1,50,0,0
28384,-98.0392156862745,4,2,1,55,0,0
31190,-98.0392156862745,4,2,1,50,0,0
35291,-98.0392156862745,4,2,1,55,0,0
38097,-98.0392156862745,4,2,1,60,0,0
42197,-89.2857142857143,4,2,3,75,0,1
42305,-89.2857142857143,4,2,2,75,0,1
69823,-98.0392156862745,4,2,1,65,0,0
76765,413.793103448276,4,2,1,65,1,0
78240,437.956204379562,4,2,1,65,1,0
78458,437.956204379562,4,2,1,55,1,0

[Colours]
Combo1 : 121,121,255
Combo2 : 255,128,192
Combo3 : 255,128,255
Combo4 : 255,128,128
Combo5 : 0,217,217

[HitObjects]
58,311,759,6,0,B|113:352|162:303|129:264|191:220|249:264,1,224.479992464356,6|0,1:2|0:0,0:0:0:0:
357,297,2053,1,4,1:2:0:0:
357,297,2269,2,0,B|311:220|366:160|396:191|453:110|401:38|401:38|403:89|356:125,1,392.839986812623,6|2,1:2|0:0,0:0:0:0:
276,45,4212,6,0,B|200:58|200:58|174:132|174:132|99:146,1,224.479992464356,6|0,1:2|0:0,0:0:0:0:
25,223,5507,2,0,B|17:253|17:253|33:278,1,56.1199981160889,4|4,1:2|1:2,0:0:0:0:
74,317,5938,1,2,0:0:0:0:
74,317,6154,2,0,L|204:300,1,112.239996232178,8|10,0:0|2:3,0:0:0:0:
268,227,7017,1,6,2:3:0:0:
268,227,7233,2,0,L|251:154,1,56.1199981160889,6|6,2:3|2:3,0:0:0:0:
278,114,7665,6,0,P|332:72|388:78,2,124.440000759521,6|0|0,1:2|1:2|1:2,0:0:0:0:
186,29,8960,1,0,1:2:0:0:
78,92,9392,2,0,P|60:39|87:-6,2,93.3300005696411,2|2|2,1:2|0:0|0:0,0:0:0:0:
122,136,10255,2,0,L|100:261,1,124.440000759521,2|2,1:2|1:2,0:0:0:0:
144,302,10902,1,2,0:0:0:0:
144,302,11118,2,0,P|207:325|258:292,2,124.440000759521,2|0|0,1:2|1:2|1:2,0:0:0:0:
202,192,12413,1,0,1:2:0:0:
305,123,12845,6,0,L|290:18,2,93.3300005696411,2|2|2,1:2|0:0|0:0,0:0:0:0:
349,167,13708,2,0,P|372:212|363:241,1,62.2200003797607,8|10,0:0|0:0,0:0:0:0:
327,266,14140,2,0,L|251:255,1,62.2200003797607,10|10,0:0|0:0,0:0:0:0:
223,300,14571,6,0,B|164:323|164:323|108:285,1,124.440000759521,6|10,1:2|0:0,0:0:0:0:
25,200,15435,2,0,L|41:118,1,62.2200003797607,2|2,1:2|0:0,0:0:0:0:
49,77,15866,1,10,0:0:0:0:
147,1,16298,2,0,P|215:-5|256:37,1,124.440000759521,2|10,1:2|0:0,0:0:0:0:
268,91,16946,2,0,L|248:235,1,124.440000759521,2|2,0:0|0:0,0:0:0:0:
244,276,17593,1,8,0:0:0:0:
338,357,18025,6,0,L|407:345,1,62.2200003797607,2|2,1:2|0:0,0:0:0:0:
455,318,18456,2,0,B|486:257|486:257|445:193,1,124.440000759521,10|2,0:0|1:2,0:0:0:0:
415,169,19104,1,2,0:0:0:0:
415,169,19320,1,10,0:0:0:0:
327,81,19751,2,0,B|289:91|289:91|255:72,1,62.2200003797607,2|2,1:2|0:0,0:0:0:0:
224,35,20183,2,0,B|189:22|189:22|153:35,1,62.2200003797607,10|2,0:0|0:0,0:0:0:0:
121,74,20615,1,2,1:2:0:0:
33,161,21046,2,0,B|25:197|25:197|41:225,1,62.2200003797607,8|2,0:0|0:0,0:0:0:0:
81,263,21478,6,0,L|215:242,1,124.440000759521,2|10,1:2|0:0,0:0:0:0:
247,199,22125,1,2,0:0:0:0:
247,199,22341,2,0,B|260:166|260:166|242:134,1,62.2200003797607,2|2,1:2|0:0,0:0:0:0:
210,91,22773,1,10,0:0:0:0:
306,12,23205,2,0,L|390:23,1,62.2200003797607,2|2,1:2|0:0,0:0:0:0:
432,36,23636,1,10,0:0:0:0:
432,36,23852,2,0,P|462:91|433:157,1,124.440000759521,2|2,0:0|0:0,0:0:0:0:
397,188,24500,1,8,0:0:0:0:
308,270,24931,6,0,P|275:287|240:277,1,62.2200003797607,2|2,1:2|0:0,0:0:0:0:
192,261,25363,2,0,P|161:241|153:205,1,62.2200003797607,10|2,0:0|0:0,0:0:0:0:
144,157,25794,2,0,P|146:120|172:95,1,62.2200003797607,2|2,1:2|0:0,0:0:0:0:
202,52,26226,1,10,0:0:0:0:
290,140,26658,2,0,L|283:213,1,62.2200003797607,2|2,1:2|0:0,0:0:0:0:
328,245,27089,2,0,P|337:279|323:305,1,62.2200003797607,10|2,0:0|0:0,0:0:0:0:
281,346,27521,1,2,1:2:0:0:
164,302,27953,1,10,0:0:0:0:
64,227,28384,6,0,B|38:189|62:156|79:171|99:136|79:93,2,124.440000759521,6|10|2,1:2|0:0|1:2,0:0:0:0:
153,314,29679,2,0,P|198:321|225:303,1,62.2200003797607,10|2,0:0|0:0,0:0:0:0:
246,262,30111,2,0,B|226:128,1,124.440000759521,2|10,1:2|0:0,0:0:0:0:
215,77,30759,1,2,0:0:0:0:
321,10,31190,1,2,0:0:0:0:
321,10,31406,2,0,L|392:16,1,62.2200003797607,10|2,0:0|0:0,0:0:0:0:
436,47,31838,6,0,P|472:107|437:168,1,124.440000759521,2|10,1:2|0:0,0:0:0:0:
413,200,32485,1,2,0:0:0:0:
344,304,32917,1,2,0:0:0:0:
344,304,33133,2,0,L|279:294,1,62.2200003797607,10|2,0:0|0:0,0:0:0:0:
238,338,33564,2,0,P|184:367|122:339,1,124.440000759521,2|10,1:2|0:0,0:0:0:0:
83,302,34212,2,0,P|60:236|101:180,1,124.440000759521,2|2,0:0|0:0,0:0:0:0:
134,154,34859,1,8,0:0:0:0:
222,65,35291,6,0,L|351:92,2,124.440000759521,2|10|2,1:2|0:0|1:2,0:0:0:0:
99,43,36586,2,0,L|115:128,1,62.2200003797607,10|2,0:0|0:0,0:0:0:0:
66,148,37017,2,0,P|39:208|87:271,1,124.440000759521,2|10,1:2|0:0,0:0:0:0:
107,301,37665,1,2,0:0:0:0:
217,370,38097,1,2,0:0:0:0:
217,370,38312,2,0,P|262:376|293:349,1,62.2200003797607,10|2,0:0|0:0,0:0:0:0:
319,324,38744,2,0,P|359:313|394:337,1,62.2200003797607,2|2,1:2|0:0,0:0:0:0:
421,364,39176,6,0,L|434:233,1,124.440000759521,10|0,0:0|1:2,0:0:0:0:
509,141,40039,2,0,P|518:108|501:75,1,62.2200003797607,10|2,0:0|0:0,0:0:0:0:
463,38,40471,2,0,L|395:47,1,62.2200003797607,2|2,1:2|0:0,0:0:0:0:
339,53,40902,1,10,0:0:0:0:
254,144,41334,2,0,P|223:154|183:131,1,62.2200003797607,8|10,0:0|0:0,0:0:0:0:
151,100,41766,2,0,P|118:87|84:102,1,62.2200003797607,8|8,0:0|0:0,0:0:0:0:
45,142,42197,6,0,L|65:282,1,136.640001667969,6|8,1:2|0:0,0:0:0:0:
188,334,43061,2,0,L|265:318,1,68.3200008339844,2|0,1:2|0:0,0:0:0:0:
303,368,43492,2,0,P|350:371|374:348,1,68.3200008339844,10|2,0:0|0:0,0:0:0:0:
414,311,43924,2,0,P|435:246|386:183,1,136.640001667969,0|8,1:2|0:0,0:0:0:0:
390,55,44787,2,0,P|364:34|327:35,1,68.3200008339844,2|0,1:2|0:0,0:0:0:0:
281,82,45219,2,0,P|248:101|218:95,1,68.3200008339844,10|2,0:0|0:0,0:0:0:0:
171,47,45651,6,0,L|196:197,1,136.640001667969,0|8,1:2|0:0,0:0:0:0:
263,204,46298,1,2,0:0:0:0:
263,204,46514,2,0,P|287:260|243:329,1,136.640001667969,2|10,1:2|0:0,0:0:0:0:
123,363,47377,2,0,P|80:367|54:348,1,68.3200008339844,0|2,1:2|0:0,0:0:0:0:
11,306,47809,2,0,P|5:270|22:237,1,68.3200008339844,10|2,0:0|0:0,0:0:0:0:
66,193,48241,2,0,L|202:210,1,136.640001667969,2|10,1:2|0:0,0:0:0:0:
249,258,48888,1,2,0:0:0:0:
297,306,49104,6,0,P|374:325|429:280,1,136.640001667969,4|8,1:2|0:0,0:0:0:0:
499,185,49967,2,0,P|509:148|494:117,1,68.3200008339844,2|0,1:2|0:0,0:0:0:0:
465,60,50399,1,8,0:0:0:0:
331,89,50830,2,0,P|288:95|254:75,1,68.3200008339844,2|2,1:2|0:0,0:0:0:0:
223,31,51262,2,0,P|185:22|150:40,1,68.3200008339844,10|2,0:0|0:0,0:0:0:0:
115,85,51694,2,0,L|138:227,1,136.640001667969,2|10,1:2|0:0,0:0:0:0:
154,285,52341,1,2,0:0:0:0:
276,357,52773,5,2,0:0:0:0:
276,357,52989,2,0,P|314:364|350:336,1,68.3200008339844,10|2,0:0|0:0,0:0:0:0:
387,302,53420,2,0,L|361:160,1,136.640001667969,2|8,1:2|0:0,0:0:0:0:
350,100,54068,1,2,0:0:0:0:
252,2,54500,1,2,0:0:0:0:
252,2,54715,2,0,P|177:2|143:56,1,136.640001667969,14|10,0:0|0:0,0:0:0:0:
95,96,55363,1,8,0:0:0:0:
95,96,55579,2,0,P|74:144|93:169,1,68.3200008339844,10|10,0:0|0:0,0:0:0:0:
127,203,56010,6,0,L|274:184,1,136.640001667969,4|8,1:2|0:0,0:0:0:0:
399,197,56874,2,0,P|407:245|393:269,1,68.3200008339844,2|0,1:2|0:0,0:0:0:0:
367,321,57305,2,0,L|293:306,1,68.3200008339844,10|2,0:0|0:0,0:0:0:0:
251,355,57737,2,0,B|150:338|150:338|102:377,1,136.640001667969,0|8,1:2|0:0,0:0:0:0:
26,262,58600,2,0,P|16:227|39:188,1,68.3200008339844,2|0,1:2|0:0,0:0:0:0:
76,149,59032,2,0,P|89:107|73:73,1,68.3200008339844,10|2,0:0|0:0,0:0:0:0:
33,36,59464,6,0,L|175:23,1,136.640001667969,0|8,1:2|0:0,0:0:0:0:
238,48,60111,1,2,0:0:0:0:
238,48,60327,2,0,B|265:110|265:110|221:181,1,136.640001667969,2|10,1:2|0:0,0:0:0:0:
262,301,61190,2,0,L|338:292,1,68.3200008339844,0|2,1:2|0:0,0:0:0:0:
378,341,61622,2,0,B|411:357|411:357|449:337,1,68.3200008339844,10|2,0:0|0:0,0:0:0:0:
487,293,62053,2,0,L|469:148,1,136.640001667969,2|10,1:2|0:0,0:0:0:0:
461,89,62701,1,2,0:0:0:0:
412,40,62917,6,0,P|363:15|287:49,1,136.640001667969,4|8,1:2|0:0,0:0:0:0:
245,172,63780,2,0,P|209:187|171:168,1,68.3200008339844,2|0,1:2|0:0,0:0:0:0:
127,137,64212,1,8,0:0:0:0:
0,86,64643,2,0,P|-1:61|32:26,1,68.3200008339844,2|2,1:2|0:0,0:0:0:0:
88,1,65075,2,0,P|113:0|148:33,1,68.3200008339844,10|2,0:0|0:0,0:0:0:0:
181,84,65507,2,0,L|161:221,1,136.640001667969,2|10,1:2|0:0,0:0:0:0:
151,286,66154,1,2,0:0:0:0:
279,346,66586,5,2,0:0:0:0:
279,346,66802,2,0,L|352:335,1,68.3200008339844,10|2,0:0|0:0,0:0:0:0:
405,301,67233,2,0,P|427:244|386:180,1,136.640001667969,2|8,1:2|0:0,0:0:0:0:
340,136,67881,1,2,0:0:0:0:
226,71,68312,1,2,0:0:0:0:
226,71,68528,1,10,0:0:0:0:
148,183,68960,2,0,P|121:163|72:172,1,68.3200008339844,10|8,0:0|0:0,0:0:0:0:
26,194,69392,2,0,P|6:221|15:270,1,68.3200008339844,10|10,0:0|0:0,0:0:0:0:
50,298,69823,6,0,B|177:278,1,124.440000759521,6|8,1:2|0:0,0:0:0:0:
287,329,70687,2,0,L|352:317,1,62.2200003797607,2|2,1:2|0:0,0:0:0:0:
398,354,71118,2,0,P|450:347|466:324,1,62.2200003797607,14|2,0:0|0:0,0:0:0:0:
493,292,71550,6,0,L|466:164,1,124.440000759521,6|10,1:2|0:0,0:0:0:0:
414,57,72413,2,0,P|373:52|344:73,1,62.2200003797607,2|2,1:2|0:0,0:0:0:0:
307,101,72845,1,14,0:0:0:0:
260,216,73276,6,0,P|207:241|143:210,1,124.440000759521,4|2,1:2|1:2,0:0:0:0:
24,206,74140,2,0,L|34:130,1,62.2200003797607,6|2,1:2|0:0,0:0:0:0:
3,89,74571,2,0,P|-4:44|16:17,1,62.2200003797607,2|10,1:2|0:0,0:0:0:0:
58,1,75003,6,0,L|198:24,1,124.440000759521,2|2,1:2|0:0,0:0:0:0:
266,118,75866,1,10,2:3:0:0:
266,118,76082,2,0,P|288:180|251:239,1,124.440000759521,2|4,0:0|3:0,0:0:0:0:
261,295,76765,6,0,B|194:332|137:273|174:242|108:181|47:239,1,244,6|0,1:2|0:0,0:0:0:0:
8,126,78006,1,6,1:2:0:0:
8,126,78240,6,0,B|95:153|137:74|111:50|94:45|147:-97|319:-73|391:63|264:165|202:79,1,508.333333333333,6|2,1:2|0:0,0:0:0:0:
