osu file format v14

[General]
AudioFilename: audio.mp3
AudioLeadIn: 0
PreviewTime: 41650
Countdown: 0
SampleSet: Normal
StackLeniency: 0.7
Mode: 2
LetterboxInBreaks: 0
WidescreenStoryboard: 0

[Editor]
DistanceSpacing: 1
BeatDivisor: 4
GridSize: 16
TimelineZoom: 1

[Metadata]
Title:Flyers
TitleUnicode:Flyers
Artist:BRADIO
ArtistUnicode:BRADIO
Creator:Ascendance
Version:Salad
Source:デス・パレード
Tags:opening tv size version billiards darts poker Takaaki Shingyoji Soichi Ohyama Ryosuke Sakai Yuki Tanabe madhouse death parade
BeatmapID:967040
BeatmapSetID:446968

[Difficulty]
HPDrainRate:4
CircleSize:3
OverallDifficulty:7
ApproachRate:7
SliderMultiplier:1.96
SliderTickRate:1

[Events]
//Background and Video events
0,0,"cropped-1366-768-676635.png",0,0
//Break Periods
//Storyboard Layer 0 (Background)
//Storyboard Layer 1 (Fail)
//Storyboard Layer 2 (Pass)
//Storyboard Layer 3 (Foreground)
//Storyboard Sound Samples

[TimingPoints]
320,431.654676258993,4,1,1,60,1,0
751,-100,4,2,1,60,0,0
1614,-100,4,1,1,60,0,0
2262,-100,4,2,1,60,0,0
3773,-100,4,1,1,60,0,0
4204,-100,4,2,1,60,0,0
4852,-100,4,1,1,60,0,0
5607,-100,4,3,1,60,0,0
7226,-100,4,1,1,60,0,0
12514,-100,4,3,1,60,0,0
14132,-100,4,1,1,60,0,0
28269,-100,4,2,1,60,0,0
28377,-100,4,1,1,60,0,0
28701,-100,4,2,1,60,0,0
28809,-100,4,1,1,60,0,0
29132,-100,4,2,1,60,0,0
29240,-100,4,1,1,60,0,0
35176,-100,4,2,1,60,0,0
35284,-100,4,1,1,60,0,0
35607,-100,4,2,1,60,0,0
35715,-100,4,1,1,60,0,0
36039,-100,4,2,1,60,0,0
36147,-100,4,1,1,60,0,0
41003,-100,4,3,1,60,0,0
41327,-100,4,1,1,60,0,0
41435,-100,4,3,1,60,0,0
41758,-100,4,1,1,60,0,1
54600,-100,4,3,1,60,0,1
55140,-100,4,1,1,60,0,1
55248,-100,4,3,1,60,0,1
55571,-100,4,1,1,60,0,1
68629,-100,4,3,1,60,0,1
68953,-100,4,1,1,60,0,1
69061,-100,4,3,1,60,0,1
69384,-100,4,1,1,60,0,0
76830,-100,4,2,1,60,0,0
77586,-100,4,1,1,60,0,0
78233,-100,4,1,1,20,0,0

[Colours]
Combo1 : 112,127,229
Combo2 : 246,242,172
Combo3 : 61,242,172
Combo4 : 174,88,201

[HitObjects]
160,368,320,6,0,P|48:224|384:160,2,686,4|4|0,0:0|0:0|0:0,0:0:0:0:
304,368,3773,6,0,P|448:272|224:32,1,588,4|0,0:0|0:0,0:0:0:0:
64,32,5499,1,4,0:0:0:0:
195,34,5823,1,0,0:0:0:0:
464,32,6147,1,0,0:0:0:0:
336,32,6471,1,8,0:0:0:0:
80,32,6794,1,0,0:0:0:0:
224,32,7226,6,0,L|448:32,2,196,4|8|0,0:0|0:0|0:0,0:0:0:0:
16,32,8521,1,8,0:0:0:0:
192,32,8953,6,0,L|352:32,2,147
288,128,9816,2,0,L|400:128,1,98
304,224,10248,2,0,L|192:224,1,98,8|0,0:0|0:0,0:0:0:0:
16,224,10679,5,4,0:0:0:0:
128,224,11111,1,8,0:0:0:0:
240,224,11543,1,0,0:0:0:0:
352,224,11974,1,8,0:0:0:0:
32,144,12406,5,4,0:0:0:0:
176,144,12730,1,4,0:0:0:0:
384,160,13053,1,0,0:0:0:0:
480,160,13377,1,0,0:0:0:0:
352,160,13701,2,0,L|320:80,2,49
240,160,14132,6,0,L|448:160,1,196,4|8,0:0|0:0,0:0:0:0:
352,160,14780,2,0,L|240:160,1,98
352,256,15212,1,0,0:0:0:0:
240,256,15427,2,0,L|128:256,1,98,8|0,0:0|0:0,0:0:0:0:
240,208,15859,6,0,L|352:208,2,98,0|0|8,0:0|0:0|0:0,0:0:0:0:
128,208,16507,2,0,P|80:176|144:80,1,196
224,80,17154,1,8,0:0:0:0:
512,80,17586,6,0,L|448:192,1,98,4|0,0:0|0:0,0:0:0:0:
320,208,18017,2,0,L|416:304,1,98,8|0,0:0|0:0,0:0:0:0:
288,272,18449,1,0,0:0:0:0:
384,272,18665,2,0,L|496:256,2,98,0|8|0,0:0|0:0|0:0,0:0:0:0:
256,272,19312,5,0,0:0:0:0:
144,272,19528,1,0,0:0:0:0:
32,272,19744,1,8,0:0:0:0:
144,272,19960,2,0,L|256:272,1,98
416,272,20607,1,8,0:0:0:0:
192,272,21039,6,0,L|80:272,1,98,4|0,0:0|0:0,0:0:0:0:
192,288,21471,1,8,0:0:0:0:
288,288,21686,2,0,L|400:288,2,98
160,288,22334,1,8,0:0:0:0:
60,216,22550,6,0,P|40:156|64:112,1,98
192,224,22981,2,0,L|80:224,1,98,0|8,0:0|0:0,0:0:0:0:
288,224,23413,2,0,P|352:176|288:80,1,196
176,80,24061,1,8,0:0:0:0:
96,144,24492,6,0,L|224:144,1,98,4|0,0:0|0:0,0:0:0:0:
304,144,24924,2,0,L|432:144,1,98,8|0,0:0|0:0,0:0:0:0:
304,144,25355,2,0,L|192:144,1,98
80,144,25787,2,0,L|208:144,1,98,8|0,0:0|0:0,0:0:0:0:
304,32,26219,5,0,0:0:0:0:
352,128,26435,1,0,0:0:0:0:
336,240,26650,1,8,0:0:0:0:
256,320,26866,1,0,0:0:0:0:
144,320,27082,2,0,L|32:320,1,98
176,256,27514,2,0,L|192:192,2,49
272,208,27945,6,0,L|384:208,1,98,4|0,0:0|0:0,0:0:0:0:
272,208,28377,1,8,0:0:0:0:
416,192,28809,2,0,L|192:192,1,196,0|8,0:0|0:0,0:0:0:0:
112,192,29456,1,0,0:0:0:0:
288,192,29672,6,0,P|336:144|272:48,1,196,0|8,0:0|0:0,0:0:0:0:
160,192,30320,2,0,P|96:144|160:64,1,196
256,64,30967,2,0,L|144:64,1,98,8|0,0:0|0:0,0:0:0:0:
336,64,31399,6,0,P|352:144|240:224,2,196,4|8|0,0:0|0:0|0:0,0:0:0:0:
160,64,32694,1,8,0:0:0:0:
368,64,33125,6,0,P|400:144|320:240,2,196,0|8|0,0:0|0:0|0:0,0:0:0:0:
208,64,34420,1,8,0:0:0:0:
320,64,34852,6,0,L|464:64,1,98,4|0,0:0|0:0,0:0:0:0:
512,64,35284,1,8,0:0:0:0:
287,63,35715,2,0,P|223:143|304:208,1,196,0|8,0:0|0:0,0:0:0:0:
400,208,36363,1,0,0:0:0:0:
291,211,36578,6,0,L|80:208,1,196,0|8,0:0|0:0,0:0:0:0:
176,208,37226,2,0,P|240:176|160:112,1,196
48,96,37873,2,0,L|160:96,1,98,8|0,0:0|0:0,0:0:0:0:
352,96,38305,5,4,0:0:0:0:
448,96,38521,2,0,L|496:96,2,49,0|0|8,0:0|0:0|0:0,0:0:0:0:
340,96,38953,2,0,L|448:96,2,98
254,96,39600,2,0,L|144:96,1,98,8|0,0:0|0:0,0:0:0:0:
16,96,40032,6,0,L|160:96,2,98,4|0|8,0:0|0:0|0:0,0:0:0:0:
128,160,40679,1,0,0:0:0:0:
320,192,40895,2,0,L|384:192,2,49
192,192,41327,2,0,L|128:192,2,49
369,192,41758,5,0,0:0:0:0:
224,304,41974,2,0,L|48:304,1,147
224,80,42622,2,0,P|256:160|176:224,1,196,0|8,0:0|0:0,0:0:0:0:
64,224,43269,1,0,0:0:0:0:
163,224,43485,5,0,0:0:0:0:
336,224,43701,2,0,L|496:224,1,147
336,224,44348,2,0,L|128:224,2,196,0|8|0,0:0|0:0|0:0,0:0:0:0:
432,224,45427,6,0,L|240:224,1,147
112,224,46075,2,0,P|64:192|128:96,1,196,0|8,0:0|0:0,0:0:0:0:
208,112,46722,1,0,0:0:0:0:
400,224,47154,6,0,L|512:224,2,98,0|8|0,0:0|0:0|0:0,0:0:0:0:
192,224,47802,2,0,L|400:224,1,196,0|8,0:0|0:0,0:0:0:0:
496,224,48449,1,0,0:0:0:0:
272,224,48665,5,0,0:0:0:0:
368,160,48881,1,0,0:0:0:0:
240,160,49204,1,0,0:0:0:0:
112,160,49528,1,0,0:0:0:0:
224,160,49852,1,0,0:0:0:0:
416,160,50176,1,0,0:0:0:0:
324,160,50391,6,0,L|212:160,1,98
112,160,50823,2,0,L|224:160,1,98,8|0,0:0|0:0,0:0:0:0:
384,160,51255,2,0,P|464:192|480:304,1,196,0|8,0:0|0:0,0:0:0:0:
368,288,51902,1,0,0:0:0:0:
256,160,52118,5,0,0:0:0:0:
144,160,52334,2,0,L|32:160,2,98,0|8|0,0:0|0:0|0:0,0:0:0:0:
320,160,52981,2,0,L|128:160,2,147
416,160,53845,5,0,0:0:0:0:
320,160,54061,2,0,L|208:160,2,98,0|8|0,0:0|0:0|0:0,0:0:0:0:
144,272,54708,2,0,L|80:272,2,49
272,240,55140,1,0,0:0:0:0:
208,208,55248,1,0,0:0:0:0:
144,176,55355,1,0,0:0:0:0:
240,64,55571,5,4,0:0:0:0:
352,64,55787,2,0,L|512:64,1,147
224,128,56435,2,0,P|192:208|288:288,1,196,0|8,0:0|0:0,0:0:0:0:
336,288,57298,5,0,0:0:0:0:
208,288,57514,2,0,L|32:288,1,147
304,112,58161,2,0,P|336:192|256:272,1,196,0|8,0:0|0:0,0:0:0:0:
164,292,58809,6,0,L|464:304,1,294,0|8,0:0|0:0,0:0:0:0:
320,288,59672,1,0,0:0:0:0:
400,208,59888,2,0,L|192:208,1,196,0|8,0:0|0:0,0:0:0:0:
288,208,60535,6,0,P|80:208|64:272,1,294,0|8,0:0|0:0,0:0:0:0:
176,272,61399,1,0,0:0:0:0:
64,272,61614,2,0,L|304:272,1,196,0|8,0:0|0:0,0:0:0:0:
388,272,62478,6,0,L|288:272,1,98
144,272,63017,1,0,0:0:0:0:
304,272,63341,1,0,0:0:0:0:
112,272,63665,1,0,0:0:0:0:
240,272,63989,1,0,0:0:0:0:
448,272,64204,5,0,0:0:0:0:
320,272,64420,2,0,L|192:272,2,98,0|8|0,0:0|0:0|0:0,0:0:0:0:
432,272,65068,2,0,L|224:272,2,196,0|8|4,0:0|0:0|0:0,0:0:0:0:
336,272,66147,6,0,L|224:272,2,98,0|8|0,0:0|0:0|0:0,0:0:0:0:
228,272,66794,2,0,L|48:272,2,147
320,272,67658,1,0,0:0:0:0:
224,272,67873,6,0,L|80:272,2,98,0|8|0,0:0|0:0|0:0,0:0:0:0:
352,232,68521,2,0,L|416:240,2,49
272,240,68953,1,0,0:0:0:0:
240,240,69061,1,0,0:0:0:0:
208,240,69168,1,0,0:0:0:0:
80,80,69384,6,0,P|0:160|112:256,1,294,4|0,0:0|0:0,0:0:0:0:
256,256,70248,2,0,L|464:256,1,196
365,259,70895,1,0,0:0:0:0:
480,48,71111,6,0,P|496:208|368:256,1,294,4|0,0:0|0:0,0:0:0:0:
256,272,71974,2,0,P|145:266|80:176,1,196
320,208,72837,5,0,0:0:0:0:
400,128,73053,1,0,0:0:0:0:
352,32,73269,1,8,0:0:0:0:
240,16,73485,1,0,0:0:0:0:
112,48,73701,6,0,L|96:144,1,98,4|0,0:0|0:0,0:0:0:0:
208,224,74132,2,0,L|80:256,1,98,8|0,0:0|0:0,0:0:0:0:
288,256,74564,6,0,L|432:256,1,98,4|0,0:0|0:0,0:0:0:0:
256,144,74996,2,0,L|144:144,1,98,8|0,0:0|0:0,0:0:0:0:
304,80,75427,1,0,0:0:0:0:
208,68,75643,2,0,L|80:64,2,98
384,80,76291,6,0,P|496:208|336:320,1,392,4|0,0:0|0:0,0:0:0:0:
176,320,77586,1,8,0:0:0:0:
384,272,77802,2,0,P|404:120|288:48,1,294,4|0,0:0|0:0,0:0:0:0:
