osu file format v14

[General]
AudioFilename: audio.mp3
AudioLeadIn: 0
PreviewTime: -1
Countdown: 0
SampleSet: None
StackLeniency: 0.7
Mode: 3
LetterboxInBreaks: 0
SpecialStyle: 0
WidescreenStoryboard: 0

[Editor]
DistanceSpacing: 1.2
BeatDivisor: 4
GridSize: 4
TimelineZoom: 1

[Metadata]
Title:SCIERNISCO
TitleUnicode:SCIERNISCO
Artist:BRACIA PIERDOLEC
ArtistUnicode:BRACIA PIERDOLEC
Creator:Bass
Version:sadasdasd
Source:
Tags:
BeatmapID:1482670
BeatmapSetID:700346

[Difficulty]
HPDrainRate:8
CircleSize:4
OverallDifficulty:8
ApproachRate:5
SliderMultiplier:1.4
SliderTickRate:1

[Events]
//Background and Video events
0,0,"15bd3b9caf3dde933dbc4cac5cfa2354_fb.jpg",0,0
//Break Periods
//Storyboard Layer 0 (Background)
//Storyboard Layer 1 (Fail)
//Storyboard Layer 2 (Pass)
//Storyboard Layer 3 (Foreground)
//Storyboard Sound Samples
Sample,6401,0,"D#4S_Eb4S_s.wav",51
Sample,6401,0,"C3S_s.wav",93
Sample,6401,0,"C5S_s.wav",68
Sample,6401,0,"C3S_s.wav",88
Sample,6401,0,"F#4S_Gb4S_s.wav",84
Sample,6401,0,"C4S_s.wav",96
Sample,6601,0,"D#4S_Eb4S_s.wav",100
Sample,6601,0,"C3S_s.wav",100
Sample,6601,0,"C4S_s.wav",89
Sample,6601,0,"E3S_s.wav",84
Sample,7001,0,"D#4S_Eb4S_s.wav",100
Sample,7001,0,"C3S_s.wav",86
Sample,7001,0,"E3S_s.wav",40
Sample,7001,0,"C3S_s.wav",74
Sample,7201,0,"C3S_s.wav",88
Sample,7201,0,"C3S_s.wav",91
Sample,7201,0,"C4S_s.wav",100
Sample,7401,0,"C4S_s.wav",92
Sample,7401,0,"D#4S_Eb4S_s.wav",100
Sample,7401,0,"E3S_s.wav",84
Sample,7401,0,"C5S_s.wav",66
Sample,7601,0,"C3S_s.wav",73
Sample,7801,0,"C3S_s.wav",73
Sample,7801,0,"C3S_s.wav",86
Sample,8001,0,"G#3S_Ab3S_s.wav",94
Sample,8001,0,"C3S_s.wav",88
Sample,8001,0,"G#3S_Ab3S_s.wav",91
Sample,8201,0,"G#3S_Ab3S_s.wav",81
Sample,8201,0,"G#3S_Ab3S_s.wav",100
Sample,8201,0,"E3S_s.wav",84
Sample,8601,0,"E3S_s.wav",40
Sample,8601,0,"C3S_s.wav",74
Sample,8801,0,"C3S_s.wav",88
Sample,9001,0,"E3S_s.wav",84
Sample,9001,0,"F3S_s.wav",85
Sample,9363,0,"G#4S_Ab4S_s.wav",74
Sample,9401,0,"E3S_s.wav",40
Sample,9401,0,"C3S_s.wav",73
Sample,9601,0,"F#4S_Gb4S_s.wav",84
Sample,9601,0,"C3S_s.wav",88
Sample,9601,0,"D#4S_Eb4S_s.wav",51
Sample,9601,0,"G3S_s.wav",98
Sample,9801,0,"D#4S_Eb4S_s.wav",100
Sample,9801,0,"E3S_s.wav",84
Sample,9801,0,"G3S_s.wav",100
Sample,9801,0,"G3S_s.wav",99
Sample,9801,0,"F#4S_Gb4S_s.wav",84
Sample,10001,0,"C3S_s.wav",74
Sample,10201,0,"E3S_s.wav",40
Sample,10201,0,"C3S_s.wav",74
Sample,10401,0,"C3S_s.wav",88
Sample,10576,0,"D5S_s.wav",78
Sample,10601,0,"G3S_s.wav",94
Sample,10601,0,"E3S_s.wav",84
Sample,10963,0,"B4S_s.wav",78
Sample,11001,0,"C3S_s.wav",73
Sample,11001,0,"E3S_s.wav",40
Sample,11201,0,"C3S_s.wav",88
Sample,11201,0,"F#4S_Gb4S_s.wav",84
Sample,11201,0,"D#4S_Eb4S_s.wav",51
Sample,11201,0,"B5S_s.wav",95
Sample,11201,0,"G3S_s.wav",97
Sample,11301,0,"F#4S_Gb4S_s.wav",28
Sample,11376,0,"D5S_s.wav",77
Sample,11401,0,"D#4S_Eb4S_s.wav",100
Sample,11401,0,"E3S_s.wav",84
Sample,11401,0,"G3S_s.wav",100
Sample,11401,0,"G3S_s.wav",98
Sample,11401,0,"F#4S_Gb4S_s.wav",30
Sample,11501,0,"F#4S_Gb4S_s.wav",33
Sample,11601,0,"D#4S_Eb4S_s.wav",51
Sample,11601,0,"C3S_s.wav",74
Sample,11601,0,"F#4S_Gb4S_s.wav",35
Sample,11701,0,"C3S_s.wav",74
Sample,11784,0,"D5S_s.wav",74
Sample,11801,0,"E3S_s.wav",84
Sample,11801,0,"G3S_s.wav",86
Sample,11801,0,"C3S_s.wav",74
Sample,11801,0,"D#4S_Eb4S_s.wav",100
Sample,11997,0,"D5S_s.wav",74
Sample,12001,0,"G3S_s.wav",94
Sample,12001,0,"C3S_s.wav",88
Sample,12001,0,"D#4S_Eb4S_s.wav",45
Sample,12201,0,"G3S_s.wav",98
Sample,12201,0,"G3S_s.wav",100
Sample,12201,0,"E3S_s.wav",84
Sample,12201,0,"D#4S_Eb4S_s.wav",100
Sample,12401,0,"C3S_s.wav",73
Sample,12401,0,"D#4S_Eb4S_s.wav",45
Sample,12501,0,"C3S_s.wav",73
Sample,12601,0,"E3S_s.wav",40
Sample,12601,0,"C3S_s.wav",73
Sample,12601,0,"D#4S_Eb4S_s.wav",100
Sample,12801,0,"C3S_s.wav",93
Sample,12801,0,"D#4S_Eb4S_s.wav",51
Sample,12801,0,"C4S_s.wav",97
Sample,12801,0,"F#4S_Gb4S_s.wav",84
Sample,12801,0,"C3S_s.wav",88
Sample,12801,0,"C5S_s.wav",68
Sample,13001,0,"E3S_s.wav",84
Sample,13001,0,"C4S_s.wav",100
Sample,13001,0,"C3S_s.wav",100
Sample,13001,0,"D#4S_Eb4S_s.wav",100
Sample,13401,0,"C3S_s.wav",74
Sample,13401,0,"E3S_s.wav",40
Sample,13401,0,"C3S_s.wav",86
Sample,13601,0,"C3S_s.wav",88
Sample,13601,0,"C3S_s.wav",91
Sample,13601,0,"C4S_s.wav",99
Sample,13622,0,"G4S_s.wav",74
Sample,13801,0,"C4S_s.wav",100
Sample,13801,0,"E3S_s.wav",84
Sample,13801,0,"D#4S_Eb4S_s.wav",100
Sample,14201,0,"C3S_s.wav",86
Sample,14201,0,"C3S_s.wav",73
Sample,14401,0,"G#3S_Ab3S_s.wav",92
Sample,14401,0,"G#3S_Ab3S_s.wav",91
Sample,14401,0,"C3S_s.wav",88
Sample,14401,0,"D#4S_Eb4S_s.wav",51
Sample,14601,0,"G#3S_Ab3S_s.wav",87
Sample,14601,0,"G#3S_Ab3S_s.wav",100
Sample,14601,0,"E3S_s.wav",84
Sample,15001,0,"E3S_s.wav",84
Sample,15001,0,"C3S_s.wav",74
Sample,15201,0,"C3S_s.wav",88
Sample,15401,0,"F3S_s.wav",93
Sample,15401,0,"F3S_s.wav",100
Sample,15401,0,"E3S_s.wav",84
Sample,15763,0,"G#4S_Ab4S_s.wav",74
Sample,15801,0,"C3S_s.wav",73
Sample,15801,0,"E3S_s.wav",40
Sample,16001,0,"G3S_s.wav",100
Sample,16001,0,"D#4S_Eb4S_s.wav",51
Sample,16001,0,"C3S_s.wav",88
Sample,16001,0,"F#4S_Gb4S_s.wav",84
Sample,16201,0,"E3S_s.wav",84
Sample,16201,0,"D#4S_Eb4S_s.wav",100
Sample,16201,0,"G3S_s.wav",100
Sample,16201,0,"F#4S_Gb4S_s.wav",84
Sample,16201,0,"G3S_s.wav",97
Sample,16401,0,"C3S_s.wav",74
Sample,16601,0,"C3S_s.wav",74
Sample,16601,0,"E3S_s.wav",40
Sample,16801,0,"C3S_s.wav",88
Sample,16976,0,"D5S_s.wav",78
Sample,17001,0,"E3S_s.wav",84
Sample,17001,0,"G3S_s.wav",96
Sample,17363,0,"B4S_s.wav",78
Sample,17401,0,"E3S_s.wav",40
Sample,17401,0,"C3S_s.wav",73
Sample,17601,0,"F#4S_Gb4S_s.wav",84
Sample,17601,0,"C3S_s.wav",88
Sample,17601,0,"D#4S_Eb4S_s.wav",51
Sample,17601,0,"G3S_s.wav",97
Sample,17601,0,"B5S_s.wav",95
Sample,17701,0,"F#4S_Gb4S_s.wav",28
Sample,17776,0,"D5S_s.wav",77
Sample,17801,0,"E3S_s.wav",84
Sample,17801,0,"D#4S_Eb4S_s.wav",100
Sample,17801,0,"G3S_s.wav",100
Sample,17801,0,"F#4S_Gb4S_s.wav",30
Sample,17801,0,"G3S_s.wav",97
Sample,17901,0,"F#4S_Gb4S_s.wav",33
Sample,18001,0,"D#4S_Eb4S_s.wav",51
Sample,18001,0,"F#4S_Gb4S_s.wav",35
Sample,18001,0,"C3S_s.wav",74
Sample,18101,0,"C3S_s.wav",74
Sample,18184,0,"D5S_s.wav",74
Sample,18201,0,"D#4S_Eb4S_s.wav",100
Sample,18201,0,"C3S_s.wav",74
Sample,18201,0,"G3S_s.wav",86
Sample,18201,0,"E3S_s.wav",40
Sample,18397,0,"D5S_s.wav",74
Sample,18401,0,"G3S_s.wav",100
Sample,18401,0,"D#4S_Eb4S_s.wav",45
Sample,18401,0,"C3S_s.wav",88
Sample,18601,0,"D#4S_Eb4S_s.wav",100
Sample,18601,0,"E3S_s.wav",84
Sample,18601,0,"G3S_s.wav",100
Sample,18601,0,"G3S_s.wav",100
Sample,18801,0,"D#4S_Eb4S_s.wav",45
Sample,18801,0,"C3S_s.wav",73
Sample,18901,0,"C3S_s.wav",73
Sample,19001,0,"E3S_s.wav",40
Sample,19001,0,"D#4S_Eb4S_s.wav",100
Sample,19001,0,"C3S_s.wav",73
Sample,19201,0,"D#4S_Eb4S_s.wav",51
Sample,19201,0,"C3S_s.wav",93
Sample,19201,0,"C5S_s.wav",68
Sample,19201,0,"C3S_s.wav",88
Sample,19201,0,"F#4S_Gb4S_s.wav",84
Sample,19201,0,"C4S_s.wav",93
Sample,19401,0,"D#4S_Eb4S_s.wav",100
Sample,19401,0,"C3S_s.wav",100
Sample,19401,0,"C4S_s.wav",99
Sample,19401,0,"E3S_s.wav",84
Sample,19801,0,"D#4S_Eb4S_s.wav",100
Sample,19801,0,"C3S_s.wav",86
Sample,19801,0,"E3S_s.wav",40
Sample,19801,0,"C3S_s.wav",74
Sample,20001,0,"C3S_s.wav",88
Sample,20001,0,"C3S_s.wav",91
Sample,20001,0,"C4S_s.wav",100
Sample,20201,0,"C4S_s.wav",97
Sample,20201,0,"D#4S_Eb4S_s.wav",100
Sample,20201,0,"E3S_s.wav",84
Sample,20601,0,"C3S_s.wav",73
Sample,20601,0,"C3S_s.wav",86
Sample,20801,0,"G#3S_Ab3S_s.wav",92
Sample,20801,0,"C3S_s.wav",88
Sample,20801,0,"G#3S_Ab3S_s.wav",91
Sample,21001,0,"G#3S_Ab3S_s.wav",88
Sample,21001,0,"G#3S_Ab3S_s.wav",100
Sample,21001,0,"E3S_s.wav",84
Sample,21401,0,"E3S_s.wav",82
Sample,21401,0,"C3S_s.wav",74
Sample,21601,0,"C3S_s.wav",88
Sample,21801,0,"E3S_s.wav",84
Sample,21801,0,"F3S_s.wav",88
Sample,22163,0,"G#4S_Ab4S_s.wav",74
Sample,22201,0,"E3S_s.wav",40
Sample,22201,0,"C3S_s.wav",73
Sample,22401,0,"F#4S_Gb4S_s.wav",84
Sample,22401,0,"C3S_s.wav",88
Sample,22401,0,"D#4S_Eb4S_s.wav",51
Sample,22401,0,"G3S_s.wav",91
Sample,22601,0,"D#4S_Eb4S_s.wav",100
Sample,22601,0,"E3S_s.wav",84
Sample,22601,0,"G3S_s.wav",100
Sample,22601,0,"G3S_s.wav",91
Sample,23001,0,"E3S_s.wav",84
Sample,23001,0,"C3S_s.wav",74
Sample,23201,0,"C3S_s.wav",88
Sample,23376,0,"D5S_s.wav",78
Sample,23401,0,"G3S_s.wav",92
Sample,23401,0,"E3S_s.wav",84
Sample,23763,0,"B4S_s.wav",78
Sample,23801,0,"C3S_s.wav",73
Sample,23801,0,"E3S_s.wav",84
Sample,24001,0,"C3S_s.wav",88
Sample,24001,0,"F#4S_Gb4S_s.wav",84
Sample,24001,0,"D#4S_Eb4S_s.wav",51
Sample,24001,0,"B5S_s.wav",95
Sample,24001,0,"G3S_s.wav",100
Sample,24101,0,"F#4S_Gb4S_s.wav",28
Sample,24176,0,"D5S_s.wav",77
Sample,24201,0,"D#4S_Eb4S_s.wav",100
Sample,24201,0,"E3S_s.wav",84
Sample,24201,0,"G3S_s.wav",100
Sample,24201,0,"G3S_s.wav",96
Sample,24201,0,"F#4S_Gb4S_s.wav",30
Sample,24301,0,"F#4S_Gb4S_s.wav",33
Sample,24401,0,"D#4S_Eb4S_s.wav",51
Sample,24401,0,"C3S_s.wav",74
Sample,24401,0,"F#4S_Gb4S_s.wav",35
Sample,24501,0,"C3S_s.wav",74
Sample,24584,0,"D5S_s.wav",74
Sample,24601,0,"E3S_s.wav",83
Sample,24601,0,"G3S_s.wav",86
Sample,24601,0,"C3S_s.wav",74
Sample,24601,0,"D#4S_Eb4S_s.wav",100
Sample,24797,0,"D5S_s.wav",74
Sample,24801,0,"G3S_s.wav",100
Sample,24801,0,"C3S_s.wav",88
Sample,24801,0,"D#4S_Eb4S_s.wav",45
Sample,25001,0,"G3S_s.wav",97
Sample,25001,0,"G3S_s.wav",100
Sample,25001,0,"E3S_s.wav",84
Sample,25001,0,"D#4S_Eb4S_s.wav",100
Sample,25201,0,"C3S_s.wav",73
Sample,25201,0,"D#4S_Eb4S_s.wav",45
Sample,25301,0,"C3S_s.wav",73
Sample,25401,0,"E3S_s.wav",86
Sample,25401,0,"C3S_s.wav",73
Sample,25401,0,"D#4S_Eb4S_s.wav",100
Sample,25601,0,"C3S_s.wav",93
Sample,25601,0,"D#4S_Eb4S_s.wav",51
Sample,25601,0,"C4S_s.wav",100
Sample,25601,0,"F#4S_Gb4S_s.wav",84
Sample,25601,0,"C3S_s.wav",88
Sample,25601,0,"C5S_s.wav",68
Sample,25801,0,"E3S_s.wav",84
Sample,25801,0,"C4S_s.wav",98
Sample,25801,0,"C3S_s.wav",100
Sample,25801,0,"D#4S_Eb4S_s.wav",100
Sample,26201,0,"C3S_s.wav",74
Sample,26201,0,"E3S_s.wav",40
Sample,26201,0,"C3S_s.wav",86
Sample,26201,0,"D#4S_Eb4S_s.wav",100
Sample,26401,0,"C3S_s.wav",88
Sample,26401,0,"C4S_s.wav",100
Sample,26401,0,"C3S_s.wav",91
Sample,26601,0,"C4S_s.wav",100
Sample,26601,0,"E3S_s.wav",84
Sample,26601,0,"D#4S_Eb4S_s.wav",100
Sample,27001,0,"C3S_s.wav",86
Sample,27001,0,"C3S_s.wav",73
Sample,27201,0,"G#3S_Ab3S_s.wav",96
Sample,27201,0,"G#3S_Ab3S_s.wav",91
Sample,27201,0,"C3S_s.wav",88
Sample,27401,0,"G#3S_Ab3S_s.wav",88
Sample,27401,0,"E3S_s.wav",84
Sample,27401,0,"G#3S_Ab3S_s.wav",100
Sample,27801,0,"E3S_s.wav",40
Sample,27801,0,"G3S_s.wav",86
Sample,27801,0,"C3S_s.wav",74
Sample,28001,0,"C3S_s.wav",88
Sample,28201,0,"F3S_s.wav",96
Sample,28201,0,"F3S_s.wav",100
Sample,28201,0,"E3S_s.wav",84
Sample,28563,0,"G#4S_Ab4S_s.wav",74
Sample,28601,0,"C3S_s.wav",73
Sample,28601,0,"E3S_s.wav",40
Sample,28801,0,"G3S_s.wav",100
Sample,28801,0,"D#4S_Eb4S_s.wav",51
Sample,28801,0,"C3S_s.wav",88
Sample,29001,0,"D#4S_Eb4S_s.wav",100
Sample,29001,0,"E3S_s.wav",84
Sample,29001,0,"G3S_s.wav",100
Sample,29001,0,"G3S_s.wav",98
Sample,29201,0,"C3S_s.wav",74
Sample,29401,0,"C3S_s.wav",74
Sample,29401,0,"E3S_s.wav",40
Sample,29601,0,"C3S_s.wav",88
Sample,29776,0,"D5S_s.wav",78
Sample,29801,0,"E3S_s.wav",84
Sample,29801,0,"G3S_s.wav",96
Sample,30163,0,"B4S_s.wav",78
Sample,30201,0,"E3S_s.wav",40
Sample,30201,0,"C3S_s.wav",73
Sample,30401,0,"D#4S_Eb4S_s.wav",51
Sample,30401,0,"null_s.wav",60
Sample,30401,0,"B5S_s.wav",95
Sample,30401,0,"C3S_s.wav",88
Sample,30401,0,"F#4S_Gb4S_s.wav",84
Sample,30401,0,"G3S_s.wav",99
Sample,30501,0,"F#4S_Gb4S_s.wav",28
Sample,30576,0,"D5S_s.wav",77
Sample,30601,0,"G3S_s.wav",100
Sample,30601,0,"null_s.wav",62
Sample,30601,0,"F#4S_Gb4S_s.wav",30
Sample,30601,0,"E3S_s.wav",84
Sample,30601,0,"D#4S_Eb4S_s.wav",100
Sample,30601,0,"G3S_s.wav",99
Sample,30701,0,"F#4S_Gb4S_s.wav",33
Sample,30801,0,"C3S_s.wav",74
Sample,30801,0,"D#4S_Eb4S_s.wav",51
Sample,30801,0,"null_s.wav",64
Sample,30801,0,"F#4S_Gb4S_s.wav",35
Sample,30901,0,"C3S_s.wav",74
Sample,30984,0,"D5S_s.wav",74
Sample,31001,0,"null_s.wav",66
Sample,31001,0,"G3S_s.wav",86
Sample,31001,0,"E3S_s.wav",40
Sample,31001,0,"D#4S_Eb4S_s.wav",100
Sample,31001,0,"C3S_s.wav",74
Sample,31197,0,"D5S_s.wav",74
Sample,31201,0,"C3S_s.wav",88
Sample,31201,0,"G3S_s.wav",100
Sample,31201,0,"null_s.wav",68
Sample,31201,0,"D#4S_Eb4S_s.wav",45
Sample,31401,0,"null_s.wav",70
Sample,31401,0,"G3S_s.wav",100
Sample,31401,0,"G3S_s.wav",100
Sample,31401,0,"D#4S_Eb4S_s.wav",100
Sample,31401,0,"E3S_s.wav",84
Sample,31601,0,"C3S_s.wav",73
Sample,31601,0,"null_s.wav",72
Sample,31601,0,"D#4S_Eb4S_s.wav",45
Sample,31701,0,"C3S_s.wav",73
Sample,31801,0,"D#4S_Eb4S_s.wav",100
Sample,31801,0,"null_s.wav",74
Sample,31801,0,"E3S_s.wav",40
Sample,31801,0,"C3S_s.wav",73
Sample,32001,0,"C3S_s.wav",88
Sample,32001,0,"null_s.wav",76
Sample,32001,0,"D#3S_Eb3S_s.wav",100
Sample,32401,0,"null_s.wav",79
Sample,32801,0,"null_s.wav",83
Sample,33201,0,"C#2S_Db2S_s.wav",87
Sample,33601,0,"C3S_s.wav",88
Sample,33601,0,"E2S_s.wav",91
Sample,33801,0,"E3S_s.wav",55
Sample,33801,0,"F#2S_Gb2S_s.wav",93
Sample,34001,0,"C3S_s.wav",88
Sample,34001,0,"G#2S_Ab2S_s.wav",95
Sample,34201,0,"E3S_s.wav",56
Sample,34301,0,"null_s.wav",99
Sample,36801,0,"G#3S_Ab3S_s.wav",88
Sample,36801,0,"C3S_s.wav",88
Sample,36801,0,"G#5S_Ab5S_s.wav",66
Sample,37001,0,"E3S_s.wav",74
Sample,37401,0,"E3S_s.wav",74
Sample,37601,0,"C3S_s.wav",88
Sample,37613,0,"C5S_s.wav",59
Sample,37801,0,"E3S_s.wav",74
Sample,37801,0,"F#3S_Gb3S_s.wav",76
Sample,38001,0,"C3S_s.wav",88
Sample,38401,0,"D#3S_Eb3S_s.wav",100
Sample,38401,0,"C3S_s.wav",88
Sample,38601,0,"E3S_s.wav",74
Sample,39401,0,"F#3S_Gb3S_s.wav",76
Sample,39401,0,"A#5S_Bb5S_s.wav",93
Sample,39401,0,"E3S_s.wav",74
Sample,39501,0,"A#4S_Bb4S_s.wav",79
Sample,39701,0,"E3S_s.wav",74
Sample,39701,0,"G#5S_Ab5S_s.wav",93
Sample,39801,0,"E3S_s.wav",74
Sample,40001,0,"G3S_s.wav",100
Sample,40001,0,"C3S_s.wav",88
Sample,40001,0,"G5S_s.wav",93
Sample,40401,0,"C3S_s.wav",88
Sample,40601,0,"D5S_s.wav",61
Sample,40601,0,"E3S_s.wav",74
Sample,40601,0,"B4S_s.wav",50
Sample,40601,0,"F#3S_Gb3S_s.wav",76
Sample,40801,0,"G3S_s.wav",100
Sample,40801,0,"C3S_s.wav",88
Sample,40801,0,"D#6S_Eb6S_s.wav",40
Sample,41001,0,"E3S_s.wav",74
Sample,41101,0,"D5S_s.wav",88
Sample,41201,0,"C3S_s.wav",88
Sample,41201,0,"G3S_s.wav",100
Sample,41401,0,"D5S_s.wav",88
Sample,41401,0,"G5S_s.wav",88
Sample,41401,0,"E3S_s.wav",74
Sample,41401,0,"B5S_s.wav",56
Sample,41601,0,"C4S_s.wav",100
Sample,41601,0,"G5S_s.wav",66
Sample,41601,0,"C3S_s.wav",88
Sample,41801,0,"E3S_s.wav",74
Sample,42201,0,"E3S_s.wav",74
Sample,42201,0,"F#3S_Gb3S_s.wav",76
Sample,42401,0,"C3S_s.wav",88
Sample,42601,0,"F#3S_Gb3S_s.wav",76
Sample,42601,0,"E3S_s.wav",74
Sample,43201,0,"G#3S_Ab3S_s.wav",97
Sample,43201,0,"C3S_s.wav",88
Sample,43201,0,"G#5S_Ab5S_s.wav",66
Sample,43401,0,"E3S_s.wav",74
Sample,43601,0,"C3S_s.wav",88
Sample,43801,0,"E3S_s.wav",74
Sample,43801,0,"F#3S_Gb3S_s.wav",76
Sample,44001,0,"C3S_s.wav",88
Sample,44001,0,"G#3S_Ab3S_s.wav",99
Sample,44201,0,"E3S_s.wav",74
Sample,44201,0,"F#3S_Gb3S_s.wav",76
Sample,44801,0,"C3S_s.wav",88
Sample,44801,0,"D#3S_Eb3S_s.wav",100
Sample,45601,0,"C3S_s.wav",88
Sample,45801,0,"F#3S_Gb3S_s.wav",76
Sample,45801,0,"E3S_s.wav",74
Sample,45801,0,"A#5S_Bb5S_s.wav",93
Sample,45901,0,"A#4S_Bb4S_s.wav",79
Sample,46201,0,"A#4S_Bb4S_s.wav",67
Sample,46201,0,"E3S_s.wav",74
Sample,46201,0,"D#5S_Eb5S_s.wav",70
Sample,46401,0,"G3S_s.wav",96
Sample,46401,0,"G5S_s.wav",93
Sample,46401,0,"C3S_s.wav",88
Sample,47001,0,"F#3S_Gb3S_s.wav",76
Sample,47001,0,"E3S_s.wav",74
Sample,47201,0,"C3S_s.wav",88
Sample,47401,0,"E3S_s.wav",74
Sample,47501,0,"F#5S_Gb5S_s.wav",70
Sample,47501,0,"D5S_s.wav",88
Sample,47601,0,"C3S_s.wav",88
Sample,47801,0,"D5S_s.wav",88
Sample,47801,0,"G5S_s.wav",88
Sample,47801,0,"E3S_s.wav",74
Sample,48001,0,"C6S_s.wav",93
Sample,48001,0,"C3S_s.wav",88
Sample,48001,0,"G5S_s.wav",66
Sample,48001,0,"C4S_s.wav",94
Sample,48201,0,"E3S_s.wav",74
Sample,48601,0,"F#3S_Gb3S_s.wav",76
Sample,48601,0,"C5S_s.wav",55
Sample,48601,0,"E3S_s.wav",74
Sample,48601,0,"C6S_s.wav",53
Sample,48801,0,"C3S_s.wav",88
Sample,48813,0,"C5S_s.wav",59
Sample,49001,0,"E3S_s.wav",74
Sample,49101,0,"G#5S_Ab5S_s.wav",53
Sample,49401,0,"E3S_s.wav",74
Sample,49601,0,"G#3S_Ab3S_s.wav",97
Sample,49601,0,"C3S_s.wav",88
Sample,49601,0,"G#5S_Ab5S_s.wav",66
Sample,50201,0,"E3S_s.wav",74
Sample,50201,0,"F#3S_Gb3S_s.wav",76
Sample,50401,0,"C3S_s.wav",88
Sample,50401,0,"G#3S_Ab3S_s.wav",97
Sample,50413,0,"C5S_s.wav",59
Sample,50601,0,"E3S_s.wav",74
Sample,50801,0,"C3S_s.wav",88
Sample,51201,0,"D#3S_Eb3S_s.wav",97
Sample,51201,0,"C3S_s.wav",88
Sample,51401,0,"F#3S_Gb3S_s.wav",76
Sample,51401,0,"E3S_s.wav",74
Sample,52201,0,"F#3S_Gb3S_s.wav",76
Sample,52201,0,"E3S_s.wav",74
Sample,52201,0,"A#5S_Bb5S_s.wav",93
Sample,52301,0,"A#4S_Bb4S_s.wav",79
Sample,52501,0,"G#5S_Ab5S_s.wav",93
Sample,52501,0,"E3S_s.wav",74
Sample,52601,0,"E3S_s.wav",74
Sample,52801,0,"G3S_s.wav",100
Sample,52801,0,"G5S_s.wav",93
Sample,52801,0,"C3S_s.wav",88
Sample,53201,0,"C3S_s.wav",88
Sample,53401,0,"F#3S_Gb3S_s.wav",76
Sample,53401,0,"B4S_s.wav",50
Sample,53401,0,"E3S_s.wav",74
Sample,53401,0,"D5S_s.wav",61
Sample,53601,0,"G3S_s.wav",100
Sample,53601,0,"D#6S_Eb6S_s.wav",40
Sample,53601,0,"C3S_s.wav",88
Sample,53801,0,"E3S_s.wav",74
Sample,53901,0,"D5S_s.wav",88
Sample,54001,0,"G3S_s.wav",100
Sample,54001,0,"C3S_s.wav",88
Sample,54201,0,"B5S_s.wav",56
Sample,54201,0,"E3S_s.wav",74
Sample,54201,0,"G5S_s.wav",88
Sample,54201,0,"D5S_s.wav",88
Sample,54401,0,"C4S_s.wav",100
Sample,54401,0,"C3S_s.wav",88
Sample,54401,0,"G5S_s.wav",66
Sample,54601,0,"E3S_s.wav",74
Sample,55001,0,"E3S_s.wav",74
Sample,55201,0,"C4S_s.wav",100
Sample,55201,0,"B5S_s.wav",68
Sample,55201,0,"C3S_s.wav",88
Sample,55401,0,"F#3S_Gb3S_s.wav",76
Sample,55401,0,"E3S_s.wav",74
Sample,55401,0,"G5S.wav",68
Sample,55801,0,"E3S_s.wav",74
Sample,56001,0,"G#3S_Ab3S_s.wav",100
Sample,56001,0,"C3S_s.wav",88
Sample,56001,0,"G#5S_Ab5S_s.wav",66
Sample,56201,0,"E3S_s.wav",74
Sample,56601,0,"E3S_s.wav",74
Sample,56801,0,"G#3S_Ab3S_s.wav",100
Sample,56801,0,"A#5S_Bb5S_s.wav",93
Sample,56801,0,"C3S_s.wav",88
Sample,57001,0,"E3S_s.wav",74
Sample,57201,0,"C3S_s.wav",88
Sample,57201,0,"G#3S_Ab3S_s.wav",94
Sample,57601,0,"C3S_s.wav",88
Sample,57801,0,"E3S_s.wav",74
Sample,58601,0,"E3S_s.wav",74
Sample,58619,0,"B6S_s.wav",53
Sample,58701,0,"A#4S_Bb4S_s.wav",79
Sample,59001,0,"A#4S_Bb4S_s.wav",67
Sample,59001,0,"E3S_s.wav",74
Sample,59001,0,"D#5S_Eb5S_s.wav",70
Sample,59201,0,"C3S_s.wav",88
Sample,59201,0,"G3S_s.wav",100
Sample,59401,0,"E3S_s.wav",74
Sample,59469,0,"D#6S_Eb6S.wav",93
Sample,59472,0,"B5S.wav",93
Sample,59476,0,"G5S.wav",93
Sample,59501,0,"G5S_s.wav",88
Sample,59601,0,"C3S_s.wav",88
Sample,59801,0,"F#3S_Gb3S_s.wav",76
Sample,59801,0,"B4S_s.wav",50
Sample,59801,0,"E3S_s.wav",74
Sample,60001,0,"C3S_s.wav",88
Sample,60201,0,"E3S_s.wav",74
Sample,60205,0,"C6S_s.wav",66
Sample,60218,0,"F6S_s.wav",66
Sample,60243,0,"D6S_s.wav",66
Sample,60293,0,"G6S_s.wav",64
Sample,60301,0,"D5S_s.wav",88
Sample,60318,0,"E6S_s.wav",64
Sample,60369,0,"G#6S_Ab6S_s.wav",70
Sample,60394,0,"F6S_s.wav",70
Sample,60401,0,"C3S_s.wav",88
Sample,60438,0,"A#6S_Bb6S_s.wav",76
Sample,60463,0,"G6S_s.wav",76
Sample,60509,0,"C7S_s.wav",74
Sample,60534,0,"A6S_s.wav",74
Sample,60588,0,"D7S_s.wav",71
Sample,60601,0,"D5S_s.wav",88
Sample,60601,0,"E3S_s.wav",74
Sample,60788,0,"C7S.wav",85
Sample,60801,0,"C5S_s.wav",79
Sample,60801,0,"C3S_s.wav",88
Sample,60801,0,"C#4S_Db4S_s.wav",100
Sample,60801,0,"D#5S_Eb5S_s.wav",68
Sample,60801,0,"C4S_s.wav",92
Sample,60801,0,"C4S_s.wav",100
Sample,60801,0,"E3S_s.wav",26
Sample,60801,0,"G5S_s.wav",69
Sample,61001,0,"F#3S_Gb3S_s.wav",100
Sample,61001,0,"D#4S_Eb4S_s.wav",89
Sample,61001,0,"E3S_s.wav",74
Sample,61001,0,"C5S_s.wav",68
Sample,61201,0,"E3S_s.wav",26
Sample,61201,0,"A#3S_Bb3S_s.wav",100
Sample,61201,0,"C3S_s.wav",88
Sample,61401,0,"D#4S_Eb4S_s.wav",89
Sample,61401,0,"C3S_s.wav",56
Sample,61401,0,"D#5S_Eb5S_s.wav",57
Sample,61401,0,"E3S_s.wav",59
Sample,61401,0,"C5S_s.wav",70
Sample,61401,0,"F#3S_Gb3S_s.wav",100
Sample,61601,0,"G#3S_Ab3S_s.wav",92
Sample,61601,0,"C3S_s.wav",88
Sample,61601,0,"C5S_s.wav",87
Sample,61601,0,"E3S_s.wav",32
Sample,61601,0,"D#4S_Eb4S_s.wav",77
Sample,61601,0,"G#3S_Ab3S_s.wav",100
Sample,61601,0,"D#5S_Eb5S_s.wav",73
Sample,61801,0,"E3S_s.wav",74
Sample,61801,0,"C5S_s.wav",81
Sample,61801,0,"D#4S_Eb4S_s.wav",89
Sample,61801,0,"D#5S_Eb5S_s.wav",66
Sample,61801,0,"F#3S_Gb3S_s.wav",100
Sample,62001,0,"E3S_s.wav",26
Sample,62001,0,"C3S_s.wav",88
Sample,62001,0,"F3S_s.wav",100
Sample,62201,0,"C3S_s.wav",56
Sample,62201,0,"D#4S_Eb4S_s.wav",89
Sample,62201,0,"F#3S_Gb3S_s.wav",100
Sample,62201,0,"C5S_s.wav",81
Sample,62201,0,"E3S_s.wav",57
Sample,62401,0,"A#3S_Bb3S_s.wav",96
Sample,62401,0,"C3S_s.wav",88
Sample,62401,0,"A#4S_Bb4S_s.wav",66
Sample,62401,0,"E3S_s.wav",30
Sample,62401,0,"D#4S_Eb4S_s.wav",82
Sample,62401,0,"A#3S_Bb3S_s.wav",100
Sample,62401,0,"D5S_s.wav",74
Sample,62601,0,"F#3S_Gb3S_s.wav",100
Sample,62601,0,"D#4S_Eb4S_s.wav",89
Sample,62601,0,"E3S_s.wav",76
Sample,62601,0,"A#4S_Bb4S_s.wav",57
Sample,62801,0,"D3S_s.wav",100
Sample,62801,0,"D3S_s.wav",92
Sample,62801,0,"C3S_s.wav",88
Sample,63001,0,"D#4S_Eb4S_s.wav",89
Sample,63001,0,"C3S_s.wav",56
Sample,63001,0,"D5S_s.wav",66
Sample,63001,0,"E3S_s.wav",47
Sample,63001,0,"A#4S_Bb4S_s.wav",61
Sample,63001,0,"F#3S_Gb3S_s.wav",100
Sample,63201,0,"G3S_s.wav",89
Sample,63201,0,"C3S_s.wav",88
Sample,63201,0,"B4S_s.wav",72
Sample,63201,0,"E3S_s.wav",26
Sample,63201,0,"D#4S_Eb4S_s.wav",77
Sample,63201,0,"G3S_s.wav",99
Sample,63201,0,"D5S_s.wav",67
Sample,63401,0,"G5S_s.wav",70
Sample,63401,0,"E3S_s.wav",74
Sample,63401,0,"D5S_s.wav",67
Sample,63401,0,"G5S_s.wav",71
Sample,63401,0,"B4S_s.wav",72
Sample,63401,0,"D#4S_Eb4S_s.wav",89
Sample,63401,0,"F#3S_Gb3S_s.wav",100
Sample,63601,0,"E3S_s.wav",26
Sample,63601,0,"C3S_s.wav",88
Sample,63601,0,"B3S_s.wav",100
Sample,63801,0,"C3S_s.wav",56
Sample,63801,0,"D#4S_Eb4S_s.wav",89
Sample,63801,0,"F#3S_Gb3S_s.wav",100
Sample,63801,0,"B4S_s.wav",65
Sample,63801,0,"E3S_s.wav",47
Sample,64001,0,"C4S_s.wav",100
Sample,64001,0,"C3S_s.wav",88
Sample,64001,0,"C5S_s.wav",75
Sample,64001,0,"E3S_s.wav",26
Sample,64001,0,"D#4S_Eb4S_s.wav",82
Sample,64001,0,"C4S_s.wav",100
Sample,64001,0,"D#5S_Eb5S_s.wav",61
Sample,64201,0,"F#3S_Gb3S_s.wav",100
Sample,64201,0,"D#4S_Eb4S_s.wav",89
Sample,64201,0,"E3S_s.wav",74
Sample,64201,0,"C5S_s.wav",72
Sample,64401,0,"E3S_s.wav",26
Sample,64401,0,"G#3S_Ab3S_s.wav",100
Sample,64401,0,"C3S_s.wav",88
Sample,64601,0,"D#4S_Eb4S_s.wav",89
Sample,64601,0,"C3S_s.wav",56
Sample,64601,0,"D#5S_Eb5S_s.wav",52
Sample,64601,0,"E3S_s.wav",74
Sample,64601,0,"C5S_s.wav",64
Sample,64601,0,"F#3S_Gb3S_s.wav",100
Sample,64801,0,"A#3S_Bb3S_s.wav",100
Sample,64801,0,"E3S_s.wav",26
Sample,64801,0,"A#3S_Bb3S_s.wav",100
Sample,64801,0,"F5S_s.wav",71
Sample,64801,0,"D#4S_Eb4S_s.wav",77
Sample,64801,0,"A#4S_Bb4S_s.wav",64
Sample,64801,0,"C3S_s.wav",88
Sample,64801,0,"D5S_s.wav",70
Sample,64801,0,"D5S_s.wav",65
Sample,64801,0,"A#4S_Bb4S_s.wav",62
Sample,65001,0,"A#4S_Bb4S_s.wav",64
Sample,65001,0,"E3S_s.wav",74
Sample,65001,0,"D#4S_Eb4S_s.wav",89
Sample,65001,0,"F#3S_Gb3S_s.wav",100
Sample,65001,0,"D5S_s.wav",70
Sample,65101,0,"E3S_s.wav",66
Sample,65101,0,"A#4S_Bb4S_s.wav",74
Sample,65201,0,"E3S_s.wav",26
Sample,65201,0,"A#3S_Bb3S_s.wav",100
Sample,65201,0,"C3S_s.wav",88
Sample,65401,0,"D#4S_Eb4S_s.wav",89
Sample,65401,0,"C3S_s.wav",56
Sample,65401,0,"F#3S_Gb3S_s.wav",100
Sample,65401,0,"E3S_s.wav",48
Sample,65401,0,"A#4S_Bb4S_s.wav",64
Sample,65601,0,"A#4S_Bb4S_s.wav",66
Sample,65601,0,"C3S_s.wav",88
Sample,65601,0,"D#4S_Eb4S_s.wav",82
Sample,65601,0,"D#5S_Eb5S_s.wav",66
Sample,65601,0,"E3S_s.wav",26
Sample,65601,0,"D#3S_Eb3S_s.wav",100
Sample,65601,0,"D#3S_Eb3S_s.wav",100
Sample,65801,0,"A#4S_Bb4S_s.wav",68
Sample,65801,0,"E3S_s.wav",74
Sample,65801,0,"D#5S_Eb5S_s.wav",66
Sample,65801,0,"F#3S_Gb3S_s.wav",100
Sample,65801,0,"A#4S_Bb4S_s.wav",74
Sample,65801,0,"D#4S_Eb4S_s.wav",89
Sample,65801,0,"D#5S_Eb5S_s.wav",77
Sample,66001,0,"E3S_s.wav",26
Sample,66001,0,"G3S_s.wav",100
Sample,66001,0,"C3S_s.wav",88
Sample,66001,0,"G3S_s.wav",100
Sample,66201,0,"C3S_s.wav",56
Sample,66201,0,"D#4S_Eb4S_s.wav",89
Sample,66201,0,"F#3S_Gb3S_s.wav",100
Sample,66201,0,"A#4S_Bb4S_s.wav",57
Sample,66201,0,"E3S_s.wav",48
Sample,66401,0,"B3S_s.wav",100
Sample,66401,0,"C3S_s.wav",88
Sample,66401,0,"B4S_s.wav",76
Sample,66401,0,"E3S_s.wav",26
Sample,66401,0,"D#4S_Eb4S_s.wav",77
Sample,66401,0,"B3S_s.wav",100
Sample,66401,0,"D5S_s.wav",77
Sample,66601,0,"D5S_s.wav",69
Sample,66601,0,"E3S_s.wav",74
Sample,66601,0,"D5S_s.wav",70
Sample,66601,0,"G5S_s.wav",71
Sample,66601,0,"B4S_s.wav",76
Sample,66601,0,"D#4S_Eb4S_s.wav",89
Sample,66601,0,"F#3S_Gb3S_s.wav",100
Sample,66801,0,"D4S_s.wav",100
Sample,66801,0,"C3S_s.wav",88
Sample,66801,0,"D4S_s.wav",100
Sample,66801,0,"E3S_s.wav",26
Sample,67001,0,"D#4S_Eb4S_s.wav",89
Sample,67001,0,"C3S_s.wav",56
Sample,67001,0,"F#3S_Gb3S_s.wav",100
Sample,67001,0,"E3S_s.wav",51
Sample,67001,0,"B4S_s.wav",63
Sample,67201,0,"C3S_s.wav",88
Sample,67201,0,"C4S_s.wav",92
Sample,67201,0,"C4S_s.wav",100
Sample,67201,0,"D#4S_Eb4S_s.wav",82
Sample,67201,0,"E3S_s.wav",26
Sample,67201,0,"C5S_s.wav",66
Sample,67401,0,"E3S_s.wav",74
Sample,67401,0,"C5S_s.wav",80
Sample,67401,0,"D#4S_Eb4S_s.wav",89
Sample,67401,0,"D#5S_Eb5S_s.wav",64
Sample,67401,0,"F#3S_Gb3S_s.wav",100
Sample,67601,0,"E3S_s.wav",26
Sample,67601,0,"C3S_s.wav",88
Sample,67601,0,"A#3S_Bb3S_s.wav",100
Sample,67801,0,"C3S_s.wav",56
Sample,67801,0,"D#4S_Eb4S_s.wav",89
Sample,67801,0,"F#3S_Gb3S_s.wav",100
Sample,67801,0,"C5S_s.wav",79
Sample,67801,0,"E3S_s.wav",60
Sample,67801,0,"D#5S_Eb5S_s.wav",59
Sample,68001,0,"C5S_s.wav",84
Sample,68001,0,"C3S_s.wav",88
Sample,68001,0,"D#4S_Eb4S_s.wav",77
Sample,68001,0,"D#5S_Eb5S_s.wav",74
Sample,68001,0,"G#3S_Ab3S_s.wav",92
Sample,68001,0,"G#3S_Ab3S_s.wav",100
Sample,68001,0,"E3S_s.wav",26
Sample,68201,0,"C5S_s.wav",80
Sample,68201,0,"E3S_s.wav",74
Sample,68201,0,"D#4S_Eb4S_s.wav",89
Sample,68201,0,"F#3S_Gb3S_s.wav",100
Sample,68201,0,"D#5S_Eb5S_s.wav",66
Sample,68401,0,"E3S_s.wav",26
Sample,68401,0,"F3S_s.wav",100
Sample,68401,0,"C3S_s.wav",88
Sample,68601,0,"D#4S_Eb4S_s.wav",89
Sample,68601,0,"C3S_s.wav",56
Sample,68601,0,"F#3S_Gb3S_s.wav",100
Sample,68601,0,"E3S_s.wav",42
Sample,68601,0,"C5S_s.wav",81
Sample,68801,0,"A4S_s.wav",77
Sample,68801,0,"C3S_s.wav",88
Sample,68801,0,"D#4S_Eb4S_s.wav",82
Sample,68801,0,"D5S_s.wav",63
Sample,68801,0,"E3S_s.wav",26
Sample,68801,0,"D3S_s.wav",92
Sample,68801,0,"D3S_s.wav",100
Sample,69001,0,"A4S_s.wav",80
Sample,69001,0,"E3S_s.wav",74
Sample,69001,0,"D#4S_Eb4S_s.wav",89
Sample,69001,0,"F#3S_Gb3S_s.wav",100
Sample,69201,0,"D3S_s.wav",100
Sample,69201,0,"C3S_s.wav",88
Sample,69201,0,"D3S_s.wav",92
Sample,69401,0,"C3S_s.wav",56
Sample,69401,0,"D#4S_Eb4S_s.wav",89
Sample,69401,0,"F#3S_Gb3S_s.wav",100
Sample,69401,0,"A4S_s.wav",74
Sample,69401,0,"E3S_s.wav",46
Sample,69401,0,"D5S_s.wav",55
Sample,69601,0,"A4S_s.wav",75
Sample,69601,0,"C3S_s.wav",88
Sample,69601,0,"D#4S_Eb4S_s.wav",77
Sample,69601,0,"D5S_s.wav",65
Sample,69601,0,"F#3S_Gb3S_s.wav",92
Sample,69601,0,"F#3S_Gb3S_s.wav",100
Sample,69601,0,"E3S_s.wav",26
Sample,69801,0,"A4S_s.wav",88
Sample,69801,0,"E3S_s.wav",74
Sample,69801,0,"D#4S_Eb4S_s.wav",89
Sample,69801,0,"F#3S_Gb3S_s.wav",100
Sample,69801,0,"D5S_s.wav",76
Sample,70001,0,"E3S_s.wav",26
Sample,70001,0,"A3S_s.wav",100
Sample,70001,0,"C3S_s.wav",88
Sample,70201,0,"D#4S_Eb4S_s.wav",89
Sample,70201,0,"C3S_s.wav",56
Sample,70201,0,"F#3S_Gb3S_s.wav",100
Sample,70201,0,"E3S_s.wav",62
Sample,70201,0,"A4S_s.wav",77
Sample,70401,0,"B4S_s.wav",76
Sample,70401,0,"C3S_s.wav",88
Sample,70401,0,"D#4S_Eb4S_s.wav",82
Sample,70401,0,"D5S_s.wav",69
Sample,70401,0,"G3S_s.wav",92
Sample,70401,0,"G3S_s.wav",100
Sample,70401,0,"E3S_s.wav",56
Sample,70601,0,"B4S_s.wav",73
Sample,70601,0,"E3S_s.wav",74
Sample,70601,0,"D#4S_Eb4S_s.wav",89
Sample,70601,0,"F#3S_Gb3S_s.wav",100
Sample,70801,0,"G3S_s.wav",92
Sample,70801,0,"C3S_s.wav",88
Sample,70801,0,"G3S_s.wav",100
Sample,70801,0,"E3S_s.wav",26
Sample,71001,0,"D#4S_Eb4S_s.wav",89
Sample,71001,0,"C3S_s.wav",56
Sample,71001,0,"F#3S_Gb3S_s.wav",100
Sample,71001,0,"E3S_s.wav",51
Sample,71001,0,"B4S_s.wav",70
Sample,71201,0,"B4S_s.wav",69
Sample,71201,0,"C3S_s.wav",88
Sample,71201,0,"D#4S_Eb4S_s.wav",77
Sample,71201,0,"D5S_s.wav",66
Sample,71201,0,"A3S_s.wav",92
Sample,71201,0,"A3S_s.wav",100
Sample,71201,0,"E3S_s.wav",26
Sample,71401,0,"B4S_s.wav",76
Sample,71401,0,"E3S_s.wav",74
Sample,71401,0,"D#4S_Eb4S_s.wav",89
Sample,71401,0,"F#3S_Gb3S_s.wav",100
Sample,71601,0,"B3S_s.wav",92
Sample,71601,0,"C3S_s.wav",88
Sample,71601,0,"B3S_s.wav",100
Sample,71601,0,"E3S_s.wav",26
Sample,71801,0,"D#4S_Eb4S_s.wav",89
Sample,71801,0,"C3S_s.wav",56
Sample,71801,0,"F#3S_Gb3S_s.wav",100
Sample,71801,0,"E3S_s.wav",50
Sample,71801,0,"B4S_s.wav",68
Sample,72001,0,"C5S_s.wav",70
Sample,72001,0,"C3S_s.wav",88
Sample,72001,0,"D#4S_Eb4S_s.wav",82
Sample,72001,0,"D#5S_Eb5S_s.wav",63
Sample,72001,0,"C4S_s.wav",92
Sample,72001,0,"C4S_s.wav",100
Sample,72001,0,"E3S_s.wav",26
Sample,72201,0,"G5S_s.wav",68
Sample,72201,0,"F#3S_Gb3S_s.wav",100
Sample,72201,0,"F#5S_Gb5S_s.wav",88
Sample,72201,0,"F#5S_Gb5S_s.wav",88
Sample,72201,0,"C5S_s.wav",81
Sample,72201,0,"E3S_s.wav",74
Sample,72201,0,"D#4S_Eb4S_s.wav",89
Sample,72201,0,"D#5S_Eb5S_s.wav",68
Sample,72401,0,"E3S_s.wav",26
Sample,72401,0,"C3S_s.wav",88
Sample,72401,0,"A3S_s.wav",100
Sample,72601,0,"C3S_s.wav",56
Sample,72601,0,"D5S_s.wav",43
Sample,72601,0,"B4S_s.wav",55
Sample,72601,0,"G5S_s.wav",53
Sample,72601,0,"E3S_s.wav",51
Sample,72601,0,"G5S_s.wav",92
Sample,72601,0,"D#4S_Eb4S_s.wav",89
Sample,72601,0,"G5S_s.wav",92
Sample,72601,0,"F#3S_Gb3S_s.wav",100
Sample,72801,0,"D4S_s.wav",92
Sample,72801,0,"E3S_s.wav",26
Sample,72801,0,"D4S_s.wav",100
Sample,72801,0,"D#6S_Eb6S_s.wav",100
Sample,72801,0,"D#4S_Eb4S_s.wav",77
Sample,72801,0,"B4S_s.wav",70
Sample,72801,0,"C3S_s.wav",88
Sample,72801,0,"G5S_s.wav",74
Sample,72801,0,"D#6S_Eb6S_s.wav",100
Sample,72801,0,"D5S_s.wav",63
Sample,73001,0,"B4S_s.wav",81
Sample,73001,0,"E3S_s.wav",74
Sample,73001,0,"D#4S_Eb4S_s.wav",89
Sample,73001,0,"F#3S_Gb3S_s.wav",100
Sample,73101,0,"D6S_s.wav",100
Sample,73101,0,"E3S_s.wav",26
Sample,73101,0,"D6S_s.wav",100
Sample,73201,0,"E3S_s.wav",26
Sample,73201,0,"G3S_s.wav",100
Sample,73201,0,"C3S_s.wav",88
Sample,73401,0,"D#4S_Eb4S_s.wav",89
Sample,73401,0,"C3S_s.wav",56
Sample,73401,0,"B5S_s.wav",97
Sample,73401,0,"E3S_s.wav",59
Sample,73401,0,"B5S_s.wav",97
Sample,73401,0,"F#3S_Gb3S_s.wav",100
Sample,73601,0,"C4S_s.wav",92
Sample,73601,0,"E3S_s.wav",26
Sample,73601,0,"C4S_s.wav",100
Sample,73601,0,"C6S.wav",93
Sample,73601,0,"C#4S_Db4S_s.wav",100
Sample,73601,0,"C5S_s.wav",79
Sample,73601,0,"C3S_s.wav",88
Sample,73601,0,"G5S_s.wav",69
Sample,73601,0,"C6S.wav",97
Sample,73601,0,"D#5S_Eb5S_s.wav",68
Sample,73601,0,"C6S.wav",100
Sample,73801,0,"F#3S_Gb3S_s.wav",100
Sample,73801,0,"D#4S_Eb4S_s.wav",89
Sample,73801,0,"E3S_s.wav",74
Sample,73801,0,"C5S_s.wav",68
Sample,74001,0,"E3S_s.wav",26
Sample,74001,0,"A#3S_Bb3S_s.wav",100
Sample,74001,0,"C3S_s.wav",88
Sample,74001,0,"A#3S_Bb3S_s.wav",99
Sample,74201,0,"C3S_s.wav",56
Sample,74201,0,"D#4S_Eb4S_s.wav",89
Sample,74201,0,"F#3S_Gb3S_s.wav",100
Sample,74201,0,"C5S_s.wav",70
Sample,74201,0,"E3S_s.wav",57
Sample,74201,0,"D#5S_Eb5S_s.wav",57
Sample,74401,0,"C5S_s.wav",87
Sample,74401,0,"C3S_s.wav",88
Sample,74401,0,"D#4S_Eb4S_s.wav",77
Sample,74401,0,"D#5S_Eb5S_s.wav",73
Sample,74401,0,"G#3S_Ab3S_s.wav",92
Sample,74401,0,"G#3S_Ab3S_s.wav",100
Sample,74401,0,"E3S_s.wav",26
Sample,74601,0,"C5S_s.wav",81
Sample,74601,0,"E3S_s.wav",74
Sample,74601,0,"D#4S_Eb4S_s.wav",89
Sample,74601,0,"F#3S_Gb3S_s.wav",100
Sample,74601,0,"D#5S_Eb5S_s.wav",66
Sample,74801,0,"C3S_s.wav",88
Sample,74801,0,"F3S_s.wav",93
Sample,74801,0,"F3S_s.wav",100
Sample,74801,0,"D#4S_Eb4S_s.wav",77
Sample,74801,0,"E3S_s.wav",26
Sample,74801,0,"G#4S_Ab4S_s.wav",74
Sample,75001,0,"C3S_s.wav",56
Sample,75001,0,"D#4S_Eb4S_s.wav",89
Sample,75001,0,"F#3S_Gb3S_s.wav",100
Sample,75001,0,"C5S_s.wav",81
Sample,75001,0,"E3S_s.wav",47
Sample,75201,0,"A#3S_Bb3S_s.wav",96
Sample,75201,0,"C3S_s.wav",88
Sample,75201,0,"A#4S_Bb4S_s.wav",66
Sample,75201,0,"E3S_s.wav",26
Sample,75201,0,"D#4S_Eb4S_s.wav",82
Sample,75201,0,"A#3S_Bb3S_s.wav",100
Sample,75201,0,"D5S_s.wav",74
Sample,75401,0,"F#3S_Gb3S_s.wav",100
Sample,75401,0,"D#4S_Eb4S_s.wav",89
Sample,75401,0,"E3S_s.wav",74
Sample,75401,0,"A#4S_Bb4S_s.wav",57
Sample,75601,0,"C3S_s.wav",88
Sample,75601,0,"E3S_s.wav",26
Sample,75601,0,"D3S_s.wav",92
Sample,75601,0,"D#4S_Eb4S_s.wav",82
Sample,75601,0,"D3S_s.wav",100
Sample,75601,0,"A#4S_Bb4S_s.wav",74
Sample,75801,0,"C3S_s.wav",56
Sample,75801,0,"D#4S_Eb4S_s.wav",89
Sample,75801,0,"F#3S_Gb3S_s.wav",100
Sample,75801,0,"A#4S_Bb4S_s.wav",61
Sample,75801,0,"E3S_s.wav",43
Sample,75801,0,"D5S_s.wav",66
Sample,76001,0,"C3S_s.wav",88
Sample,76001,0,"G4S_s.wav",71
Sample,76001,0,"D#4S_Eb4S_s.wav",77
Sample,76001,0,"B4S_s.wav",72
Sample,76001,0,"E3S_s.wav",26
Sample,76001,0,"B4S_s.wav",74
Sample,76001,0,"G3S_s.wav",89
Sample,76001,0,"D5S_s.wav",67
Sample,76001,0,"G3S_s.wav",99
Sample,76001,0,"D5S_s.wav",77
Sample,76201,0,"E3S_s.wav",74
Sample,76201,0,"B4S_s.wav",72
Sample,76201,0,"D#4S_Eb4S_s.wav",89
Sample,76201,0,"D5S_s.wav",67
Sample,76201,0,"F#3S_Gb3S_s.wav",100
Sample,76401,0,"B3S_s.wav",100
Sample,76401,0,"C3S_s.wav",88
Sample,76401,0,"B4S_s.wav",74
Sample,76401,0,"E3S_s.wav",26
Sample,76401,0,"D#4S_Eb4S_s.wav",77
Sample,76401,0,"B3S_s.wav",100
Sample,76601,0,"D#4S_Eb4S_s.wav",89
Sample,76601,0,"C3S_s.wav",56
Sample,76601,0,"F#3S_Gb3S_s.wav",100
Sample,76601,0,"E3S_s.wav",61
Sample,76601,0,"B4S_s.wav",65
Sample,76801,0,"C3S_s.wav",88
Sample,76801,0,"C5S_s.wav",75
Sample,76801,0,"D#4S_Eb4S_s.wav",82
Sample,76801,0,"C5S_s.wav",74
Sample,76801,0,"E3S_s.wav",47
Sample,76801,0,"D#5S_Eb5S_s.wav",61
Sample,76801,0,"C4S_s.wav",100
Sample,76801,0,"D#5S_Eb5S_s.wav",77
Sample,76801,0,"C4S_s.wav",100
Sample,77001,0,"C5S_s.wav",72
Sample,77001,0,"E3S_s.wav",74
Sample,77001,0,"D#4S_Eb4S_s.wav",89
Sample,77001,0,"F#3S_Gb3S_s.wav",100
Sample,77001,0,"D#5S_Eb5S_s.wav",66
Sample,77201,0,"C3S_s.wav",88
Sample,77201,0,"G#3S_Ab3S_s.wav",100
Sample,77201,0,"G#3S_Ab3S_s.wav",100
Sample,77201,0,"D#4S_Eb4S_s.wav",82
Sample,77201,0,"E3S_s.wav",26
Sample,77201,0,"C5S_s.wav",74
Sample,77401,0,"C3S_s.wav",56
Sample,77401,0,"D#4S_Eb4S_s.wav",89
Sample,77401,0,"F#3S_Gb3S_s.wav",100
Sample,77401,0,"C5S_s.wav",64
Sample,77401,0,"E3S_s.wav",46
Sample,77401,0,"D#5S_Eb5S_s.wav",52
Sample,77601,0,"C3S_s.wav",88
Sample,77601,0,"A#4S_Bb4S_s.wav",64
Sample,77601,0,"D#4S_Eb4S_s.wav",77
Sample,77601,0,"D5S_s.wav",70
Sample,77601,0,"E3S_s.wav",26
Sample,77601,0,"D5S_s.wav",74
Sample,77601,0,"A#3S_Bb3S_s.wav",100
Sample,77601,0,"F5S_s.wav",71
Sample,77601,0,"A#3S_Bb3S_s.wav",100
Sample,77601,0,"F5S_s.wav",77
Sample,77801,0,"E3S_s.wav",74
Sample,77801,0,"A#4S_Bb4S_s.wav",64
Sample,77801,0,"D#4S_Eb4S_s.wav",89
Sample,77801,0,"D5S_s.wav",70
Sample,77801,0,"F#3S_Gb3S_s.wav",100
Sample,78001,0,"A#3S_Bb3S_s.wav",100
Sample,78001,0,"C3S_s.wav",88
Sample,78001,0,"D5S_s.wav",74
Sample,78001,0,"E3S_s.wav",26
Sample,78001,0,"D#4S_Eb4S_s.wav",77
Sample,78001,0,"A#3S_Bb3S_s.wav",100
Sample,78201,0,"D#4S_Eb4S_s.wav",89
Sample,78201,0,"C3S_s.wav",56
Sample,78201,0,"F#3S_Gb3S_s.wav",100
Sample,78201,0,"E3S_s.wav",42
Sample,78201,0,"A#4S_Bb4S_s.wav",64
Sample,78401,0,"A#4S_Bb4S_s.wav",66
Sample,78401,0,"C3S_s.wav",88
Sample,78401,0,"D#4S_Eb4S_s.wav",82
Sample,78401,0,"D#5S_Eb5S_s.wav",66
Sample,78401,0,"E3S_s.wav",26
Sample,78401,0,"D#3S_Eb3S_s.wav",100
Sample,78401,0,"D#3S_Eb3S_s.wav",100
Sample,78601,0,"A#4S_Bb4S_s.wav",68
Sample,78601,0,"E3S_s.wav",74
Sample,78601,0,"D#4S_Eb4S_s.wav",89
Sample,78601,0,"F#3S_Gb3S_s.wav",100
Sample,78801,0,"G3S_s.wav",100
Sample,78801,0,"C3S_s.wav",88
Sample,78801,0,"D#5S_Eb5S_s.wav",74
Sample,78801,0,"E3S_s.wav",26
Sample,78801,0,"D#4S_Eb4S_s.wav",82
Sample,78801,0,"G3S_s.wav",100
Sample,78801,0,"G5S_s.wav",77
Sample,79001,0,"C3S_s.wav",56
Sample,79001,0,"D#4S_Eb4S_s.wav",89
Sample,79001,0,"F#3S_Gb3S_s.wav",100
Sample,79001,0,"A#4S_Bb4S_s.wav",57
Sample,79001,0,"E3S_s.wav",47
Sample,79201,0,"B3S_s.wav",100
Sample,79201,0,"C3S_s.wav",88
Sample,79201,0,"B4S_s.wav",76
Sample,79201,0,"E3S_s.wav",26
Sample,79201,0,"D#4S_Eb4S_s.wav",77
Sample,79201,0,"B3S_s.wav",100
Sample,79201,0,"D5S_s.wav",77
Sample,79401,0,"F#3S_Gb3S_s.wav",100
Sample,79401,0,"D#4S_Eb4S_s.wav",89
Sample,79401,0,"E3S_s.wav",74
Sample,79401,0,"B4S_s.wav",76
Sample,79601,0,"B4S_s.wav",74
Sample,79601,0,"C3S_s.wav",88
Sample,79601,0,"D#4S_Eb4S_s.wav",77
Sample,79601,0,"D5S_s.wav",77
Sample,79601,0,"D4S_s.wav",100
Sample,79601,0,"D4S_s.wav",100
Sample,79601,0,"E3S_s.wav",71
Sample,79801,0,"D#4S_Eb4S_s.wav",89
Sample,79801,0,"C3S_s.wav",56
Sample,79801,0,"F#3S_Gb3S_s.wav",100
Sample,79801,0,"E3S_s.wav",55
Sample,79801,0,"B4S_s.wav",63
Sample,80001,0,"C3S_s.wav",88
Sample,80001,0,"C4S_s.wav",92
Sample,80001,0,"C4S_s.wav",100
Sample,80001,0,"D#4S_Eb4S_s.wav",82
Sample,80001,0,"E3S_s.wav",46
Sample,80001,0,"C5S_s.wav",66
Sample,80201,0,"E3S_s.wav",74
Sample,80201,0,"C5S_s.wav",80
Sample,80201,0,"D#4S_Eb4S_s.wav",89
Sample,80201,0,"D#5S_Eb5S_s.wav",64
Sample,80201,0,"F#3S_Gb3S_s.wav",100
Sample,80401,0,"E3S_s.wav",71
Sample,80401,0,"C3S_s.wav",88
Sample,80401,0,"A#3S_Bb3S_s.wav",100
Sample,80601,0,"C3S_s.wav",56
Sample,80601,0,"D#4S_Eb4S_s.wav",89
Sample,80601,0,"F#3S_Gb3S_s.wav",100
Sample,80601,0,"C5S_s.wav",79
Sample,80601,0,"E3S_s.wav",57
Sample,80601,0,"D#5S_Eb5S_s.wav",59
Sample,80801,0,"C5S_s.wav",84
Sample,80801,0,"C3S_s.wav",88
Sample,80801,0,"D#4S_Eb4S_s.wav",77
Sample,80801,0,"D#5S_Eb5S_s.wav",74
Sample,80801,0,"G#3S_Ab3S_s.wav",92
Sample,80801,0,"G#3S_Ab3S_s.wav",100
Sample,80801,0,"E3S_s.wav",26
Sample,81001,0,"C5S_s.wav",80
Sample,81001,0,"E3S_s.wav",74
Sample,81001,0,"D#4S_Eb4S_s.wav",89
Sample,81001,0,"F#3S_Gb3S_s.wav",100
Sample,81201,0,"E3S_s.wav",26
Sample,81201,0,"C3S_s.wav",88
Sample,81201,0,"F3S_s.wav",100
Sample,81401,0,"C3S_s.wav",56
Sample,81401,0,"D#4S_Eb4S_s.wav",89
Sample,81401,0,"F#3S_Gb3S_s.wav",100
Sample,81401,0,"C5S_s.wav",81
Sample,81401,0,"E3S_s.wav",52
Sample,81601,0,"E3S_s.wav",26
Sample,81601,0,"C3S_s.wav",88
Sample,81601,0,"A4S_s.wav",77
Sample,81601,0,"D3S_s.wav",100
Sample,81601,0,"D#4S_Eb4S_s.wav",82
Sample,81601,0,"D3S_s.wav",92
Sample,81601,0,"D5S_s.wav",63
Sample,81801,0,"F#3S_Gb3S_s.wav",100
Sample,81801,0,"D#4S_Eb4S_s.wav",89
Sample,81801,0,"E3S_s.wav",74
Sample,81801,0,"A4S_s.wav",80
Sample,82001,0,"C3S_s.wav",88
Sample,82001,0,"E3S_s.wav",26
Sample,82001,0,"D3S_s.wav",92
Sample,82001,0,"D#4S_Eb4S_s.wav",82
Sample,82001,0,"D3S_s.wav",100
Sample,82001,0,"A4S_s.wav",71
Sample,82201,0,"C3S_s.wav",56
Sample,82201,0,"D#4S_Eb4S_s.wav",89
Sample,82201,0,"F#3S_Gb3S_s.wav",100
Sample,82201,0,"A4S_s.wav",74
Sample,82201,0,"E3S_s.wav",54
Sample,82201,0,"D5S_s.wav",55
Sample,82401,0,"A4S_s.wav",75
Sample,82401,0,"C3S_s.wav",88
Sample,82401,0,"D#4S_Eb4S_s.wav",77
Sample,82401,0,"D5S_s.wav",65
Sample,82401,0,"F#3S_Gb3S_s.wav",92
Sample,82401,0,"F#3S_Gb3S_s.wav",100
Sample,82401,0,"E3S_s.wav",26
Sample,82601,0,"A4S_s.wav",88
Sample,82601,0,"E3S_s.wav",74
Sample,82601,0,"D#4S_Eb4S_s.wav",89
Sample,82601,0,"F#3S_Gb3S_s.wav",100
Sample,82601,0,"D5S_s.wav",76
Sample,82801,0,"C3S_s.wav",88
Sample,82801,0,"A3S_s.wav",92
Sample,82801,0,"A3S_s.wav",100
Sample,82801,0,"D#4S_Eb4S_s.wav",77
Sample,82801,0,"E3S_s.wav",26
Sample,82801,0,"D5S_s.wav",74
Sample,83001,0,"C3S_s.wav",56
Sample,83001,0,"D#4S_Eb4S_s.wav",89
Sample,83001,0,"F#3S_Gb3S_s.wav",100
Sample,83001,0,"A4S_s.wav",77
Sample,83001,0,"E3S_s.wav",52
Sample,83201,0,"G3S_s.wav",92
Sample,83201,0,"C3S_s.wav",88
Sample,83201,0,"B4S_s.wav",76
Sample,83201,0,"E3S_s.wav",26
Sample,83201,0,"D#4S_Eb4S_s.wav",82
Sample,83201,0,"G3S_s.wav",100
Sample,83201,0,"D5S_s.wav",69
Sample,83401,0,"F#3S_Gb3S_s.wav",100
Sample,83401,0,"D#4S_Eb4S_s.wav",89
Sample,83401,0,"E3S_s.wav",74
Sample,83401,0,"B4S_s.wav",73
Sample,83601,0,"E3S_s.wav",26
Sample,83601,0,"G3S_s.wav",100
Sample,83601,0,"C3S_s.wav",88
Sample,83601,0,"G3S_s.wav",92
Sample,83801,0,"C3S_s.wav",56
Sample,83801,0,"D#4S_Eb4S_s.wav",89
Sample,83801,0,"F#3S_Gb3S_s.wav",100
Sample,83801,0,"B4S_s.wav",70
Sample,83801,0,"E3S_s.wav",47
Sample,84001,0,"A3S_s.wav",92
Sample,84001,0,"C3S_s.wav",88
Sample,84001,0,"B4S_s.wav",69
Sample,84001,0,"E3S_s.wav",26
Sample,84001,0,"D#4S_Eb4S_s.wav",77
Sample,84001,0,"A3S_s.wav",100
Sample,84001,0,"D5S_s.wav",66
Sample,84201,0,"F#3S_Gb3S_s.wav",100
Sample,84201,0,"D#4S_Eb4S_s.wav",89
Sample,84201,0,"E3S_s.wav",74
Sample,84201,0,"B4S_s.wav",76
Sample,84401,0,"E3S_s.wav",26
Sample,84401,0,"B3S_s.wav",100
Sample,84401,0,"C3S_s.wav",88
Sample,84401,0,"B3S_s.wav",92
Sample,84601,0,"C3S_s.wav",56
Sample,84601,0,"D#4S_Eb4S_s.wav",89
Sample,84601,0,"F#3S_Gb3S_s.wav",100
Sample,84601,0,"B4S_s.wav",68
Sample,84601,0,"E3S_s.wav",51
Sample,84801,0,"C4S_s.wav",92
Sample,84801,0,"C3S_s.wav",88
Sample,84801,0,"C5S_s.wav",70
Sample,84801,0,"E3S_s.wav",26
Sample,84801,0,"D#4S_Eb4S_s.wav",82
Sample,84801,0,"C4S_s.wav",100
Sample,84801,0,"D#5S_Eb5S_s.wav",63
Sample,85001,0,"F#5S_Gb5S_s.wav",88
Sample,85001,0,"E3S_s.wav",74
Sample,85001,0,"D#5S_Eb5S_s.wav",68
Sample,85001,0,"F#5S_Gb5S_s.wav",88
Sample,85001,0,"C5S_s.wav",81
Sample,85001,0,"D#4S_Eb4S_s.wav",89
Sample,85001,0,"F#3S_Gb3S_s.wav",100
Sample,85001,0,"G5S_s.wav",68
Sample,85201,0,"E3S_s.wav",26
Sample,85201,0,"A3S_s.wav",100
Sample,85201,0,"C3S_s.wav",88
Sample,85401,0,"G5S_s.wav",92
Sample,85401,0,"E3S_s.wav",48
Sample,85401,0,"D5S_s.wav",43
Sample,85401,0,"G5S_s.wav",53
Sample,85401,0,"D#4S_Eb4S_s.wav",89
Sample,85401,0,"C3S_s.wav",56
Sample,85401,0,"F#3S_Gb3S_s.wav",100
Sample,85401,0,"B4S_s.wav",55
Sample,85401,0,"G5S_s.wav",92
Sample,85601,0,"C3S_s.wav",88
Sample,85601,0,"B4S_s.wav",70
Sample,85601,0,"D#4S_Eb4S_s.wav",77
Sample,85601,0,"D5S_s.wav",63
Sample,85601,0,"E3S_s.wav",26
Sample,85601,0,"G5S_s.wav",74
Sample,85601,0,"D4S_s.wav",92
Sample,85601,0,"D#6S_Eb6S_s.wav",100
Sample,85601,0,"D4S_s.wav",100
Sample,85601,0,"D#6S_Eb6S_s.wav",100
Sample,85801,0,"F#3S_Gb3S_s.wav",100
Sample,85801,0,"D#4S_Eb4S_s.wav",89
Sample,85801,0,"E3S_s.wav",74
Sample,85801,0,"B4S_s.wav",81
Sample,85901,0,"D6S_s.wav",100
Sample,85901,0,"D6S_s.wav",100
Sample,85901,0,"E3S_s.wav",26
Sample,86001,0,"E3S_s.wav",26
Sample,86001,0,"C3S_s.wav",88
Sample,86001,0,"G3S_s.wav",100
Sample,86201,0,"C3S_s.wav",56
Sample,86201,0,"D#4S_Eb4S_s.wav",89
Sample,86201,0,"F#3S_Gb3S_s.wav",100
Sample,86201,0,"B5S_s.wav",97
Sample,86201,0,"E3S_s.wav",51
Sample,86201,0,"B5S_s.wav",97
Sample,86401,0,"C6S.wav",92
Sample,86401,0,"C3S_s.wav",88
Sample,86401,0,"C6S.wav",97
Sample,86401,0,"C6S.wav",100
Sample,86401,0,"G5S_s.wav",78
Sample,86401,0,"C#4S_Db4S_s.wav",100
Sample,86401,0,"C4S_s.wav",88
Sample,86401,0,"C7S.wav",97
Sample,87001,0,"E3S_s.wav",85
Sample,87001,0,"F#3S_Gb3S_s.wav",76
Sample,87201,0,"C3S_s.wav",88
Sample,87401,0,"E3S_s.wav",85
Sample,87801,0,"E3S_s.wav",85
Sample,87801,0,"C6S_s.wav",92
Sample,88001,0,"C3S_s.wav",88
Sample,88001,0,"G#3S_Ab3S_s.wav",88
Sample,88601,0,"F#3S_Gb3S_s.wav",76
Sample,88601,0,"C5S_s.wav",74
Sample,88601,0,"E3S_s.wav",85
Sample,88601,0,"C6S_s.wav",92
Sample,88801,0,"C3S_s.wav",88
Sample,88801,0,"G#3S_Ab3S_s.wav",97
Sample,89201,0,"G#3S_Ab3S_s.wav",92
Sample,89201,0,"G#5S_Ab5S_s.wav",92
Sample,89201,0,"C3S_s.wav",88
Sample,89601,0,"D#3S_Eb3S_s.wav",100
Sample,89601,0,"C3S_s.wav",88
Sample,89801,0,"E3S_s.wav",85
Sample,90601,0,"F#3S_Gb3S_s.wav",76
Sample,90601,0,"A#5S_Bb5S_s.wav",92
Sample,90601,0,"E3S_s.wav",85
Sample,90701,0,"A#4S_Bb4S_s.wav",91
Sample,90901,0,"E3S_s.wav",85
Sample,90901,0,"G#5S_Ab5S_s.wav",92
Sample,91001,0,"E3S_s.wav",85
Sample,91201,0,"G3S_s.wav",100
Sample,91201,0,"C3S_s.wav",88
Sample,91201,0,"G5S_s.wav",92
Sample,91601,0,"C3S_s.wav",88
Sample,91801,0,"D5S_s.wav",73
Sample,91801,0,"E3S_s.wav",85
Sample,91801,0,"B4S_s.wav",62
Sample,91801,0,"F#3S_Gb3S_s.wav",76
Sample,92001,0,"G3S_s.wav",100
Sample,92001,0,"C3S_s.wav",88
Sample,92001,0,"D#6S_Eb6S_s.wav",40
Sample,92201,0,"E3S_s.wav",85
Sample,92301,0,"D5S_s.wav",100
Sample,92401,0,"C3S_s.wav",88
Sample,92401,0,"G3S_s.wav",100
Sample,92601,0,"D5S_s.wav",100
Sample,92601,0,"G5S_s.wav",100
Sample,92601,0,"E3S_s.wav",85
Sample,92601,0,"B5S_s.wav",56
Sample,92801,0,"C4S_s.wav",100
Sample,92801,0,"G5S_s.wav",78
Sample,92801,0,"C3S_s.wav",88
Sample,93201,0,"C3S_s.wav",88
Sample,93401,0,"F#3S_Gb3S_s.wav",76
Sample,93401,0,"C5S_s.wav",67
Sample,93401,0,"E3S_s.wav",85
Sample,93601,0,"C4S_s.wav",97
Sample,93601,0,"C3S_s.wav",88
Sample,93801,0,"F#3S_Gb3S_s.wav",76
Sample,93801,0,"E3S_s.wav",85
Sample,94401,0,"G#3S_Ab3S_s.wav",97
Sample,94401,0,"C3S_s.wav",88
Sample,94401,0,"G#5S_Ab5S_s.wav",78
Sample,94601,0,"E3S_s.wav",85
Sample,95001,0,"F#3S_Gb3S_s.wav",76
Sample,95001,0,"E3S_s.wav",85
Sample,95001,0,"C5S_s.wav",74
Sample,95201,0,"C3S_s.wav",88
Sample,95201,0,"G#3S_Ab3S_s.wav",99
Sample,95401,0,"E3S_s.wav",85
Sample,95401,0,"F#3S_Gb3S_s.wav",76
Sample,96001,0,"C3S_s.wav",88
Sample,96001,0,"D#3S_Eb3S_s.wav",100
Sample,96801,0,"C3S_s.wav",88
Sample,97001,0,"F#3S_Gb3S_s.wav",76
Sample,97001,0,"E3S_s.wav",85
Sample,97001,0,"A#5S_Bb5S_s.wav",92
Sample,97101,0,"A#4S_Bb4S_s.wav",91
Sample,97401,0,"A#4S_Bb4S_s.wav",79
Sample,97401,0,"E3S_s.wav",85
Sample,97401,0,"D#5S_Eb5S_s.wav",81
Sample,97601,0,"G3S_s.wav",96
Sample,97601,0,"G5S_s.wav",92
Sample,97601,0,"C3S_s.wav",88
Sample,98201,0,"F#3S_Gb3S_s.wav",76
Sample,98201,0,"E3S_s.wav",85
Sample,98401,0,"C3S_s.wav",88
Sample,98601,0,"E3S_s.wav",85
Sample,98701,0,"F#5S_Gb5S_s.wav",70
Sample,98701,0,"D5S_s.wav",100
Sample,98801,0,"C3S_s.wav",88
Sample,99001,0,"D5S_s.wav",100
Sample,99001,0,"G5S_s.wav",100
Sample,99001,0,"E3S_s.wav",85
Sample,99201,0,"C6S_s.wav",92
Sample,99201,0,"C3S_s.wav",88
Sample,99201,0,"G5S_s.wav",78
Sample,99201,0,"C4S_s.wav",94
Sample,99401,0,"E3S_s.wav",85
Sample,99801,0,"F#3S_Gb3S_s.wav",76
Sample,99801,0,"C5S_s.wav",67
Sample,99801,0,"E3S_s.wav",85
Sample,99801,0,"C6S_s.wav",53
Sample,100001,0,"C3S_s.wav",88
Sample,100013,0,"C5S_s.wav",70
Sample,100201,0,"E3S_s.wav",85
Sample,100301,0,"G#5S_Ab5S_s.wav",53
Sample,100601,0,"E3S_s.wav",85
Sample,100801,0,"G#3S_Ab3S_s.wav",97
Sample,100801,0,"C3S_s.wav",88
Sample,100801,0,"G#5S_Ab5S_s.wav",78
Sample,101201,0,"C3S_s.wav",88
Sample,101401,0,"E3S_s.wav",85
Sample,101601,0,"C3S_s.wav",88
Sample,101613,0,"C5S_s.wav",70
Sample,102001,0,"C3S_s.wav",88
Sample,102401,0,"D#3S_Eb3S_s.wav",97
Sample,102401,0,"C3S_s.wav",88
Sample,102401,0,"G5S_s.wav",92
Sample,102601,0,"E3S_s.wav",85
Sample,103401,0,"F#3S_Gb3S_s.wav",76
Sample,103401,0,"E3S_s.wav",85
Sample,103401,0,"A#5S_Bb5S_s.wav",92
Sample,103501,0,"A#4S_Bb4S_s.wav",91
Sample,103701,0,"G#5S_Ab5S_s.wav",92
Sample,103701,0,"E3S_s.wav",85
Sample,103801,0,"E3S_s.wav",85
Sample,104001,0,"C3S_s.wav",88
Sample,104001,0,"G3S_s.wav",100
Sample,104201,0,"E3S_s.wav",85
Sample,104301,0,"G5S_s.wav",100
Sample,104401,0,"C3S_s.wav",88
Sample,104601,0,"D5S_s.wav",73
Sample,104601,0,"E3S_s.wav",85
Sample,104601,0,"B4S_s.wav",62
Sample,104601,0,"F#3S_Gb3S_s.wav",76
Sample,104801,0,"G3S_s.wav",100
Sample,104801,0,"C3S_s.wav",88
Sample,105001,0,"E3S_s.wav",85
Sample,105101,0,"D5S_s.wav",100
Sample,105201,0,"G3S_s.wav",100
Sample,105201,0,"C3S_s.wav",88
Sample,105401,0,"B5S_s.wav",56
Sample,105401,0,"E3S_s.wav",85
Sample,105401,0,"G5S_s.wav",100
Sample,105401,0,"D5S_s.wav",100
Sample,105601,0,"C4S_s.wav",100
Sample,105601,0,"C3S_s.wav",88
Sample,105601,0,"G5S_s.wav",78
Sample,105801,0,"E3S_s.wav",85
Sample,106201,0,"E3S_s.wav",85
Sample,106401,0,"C4S_s.wav",100
Sample,106401,0,"B5S_s.wav",68
Sample,106401,0,"C3S_s.wav",88
Sample,106601,0,"F#3S_Gb3S_s.wav",76
Sample,106601,0,"E3S_s.wav",85
Sample,106601,0,"G5S.wav",68
Sample,107001,0,"E3S_s.wav",85
Sample,107201,0,"G#3S_Ab3S_s.wav",100
Sample,107201,0,"C3S_s.wav",88
Sample,107201,0,"G#5S_Ab5S_s.wav",78
Sample,107801,0,"E3S_s.wav",85
Sample,108001,0,"G#3S_Ab3S_s.wav",100
Sample,108001,0,"C3S_s.wav",88
Sample,108001,0,"A#5S_Bb5S_s.wav",92
Sample,108201,0,"E3S_s.wav",85
Sample,108401,0,"G#3S_Ab3S_s.wav",94
Sample,108401,0,"C3S_s.wav",88
Sample,108801,0,"C3S_s.wav",88
Sample,109101,0,"G5S_s.wav",91
Sample,109801,0,"E3S_s.wav",85
Sample,109819,0,"B6S_s.wav",53
Sample,109901,0,"A#4S_Bb4S_s.wav",91
Sample,110201,0,"A#4S_Bb4S_s.wav",79
Sample,110201,0,"D#5S_Eb5S_s.wav",81
Sample,110201,0,"E3S_s.wav",85
Sample,110401,0,"G3S_s.wav",100
Sample,110401,0,"C3S_s.wav",88
Sample,110601,0,"E3S_s.wav",85
Sample,110669,0,"D#6S_Eb6S.wav",93
Sample,110672,0,"B5S.wav",93
Sample,110676,0,"G5S.wav",93
Sample,110701,0,"G5S_s.wav",100
Sample,110801,0,"C3S_s.wav",88
Sample,111001,0,"F#3S_Gb3S_s.wav",76
Sample,111001,0,"E3S_s.wav",85
Sample,111001,0,"B4S_s.wav",62
Sample,111201,0,"C3S_s.wav",88
Sample,111401,0,"E3S_s.wav",85
Sample,111405,0,"C6S_s.wav",66
Sample,111418,0,"F6S_s.wav",66
Sample,111443,0,"D6S_s.wav",66
Sample,111493,0,"G6S_s.wav",64
Sample,111501,0,"D5S_s.wav",100
Sample,111518,0,"E6S_s.wav",64
Sample,111569,0,"G#6S_Ab6S_s.wav",70
Sample,111594,0,"F6S_s.wav",70
Sample,111601,0,"C3S_s.wav",88
Sample,111638,0,"A#6S_Bb6S_s.wav",76
Sample,111663,0,"G6S_s.wav",76
Sample,111709,0,"C7S_s.wav",74
Sample,111734,0,"A6S_s.wav",74
Sample,111788,0,"D7S_s.wav",71
Sample,111801,0,"E3S_s.wav",85
Sample,111801,0,"D5S_s.wav",100
Sample,111988,0,"C7S.wav",85
Sample,112001,0,"G5S_s.wav",69
Sample,112001,0,"E3S_s.wav",26
Sample,112001,0,"C5S_s.wav",79
Sample,112001,0,"D#5S_Eb5S_s.wav",68
Sample,112001,0,"C4S_s.wav",92
Sample,112001,0,"C3S_s.wav",88
Sample,112001,0,"C4S_s.wav",100
Sample,112001,0,"C#4S_Db4S_s.wav",100
Sample,112201,0,"C5S_s.wav",68
Sample,112201,0,"E3S_s.wav",74
Sample,112201,0,"D#4S_Eb4S_s.wav",89
Sample,112201,0,"F#3S_Gb3S_s.wav",100
Sample,112401,0,"A#3S_Bb3S_s.wav",99
Sample,112401,0,"C3S_s.wav",88
Sample,112401,0,"A#3S_Bb3S_s.wav",100
Sample,112401,0,"E3S_s.wav",26
Sample,112601,0,"D#4S_Eb4S_s.wav",89
Sample,112601,0,"C3S_s.wav",56
Sample,112601,0,"D#5S_Eb5S_s.wav",57
Sample,112601,0,"E3S_s.wav",59
Sample,112601,0,"C5S_s.wav",70
Sample,112601,0,"F#3S_Gb3S_s.wav",100
Sample,112801,0,"G#3S_Ab3S_s.wav",92
Sample,112801,0,"C3S_s.wav",88
Sample,112801,0,"C5S_s.wav",87
Sample,112801,0,"E3S_s.wav",32
Sample,112801,0,"D#4S_Eb4S_s.wav",77
Sample,112801,0,"G#3S_Ab3S_s.wav",100
Sample,112801,0,"D#5S_Eb5S_s.wav",73
Sample,113001,0,"E3S_s.wav",74
Sample,113001,0,"C5S_s.wav",81
Sample,113001,0,"D#4S_Eb4S_s.wav",89
Sample,113001,0,"D#5S_Eb5S_s.wav",66
Sample,113001,0,"F#3S_Gb3S_s.wav",100
Sample,113201,0,"F3S_s.wav",93
Sample,113201,0,"C3S_s.wav",88
Sample,113201,0,"G#4S_Ab4S_s.wav",74
Sample,113201,0,"E3S_s.wav",26
Sample,113201,0,"D#4S_Eb4S_s.wav",77
Sample,113201,0,"F3S_s.wav",100
Sample,113401,0,"D#4S_Eb4S_s.wav",89
Sample,113401,0,"C3S_s.wav",56
Sample,113401,0,"F#3S_Gb3S_s.wav",100
Sample,113401,0,"E3S_s.wav",57
Sample,113401,0,"C5S_s.wav",81
Sample,113601,0,"A#4S_Bb4S_s.wav",66
Sample,113601,0,"C3S_s.wav",88
Sample,113601,0,"D#4S_Eb4S_s.wav",82
Sample,113601,0,"D5S_s.wav",74
Sample,113601,0,"A#3S_Bb3S_s.wav",96
Sample,113601,0,"A#3S_Bb3S_s.wav",100
Sample,113601,0,"E3S_s.wav",30
Sample,113801,0,"A#4S_Bb4S_s.wav",57
Sample,113801,0,"E3S_s.wav",76
Sample,113801,0,"D#4S_Eb4S_s.wav",89
Sample,113801,0,"F#3S_Gb3S_s.wav",100
Sample,114001,0,"D3S_s.wav",100
Sample,114001,0,"C3S_s.wav",88
Sample,114001,0,"D3S_s.wav",92
Sample,114201,0,"C3S_s.wav",56
Sample,114201,0,"D#4S_Eb4S_s.wav",89
Sample,114201,0,"F#3S_Gb3S_s.wav",100
Sample,114201,0,"A#4S_Bb4S_s.wav",61
Sample,114201,0,"E3S_s.wav",47
Sample,114201,0,"D5S_s.wav",66
Sample,114401,0,"B4S_s.wav",72
Sample,114401,0,"C3S_s.wav",88
Sample,114401,0,"D#4S_Eb4S_s.wav",77
Sample,114401,0,"D5S_s.wav",67
Sample,114401,0,"G3S_s.wav",89
Sample,114401,0,"G3S_s.wav",99
Sample,114401,0,"E3S_s.wav",26
Sample,114601,0,"B4S_s.wav",72
Sample,114601,0,"E3S_s.wav",74
Sample,114601,0,"G5S_s.wav",70
Sample,114601,0,"F#3S_Gb3S_s.wav",100
Sample,114601,0,"D5S_s.wav",67
Sample,114601,0,"D#4S_Eb4S_s.wav",89
Sample,114601,0,"G5S_s.wav",71
Sample,114801,0,"E3S_s.wav",26
Sample,114801,0,"B3S_s.wav",100
Sample,114801,0,"C3S_s.wav",88
Sample,115001,0,"D#4S_Eb4S_s.wav",89
Sample,115001,0,"C3S_s.wav",56
Sample,115001,0,"F#3S_Gb3S_s.wav",100
Sample,115001,0,"E3S_s.wav",47
Sample,115001,0,"B4S_s.wav",65
Sample,115201,0,"C5S_s.wav",75
Sample,115201,0,"C3S_s.wav",88
Sample,115201,0,"D#4S_Eb4S_s.wav",82
Sample,115201,0,"D#5S_Eb5S_s.wav",61
Sample,115201,0,"C4S_s.wav",100
Sample,115201,0,"C4S_s.wav",100
Sample,115201,0,"E3S_s.wav",26
Sample,115401,0,"C5S_s.wav",72
Sample,115401,0,"E3S_s.wav",74
Sample,115401,0,"D#4S_Eb4S_s.wav",89
Sample,115401,0,"F#3S_Gb3S_s.wav",100
Sample,115601,0,"E3S_s.wav",26
Sample,115601,0,"C3S_s.wav",88
Sample,115601,0,"G#3S_Ab3S_s.wav",100
Sample,115801,0,"C3S_s.wav",56
Sample,115801,0,"D#4S_Eb4S_s.wav",89
Sample,115801,0,"F#3S_Gb3S_s.wav",100
Sample,115801,0,"C5S_s.wav",64
Sample,115801,0,"E3S_s.wav",74
Sample,115801,0,"D#5S_Eb5S_s.wav",52
Sample,116001,0,"C3S_s.wav",88
Sample,116001,0,"A#4S_Bb4S_s.wav",64
Sample,116001,0,"D#4S_Eb4S_s.wav",77
Sample,116001,0,"A#4S_Bb4S_s.wav",62
Sample,116001,0,"E3S_s.wav",26
Sample,116001,0,"D5S_s.wav",70
Sample,116001,0,"A#3S_Bb3S_s.wav",100
Sample,116001,0,"D5S_s.wav",65
Sample,116001,0,"A#3S_Bb3S_s.wav",100
Sample,116001,0,"F5S_s.wav",71
Sample,116201,0,"E3S_s.wav",74
Sample,116201,0,"A#4S_Bb4S_s.wav",64
Sample,116201,0,"D#4S_Eb4S_s.wav",89
Sample,116201,0,"D5S_s.wav",70
Sample,116201,0,"F#3S_Gb3S_s.wav",100
Sample,116301,0,"A#4S_Bb4S_s.wav",74
Sample,116301,0,"E3S_s.wav",66
Sample,116401,0,"E3S_s.wav",26
Sample,116401,0,"C3S_s.wav",88
Sample,116401,0,"A#3S_Bb3S_s.wav",100
Sample,116601,0,"C3S_s.wav",56
Sample,116601,0,"D#4S_Eb4S_s.wav",89
Sample,116601,0,"F#3S_Gb3S_s.wav",100
Sample,116601,0,"A#4S_Bb4S_s.wav",64
Sample,116601,0,"E3S_s.wav",48
Sample,116801,0,"E3S_s.wav",26
Sample,116801,0,"C3S_s.wav",88
Sample,116801,0,"A#4S_Bb4S_s.wav",66
Sample,116801,0,"D#3S_Eb3S_s.wav",100
Sample,116801,0,"D#4S_Eb4S_s.wav",82
Sample,116801,0,"D#3S_Eb3S_s.wav",100
Sample,116801,0,"D#5S_Eb5S_s.wav",66
Sample,117001,0,"D#5S_Eb5S_s.wav",66
Sample,117001,0,"E3S_s.wav",74
Sample,117001,0,"A#4S_Bb4S_s.wav",74
Sample,117001,0,"D#5S_Eb5S_s.wav",77
Sample,117001,0,"A#4S_Bb4S_s.wav",68
Sample,117001,0,"D#4S_Eb4S_s.wav",89
Sample,117001,0,"F#3S_Gb3S_s.wav",100
Sample,117201,0,"G3S_s.wav",100
Sample,117201,0,"C3S_s.wav",88
Sample,117201,0,"G3S_s.wav",100
Sample,117201,0,"E3S_s.wav",26
Sample,117401,0,"D#4S_Eb4S_s.wav",89
Sample,117401,0,"C3S_s.wav",56
Sample,117401,0,"F#3S_Gb3S_s.wav",100
Sample,117401,0,"E3S_s.wav",48
Sample,117401,0,"A#4S_Bb4S_s.wav",57
Sample,117601,0,"B4S_s.wav",76
Sample,117601,0,"C3S_s.wav",88
Sample,117601,0,"D#4S_Eb4S_s.wav",77
Sample,117601,0,"D5S_s.wav",77
Sample,117601,0,"B3S_s.wav",100
Sample,117601,0,"B3S_s.wav",100
Sample,117601,0,"E3S_s.wav",26
Sample,117801,0,"B4S_s.wav",76
Sample,117801,0,"E3S_s.wav",74
Sample,117801,0,"D5S_s.wav",69
Sample,117801,0,"F#3S_Gb3S_s.wav",100
Sample,117801,0,"D5S_s.wav",70
Sample,117801,0,"D#4S_Eb4S_s.wav",89
Sample,117801,0,"G5S_s.wav",71
Sample,118001,0,"E3S_s.wav",26
Sample,118001,0,"D4S_s.wav",100
Sample,118001,0,"C3S_s.wav",88
Sample,118001,0,"D4S_s.wav",100
Sample,118201,0,"C3S_s.wav",56
Sample,118201,0,"D#4S_Eb4S_s.wav",89
Sample,118201,0,"F#3S_Gb3S_s.wav",100
Sample,118201,0,"B4S_s.wav",63
Sample,118201,0,"E3S_s.wav",51
Sample,118401,0,"C4S_s.wav",92
Sample,118401,0,"C3S_s.wav",88
Sample,118401,0,"C5S_s.wav",66
Sample,118401,0,"E3S_s.wav",26
Sample,118401,0,"D#4S_Eb4S_s.wav",82
Sample,118401,0,"C4S_s.wav",100
Sample,118601,0,"C5S_s.wav",80
Sample,118601,0,"E3S_s.wav",74
Sample,118601,0,"D#4S_Eb4S_s.wav",89
Sample,118601,0,"F#3S_Gb3S_s.wav",100
Sample,118601,0,"D#5S_Eb5S_s.wav",64
Sample,118801,0,"E3S_s.wav",26
Sample,118801,0,"A#3S_Bb3S_s.wav",100
Sample,118801,0,"C3S_s.wav",88
Sample,119001,0,"D#4S_Eb4S_s.wav",89
Sample,119001,0,"C3S_s.wav",56
Sample,119001,0,"D#5S_Eb5S_s.wav",59
Sample,119001,0,"E3S_s.wav",60
Sample,119001,0,"C5S_s.wav",79
Sample,119001,0,"F#3S_Gb3S_s.wav",100
Sample,119201,0,"G#3S_Ab3S_s.wav",92
Sample,119201,0,"C3S_s.wav",88
Sample,119201,0,"C5S_s.wav",84
Sample,119201,0,"E3S_s.wav",26
Sample,119201,0,"D#4S_Eb4S_s.wav",77
Sample,119201,0,"G#3S_Ab3S_s.wav",100
Sample,119201,0,"D#5S_Eb5S_s.wav",74
Sample,119401,0,"E3S_s.wav",74
Sample,119401,0,"C5S_s.wav",80
Sample,119401,0,"D#4S_Eb4S_s.wav",89
Sample,119401,0,"D#5S_Eb5S_s.wav",66
Sample,119401,0,"F#3S_Gb3S_s.wav",100
Sample,119601,0,"E3S_s.wav",26
Sample,119601,0,"C3S_s.wav",88
Sample,119601,0,"F3S_s.wav",100
Sample,119801,0,"C3S_s.wav",56
Sample,119801,0,"D#4S_Eb4S_s.wav",89
Sample,119801,0,"F#3S_Gb3S_s.wav",100
Sample,119801,0,"C5S_s.wav",81
Sample,119801,0,"E3S_s.wav",42
Sample,120001,0,"E3S_s.wav",26
Sample,120001,0,"C3S_s.wav",88
Sample,120001,0,"A4S_s.wav",77
Sample,120001,0,"D3S_s.wav",100
Sample,120001,0,"D#4S_Eb4S_s.wav",82
Sample,120001,0,"D3S_s.wav",92
Sample,120001,0,"D5S_s.wav",63
Sample,120201,0,"F#3S_Gb3S_s.wav",100
Sample,120201,0,"D#4S_Eb4S_s.wav",89
Sample,120201,0,"E3S_s.wav",74
Sample,120201,0,"A4S_s.wav",80
Sample,120401,0,"D3S_s.wav",100
Sample,120401,0,"D3S_s.wav",92
Sample,120401,0,"C3S_s.wav",88
Sample,120601,0,"D#4S_Eb4S_s.wav",89
Sample,120601,0,"C3S_s.wav",56
Sample,120601,0,"D5S_s.wav",55
Sample,120601,0,"E3S_s.wav",46
Sample,120601,0,"A4S_s.wav",74
Sample,120601,0,"F#3S_Gb3S_s.wav",100
Sample,120801,0,"F#3S_Gb3S_s.wav",92
Sample,120801,0,"C3S_s.wav",88
Sample,120801,0,"A4S_s.wav",75
Sample,120801,0,"E3S_s.wav",26
Sample,120801,0,"D#4S_Eb4S_s.wav",77
Sample,120801,0,"F#3S_Gb3S_s.wav",100
Sample,120801,0,"D5S_s.wav",65
Sample,121001,0,"E3S_s.wav",74
Sample,121001,0,"A4S_s.wav",88
Sample,121001,0,"D#4S_Eb4S_s.wav",89
Sample,121001,0,"D5S_s.wav",76
Sample,121001,0,"F#3S_Gb3S_s.wav",100
Sample,121201,0,"E3S_s.wav",26
Sample,121201,0,"C3S_s.wav",88
Sample,121201,0,"A3S_s.wav",100
Sample,121401,0,"C3S_s.wav",56
Sample,121401,0,"D#4S_Eb4S_s.wav",89
Sample,121401,0,"F#3S_Gb3S_s.wav",100
Sample,121401,0,"A4S_s.wav",77
Sample,121401,0,"E3S_s.wav",62
Sample,121601,0,"G3S_s.wav",92
Sample,121601,0,"C3S_s.wav",88
Sample,121601,0,"B4S_s.wav",76
Sample,121601,0,"E3S_s.wav",56
Sample,121601,0,"D#4S_Eb4S_s.wav",82
Sample,121601,0,"G3S_s.wav",100
Sample,121601,0,"D5S_s.wav",69
Sample,121801,0,"F#3S_Gb3S_s.wav",100
Sample,121801,0,"D#4S_Eb4S_s.wav",89
Sample,121801,0,"E3S_s.wav",74
Sample,121801,0,"B4S_s.wav",73
Sample,122001,0,"E3S_s.wav",26
Sample,122001,0,"G3S_s.wav",100
Sample,122001,0,"C3S_s.wav",88
Sample,122001,0,"G3S_s.wav",92
Sample,122201,0,"C3S_s.wav",56
Sample,122201,0,"D#4S_Eb4S_s.wav",89
Sample,122201,0,"F#3S_Gb3S_s.wav",100
Sample,122201,0,"B4S_s.wav",70
Sample,122201,0,"E3S_s.wav",51
Sample,122401,0,"A3S_s.wav",92
Sample,122401,0,"C3S_s.wav",88
Sample,122401,0,"B4S_s.wav",69
Sample,122401,0,"E3S_s.wav",26
Sample,122401,0,"D#4S_Eb4S_s.wav",77
Sample,122401,0,"A3S_s.wav",100
Sample,122401,0,"D5S_s.wav",66
Sample,122601,0,"F#3S_Gb3S_s.wav",100
Sample,122601,0,"D#4S_Eb4S_s.wav",89
Sample,122601,0,"E3S_s.wav",74
Sample,122601,0,"B4S_s.wav",76
Sample,122801,0,"E3S_s.wav",26
Sample,122801,0,"B3S_s.wav",100
Sample,122801,0,"C3S_s.wav",88
Sample,122801,0,"B3S_s.wav",92
Sample,123001,0,"C3S_s.wav",56
Sample,123001,0,"D#4S_Eb4S_s.wav",89
Sample,123001,0,"F#3S_Gb3S_s.wav",100
Sample,123001,0,"B4S_s.wav",68
Sample,123001,0,"E3S_s.wav",50
Sample,123201,0,"C4S_s.wav",92
Sample,123201,0,"C3S_s.wav",88
Sample,123201,0,"C5S_s.wav",70
Sample,123201,0,"E3S_s.wav",26
Sample,123201,0,"D#4S_Eb4S_s.wav",82
Sample,123201,0,"C4S_s.wav",100
Sample,123201,0,"D#5S_Eb5S_s.wav",63
Sample,123401,0,"F#5S_Gb5S_s.wav",88
Sample,123401,0,"E3S_s.wav",74
Sample,123401,0,"D#5S_Eb5S_s.wav",68
Sample,123401,0,"F#5S_Gb5S_s.wav",88
Sample,123401,0,"C5S_s.wav",81
Sample,123401,0,"D#4S_Eb4S_s.wav",89
Sample,123401,0,"F#3S_Gb3S_s.wav",100
Sample,123401,0,"G5S_s.wav",68
Sample,123601,0,"E3S_s.wav",26
Sample,123601,0,"A3S_s.wav",100
Sample,123601,0,"C3S_s.wav",88
Sample,123801,0,"G5S_s.wav",92
Sample,123801,0,"E3S_s.wav",51
Sample,123801,0,"D5S_s.wav",43
Sample,123801,0,"G5S_s.wav",53
Sample,123801,0,"D#4S_Eb4S_s.wav",89
Sample,123801,0,"C3S_s.wav",56
Sample,123801,0,"F#3S_Gb3S_s.wav",100
Sample,123801,0,"B4S_s.wav",55
Sample,123801,0,"G5S_s.wav",92
Sample,124001,0,"C3S_s.wav",88
Sample,124001,0,"B4S_s.wav",70
Sample,124001,0,"D#4S_Eb4S_s.wav",77
Sample,124001,0,"D5S_s.wav",63
Sample,124001,0,"E3S_s.wav",26
Sample,124001,0,"G5S_s.wav",74
Sample,124001,0,"D4S_s.wav",92
Sample,124001,0,"D#6S_Eb6S_s.wav",100
Sample,124001,0,"D4S_s.wav",100
Sample,124001,0,"D#6S_Eb6S_s.wav",100
Sample,124201,0,"F#3S_Gb3S_s.wav",100
Sample,124201,0,"D#4S_Eb4S_s.wav",89
Sample,124201,0,"E3S_s.wav",74
Sample,124201,0,"B4S_s.wav",81
Sample,124301,0,"D6S_s.wav",100
Sample,124301,0,"D6S_s.wav",100
Sample,124301,0,"E3S_s.wav",26
Sample,124401,0,"E3S_s.wav",26
Sample,124401,0,"C3S_s.wav",88
Sample,124401,0,"G3S_s.wav",100
Sample,124601,0,"C3S_s.wav",56
Sample,124601,0,"D#4S_Eb4S_s.wav",89
Sample,124601,0,"F#3S_Gb3S_s.wav",100
Sample,124601,0,"B5S_s.wav",97
Sample,124601,0,"E3S_s.wav",59
Sample,124601,0,"B5S_s.wav",97
Sample,124801,0,"E3S_s.wav",26
Sample,124801,0,"D#5S_Eb5S_s.wav",68
Sample,124801,0,"C4S_s.wav",100
Sample,124801,0,"C6S.wav",100
Sample,124801,0,"C5S_s.wav",79
Sample,124801,0,"C6S.wav",97
Sample,124801,0,"C#4S_Db4S_s.wav",100
Sample,124801,0,"C4S_s.wav",92
Sample,124801,0,"C3S_s.wav",88
Sample,124801,0,"G5S_s.wav",69
Sample,124801,0,"C6S.wav",92
Sample,125001,0,"C5S_s.wav",68
Sample,125001,0,"E3S_s.wav",74
Sample,125001,0,"D#4S_Eb4S_s.wav",89
Sample,125001,0,"F#3S_Gb3S_s.wav",100
Sample,125201,0,"A#3S_Bb3S_s.wav",99
Sample,125201,0,"C3S_s.wav",88
Sample,125201,0,"A#3S_Bb3S_s.wav",100
Sample,125201,0,"E3S_s.wav",26
Sample,125401,0,"D#4S_Eb4S_s.wav",89
Sample,125401,0,"C3S_s.wav",56
Sample,125401,0,"D#5S_Eb5S_s.wav",57
Sample,125401,0,"E3S_s.wav",57
Sample,125401,0,"C5S_s.wav",70
Sample,125401,0,"F#3S_Gb3S_s.wav",100
Sample,125601,0,"G#3S_Ab3S_s.wav",92
Sample,125601,0,"C3S_s.wav",88
Sample,125601,0,"C5S_s.wav",87
Sample,125601,0,"E3S_s.wav",26
Sample,125601,0,"D#4S_Eb4S_s.wav",77
Sample,125601,0,"G#3S_Ab3S_s.wav",100
Sample,125601,0,"D#5S_Eb5S_s.wav",73
Sample,125801,0,"E3S_s.wav",74
Sample,125801,0,"C5S_s.wav",81
Sample,125801,0,"D#4S_Eb4S_s.wav",89
Sample,125801,0,"D#5S_Eb5S_s.wav",66
Sample,125801,0,"F#3S_Gb3S_s.wav",100
Sample,126001,0,"F3S_s.wav",93
Sample,126001,0,"C3S_s.wav",88
Sample,126001,0,"G#4S_Ab4S_s.wav",74
Sample,126001,0,"E3S_s.wav",26
Sample,126001,0,"D#4S_Eb4S_s.wav",77
Sample,126001,0,"F3S_s.wav",100
Sample,126201,0,"D#4S_Eb4S_s.wav",89
Sample,126201,0,"C3S_s.wav",56
Sample,126201,0,"F#3S_Gb3S_s.wav",100
Sample,126201,0,"E3S_s.wav",47
Sample,126201,0,"C5S_s.wav",81
Sample,126401,0,"A#4S_Bb4S_s.wav",66
Sample,126401,0,"C3S_s.wav",88
Sample,126401,0,"D#4S_Eb4S_s.wav",82
Sample,126401,0,"D5S_s.wav",74
Sample,126401,0,"A#3S_Bb3S_s.wav",96
Sample,126401,0,"A#3S_Bb3S_s.wav",100
Sample,126401,0,"E3S_s.wav",26
Sample,126601,0,"A#4S_Bb4S_s.wav",57
Sample,126601,0,"E3S_s.wav",74
Sample,126601,0,"D#4S_Eb4S_s.wav",89
Sample,126601,0,"F#3S_Gb3S_s.wav",100
Sample,126801,0,"E3S_s.wav",26
Sample,126801,0,"C3S_s.wav",88
Sample,126801,0,"A#4S_Bb4S_s.wav",74
Sample,126801,0,"D3S_s.wav",100
Sample,126801,0,"D#4S_Eb4S_s.wav",82
Sample,126801,0,"D3S_s.wav",92
Sample,127001,0,"D#4S_Eb4S_s.wav",89
Sample,127001,0,"C3S_s.wav",56
Sample,127001,0,"D5S_s.wav",66
Sample,127001,0,"E3S_s.wav",43
Sample,127001,0,"A#4S_Bb4S_s.wav",61
Sample,127001,0,"F#3S_Gb3S_s.wav",100
Sample,127201,0,"G3S_s.wav",89
Sample,127201,0,"E3S_s.wav",26
Sample,127201,0,"G3S_s.wav",99
Sample,127201,0,"D5S_s.wav",77
Sample,127201,0,"D#4S_Eb4S_s.wav",77
Sample,127201,0,"G4S_s.wav",71
Sample,127201,0,"C3S_s.wav",88
Sample,127201,0,"B4S_s.wav",74
Sample,127201,0,"D5S_s.wav",67
Sample,127201,0,"B4S_s.wav",72
Sample,127401,0,"B4S_s.wav",72
Sample,127401,0,"E3S_s.wav",74
Sample,127401,0,"D#4S_Eb4S_s.wav",89
Sample,127401,0,"F#3S_Gb3S_s.wav",100
Sample,127401,0,"D5S_s.wav",67
Sample,127601,0,"C3S_s.wav",88
Sample,127601,0,"B3S_s.wav",100
Sample,127601,0,"B3S_s.wav",100
Sample,127601,0,"D#4S_Eb4S_s.wav",77
Sample,127601,0,"E3S_s.wav",26
Sample,127601,0,"B4S_s.wav",74
Sample,127801,0,"C3S_s.wav",56
Sample,127801,0,"D#4S_Eb4S_s.wav",89
Sample,127801,0,"F#3S_Gb3S_s.wav",100
Sample,127801,0,"B4S_s.wav",65
Sample,127801,0,"E3S_s.wav",61
Sample,128001,0,"D#5S_Eb5S_s.wav",61
Sample,128001,0,"E3S_s.wav",47
Sample,128001,0,"C5S_s.wav",75
Sample,128001,0,"C5S_s.wav",74
Sample,128001,0,"C4S_s.wav",100
Sample,128001,0,"C3S_s.wav",88
Sample,128001,0,"C4S_s.wav",100
Sample,128001,0,"D#4S_Eb4S_s.wav",82
Sample,128001,0,"D#5S_Eb5S_s.wav",77
Sample,128201,0,"E3S_s.wav",74
Sample,128201,0,"C5S_s.wav",72
Sample,128201,0,"D#4S_Eb4S_s.wav",89
Sample,128201,0,"D#5S_Eb5S_s.wav",66
Sample,128201,0,"F#3S_Gb3S_s.wav",100
Sample,128401,0,"G#3S_Ab3S_s.wav",100
Sample,128401,0,"C3S_s.wav",88
Sample,128401,0,"C5S_s.wav",74
Sample,128401,0,"E3S_s.wav",26
Sample,128401,0,"D#4S_Eb4S_s.wav",82
Sample,128401,0,"G#3S_Ab3S_s.wav",100
Sample,128601,0,"D#4S_Eb4S_s.wav",89
Sample,128601,0,"C3S_s.wav",56
Sample,128601,0,"D#5S_Eb5S_s.wav",52
Sample,128601,0,"E3S_s.wav",46
Sample,128601,0,"C5S_s.wav",64
Sample,128601,0,"F#3S_Gb3S_s.wav",100
Sample,128801,0,"A#3S_Bb3S_s.wav",100
Sample,128801,0,"E3S_s.wav",26
Sample,128801,0,"A#3S_Bb3S_s.wav",100
Sample,128801,0,"F5S_s.wav",77
Sample,128801,0,"D#4S_Eb4S_s.wav",77
Sample,128801,0,"A#4S_Bb4S_s.wav",64
Sample,128801,0,"C3S_s.wav",88
Sample,128801,0,"D5S_s.wav",74
Sample,128801,0,"F5S_s.wav",71
Sample,128801,0,"D5S_s.wav",70
Sample,129001,0,"A#4S_Bb4S_s.wav",64
Sample,129001,0,"E3S_s.wav",74
Sample,129001,0,"D#4S_Eb4S_s.wav",89
Sample,129001,0,"F#3S_Gb3S_s.wav",100
Sample,129001,0,"D5S_s.wav",70
Sample,129201,0,"C3S_s.wav",88
Sample,129201,0,"A#3S_Bb3S_s.wav",100
Sample,129201,0,"A#3S_Bb3S_s.wav",100
Sample,129201,0,"D#4S_Eb4S_s.wav",77
Sample,129201,0,"E3S_s.wav",26
Sample,129201,0,"D5S_s.wav",74
Sample,129401,0,"C3S_s.wav",56
Sample,129401,0,"D#4S_Eb4S_s.wav",89
Sample,129401,0,"F#3S_Gb3S_s.wav",100
Sample,129401,0,"A#4S_Bb4S_s.wav",64
Sample,129401,0,"E3S_s.wav",42
Sample,129601,0,"E3S_s.wav",26
Sample,129601,0,"C3S_s.wav",88
Sample,129601,0,"A#4S_Bb4S_s.wav",66
Sample,129601,0,"D#3S_Eb3S_s.wav",100
Sample,129601,0,"D#4S_Eb4S_s.wav",82
Sample,129601,0,"D#3S_Eb3S_s.wav",100
Sample,129601,0,"D#5S_Eb5S_s.wav",66
Sample,129801,0,"F#3S_Gb3S_s.wav",100
Sample,129801,0,"D#4S_Eb4S_s.wav",89
Sample,129801,0,"E3S_s.wav",74
Sample,129801,0,"A#4S_Bb4S_s.wav",68
Sample,130001,0,"D#5S_Eb5S_s.wav",74
Sample,130001,0,"C3S_s.wav",88
Sample,130001,0,"D#4S_Eb4S_s.wav",82
Sample,130001,0,"G5S_s.wav",77
Sample,130001,0,"G3S_s.wav",100
Sample,130001,0,"G3S_s.wav",100
Sample,130001,0,"E3S_s.wav",26
Sample,130201,0,"D#4S_Eb4S_s.wav",89
Sample,130201,0,"C3S_s.wav",56
Sample,130201,0,"F#3S_Gb3S_s.wav",100
Sample,130201,0,"E3S_s.wav",47
Sample,130201,0,"A#4S_Bb4S_s.wav",57
Sample,130401,0,"B4S_s.wav",76
Sample,130401,0,"C3S_s.wav",88
Sample,130401,0,"D#4S_Eb4S_s.wav",77
Sample,130401,0,"D5S_s.wav",77
Sample,130401,0,"B3S_s.wav",100
Sample,130401,0,"B3S_s.wav",100
Sample,130401,0,"E3S_s.wav",26
Sample,130601,0,"B4S_s.wav",76
Sample,130601,0,"E3S_s.wav",74
Sample,130601,0,"D#4S_Eb4S_s.wav",89
Sample,130601,0,"F#3S_Gb3S_s.wav",100
Sample,130801,0,"D4S_s.wav",100
Sample,130801,0,"C3S_s.wav",88
Sample,130801,0,"B4S_s.wav",74
Sample,130801,0,"E3S_s.wav",71
Sample,130801,0,"D#4S_Eb4S_s.wav",77
Sample,130801,0,"D4S_s.wav",100
Sample,130801,0,"D5S_s.wav",77
Sample,131001,0,"C3S_s.wav",56
Sample,131001,0,"D#4S_Eb4S_s.wav",89
Sample,131001,0,"F#3S_Gb3S_s.wav",100
Sample,131001,0,"B4S_s.wav",63
Sample,131001,0,"E3S_s.wav",55
Sample,131201,0,"C4S_s.wav",92
Sample,131201,0,"C3S_s.wav",88
Sample,131201,0,"C5S_s.wav",66
Sample,131201,0,"E3S_s.wav",46
Sample,131201,0,"D#4S_Eb4S_s.wav",82
Sample,131201,0,"C4S_s.wav",100
Sample,131401,0,"C5S_s.wav",80
Sample,131401,0,"E3S_s.wav",74
Sample,131401,0,"D#4S_Eb4S_s.wav",89
Sample,131401,0,"F#3S_Gb3S_s.wav",100
Sample,131401,0,"D#5S_Eb5S_s.wav",64
Sample,131601,0,"E3S_s.wav",71
Sample,131601,0,"A#3S_Bb3S_s.wav",100
Sample,131601,0,"C3S_s.wav",88
Sample,131801,0,"D#4S_Eb4S_s.wav",89
Sample,131801,0,"C3S_s.wav",56
Sample,131801,0,"D#5S_Eb5S_s.wav",59
Sample,131801,0,"E3S_s.wav",57
Sample,131801,0,"C5S_s.wav",79
Sample,131801,0,"F#3S_Gb3S_s.wav",100
Sample,132001,0,"G#3S_Ab3S_s.wav",92
Sample,132001,0,"C3S_s.wav",88
Sample,132001,0,"C5S_s.wav",84
Sample,132001,0,"E3S_s.wav",26
Sample,132001,0,"D#4S_Eb4S_s.wav",77
Sample,132001,0,"G#3S_Ab3S_s.wav",100
Sample,132001,0,"D#5S_Eb5S_s.wav",74
Sample,132201,0,"E3S_s.wav",74
Sample,132201,0,"C5S_s.wav",80
Sample,132201,0,"D#4S_Eb4S_s.wav",89
Sample,132201,0,"D#5S_Eb5S_s.wav",66
Sample,132201,0,"F#3S_Gb3S_s.wav",100
Sample,132401,0,"E3S_s.wav",26
Sample,132401,0,"C3S_s.wav",88
Sample,132401,0,"F3S_s.wav",100
Sample,132601,0,"C3S_s.wav",56
Sample,132601,0,"D#4S_Eb4S_s.wav",89
Sample,132601,0,"F#3S_Gb3S_s.wav",100
Sample,132601,0,"C5S_s.wav",81
Sample,132601,0,"E3S_s.wav",52
Sample,132801,0,"E3S_s.wav",26
Sample,132801,0,"C3S_s.wav",88
Sample,132801,0,"A4S_s.wav",77
Sample,132801,0,"D3S_s.wav",100
Sample,132801,0,"D#4S_Eb4S_s.wav",82
Sample,132801,0,"D3S_s.wav",92
Sample,132801,0,"D5S_s.wav",63
Sample,133001,0,"F#3S_Gb3S_s.wav",100
Sample,133001,0,"D#4S_Eb4S_s.wav",89
Sample,133001,0,"E3S_s.wav",74
Sample,133001,0,"A4S_s.wav",80
Sample,133201,0,"C3S_s.wav",88
Sample,133201,0,"E3S_s.wav",26
Sample,133201,0,"D3S_s.wav",92
Sample,133201,0,"D#4S_Eb4S_s.wav",82
Sample,133201,0,"D3S_s.wav",100
Sample,133201,0,"A4S_s.wav",71
Sample,133401,0,"C3S_s.wav",56
Sample,133401,0,"D#4S_Eb4S_s.wav",89
Sample,133401,0,"F#3S_Gb3S_s.wav",100
Sample,133401,0,"A4S_s.wav",74
Sample,133401,0,"E3S_s.wav",54
Sample,133401,0,"D5S_s.wav",55
Sample,133601,0,"A4S_s.wav",75
Sample,133601,0,"C3S_s.wav",88
Sample,133601,0,"D#4S_Eb4S_s.wav",77
Sample,133601,0,"D5S_s.wav",65
Sample,133601,0,"F#3S_Gb3S_s.wav",92
Sample,133601,0,"F#3S_Gb3S_s.wav",100
Sample,133601,0,"E3S_s.wav",26
Sample,133801,0,"A4S_s.wav",88
Sample,133801,0,"E3S_s.wav",74
Sample,133801,0,"D#4S_Eb4S_s.wav",89
Sample,133801,0,"F#3S_Gb3S_s.wav",100
Sample,133801,0,"D5S_s.wav",76
Sample,134001,0,"C3S_s.wav",88
Sample,134001,0,"A3S_s.wav",92
Sample,134001,0,"A3S_s.wav",100
Sample,134001,0,"D#4S_Eb4S_s.wav",77
Sample,134001,0,"E3S_s.wav",26
Sample,134001,0,"D5S_s.wav",74
Sample,134201,0,"C3S_s.wav",56
Sample,134201,0,"D#4S_Eb4S_s.wav",89
Sample,134201,0,"F#3S_Gb3S_s.wav",100
Sample,134201,0,"A4S_s.wav",77
Sample,134201,0,"E3S_s.wav",52
Sample,134401,0,"G3S_s.wav",92
Sample,134401,0,"C3S_s.wav",88
Sample,134401,0,"B4S_s.wav",76
Sample,134401,0,"E3S_s.wav",26
Sample,134401,0,"D#4S_Eb4S_s.wav",82
Sample,134401,0,"G3S_s.wav",100
Sample,134401,0,"D5S_s.wav",69
Sample,134601,0,"F#3S_Gb3S_s.wav",100
Sample,134601,0,"D#4S_Eb4S_s.wav",89
Sample,134601,0,"E3S_s.wav",74
Sample,134601,0,"B4S_s.wav",73
Sample,134801,0,"E3S_s.wav",26
Sample,134801,0,"G3S_s.wav",100
Sample,134801,0,"C3S_s.wav",88
Sample,134801,0,"G3S_s.wav",92
Sample,135001,0,"C3S_s.wav",56
Sample,135001,0,"D#4S_Eb4S_s.wav",89
Sample,135001,0,"F#3S_Gb3S_s.wav",100
Sample,135001,0,"B4S_s.wav",70
Sample,135001,0,"E3S_s.wav",47
Sample,135201,0,"A3S_s.wav",92
Sample,135201,0,"C3S_s.wav",88
Sample,135201,0,"B4S_s.wav",69
Sample,135201,0,"E3S_s.wav",26
Sample,135201,0,"D#4S_Eb4S_s.wav",77
Sample,135201,0,"A3S_s.wav",100
Sample,135201,0,"D5S_s.wav",66
Sample,135401,0,"F#3S_Gb3S_s.wav",100
Sample,135401,0,"D#4S_Eb4S_s.wav",89
Sample,135401,0,"E3S_s.wav",74
Sample,135401,0,"B4S_s.wav",76
Sample,135601,0,"E3S_s.wav",26
Sample,135601,0,"B3S_s.wav",100
Sample,135601,0,"C3S_s.wav",88
Sample,135601,0,"B3S_s.wav",92
Sample,135801,0,"C3S_s.wav",56
Sample,135801,0,"D#4S_Eb4S_s.wav",89
Sample,135801,0,"F#3S_Gb3S_s.wav",100
Sample,135801,0,"B4S_s.wav",68
Sample,135801,0,"E3S_s.wav",51
Sample,136001,0,"C4S_s.wav",92
Sample,136001,0,"C3S_s.wav",88
Sample,136001,0,"C5S_s.wav",70
Sample,136001,0,"E3S_s.wav",26
Sample,136001,0,"D#4S_Eb4S_s.wav",82
Sample,136001,0,"C4S_s.wav",100
Sample,136001,0,"D#5S_Eb5S_s.wav",63
Sample,136201,0,"F#5S_Gb5S_s.wav",88
Sample,136201,0,"E3S_s.wav",74
Sample,136201,0,"D#5S_Eb5S_s.wav",68
Sample,136201,0,"F#5S_Gb5S_s.wav",88
Sample,136201,0,"C5S_s.wav",81
Sample,136201,0,"D#4S_Eb4S_s.wav",89
Sample,136201,0,"F#3S_Gb3S_s.wav",100
Sample,136201,0,"G5S_s.wav",68
Sample,136401,0,"E3S_s.wav",26
Sample,136401,0,"A3S_s.wav",100
Sample,136401,0,"C3S_s.wav",88
Sample,136601,0,"G5S_s.wav",92
Sample,136601,0,"E3S_s.wav",48
Sample,136601,0,"D5S_s.wav",43
Sample,136601,0,"G5S_s.wav",53
Sample,136601,0,"D#4S_Eb4S_s.wav",89
Sample,136601,0,"C3S_s.wav",56
Sample,136601,0,"F#3S_Gb3S_s.wav",100
Sample,136601,0,"B4S_s.wav",55
Sample,136601,0,"G5S_s.wav",92
Sample,136801,0,"C3S_s.wav",88
Sample,136801,0,"B4S_s.wav",70
Sample,136801,0,"D#4S_Eb4S_s.wav",77
Sample,136801,0,"D5S_s.wav",63
Sample,136801,0,"E3S_s.wav",26
Sample,136801,0,"G5S_s.wav",74
Sample,136801,0,"D4S_s.wav",92
Sample,136801,0,"D#6S_Eb6S_s.wav",100
Sample,136801,0,"D4S_s.wav",100
Sample,136801,0,"D#6S_Eb6S_s.wav",100
Sample,137001,0,"F#3S_Gb3S_s.wav",100
Sample,137001,0,"D#4S_Eb4S_s.wav",89
Sample,137001,0,"E3S_s.wav",74
Sample,137001,0,"B4S_s.wav",81
Sample,137101,0,"D6S_s.wav",100
Sample,137101,0,"D6S_s.wav",100
Sample,137101,0,"E3S_s.wav",26
Sample,137201,0,"E3S_s.wav",26
Sample,137201,0,"C3S_s.wav",88
Sample,137201,0,"G3S_s.wav",100
Sample,137401,0,"C3S_s.wav",56
Sample,137401,0,"D#4S_Eb4S_s.wav",89
Sample,137401,0,"F#3S_Gb3S_s.wav",100
Sample,137401,0,"B5S_s.wav",97
Sample,137401,0,"E3S_s.wav",51
Sample,137401,0,"B5S_s.wav",97
Sample,137601,0,"C6S.wav",92
Sample,137601,0,"C3S_s.wav",88
Sample,137601,0,"C6S.wav",97
Sample,137601,0,"C6S.wav",100
Sample,137601,0,"G5S_s.wav",78
Sample,137601,0,"C#4S_Db4S_s.wav",100
Sample,137601,0,"C4S_s.wav",88
Sample,137601,0,"C7S.wav",97
Sample,138201,0,"E3S_s.wav",85
Sample,138201,0,"F#3S_Gb3S_s.wav",76
Sample,138401,0,"C3S_s.wav",88
Sample,138601,0,"E3S_s.wav",85
Sample,139001,0,"E3S_s.wav",85
Sample,139201,0,"G#3S_Ab3S_s.wav",88
Sample,139201,0,"C3S_s.wav",88
Sample,139201,0,"G#5S_Ab5S_s.wav",78
Sample,139401,0,"E3S_s.wav",85
Sample,139801,0,"E3S_s.wav",85
Sample,140001,0,"C3S_s.wav",88
Sample,140013,0,"C5S_s.wav",70
Sample,140201,0,"E3S_s.wav",85
Sample,140801,0,"D#3S_Eb3S_s.wav",100
Sample,140801,0,"C3S_s.wav",88
Sample,140801,0,"G5S_s.wav",92
Sample,141001,0,"E3S_s.wav",85
Sample,141801,0,"F#3S_Gb3S_s.wav",76
Sample,141801,0,"E3S_s.wav",85
Sample,141801,0,"A#5S_Bb5S_s.wav",92
Sample,141901,0,"A#4S_Bb4S_s.wav",91
Sample,142101,0,"G#5S_Ab5S_s.wav",92
Sample,142101,0,"E3S_s.wav",85
Sample,142201,0,"E3S_s.wav",85
Sample,142401,0,"C3S_s.wav",88
Sample,142401,0,"G3S_s.wav",100
Sample,142601,0,"E3S_s.wav",85
Sample,142701,0,"G5S_s.wav",100
Sample,142801,0,"C3S_s.wav",88
Sample,143001,0,"D5S_s.wav",73
Sample,143001,0,"E3S_s.wav",85
Sample,143001,0,"B4S_s.wav",62
Sample,143001,0,"F#3S_Gb3S_s.wav",76
Sample,143201,0,"G3S_s.wav",100
Sample,143201,0,"C3S_s.wav",88
Sample,143401,0,"E3S_s.wav",85
Sample,143501,0,"D5S_s.wav",100
Sample,143601,0,"G3S_s.wav",100
Sample,143601,0,"C3S_s.wav",88
Sample,143801,0,"B5S_s.wav",56
Sample,143801,0,"E3S_s.wav",85
Sample,143801,0,"G5S_s.wav",100
Sample,143801,0,"D5S_s.wav",100
Sample,144001,0,"C4S_s.wav",100
Sample,144001,0,"C3S_s.wav",88
Sample,144001,0,"G5S_s.wav",78
Sample,144401,0,"C3S_s.wav",88
Sample,144601,0,"E3S_s.wav",85
Sample,144801,0,"C4S_s.wav",97
Sample,144801,0,"B5S_s.wav",68
Sample,144801,0,"C3S_s.wav",88
Sample,145001,0,"F#3S_Gb3S_s.wav",76
Sample,145001,0,"E3S_s.wav",85
Sample,145001,0,"G5S.wav",68
Sample,145401,0,"E3S_s.wav",85
Sample,145601,0,"G#3S_Ab3S_s.wav",97
Sample,145601,0,"C3S_s.wav",88
Sample,145601,0,"G#5S_Ab5S_s.wav",78
Sample,146001,0,"C3S_s.wav",88
Sample,146201,0,"E3S_s.wav",85
Sample,146401,0,"G#3S_Ab3S_s.wav",99
Sample,146401,0,"A#5S_Bb5S.wav",92
Sample,146401,0,"C3S_s.wav",88
Sample,146801,0,"G#3S_Ab3S_s.wav",92
Sample,146801,0,"C3S_s.wav",88
Sample,146801,0,"G#5S_Ab5S_s.wav",92
Sample,147201,0,"C3S_s.wav",88
Sample,147401,0,"E3S_s.wav",85
Sample,148201,0,"E3S_s.wav",85
Sample,148219,0,"B6S_s.wav",53
Sample,148301,0,"A#4S_Bb4S_s.wav",91
Sample,148601,0,"A#4S_Bb4S_s.wav",79
Sample,148601,0,"E3S_s.wav",85
Sample,148601,0,"D#5S_Eb5S_s.wav",81
Sample,148801,0,"C3S_s.wav",88
Sample,148801,0,"G3S_s.wav",96
Sample,149001,0,"E3S_s.wav",85
Sample,149069,0,"D#6S_Eb6S.wav",93
Sample,149072,0,"B5S.wav",93
Sample,149076,0,"G5S.wav",93
Sample,149101,0,"G5S_s.wav",100
Sample,149201,0,"C3S_s.wav",88
Sample,149401,0,"F#3S_Gb3S_s.wav",76
Sample,149401,0,"B4S_s.wav",62
Sample,149401,0,"E3S_s.wav",85
Sample,149601,0,"C3S_s.wav",88
Sample,149801,0,"E3S_s.wav",85
Sample,149805,0,"C6S_s.wav",66
Sample,149818,0,"F6S_s.wav",66
Sample,149843,0,"D6S_s.wav",66
Sample,149893,0,"G6S_s.wav",64
Sample,149901,0,"D5S_s.wav",100
Sample,149918,0,"E6S_s.wav",64
Sample,149969,0,"G#6S_Ab6S_s.wav",70
Sample,149994,0,"F6S_s.wav",70
Sample,150001,0,"C3S_s.wav",88
Sample,150038,0,"A#6S_Bb6S_s.wav",76
Sample,150063,0,"G6S_s.wav",76
Sample,150109,0,"C7S_s.wav",74
Sample,150134,0,"A6S_s.wav",74
Sample,150188,0,"D7S_s.wav",71
Sample,150201,0,"D5S_s.wav",100
Sample,150201,0,"E3S_s.wav",85
Sample,150388,0,"C7S.wav",85
Sample,150401,0,"C5S_s.wav",79
Sample,150401,0,"C3S_s.wav",88
Sample,150401,0,"C#4S_Db4S_s.wav",100
Sample,150401,0,"D#5S_Eb5S_s.wav",68
Sample,150401,0,"C4S_s.wav",92
Sample,150401,0,"C4S_s.wav",100
Sample,150401,0,"E3S_s.wav",26
Sample,150401,0,"G5S_s.wav",69
Sample,150601,0,"F#3S_Gb3S_s.wav",100
Sample,150601,0,"D#4S_Eb4S_s.wav",89
Sample,150601,0,"E3S_s.wav",74
Sample,150601,0,"C5S_s.wav",68
Sample,150801,0,"E3S_s.wav",26
Sample,150801,0,"A#3S_Bb3S_s.wav",100
Sample,150801,0,"C3S_s.wav",88
Sample,150801,0,"A#3S_Bb3S_s.wav",99
Sample,151001,0,"C3S_s.wav",56
Sample,151001,0,"D#4S_Eb4S_s.wav",89
Sample,151001,0,"F#3S_Gb3S_s.wav",100
Sample,151001,0,"C5S_s.wav",70
Sample,151001,0,"E3S_s.wav",59
Sample,151001,0,"D#5S_Eb5S_s.wav",57
Sample,151201,0,"C5S_s.wav",87
Sample,151201,0,"C3S_s.wav",88
Sample,151201,0,"D#4S_Eb4S_s.wav",77
Sample,151201,0,"D#5S_Eb5S_s.wav",73
Sample,151201,0,"G#3S_Ab3S_s.wav",92
Sample,151201,0,"G#3S_Ab3S_s.wav",100
Sample,151201,0,"E3S_s.wav",32
Sample,151401,0,"C5S_s.wav",81
Sample,151401,0,"E3S_s.wav",74
Sample,151401,0,"D#4S_Eb4S_s.wav",89
Sample,151401,0,"F#3S_Gb3S_s.wav",100
Sample,151401,0,"D#5S_Eb5S_s.wav",66
Sample,151601,0,"C3S_s.wav",88
Sample,151601,0,"F3S_s.wav",93
Sample,151601,0,"F3S_s.wav",100
Sample,151601,0,"D#4S_Eb4S_s.wav",77
Sample,151601,0,"E3S_s.wav",26
Sample,151601,0,"G#4S_Ab4S_s.wav",74
Sample,151801,0,"C3S_s.wav",56
Sample,151801,0,"D#4S_Eb4S_s.wav",89
Sample,151801,0,"F#3S_Gb3S_s.wav",100
Sample,151801,0,"C5S_s.wav",81
Sample,151801,0,"E3S_s.wav",57
Sample,152001,0,"A#3S_Bb3S_s.wav",96
Sample,152001,0,"C3S_s.wav",88
Sample,152001,0,"A#4S_Bb4S_s.wav",66
Sample,152001,0,"E3S_s.wav",30
Sample,152001,0,"D#4S_Eb4S_s.wav",82
Sample,152001,0,"A#3S_Bb3S_s.wav",100
Sample,152001,0,"D5S_s.wav",74
Sample,152201,0,"F#3S_Gb3S_s.wav",100
Sample,152201,0,"D#4S_Eb4S_s.wav",89
Sample,152201,0,"E3S_s.wav",76
Sample,152201,0,"A#4S_Bb4S_s.wav",57
Sample,152401,0,"D3S_s.wav",100
Sample,152401,0,"D3S_s.wav",92
Sample,152401,0,"C3S_s.wav",88
Sample,152601,0,"D#4S_Eb4S_s.wav",89
Sample,152601,0,"C3S_s.wav",56
Sample,152601,0,"D5S_s.wav",66
Sample,152601,0,"E3S_s.wav",47
Sample,152601,0,"A#4S_Bb4S_s.wav",61
Sample,152601,0,"F#3S_Gb3S_s.wav",100
Sample,152801,0,"G5S_s.wav",69
Sample,152801,0,"E3S_s.wav",26
Sample,152801,0,"B4S_s.wav",72
Sample,152801,0,"D5S_s.wav",67
Sample,152801,0,"G3S_s.wav",89
Sample,152801,0,"C3S_s.wav",88
Sample,152801,0,"G3S_s.wav",99
Sample,152801,0,"D#4S_Eb4S_s.wav",77
Sample,152801,0,"G5S_s.wav",71
Sample,153001,0,"E3S_s.wav",74
Sample,153001,0,"B4S_s.wav",72
Sample,153001,0,"D#4S_Eb4S_s.wav",89
Sample,153001,0,"D5S_s.wav",67
Sample,153001,0,"F#3S_Gb3S_s.wav",100
Sample,153201,0,"E3S_s.wav",26
Sample,153201,0,"C3S_s.wav",88
Sample,153201,0,"B3S_s.wav",100
Sample,153401,0,"C3S_s.wav",56
Sample,153401,0,"D#4S_Eb4S_s.wav",89
Sample,153401,0,"F#3S_Gb3S_s.wav",100
Sample,153401,0,"B4S_s.wav",65
Sample,153401,0,"E3S_s.wav",47
Sample,153601,0,"C4S_s.wav",100
Sample,153601,0,"C3S_s.wav",88
Sample,153601,0,"C5S_s.wav",75
Sample,153601,0,"E3S_s.wav",26
Sample,153601,0,"D#4S_Eb4S_s.wav",82
Sample,153601,0,"C4S_s.wav",100
Sample,153801,0,"C5S_s.wav",72
Sample,153801,0,"E3S_s.wav",74
Sample,153801,0,"D#4S_Eb4S_s.wav",89
Sample,153801,0,"F#3S_Gb3S_s.wav",100
Sample,153801,0,"D#5S_Eb5S_s.wav",66
Sample,154001,0,"E3S_s.wav",26
Sample,154001,0,"G#3S_Ab3S_s.wav",100
Sample,154001,0,"C3S_s.wav",88
Sample,154201,0,"D#4S_Eb4S_s.wav",89
Sample,154201,0,"C3S_s.wav",56
Sample,154201,0,"D#5S_Eb5S_s.wav",52
Sample,154201,0,"E3S_s.wav",74
Sample,154201,0,"C5S_s.wav",64
Sample,154201,0,"F#3S_Gb3S_s.wav",100
Sample,154401,0,"A#3S_Bb3S_s.wav",100
Sample,154401,0,"E3S_s.wav",26
Sample,154401,0,"A#3S_Bb3S_s.wav",100
Sample,154401,0,"F5S_s.wav",71
Sample,154401,0,"D#4S_Eb4S_s.wav",77
Sample,154401,0,"A#4S_Bb4S_s.wav",64
Sample,154401,0,"C3S_s.wav",88
Sample,154401,0,"D5S_s.wav",70
Sample,154401,0,"D5S_s.wav",65
Sample,154401,0,"A#4S_Bb4S_s.wav",62
Sample,154601,0,"A#4S_Bb4S_s.wav",64
Sample,154601,0,"E3S_s.wav",74
Sample,154601,0,"D#4S_Eb4S_s.wav",89
Sample,154601,0,"F#3S_Gb3S_s.wav",100
Sample,154601,0,"D5S_s.wav",70
Sample,154701,0,"E3S_s.wav",66
Sample,154701,0,"A#4S_Bb4S_s.wav",74
Sample,154801,0,"E3S_s.wav",26
Sample,154801,0,"A#3S_Bb3S_s.wav",100
Sample,154801,0,"C3S_s.wav",88
Sample,155001,0,"D#4S_Eb4S_s.wav",89
Sample,155001,0,"C3S_s.wav",56
Sample,155001,0,"F#3S_Gb3S_s.wav",100
Sample,155001,0,"E3S_s.wav",48
Sample,155001,0,"A#4S_Bb4S_s.wav",64
Sample,155201,0,"A#4S_Bb4S_s.wav",66
Sample,155201,0,"C3S_s.wav",88
Sample,155201,0,"D#4S_Eb4S_s.wav",82
Sample,155201,0,"D#5S_Eb5S_s.wav",66
Sample,155201,0,"E3S_s.wav",26
Sample,155201,0,"D#3S_Eb3S_s.wav",100
Sample,155201,0,"D#3S_Eb3S_s.wav",100
Sample,155401,0,"A#4S_Bb4S_s.wav",68
Sample,155401,0,"E3S_s.wav",74
Sample,155401,0,"D#5S_Eb5S_s.wav",66
Sample,155401,0,"F#3S_Gb3S_s.wav",100
Sample,155401,0,"A#4S_Bb4S_s.wav",74
Sample,155401,0,"D#4S_Eb4S_s.wav",89
Sample,155401,0,"D#5S_Eb5S_s.wav",77
Sample,155601,0,"E3S_s.wav",26
Sample,155601,0,"G3S_s.wav",100
Sample,155601,0,"C3S_s.wav",88
Sample,155601,0,"G3S_s.wav",100
Sample,155801,0,"C3S_s.wav",56
Sample,155801,0,"D#4S_Eb4S_s.wav",89
Sample,155801,0,"F#3S_Gb3S_s.wav",100
Sample,155801,0,"A#4S_Bb4S_s.wav",57
Sample,155801,0,"E3S_s.wav",48
Sample,156001,0,"B3S_s.wav",100
Sample,156001,0,"C3S_s.wav",88
Sample,156001,0,"B4S_s.wav",76
Sample,156001,0,"E3S_s.wav",26
Sample,156001,0,"D#4S_Eb4S_s.wav",77
Sample,156001,0,"B3S_s.wav",100
Sample,156001,0,"D5S_s.wav",77
Sample,156201,0,"D5S_s.wav",69
Sample,156201,0,"E3S_s.wav",74
Sample,156201,0,"D5S_s.wav",70
Sample,156201,0,"G5S_s.wav",71
Sample,156201,0,"B4S_s.wav",76
Sample,156201,0,"D#4S_Eb4S_s.wav",89
Sample,156201,0,"F#3S_Gb3S_s.wav",100
Sample,156401,0,"D4S_s.wav",100
Sample,156401,0,"C3S_s.wav",88
Sample,156401,0,"D4S_s.wav",100
Sample,156401,0,"E3S_s.wav",26
Sample,156601,0,"D#4S_Eb4S_s.wav",89
Sample,156601,0,"C3S_s.wav",56
Sample,156601,0,"F#3S_Gb3S_s.wav",100
Sample,156601,0,"E3S_s.wav",51
Sample,156601,0,"B4S_s.wav",63
Sample,156801,0,"C3S_s.wav",88
Sample,156801,0,"C4S_s.wav",92
Sample,156801,0,"C4S_s.wav",100
Sample,156801,0,"D#4S_Eb4S_s.wav",82
Sample,156801,0,"E3S_s.wav",26
Sample,156801,0,"C5S_s.wav",66
Sample,157001,0,"E3S_s.wav",74
Sample,157001,0,"C5S_s.wav",80
Sample,157001,0,"D#4S_Eb4S_s.wav",89
Sample,157001,0,"D#5S_Eb5S_s.wav",64
Sample,157001,0,"F#3S_Gb3S_s.wav",100
Sample,157201,0,"E3S_s.wav",26
Sample,157201,0,"C3S_s.wav",88
Sample,157201,0,"A#3S_Bb3S_s.wav",100
Sample,157401,0,"C3S_s.wav",56
Sample,157401,0,"D#4S_Eb4S_s.wav",89
Sample,157401,0,"F#3S_Gb3S_s.wav",100
Sample,157401,0,"C5S_s.wav",79
Sample,157401,0,"E3S_s.wav",60
Sample,157401,0,"D#5S_Eb5S_s.wav",59
Sample,157601,0,"C5S_s.wav",84
Sample,157601,0,"C3S_s.wav",88
Sample,157601,0,"D#4S_Eb4S_s.wav",77
Sample,157601,0,"D#5S_Eb5S_s.wav",74
Sample,157601,0,"G#3S_Ab3S_s.wav",92
Sample,157601,0,"G#3S_Ab3S_s.wav",100
Sample,157601,0,"E3S_s.wav",26
Sample,157801,0,"C5S_s.wav",80
Sample,157801,0,"E3S_s.wav",74
Sample,157801,0,"D#4S_Eb4S_s.wav",89
Sample,157801,0,"F#3S_Gb3S_s.wav",100
Sample,158001,0,"E3S_s.wav",26
Sample,158001,0,"C3S_s.wav",88
Sample,158001,0,"F3S_s.wav",100
Sample,158201,0,"C3S_s.wav",56
Sample,158201,0,"D#4S_Eb4S_s.wav",89
Sample,158201,0,"F#3S_Gb3S_s.wav",100
Sample,158201,0,"C5S_s.wav",81
Sample,158201,0,"E3S_s.wav",42
Sample,158401,0,"E3S_s.wav",26
Sample,158401,0,"C3S_s.wav",88
Sample,158401,0,"A4S_s.wav",77
Sample,158401,0,"D3S_s.wav",100
Sample,158401,0,"D#4S_Eb4S_s.wav",82
Sample,158401,0,"D3S_s.wav",92
Sample,158401,0,"D5S_s.wav",63
Sample,158601,0,"F#3S_Gb3S_s.wav",100
Sample,158601,0,"D#4S_Eb4S_s.wav",89
Sample,158601,0,"E3S_s.wav",74
Sample,158601,0,"A4S_s.wav",80
Sample,158801,0,"D3S_s.wav",100
Sample,158801,0,"D3S_s.wav",92
Sample,158801,0,"C3S_s.wav",88
Sample,159001,0,"D#4S_Eb4S_s.wav",89
Sample,159001,0,"C3S_s.wav",56
Sample,159001,0,"D5S_s.wav",55
Sample,159001,0,"E3S_s.wav",46
Sample,159001,0,"A4S_s.wav",74
Sample,159001,0,"F#3S_Gb3S_s.wav",100
Sample,159201,0,"F#3S_Gb3S_s.wav",92
Sample,159201,0,"C3S_s.wav",88
Sample,159201,0,"A4S_s.wav",75
Sample,159201,0,"E3S_s.wav",26
Sample,159201,0,"D#4S_Eb4S_s.wav",77
Sample,159201,0,"F#3S_Gb3S_s.wav",100
Sample,159201,0,"D5S_s.wav",65
Sample,159401,0,"E3S_s.wav",74
Sample,159401,0,"A4S_s.wav",88
Sample,159401,0,"D#4S_Eb4S_s.wav",89
Sample,159401,0,"D5S_s.wav",76
Sample,159401,0,"F#3S_Gb3S_s.wav",100
Sample,159601,0,"E3S_s.wav",26
Sample,159601,0,"C3S_s.wav",88
Sample,159601,0,"A3S_s.wav",100
Sample,159801,0,"C3S_s.wav",56
Sample,159801,0,"D#4S_Eb4S_s.wav",89
Sample,159801,0,"F#3S_Gb3S_s.wav",100
Sample,159801,0,"A4S_s.wav",77
Sample,159801,0,"E3S_s.wav",62
Sample,160001,0,"G3S_s.wav",92
Sample,160001,0,"C3S_s.wav",88
Sample,160001,0,"B4S_s.wav",76
Sample,160001,0,"E3S_s.wav",56
Sample,160001,0,"D#4S_Eb4S_s.wav",82
Sample,160001,0,"G3S_s.wav",100
Sample,160001,0,"D5S_s.wav",69
Sample,160201,0,"F#3S_Gb3S_s.wav",100
Sample,160201,0,"D#4S_Eb4S_s.wav",89
Sample,160201,0,"E3S_s.wav",74
Sample,160201,0,"B4S_s.wav",73
Sample,160401,0,"E3S_s.wav",26
Sample,160401,0,"G3S_s.wav",100
Sample,160401,0,"C3S_s.wav",88
Sample,160401,0,"G3S_s.wav",92
Sample,160601,0,"C3S_s.wav",56
Sample,160601,0,"D#4S_Eb4S_s.wav",89
Sample,160601,0,"F#3S_Gb3S_s.wav",100
Sample,160601,0,"B4S_s.wav",70
Sample,160601,0,"E3S_s.wav",51
Sample,160801,0,"A3S_s.wav",92
Sample,160801,0,"C3S_s.wav",88
Sample,160801,0,"B4S_s.wav",69
Sample,160801,0,"E3S_s.wav",26
Sample,160801,0,"D#4S_Eb4S_s.wav",77
Sample,160801,0,"A3S_s.wav",100
Sample,160801,0,"D5S_s.wav",66
Sample,161001,0,"F#3S_Gb3S_s.wav",100
Sample,161001,0,"D#4S_Eb4S_s.wav",89
Sample,161001,0,"E3S_s.wav",74
Sample,161001,0,"B4S_s.wav",76
Sample,161201,0,"E3S_s.wav",26
Sample,161201,0,"B3S_s.wav",100
Sample,161201,0,"C3S_s.wav",88
Sample,161201,0,"B3S_s.wav",92
Sample,161401,0,"C3S_s.wav",56
Sample,161401,0,"D#4S_Eb4S_s.wav",89
Sample,161401,0,"F#3S_Gb3S_s.wav",100
Sample,161401,0,"B4S_s.wav",68
Sample,161401,0,"E3S_s.wav",50
Sample,161601,0,"C4S_s.wav",92
Sample,161601,0,"C3S_s.wav",88
Sample,161601,0,"C5S_s.wav",70
Sample,161601,0,"E3S_s.wav",26
Sample,161601,0,"D#4S_Eb4S_s.wav",82
Sample,161601,0,"C4S_s.wav",100
Sample,161601,0,"D#5S_Eb5S_s.wav",63
Sample,161801,0,"F#3S_Gb3S_s.wav",100
Sample,161801,0,"D#4S_Eb4S_s.wav",89
Sample,161801,0,"E3S_s.wav",74
Sample,161801,0,"C5S_s.wav",81
Sample,161869,0,"D#6S_Eb6S.wav",93
Sample,161872,0,"B5S.wav",93
Sample,161876,0,"G5S.wav",93
Sample,162001,0,"E3S_s.wav",26
Sample,162001,0,"C3S_s.wav",88
Sample,162001,0,"A3S_s.wav",100
Sample,162201,0,"C3S_s.wav",56
Sample,162201,0,"D#4S_Eb4S_s.wav",89
Sample,162201,0,"F#3S_Gb3S_s.wav",100
Sample,162201,0,"B4S_s.wav",55
Sample,162201,0,"E3S_s.wav",51
Sample,162401,0,"D4S_s.wav",92
Sample,162401,0,"C3S_s.wav",88
Sample,162401,0,"B4S_s.wav",70
Sample,162401,0,"E3S_s.wav",26
Sample,162401,0,"D#4S_Eb4S_s.wav",77
Sample,162401,0,"D4S_s.wav",100
Sample,162580,0,"D#6S_Eb6S_s.wav",66
Sample,162601,0,"E3S_s.wav",74
Sample,162601,0,"B4S_s.wav",81
Sample,162601,0,"D#4S_Eb4S_s.wav",89
Sample,162601,0,"D5S_s.wav",68
Sample,162601,0,"F#3S_Gb3S_s.wav",100
Sample,162605,0,"C6S_s.wav",66
Sample,162618,0,"F6S_s.wav",66
Sample,162643,0,"D6S_s.wav",66
Sample,162693,0,"G6S_s.wav",64
Sample,162718,0,"E6S_s.wav",64
Sample,162769,0,"G#6S_Ab6S_s.wav",70
Sample,162794,0,"F6S_s.wav",70
Sample,162801,0,"E3S_s.wav",26
Sample,162801,0,"G3S_s.wav",100
Sample,162801,0,"C3S_s.wav",88
Sample,162801,0,"G3S_s.wav",92
Sample,162838,0,"A#6S_Bb6S_s.wav",76
Sample,162863,0,"G6S_s.wav",76
Sample,162901,0,"C3S_s.wav",56
Sample,162909,0,"C7S_s.wav",74
Sample,162934,0,"A6S_s.wav",74
Sample,162988,0,"D7S_s.wav",71
Sample,163001,0,"E3S_s.wav",59
Sample,163001,0,"F#3S_Gb3S_s.wav",100
Sample,163001,0,"C3S_s.wav",56
Sample,163013,0,"B6S_s.wav",71
Sample,163176,0,"D#7S_Eb7S.wav",85
Sample,163188,0,"C7S.wav",85
Sample,163201,0,"C5S_s.wav",79
Sample,163201,0,"C3S_s.wav",88
Sample,163201,0,"C#4S_Db4S_s.wav",100
Sample,163201,0,"D#5S_Eb5S_s.wav",68
Sample,163201,0,"C4S_s.wav",92
Sample,163201,0,"C4S_s.wav",100
Sample,163201,0,"E3S_s.wav",26
Sample,163201,0,"G5S_s.wav",69
Sample,163401,0,"F#3S_Gb3S_s.wav",100
Sample,163401,0,"D#4S_Eb4S_s.wav",89
Sample,163401,0,"E3S_s.wav",74
Sample,163401,0,"C5S_s.wav",68
Sample,163601,0,"E3S_s.wav",26
Sample,163601,0,"A#3S_Bb3S_s.wav",100
Sample,163601,0,"C3S_s.wav",88
Sample,163601,0,"A#3S_Bb3S_s.wav",99
Sample,163801,0,"C3S_s.wav",56
Sample,163801,0,"D#4S_Eb4S_s.wav",89
Sample,163801,0,"F#3S_Gb3S_s.wav",100
Sample,163801,0,"C5S_s.wav",70
Sample,163801,0,"E3S_s.wav",57
Sample,163801,0,"D#5S_Eb5S_s.wav",57
Sample,164001,0,"C5S_s.wav",87
Sample,164001,0,"C3S_s.wav",88
Sample,164001,0,"D#4S_Eb4S_s.wav",77
Sample,164001,0,"D#5S_Eb5S_s.wav",73
Sample,164001,0,"G#3S_Ab3S_s.wav",92
Sample,164001,0,"G#3S_Ab3S_s.wav",100
Sample,164001,0,"E3S_s.wav",26
Sample,164201,0,"C5S_s.wav",81
Sample,164201,0,"E3S_s.wav",74
Sample,164201,0,"D#4S_Eb4S_s.wav",89
Sample,164201,0,"F#3S_Gb3S_s.wav",100
Sample,164201,0,"D#5S_Eb5S_s.wav",66
Sample,164401,0,"C3S_s.wav",88
Sample,164401,0,"F3S_s.wav",93
Sample,164401,0,"F3S_s.wav",100
Sample,164401,0,"D#4S_Eb4S_s.wav",77
Sample,164401,0,"E3S_s.wav",26
Sample,164401,0,"G#4S_Ab4S_s.wav",74
Sample,164601,0,"C3S_s.wav",56
Sample,164601,0,"D#4S_Eb4S_s.wav",89
Sample,164601,0,"F#3S_Gb3S_s.wav",100
Sample,164601,0,"C5S_s.wav",81
Sample,164601,0,"E3S_s.wav",47
Sample,164801,0,"A#3S_Bb3S_s.wav",96
Sample,164801,0,"C3S_s.wav",88
Sample,164801,0,"A#4S_Bb4S_s.wav",66
Sample,164801,0,"E3S_s.wav",26
Sample,164801,0,"D#4S_Eb4S_s.wav",82
Sample,164801,0,"A#3S_Bb3S_s.wav",100
Sample,164801,0,"D5S_s.wav",74
Sample,165001,0,"F#3S_Gb3S_s.wav",100
Sample,165001,0,"D#4S_Eb4S_s.wav",89
Sample,165001,0,"E3S_s.wav",74
Sample,165001,0,"A#4S_Bb4S_s.wav",57
Sample,165201,0,"C3S_s.wav",88
Sample,165201,0,"E3S_s.wav",26
Sample,165201,0,"D3S_s.wav",92
Sample,165201,0,"D#4S_Eb4S_s.wav",82
Sample,165201,0,"D3S_s.wav",100
Sample,165201,0,"A#4S_Bb4S_s.wav",74
Sample,165401,0,"C3S_s.wav",56
Sample,165401,0,"D#4S_Eb4S_s.wav",89
Sample,165401,0,"F#3S_Gb3S_s.wav",100
Sample,165401,0,"A#4S_Bb4S_s.wav",61
Sample,165401,0,"E3S_s.wav",43
Sample,165401,0,"D5S_s.wav",66
Sample,165601,0,"C3S_s.wav",88
Sample,165601,0,"G4S_s.wav",71
Sample,165601,0,"D#4S_Eb4S_s.wav",77
Sample,165601,0,"B4S_s.wav",72
Sample,165601,0,"E3S_s.wav",26
Sample,165601,0,"B4S_s.wav",74
Sample,165601,0,"G3S_s.wav",89
Sample,165601,0,"D5S_s.wav",67
Sample,165601,0,"G3S_s.wav",99
Sample,165601,0,"D5S_s.wav",77
Sample,165801,0,"E3S_s.wav",74
Sample,165801,0,"B4S_s.wav",72
Sample,165801,0,"D#4S_Eb4S_s.wav",89
Sample,165801,0,"D5S_s.wav",67
Sample,165801,0,"F#3S_Gb3S_s.wav",100
Sample,166001,0,"B3S_s.wav",100
Sample,166001,0,"C3S_s.wav",88
Sample,166001,0,"B4S_s.wav",74
Sample,166001,0,"E3S_s.wav",26
Sample,166001,0,"D#4S_Eb4S_s.wav",77
Sample,166001,0,"B3S_s.wav",100
Sample,166201,0,"D#4S_Eb4S_s.wav",89
Sample,166201,0,"C3S_s.wav",56
Sample,166201,0,"F#3S_Gb3S_s.wav",100
Sample,166201,0,"E3S_s.wav",61
Sample,166201,0,"B4S_s.wav",65
Sample,166401,0,"C3S_s.wav",88
Sample,166401,0,"C5S_s.wav",75
Sample,166401,0,"D#4S_Eb4S_s.wav",82
Sample,166401,0,"C5S_s.wav",74
Sample,166401,0,"E3S_s.wav",47
Sample,166401,0,"D#5S_Eb5S_s.wav",61
Sample,166401,0,"C4S_s.wav",100
Sample,166401,0,"D#5S_Eb5S_s.wav",77
Sample,166401,0,"C4S_s.wav",100
Sample,166601,0,"C5S_s.wav",72
Sample,166601,0,"E3S_s.wav",74
Sample,166601,0,"D#4S_Eb4S_s.wav",89
Sample,166601,0,"F#3S_Gb3S_s.wav",100
Sample,166601,0,"D#5S_Eb5S_s.wav",66
Sample,166801,0,"C3S_s.wav",88
Sample,166801,0,"G#3S_Ab3S_s.wav",100
Sample,166801,0,"G#3S_Ab3S_s.wav",100
Sample,166801,0,"D#4S_Eb4S_s.wav",82
Sample,166801,0,"E3S_s.wav",26
Sample,166801,0,"C5S_s.wav",74
Sample,167001,0,"C3S_s.wav",56
Sample,167001,0,"D#4S_Eb4S_s.wav",89
Sample,167001,0,"F#3S_Gb3S_s.wav",100
Sample,167001,0,"C5S_s.wav",64
Sample,167001,0,"E3S_s.wav",46
Sample,167001,0,"D#5S_Eb5S_s.wav",52
Sample,167201,0,"C3S_s.wav",88
Sample,167201,0,"A#4S_Bb4S_s.wav",64
Sample,167201,0,"D#4S_Eb4S_s.wav",77
Sample,167201,0,"D5S_s.wav",70
Sample,167201,0,"E3S_s.wav",26
Sample,167201,0,"D5S_s.wav",74
Sample,167201,0,"A#3S_Bb3S_s.wav",100
Sample,167201,0,"F5S_s.wav",71
Sample,167201,0,"A#3S_Bb3S_s.wav",100
Sample,167201,0,"F5S_s.wav",77
Sample,167401,0,"E3S_s.wav",74
Sample,167401,0,"A#4S_Bb4S_s.wav",64
Sample,167401,0,"D#4S_Eb4S_s.wav",89
Sample,167401,0,"D5S_s.wav",70
Sample,167401,0,"F#3S_Gb3S_s.wav",100
Sample,167601,0,"A#3S_Bb3S_s.wav",100
Sample,167601,0,"C3S_s.wav",88
Sample,167601,0,"D5S_s.wav",74
Sample,167601,0,"E3S_s.wav",26
Sample,167601,0,"D#4S_Eb4S_s.wav",77
Sample,167601,0,"A#3S_Bb3S_s.wav",100
Sample,167801,0,"D#4S_Eb4S_s.wav",89
Sample,167801,0,"C3S_s.wav",56
Sample,167801,0,"F#3S_Gb3S_s.wav",100
Sample,167801,0,"E3S_s.wav",42
Sample,167801,0,"A#4S_Bb4S_s.wav",64
Sample,168001,0,"D#3S_Eb3S_s.wav",100
Sample,168001,0,"D#3S_Eb3S_s.wav",100
Sample,168001,0,"C3S_s.wav",88
Sample,168001,0,"A#4S_Bb4S_s.wav",66
Sample,168401,0,"G3S_s.wav",100
Sample,168401,0,"G3S_s.wav",100
Sample,168401,0,"C3S_s.wav",88
Sample,168401,0,"C#4S_Db4S_s.wav",100
Sample,168801,0,"B3S_s.wav",100
Sample,168801,0,"B3S_s.wav",100
Sample,168801,0,"C3S_s.wav",88
Sample,168801,0,"G4S_s.wav",71
Sample,169201,0,"C#4S_Db4S_s.wav",100
Sample,169201,0,"D4S_s.wav",100
Sample,169201,0,"C3S_s.wav",88
Sample,169201,0,"D4S_s.wav",100
Sample,169601,0,"C3S_s.wav",88
Sample,169601,0,"C5S_s.wav",66
Sample,169601,0,"D#4S_Eb4S_s.wav",82
Sample,169601,0,"C5S_s.wav",74
Sample,169601,0,"E3S_s.wav",46
Sample,169601,0,"D#5S_Eb5S_s.wav",55
Sample,169601,0,"C4S_s.wav",92
Sample,169601,0,"D#5S_Eb5S_s.wav",77
Sample,169601,0,"C4S_s.wav",100
Sample,169801,0,"C5S_s.wav",80
Sample,169801,0,"E3S_s.wav",74
Sample,169801,0,"D#4S_Eb4S_s.wav",89
Sample,169801,0,"F#3S_Gb3S_s.wav",100
Sample,169801,0,"D#5S_Eb5S_s.wav",64
Sample,170001,0,"E3S_s.wav",71
Sample,170001,0,"A#3S_Bb3S_s.wav",100
Sample,170001,0,"C3S_s.wav",88
Sample,170001,0,"A#3S_Bb3S_s.wav",99
Sample,170201,0,"C3S_s.wav",56
Sample,170201,0,"D#4S_Eb4S_s.wav",89
Sample,170201,0,"F#3S_Gb3S_s.wav",100
Sample,170201,0,"C5S_s.wav",79
Sample,170201,0,"E3S_s.wav",57
Sample,170201,0,"D#5S_Eb5S_s.wav",59
Sample,170401,0,"C3S_s.wav",88
Sample,170401,0,"C5S_s.wav",84
Sample,170401,0,"D#4S_Eb4S_s.wav",77
Sample,170401,0,"C5S_s.wav",71
Sample,170401,0,"E3S_s.wav",26
Sample,170401,0,"D#5S_Eb5S_s.wav",74
Sample,170401,0,"G#3S_Ab3S_s.wav",92
Sample,170401,0,"F5S_s.wav",71
Sample,170401,0,"G#3S_Ab3S_s.wav",100
Sample,170401,0,"G#5S_Ab5S_s.wav",62
Sample,170601,0,"E3S_s.wav",74
Sample,170601,0,"C5S_s.wav",80
Sample,170601,0,"D#4S_Eb4S_s.wav",89
Sample,170601,0,"D#5S_Eb5S_s.wav",66
Sample,170601,0,"F#3S_Gb3S_s.wav",100
Sample,170801,0,"F3S_s.wav",93
Sample,170801,0,"C3S_s.wav",88
Sample,170801,0,"G#4S_Ab4S_s.wav",71
Sample,170801,0,"E3S_s.wav",26
Sample,170801,0,"D#4S_Eb4S_s.wav",77
Sample,170801,0,"F3S_s.wav",100
Sample,171001,0,"D#4S_Eb4S_s.wav",89
Sample,171001,0,"C3S_s.wav",56
Sample,171001,0,"F#3S_Gb3S_s.wav",100
Sample,171001,0,"E3S_s.wav",52
Sample,171001,0,"C5S_s.wav",81
Sample,171201,0,"A4S_s.wav",77
Sample,171201,0,"C3S_s.wav",88
Sample,171201,0,"D#4S_Eb4S_s.wav",82
Sample,171201,0,"D5S_s.wav",63
Sample,171201,0,"E3S_s.wav",26
Sample,171201,0,"D3S_s.wav",92
Sample,171201,0,"D3S_s.wav",100
Sample,171401,0,"A4S_s.wav",80
Sample,171401,0,"E3S_s.wav",74
Sample,171401,0,"D#4S_Eb4S_s.wav",89
Sample,171401,0,"F#3S_Gb3S_s.wav",100
Sample,171601,0,"E3S_s.wav",26
Sample,171601,0,"C3S_s.wav",88
Sample,171601,0,"A4S_s.wav",71
Sample,171601,0,"D3S_s.wav",100
Sample,171601,0,"D#4S_Eb4S_s.wav",82
Sample,171601,0,"D3S_s.wav",92
Sample,171801,0,"D#4S_Eb4S_s.wav",89
Sample,171801,0,"C3S_s.wav",56
Sample,171801,0,"D5S_s.wav",55
Sample,171801,0,"E3S_s.wav",54
Sample,171801,0,"A4S_s.wav",74
Sample,171801,0,"F#3S_Gb3S_s.wav",100
Sample,172001,0,"F#3S_Gb3S_s.wav",92
Sample,172001,0,"C3S_s.wav",88
Sample,172001,0,"A4S_s.wav",75
Sample,172001,0,"E3S_s.wav",26
Sample,172001,0,"D#4S_Eb4S_s.wav",77
Sample,172001,0,"F#3S_Gb3S_s.wav",100
Sample,172001,0,"D5S_s.wav",65
Sample,172201,0,"E3S_s.wav",74
Sample,172201,0,"A4S_s.wav",88
Sample,172201,0,"D#4S_Eb4S_s.wav",89
Sample,172201,0,"D5S_s.wav",76
Sample,172201,0,"F#3S_Gb3S_s.wav",100
Sample,172401,0,"A3S_s.wav",92
Sample,172401,0,"C3S_s.wav",88
Sample,172401,0,"D5S_s.wav",74
Sample,172401,0,"E3S_s.wav",26
Sample,172401,0,"D#4S_Eb4S_s.wav",77
Sample,172401,0,"A3S_s.wav",100
Sample,172601,0,"D#4S_Eb4S_s.wav",89
Sample,172601,0,"C3S_s.wav",56
Sample,172601,0,"F#3S_Gb3S_s.wav",100
Sample,172601,0,"E3S_s.wav",52
Sample,172601,0,"A4S_s.wav",77
Sample,172801,0,"B4S_s.wav",76
Sample,172801,0,"C3S_s.wav",88
Sample,172801,0,"D#4S_Eb4S_s.wav",82
Sample,172801,0,"D5S_s.wav",69
Sample,172801,0,"G3S_s.wav",92
Sample,172801,0,"G3S_s.wav",100
Sample,172801,0,"E3S_s.wav",26
Sample,173001,0,"B4S_s.wav",73
Sample,173001,0,"E3S_s.wav",74
Sample,173001,0,"D#4S_Eb4S_s.wav",89
Sample,173001,0,"F#3S_Gb3S_s.wav",100
Sample,173201,0,"G3S_s.wav",92
Sample,173201,0,"C3S_s.wav",88
Sample,173201,0,"G3S_s.wav",100
Sample,173201,0,"E3S_s.wav",26
Sample,173401,0,"D#4S_Eb4S_s.wav",89
Sample,173401,0,"C3S_s.wav",56
Sample,173401,0,"F#3S_Gb3S_s.wav",100
Sample,173401,0,"E3S_s.wav",47
Sample,173401,0,"B4S_s.wav",70
Sample,173601,0,"B4S_s.wav",69
Sample,173601,0,"C3S_s.wav",88
Sample,173601,0,"D#4S_Eb4S_s.wav",77
Sample,173601,0,"D5S_s.wav",66
Sample,173601,0,"A3S_s.wav",92
Sample,173601,0,"A3S_s.wav",100
Sample,173601,0,"E3S_s.wav",26
Sample,173801,0,"B4S_s.wav",76
Sample,173801,0,"E3S_s.wav",74
Sample,173801,0,"D#4S_Eb4S_s.wav",89
Sample,173801,0,"F#3S_Gb3S_s.wav",100
Sample,174001,0,"B3S_s.wav",92
Sample,174001,0,"C3S_s.wav",88
Sample,174001,0,"B3S_s.wav",100
Sample,174001,0,"E3S_s.wav",26
Sample,174201,0,"D#4S_Eb4S_s.wav",89
Sample,174201,0,"C3S_s.wav",56
Sample,174201,0,"F#3S_Gb3S_s.wav",100
Sample,174201,0,"E3S_s.wav",51
Sample,174201,0,"B4S_s.wav",68
Sample,174401,0,"C5S_s.wav",68
Sample,174401,0,"C3S_s.wav",89
Sample,174401,0,"F#4S_Gb4S_s.wav",84
Sample,174401,0,"D#5S_Eb5S_s.wav",83
Sample,174401,0,"C#4S_Db4S_s.wav",100
Sample,174401,0,"C4S_s.wav",96
Sample,174401,0,"C3S_s.wav",88
Sample,174401,0,"C6S.wav",90
Sample,174601,0,"E3S_s.wav",96
Sample,174601,0,"C4S_s.wav",89
Sample,174601,0,"C3S_s.wav",100
Sample,174601,0,"D#4S_Eb4S_s.wav",100
Sample,175001,0,"C3S_s.wav",74
Sample,175001,0,"E3S_s.wav",52
Sample,175001,0,"C3S_s.wav",86
Sample,175001,0,"D#4S_Eb4S_s.wav",100
Sample,175201,0,"C3S_s.wav",88
Sample,175201,0,"C4S_s.wav",100
Sample,175201,0,"C3S_s.wav",92
Sample,175401,0,"C5S_s.wav",66
Sample,175401,0,"E3S_s.wav",96
Sample,175401,0,"D#4S_Eb4S_s.wav",100
Sample,175401,0,"C4S_s.wav",92
Sample,175601,0,"C3S_s.wav",73
Sample,175801,0,"C3S_s.wav",86
Sample,175801,0,"C3S_s.wav",73
Sample,176001,0,"G#3S_Ab3S_s.wav",94
Sample,176001,0,"G#3S_Ab3S_s.wav",91
Sample,176001,0,"C3S_s.wav",88
Sample,176201,0,"G#3S_Ab3S_s.wav",81
Sample,176201,0,"E3S_s.wav",96
Sample,176201,0,"G#3S_Ab3S_s.wav",100
Sample,176601,0,"C3S_s.wav",74
Sample,176601,0,"E3S_s.wav",52
Sample,176801,0,"C3S_s.wav",88
Sample,177001,0,"F3S_s.wav",85
Sample,177001,0,"E3S_s.wav",96
Sample,177363,0,"G#4S_Ab4S_s.wav",74
Sample,177401,0,"C3S_s.wav",73
Sample,177401,0,"E3S_s.wav",52
Sample,177601,0,"G3S_s.wav",98
Sample,177601,0,"D#4S_Eb4S_s.wav",51
Sample,177601,0,"C3S_s.wav",88
Sample,177601,0,"F#4S_Gb4S_s.wav",84
Sample,177801,0,"E3S_s.wav",96
Sample,177801,0,"D#4S_Eb4S_s.wav",100
Sample,177801,0,"G3S_s.wav",100
Sample,177801,0,"F#4S_Gb4S_s.wav",84
Sample,177801,0,"G3S_s.wav",99
Sample,178001,0,"C3S_s.wav",74
Sample,178201,0,"C3S_s.wav",74
Sample,178201,0,"E3S_s.wav",52
Sample,178401,0,"C3S_s.wav",88
Sample,178576,0,"D5S_s.wav",78
Sample,178601,0,"E3S_s.wav",96
Sample,178601,0,"G3S_s.wav",94
Sample,178963,0,"B4S_s.wav",78
Sample,179001,0,"E3S_s.wav",52
Sample,179001,0,"C3S_s.wav",73
Sample,179201,0,"F#4S_Gb4S_s.wav",84
Sample,179201,0,"C3S_s.wav",88
Sample,179201,0,"D#4S_Eb4S_s.wav",51
Sample,179201,0,"G3S_s.wav",97
Sample,179201,0,"B5S_s.wav",95
Sample,179301,0,"F#4S_Gb4S_s.wav",28
Sample,179376,0,"D5S_s.wav",77
Sample,179401,0,"E3S_s.wav",96
Sample,179401,0,"D#4S_Eb4S_s.wav",100
Sample,179401,0,"G3S_s.wav",100
Sample,179401,0,"F#4S_Gb4S_s.wav",30
Sample,179401,0,"G3S_s.wav",98
Sample,179501,0,"F#4S_Gb4S_s.wav",33
Sample,179601,0,"D#4S_Eb4S_s.wav",51
Sample,179601,0,"F#4S_Gb4S_s.wav",35
Sample,179601,0,"C3S_s.wav",74
Sample,179701,0,"C3S_s.wav",74
Sample,179784,0,"D5S_s.wav",74
Sample,179801,0,"D#4S_Eb4S_s.wav",100
Sample,179801,0,"C3S_s.wav",74
Sample,179801,0,"G3S_s.wav",86
Sample,179801,0,"E3S_s.wav",96
Sample,179997,0,"D5S_s.wav",74
Sample,180001,0,"G3S_s.wav",94
Sample,180001,0,"D#4S_Eb4S_s.wav",45
Sample,180001,0,"C3S_s.wav",88
Sample,180201,0,"D#4S_Eb4S_s.wav",100
Sample,180201,0,"E3S_s.wav",96
Sample,180201,0,"G3S_s.wav",100
Sample,180201,0,"G3S_s.wav",98
Sample,180401,0,"D#4S_Eb4S_s.wav",45
Sample,180401,0,"C3S_s.wav",73
Sample,180501,0,"C3S_s.wav",73
Sample,180601,0,"E3S_s.wav",52
Sample,180601,0,"D#4S_Eb4S_s.wav",100
Sample,180601,0,"C3S_s.wav",73
Sample,180801,0,"D#4S_Eb4S_s.wav",51
Sample,180801,0,"C3S_s.wav",89
Sample,180801,0,"C5S_s.wav",68
Sample,180801,0,"C3S_s.wav",88
Sample,180801,0,"F#4S_Gb4S_s.wav",84
Sample,180801,0,"C4S_s.wav",97
Sample,181001,0,"D#4S_Eb4S_s.wav",100
Sample,181001,0,"C3S_s.wav",100
Sample,181001,0,"C4S_s.wav",100
Sample,181001,0,"E3S_s.wav",96
Sample,181401,0,"C3S_s.wav",74
Sample,181401,0,"C3S_s.wav",86
Sample,181401,0,"E3S_s.wav",52
Sample,181601,0,"C3S_s.wav",88
Sample,181601,0,"C4S_s.wav",99
Sample,181601,0,"C3S_s.wav",92
Sample,181622,0,"G4S_s.wav",74
Sample,181801,0,"C4S_s.wav",100
Sample,181801,0,"D#4S_Eb4S_s.wav",100
Sample,181801,0,"E3S_s.wav",96
Sample,182201,0,"C3S_s.wav",73
Sample,182201,0,"C3S_s.wav",86
Sample,182401,0,"D#4S_Eb4S_s.wav",51
Sample,182401,0,"C3S_s.wav",88
Sample,182401,0,"G#3S_Ab3S_s.wav",91
Sample,182401,0,"G#3S_Ab3S_s.wav",92
Sample,182601,0,"G#3S_Ab3S_s.wav",87
Sample,182601,0,"E3S_s.wav",96
Sample,182601,0,"G#3S_Ab3S_s.wav",100
Sample,183001,0,"C3S_s.wav",74
Sample,183001,0,"E3S_s.wav",96
Sample,183201,0,"C3S_s.wav",88
Sample,183401,0,"F3S_s.wav",93
Sample,183401,0,"E3S_s.wav",96
Sample,183401,0,"F3S_s.wav",100
Sample,183763,0,"G#4S_Ab4S_s.wav",74
Sample,183801,0,"E3S_s.wav",52
Sample,183801,0,"C3S_s.wav",73
Sample,184001,0,"G3S_s.wav",100
Sample,184001,0,"null_s.wav",99
Sample,184001,0,"F#4S_Gb4S_s.wav",84
Sample,184001,0,"B1S_s.wav",99
Sample,184001,0,"D#4S_Eb4S_s.wav",51
Sample,184001,0,"C3S_s.wav",88
Sample,184201,0,"D#4S_Eb4S_s.wav",100
Sample,184201,0,"E3S_s.wav",96
Sample,184201,0,"G3S_s.wav",100
Sample,184201,0,"G3S_s.wav",97
Sample,184201,0,"F#4S_Gb4S_s.wav",84
Sample,184401,0,"null_s.wav",60
Sample,184401,0,"C3S_s.wav",74
Sample,184601,0,"C3S_s.wav",74
Sample,184601,0,"E3S_s.wav",52
Sample,184601,0,"null_s.wav",62
Sample,184801,0,"C3S_s.wav",88
Sample,184801,0,"null_s.wav",64
Sample,184976,0,"D5S_s.wav",78
Sample,185001,0,"E3S_s.wav",96
Sample,185001,0,"G3S_s.wav",96
Sample,185001,0,"null_s.wav",66
Sample,185363,0,"B4S_s.wav",78
Sample,185401,0,"C3S_s.wav",73
Sample,185401,0,"E3S_s.wav",52
Sample,185401,0,"null_s.wav",70
Sample,185601,0,"D#4S_Eb4S_s.wav",51
Sample,185601,0,"null_s.wav",72
Sample,185601,0,"B5S_s.wav",95
Sample,185601,0,"C3S_s.wav",88
Sample,185601,0,"F#4S_Gb4S_s.wav",84
Sample,185601,0,"G3S_s.wav",97
Sample,185701,0,"F#4S_Gb4S_s.wav",28
Sample,185776,0,"D5S_s.wav",77
Sample,185801,0,"G3S_s.wav",100
Sample,185801,0,"null_s.wav",74
Sample,185801,0,"F#4S_Gb4S_s.wav",30
Sample,185801,0,"E3S_s.wav",96
Sample,185801,0,"D#4S_Eb4S_s.wav",100
Sample,185801,0,"G3S_s.wav",97
Sample,185901,0,"F#4S_Gb4S_s.wav",33
Sample,186001,0,"C3S_s.wav",74
Sample,186001,0,"D#4S_Eb4S_s.wav",51
Sample,186001,0,"null_s.wav",76
Sample,186001,0,"F#4S_Gb4S_s.wav",35
Sample,186101,0,"C3S_s.wav",74
Sample,186184,0,"D5S_s.wav",74
Sample,186201,0,"null_s.wav",77
Sample,186201,0,"G3S_s.wav",86
Sample,186201,0,"E3S_s.wav",52
Sample,186201,0,"D#4S_Eb4S_s.wav",100
Sample,186201,0,"C3S_s.wav",74
Sample,186397,0,"D5S_s.wav",74
Sample,186401,0,"C3S_s.wav",88
Sample,186401,0,"G3S_s.wav",100
Sample,186401,0,"null_s.wav",79
Sample,186401,0,"D#4S_Eb4S_s.wav",45
Sample,186601,0,"G3S_s.wav",100
Sample,186601,0,"G3S_s.wav",100
Sample,186601,0,"E3S_s.wav",96
Sample,186601,0,"D#4S_Eb4S_s.wav",100
Sample,186701,0,"null_s.wav",99
Sample,186701,0,"null_s.wav",99
Sample,186801,0,"C3S_s.wav",73
Sample,186801,0,"D#4S_Eb4S_s.wav",45
Sample,186901,0,"C3S_s.wav",73
Sample,187001,0,"E3S_s.wav",52
Sample,187001,0,"C3S_s.wav",73
Sample,187001,0,"D#4S_Eb4S_s.wav",100
Sample,187201,0,"C5S_s.wav",79
Sample,187201,0,"C3S_s.wav",88
Sample,187201,0,"C#4S_Db4S_s.wav",100
Sample,187201,0,"D#5S_Eb5S_s.wav",68
Sample,187201,0,"C4S_s.wav",92
Sample,187201,0,"C4S_s.wav",100
Sample,187201,0,"E3S_s.wav",26
Sample,187401,0,"C5S_s.wav",68
Sample,187401,0,"E3S_s.wav",74
Sample,187401,0,"D#4S_Eb4S_s.wav",89
Sample,187401,0,"F#3S_Gb3S_s.wav",100
Sample,187601,0,"A#3S_Bb3S_s.wav",99
Sample,187601,0,"C3S_s.wav",88
Sample,187601,0,"A#3S_Bb3S_s.wav",100
Sample,187601,0,"E3S_s.wav",26
Sample,187801,0,"D#4S_Eb4S_s.wav",89
Sample,187801,0,"C3S_s.wav",56
Sample,187801,0,"D#5S_Eb5S_s.wav",57
Sample,187801,0,"E3S_s.wav",59
Sample,187801,0,"C5S_s.wav",70
Sample,187801,0,"F#3S_Gb3S_s.wav",100
Sample,188001,0,"G#3S_Ab3S_s.wav",92
Sample,188001,0,"C3S_s.wav",88
Sample,188001,0,"C5S_s.wav",87
Sample,188001,0,"E3S_s.wav",32
Sample,188001,0,"D#4S_Eb4S_s.wav",77
Sample,188001,0,"G#3S_Ab3S_s.wav",100
Sample,188001,0,"D#5S_Eb5S_s.wav",73
Sample,188201,0,"E3S_s.wav",74
Sample,188201,0,"C5S_s.wav",81
Sample,188201,0,"D#4S_Eb4S_s.wav",89
Sample,188201,0,"D#5S_Eb5S_s.wav",66
Sample,188201,0,"F#3S_Gb3S_s.wav",100
Sample,188401,0,"F3S_s.wav",93
Sample,188401,0,"C3S_s.wav",88
Sample,188401,0,"G#4S_Ab4S_s.wav",74
Sample,188401,0,"E3S_s.wav",26
Sample,188401,0,"D#4S_Eb4S_s.wav",77
Sample,188401,0,"F3S_s.wav",100
Sample,188601,0,"D#4S_Eb4S_s.wav",89
Sample,188601,0,"C3S_s.wav",56
Sample,188601,0,"F#3S_Gb3S_s.wav",100
Sample,188601,0,"E3S_s.wav",57
Sample,188601,0,"C5S_s.wav",81
Sample,188801,0,"A#4S_Bb4S_s.wav",66
Sample,188801,0,"C3S_s.wav",88
Sample,188801,0,"D#4S_Eb4S_s.wav",82
Sample,188801,0,"D5S_s.wav",74
Sample,188801,0,"A#3S_Bb3S_s.wav",96
Sample,188801,0,"A#3S_Bb3S_s.wav",100
Sample,188801,0,"E3S_s.wav",30
Sample,189001,0,"A#4S_Bb4S_s.wav",57
Sample,189001,0,"E3S_s.wav",76
Sample,189001,0,"D#4S_Eb4S_s.wav",89
Sample,189001,0,"F#3S_Gb3S_s.wav",100
Sample,189201,0,"D3S_s.wav",100
Sample,189201,0,"C3S_s.wav",88
Sample,189201,0,"D3S_s.wav",92
Sample,189401,0,"C3S_s.wav",56
Sample,189401,0,"D#4S_Eb4S_s.wav",89
Sample,189401,0,"F#3S_Gb3S_s.wav",100
Sample,189401,0,"A#4S_Bb4S_s.wav",61
Sample,189401,0,"E3S_s.wav",47
Sample,189401,0,"D5S_s.wav",66
Sample,189601,0,"C3S_s.wav",88
Sample,189601,0,"B4S_s.wav",72
Sample,189601,0,"D#4S_Eb4S_s.wav",77
Sample,189601,0,"D5S_s.wav",67
Sample,189601,0,"E3S_s.wav",26
Sample,189601,0,"G5S_s.wav",69
Sample,189601,0,"G3S_s.wav",89
Sample,189601,0,"G5S_s.wav",71
Sample,189601,0,"G3S_s.wav",99
Sample,189801,0,"B4S_s.wav",72
Sample,189801,0,"E3S_s.wav",74
Sample,189801,0,"D#4S_Eb4S_s.wav",89
Sample,189801,0,"F#3S_Gb3S_s.wav",100
Sample,189801,0,"D5S_s.wav",67
Sample,190001,0,"E3S_s.wav",26
Sample,190001,0,"B3S_s.wav",100
Sample,190001,0,"C3S_s.wav",88
Sample,190201,0,"D#4S_Eb4S_s.wav",89
Sample,190201,0,"C3S_s.wav",56
Sample,190201,0,"F#3S_Gb3S_s.wav",100
Sample,190201,0,"E3S_s.wav",47
Sample,190201,0,"B4S_s.wav",65
Sample,190401,0,"C3S_s.wav",88
Sample,190401,0,"C4S_s.wav",100
Sample,190401,0,"C4S_s.wav",100
Sample,190401,0,"D#4S_Eb4S_s.wav",82
Sample,190401,0,"E3S_s.wav",26
Sample,190401,0,"C5S_s.wav",75
Sample,190601,0,"E3S_s.wav",74
Sample,190601,0,"C5S_s.wav",72
Sample,190601,0,"D#4S_Eb4S_s.wav",89
Sample,190601,0,"D#5S_Eb5S_s.wav",66
Sample,190601,0,"F#3S_Gb3S_s.wav",100
Sample,190801,0,"E3S_s.wav",26
Sample,190801,0,"C3S_s.wav",88
Sample,190801,0,"G#3S_Ab3S_s.wav",100
Sample,191001,0,"C3S_s.wav",56
Sample,191001,0,"D#4S_Eb4S_s.wav",89
Sample,191001,0,"F#3S_Gb3S_s.wav",100
Sample,191001,0,"C5S_s.wav",64
Sample,191001,0,"E3S_s.wav",74
Sample,191001,0,"D#5S_Eb5S_s.wav",52
Sample,191201,0,"C3S_s.wav",88
Sample,191201,0,"A#4S_Bb4S_s.wav",64
Sample,191201,0,"D#4S_Eb4S_s.wav",77
Sample,191201,0,"A#4S_Bb4S_s.wav",62
Sample,191201,0,"E3S_s.wav",26
Sample,191201,0,"D5S_s.wav",70
Sample,191201,0,"A#3S_Bb3S_s.wav",100
Sample,191201,0,"D5S_s.wav",65
Sample,191201,0,"A#3S_Bb3S_s.wav",100
Sample,191201,0,"F5S_s.wav",71
Sample,191401,0,"E3S_s.wav",74
Sample,191401,0,"A#4S_Bb4S_s.wav",64
Sample,191401,0,"D#4S_Eb4S_s.wav",89
Sample,191401,0,"D5S_s.wav",70
Sample,191401,0,"F#3S_Gb3S_s.wav",100
Sample,191501,0,"A#4S_Bb4S_s.wav",74
Sample,191501,0,"E3S_s.wav",66
Sample,191601,0,"E3S_s.wav",26
Sample,191601,0,"C3S_s.wav",88
Sample,191601,0,"A#3S_Bb3S_s.wav",100
Sample,191801,0,"C3S_s.wav",56
Sample,191801,0,"D#4S_Eb4S_s.wav",89
Sample,191801,0,"F#3S_Gb3S_s.wav",100
Sample,191801,0,"A#4S_Bb4S_s.wav",64
Sample,191801,0,"E3S_s.wav",48
Sample,192001,0,"E3S_s.wav",26
Sample,192001,0,"C3S_s.wav",88
Sample,192001,0,"A#4S_Bb4S_s.wav",66
Sample,192001,0,"D#3S_Eb3S_s.wav",100
Sample,192001,0,"D#4S_Eb4S_s.wav",82
Sample,192001,0,"D#3S_Eb3S_s.wav",100
Sample,192001,0,"D#5S_Eb5S_s.wav",66
Sample,192201,0,"D#5S_Eb5S_s.wav",66
Sample,192201,0,"E3S_s.wav",74
Sample,192201,0,"A#4S_Bb4S_s.wav",74
Sample,192201,0,"D#5S_Eb5S_s.wav",77
Sample,192201,0,"A#4S_Bb4S_s.wav",68
Sample,192201,0,"D#4S_Eb4S_s.wav",89
Sample,192201,0,"F#3S_Gb3S_s.wav",100
Sample,192401,0,"G3S_s.wav",100
Sample,192401,0,"C3S_s.wav",88
Sample,192401,0,"G3S_s.wav",100
Sample,192401,0,"E3S_s.wav",26
Sample,192601,0,"D#4S_Eb4S_s.wav",89
Sample,192601,0,"C3S_s.wav",56
Sample,192601,0,"F#3S_Gb3S_s.wav",100
Sample,192601,0,"E3S_s.wav",48
Sample,192601,0,"A#4S_Bb4S_s.wav",57
Sample,192801,0,"B4S_s.wav",76
Sample,192801,0,"C3S_s.wav",88
Sample,192801,0,"D#4S_Eb4S_s.wav",77
Sample,192801,0,"D5S_s.wav",77
Sample,192801,0,"B3S_s.wav",100
Sample,192801,0,"B3S_s.wav",100
Sample,192801,0,"E3S_s.wav",26
Sample,193001,0,"B4S_s.wav",76
Sample,193001,0,"E3S_s.wav",74
Sample,193001,0,"D5S_s.wav",69
Sample,193001,0,"F#3S_Gb3S_s.wav",100
Sample,193001,0,"D5S_s.wav",70
Sample,193001,0,"D#4S_Eb4S_s.wav",89
Sample,193001,0,"G5S_s.wav",71
Sample,193201,0,"E3S_s.wav",26
Sample,193201,0,"D4S_s.wav",100
Sample,193201,0,"C3S_s.wav",88
Sample,193201,0,"D4S_s.wav",100
Sample,193401,0,"C3S_s.wav",56
Sample,193401,0,"D#4S_Eb4S_s.wav",89
Sample,193401,0,"F#3S_Gb3S_s.wav",100
Sample,193401,0,"B4S_s.wav",63
Sample,193401,0,"E3S_s.wav",51
Sample,193601,0,"C4S_s.wav",92
Sample,193601,0,"C3S_s.wav",88
Sample,193601,0,"C5S_s.wav",66
Sample,193601,0,"E3S_s.wav",26
Sample,193601,0,"D#4S_Eb4S_s.wav",82
Sample,193601,0,"C4S_s.wav",100
Sample,193801,0,"C5S_s.wav",80
Sample,193801,0,"E3S_s.wav",74
Sample,193801,0,"D#4S_Eb4S_s.wav",89
Sample,193801,0,"F#3S_Gb3S_s.wav",100
Sample,193801,0,"D#5S_Eb5S_s.wav",64
Sample,194001,0,"E3S_s.wav",26
Sample,194001,0,"A#3S_Bb3S_s.wav",100
Sample,194001,0,"C3S_s.wav",88
Sample,194201,0,"D#4S_Eb4S_s.wav",89
Sample,194201,0,"C3S_s.wav",56
Sample,194201,0,"D#5S_Eb5S_s.wav",59
Sample,194201,0,"E3S_s.wav",60
Sample,194201,0,"C5S_s.wav",79
Sample,194201,0,"F#3S_Gb3S_s.wav",100
Sample,194401,0,"G#3S_Ab3S_s.wav",92
Sample,194401,0,"C3S_s.wav",88
Sample,194401,0,"C5S_s.wav",84
Sample,194401,0,"E3S_s.wav",26
Sample,194401,0,"D#4S_Eb4S_s.wav",77
Sample,194401,0,"G#3S_Ab3S_s.wav",100
Sample,194401,0,"D#5S_Eb5S_s.wav",74
Sample,194601,0,"E3S_s.wav",74
Sample,194601,0,"C5S_s.wav",80
Sample,194601,0,"D#4S_Eb4S_s.wav",89
Sample,194601,0,"D#5S_Eb5S_s.wav",66
Sample,194601,0,"F#3S_Gb3S_s.wav",100
Sample,194801,0,"E3S_s.wav",26
Sample,194801,0,"C3S_s.wav",88
Sample,194801,0,"F3S_s.wav",100
Sample,195001,0,"C3S_s.wav",56
Sample,195001,0,"D#4S_Eb4S_s.wav",89
Sample,195001,0,"F#3S_Gb3S_s.wav",100
Sample,195001,0,"C5S_s.wav",81
Sample,195001,0,"E3S_s.wav",42
Sample,195201,0,"E3S_s.wav",26
Sample,195201,0,"C3S_s.wav",88
Sample,195201,0,"A4S_s.wav",77
Sample,195201,0,"D3S_s.wav",100
Sample,195201,0,"D#4S_Eb4S_s.wav",82
Sample,195201,0,"D3S_s.wav",92
Sample,195201,0,"D5S_s.wav",63
Sample,195401,0,"F#3S_Gb3S_s.wav",100
Sample,195401,0,"D#4S_Eb4S_s.wav",89
Sample,195401,0,"E3S_s.wav",74
Sample,195401,0,"A4S_s.wav",80
Sample,195601,0,"D3S_s.wav",100
Sample,195601,0,"D3S_s.wav",92
Sample,195601,0,"C3S_s.wav",88
Sample,195801,0,"D#4S_Eb4S_s.wav",89
Sample,195801,0,"C3S_s.wav",56
Sample,195801,0,"D5S_s.wav",55
Sample,195801,0,"E3S_s.wav",46
Sample,195801,0,"A4S_s.wav",74
Sample,195801,0,"F#3S_Gb3S_s.wav",100
Sample,196001,0,"F#3S_Gb3S_s.wav",92
Sample,196001,0,"C3S_s.wav",88
Sample,196001,0,"A4S_s.wav",75
Sample,196001,0,"E3S_s.wav",26
Sample,196001,0,"D#4S_Eb4S_s.wav",77
Sample,196001,0,"F#3S_Gb3S_s.wav",100
Sample,196001,0,"D5S_s.wav",65
Sample,196201,0,"E3S_s.wav",74
Sample,196201,0,"A4S_s.wav",88
Sample,196201,0,"D#4S_Eb4S_s.wav",89
Sample,196201,0,"D5S_s.wav",76
Sample,196201,0,"F#3S_Gb3S_s.wav",100
Sample,196401,0,"E3S_s.wav",26
Sample,196401,0,"C3S_s.wav",88
Sample,196401,0,"A3S_s.wav",100
Sample,196601,0,"C3S_s.wav",56
Sample,196601,0,"D#4S_Eb4S_s.wav",89
Sample,196601,0,"F#3S_Gb3S_s.wav",100
Sample,196601,0,"A4S_s.wav",77
Sample,196601,0,"E3S_s.wav",62
Sample,196801,0,"G3S_s.wav",92
Sample,196801,0,"C3S_s.wav",88
Sample,196801,0,"B4S_s.wav",76
Sample,196801,0,"E3S_s.wav",56
Sample,196801,0,"D#4S_Eb4S_s.wav",82
Sample,196801,0,"G3S_s.wav",100
Sample,196801,0,"D5S_s.wav",69
Sample,197001,0,"F#3S_Gb3S_s.wav",100
Sample,197001,0,"D#4S_Eb4S_s.wav",89
Sample,197001,0,"E3S_s.wav",74
Sample,197001,0,"B4S_s.wav",73
Sample,197201,0,"E3S_s.wav",26
Sample,197201,0,"G3S_s.wav",100
Sample,197201,0,"C3S_s.wav",88
Sample,197201,0,"G3S_s.wav",92
Sample,197401,0,"C3S_s.wav",56
Sample,197401,0,"D#4S_Eb4S_s.wav",89
Sample,197401,0,"F#3S_Gb3S_s.wav",100
Sample,197401,0,"B4S_s.wav",70
Sample,197401,0,"E3S_s.wav",51
Sample,197601,0,"A3S_s.wav",92
Sample,197601,0,"C3S_s.wav",88
Sample,197601,0,"B4S_s.wav",69
Sample,197601,0,"E3S_s.wav",26
Sample,197601,0,"D#4S_Eb4S_s.wav",77
Sample,197601,0,"A3S_s.wav",100
Sample,197601,0,"D5S_s.wav",66
Sample,197801,0,"F#3S_Gb3S_s.wav",100
Sample,197801,0,"D#4S_Eb4S_s.wav",89
Sample,197801,0,"E3S_s.wav",74
Sample,197801,0,"B4S_s.wav",76
Sample,198001,0,"E3S_s.wav",26
Sample,198001,0,"B3S_s.wav",100
Sample,198001,0,"C3S_s.wav",88
Sample,198001,0,"B3S_s.wav",92
Sample,198201,0,"C3S_s.wav",56
Sample,198201,0,"D#4S_Eb4S_s.wav",89
Sample,198201,0,"F#3S_Gb3S_s.wav",100
Sample,198201,0,"B4S_s.wav",68
Sample,198201,0,"E3S_s.wav",50
Sample,198401,0,"C4S_s.wav",92
Sample,198401,0,"C3S_s.wav",88
Sample,198401,0,"C5S_s.wav",70
Sample,198401,0,"E3S_s.wav",26
Sample,198401,0,"D#4S_Eb4S_s.wav",82
Sample,198401,0,"C4S_s.wav",100
Sample,198401,0,"D#5S_Eb5S_s.wav",63
Sample,198601,0,"F#5S_Gb5S_s.wav",88
Sample,198601,0,"E3S_s.wav",74
Sample,198601,0,"D#5S_Eb5S_s.wav",68
Sample,198601,0,"F#5S_Gb5S_s.wav",88
Sample,198601,0,"C5S_s.wav",81
Sample,198601,0,"D#4S_Eb4S_s.wav",89
Sample,198601,0,"F#3S_Gb3S_s.wav",100
Sample,198601,0,"G5S_s.wav",68
Sample,198801,0,"E3S_s.wav",26
Sample,198801,0,"A3S_s.wav",100
Sample,198801,0,"C3S_s.wav",88
Sample,199001,0,"G5S_s.wav",92
Sample,199001,0,"E3S_s.wav",51
Sample,199001,0,"D5S_s.wav",43
Sample,199001,0,"G5S_s.wav",53
Sample,199001,0,"D#4S_Eb4S_s.wav",89
Sample,199001,0,"C3S_s.wav",56
Sample,199001,0,"F#3S_Gb3S_s.wav",100
Sample,199001,0,"B4S_s.wav",55
Sample,199001,0,"G5S_s.wav",92
Sample,199201,0,"C3S_s.wav",88
Sample,199201,0,"B4S_s.wav",70
Sample,199201,0,"D#4S_Eb4S_s.wav",77
Sample,199201,0,"D5S_s.wav",63
Sample,199201,0,"E3S_s.wav",26
Sample,199201,0,"G5S_s.wav",74
Sample,199201,0,"D4S_s.wav",92
Sample,199201,0,"D#6S_Eb6S_s.wav",100
Sample,199201,0,"D4S_s.wav",100
Sample,199201,0,"D#6S_Eb6S_s.wav",100
Sample,199401,0,"F#3S_Gb3S_s.wav",100
Sample,199401,0,"D#4S_Eb4S_s.wav",89
Sample,199401,0,"E3S_s.wav",74
Sample,199401,0,"B4S_s.wav",81
Sample,199501,0,"D6S_s.wav",100
Sample,199501,0,"D6S_s.wav",100
Sample,199501,0,"E3S_s.wav",26
Sample,199601,0,"E3S_s.wav",26
Sample,199601,0,"C3S_s.wav",88
Sample,199601,0,"G3S_s.wav",100
Sample,199801,0,"C3S_s.wav",56
Sample,199801,0,"D#4S_Eb4S_s.wav",89
Sample,199801,0,"F#3S_Gb3S_s.wav",100
Sample,199801,0,"B5S_s.wav",97
Sample,199801,0,"E3S_s.wav",59
Sample,199801,0,"B5S_s.wav",97
Sample,200001,0,"E3S_s.wav",26
Sample,200001,0,"D#5S_Eb5S_s.wav",68
Sample,200001,0,"C4S_s.wav",100
Sample,200001,0,"C6S.wav",100
Sample,200001,0,"C5S_s.wav",79
Sample,200001,0,"C6S.wav",97
Sample,200001,0,"C#4S_Db4S_s.wav",100
Sample,200001,0,"C4S_s.wav",92
Sample,200001,0,"C3S_s.wav",88
Sample,200001,0,"G5S_s.wav",69
Sample,200001,0,"C6S.wav",92
Sample,200201,0,"C5S_s.wav",68
Sample,200201,0,"E3S_s.wav",74
Sample,200201,0,"D#4S_Eb4S_s.wav",89
Sample,200201,0,"F#3S_Gb3S_s.wav",100
Sample,200401,0,"A#3S_Bb3S_s.wav",99
Sample,200401,0,"C3S_s.wav",88
Sample,200401,0,"A#3S_Bb3S_s.wav",100
Sample,200401,0,"E3S_s.wav",26
Sample,200601,0,"D#4S_Eb4S_s.wav",89
Sample,200601,0,"C3S_s.wav",56
Sample,200601,0,"D#5S_Eb5S_s.wav",57
Sample,200601,0,"E3S_s.wav",57
Sample,200601,0,"C5S_s.wav",70
Sample,200601,0,"F#3S_Gb3S_s.wav",100
Sample,200801,0,"G#3S_Ab3S_s.wav",92
Sample,200801,0,"C3S_s.wav",88
Sample,200801,0,"C5S_s.wav",87
Sample,200801,0,"E3S_s.wav",26
Sample,200801,0,"D#4S_Eb4S_s.wav",77
Sample,200801,0,"G#3S_Ab3S_s.wav",100
Sample,200801,0,"D#5S_Eb5S_s.wav",73
Sample,201001,0,"E3S_s.wav",74
Sample,201001,0,"C5S_s.wav",81
Sample,201001,0,"D#4S_Eb4S_s.wav",89
Sample,201001,0,"D#5S_Eb5S_s.wav",66
Sample,201001,0,"F#3S_Gb3S_s.wav",100
Sample,201201,0,"F3S_s.wav",93
Sample,201201,0,"C3S_s.wav",88
Sample,201201,0,"G#4S_Ab4S_s.wav",74
Sample,201201,0,"E3S_s.wav",26
Sample,201201,0,"D#4S_Eb4S_s.wav",77
Sample,201201,0,"F3S_s.wav",100
Sample,201401,0,"D#4S_Eb4S_s.wav",89
Sample,201401,0,"C3S_s.wav",56
Sample,201401,0,"F#3S_Gb3S_s.wav",100
Sample,201401,0,"E3S_s.wav",47
Sample,201401,0,"C5S_s.wav",81
Sample,201601,0,"A#4S_Bb4S_s.wav",66
Sample,201601,0,"C3S_s.wav",88
Sample,201601,0,"D#4S_Eb4S_s.wav",82
Sample,201601,0,"D5S_s.wav",74
Sample,201601,0,"A#3S_Bb3S_s.wav",96
Sample,201601,0,"A#3S_Bb3S_s.wav",100
Sample,201601,0,"E3S_s.wav",26
Sample,201801,0,"A#4S_Bb4S_s.wav",57
Sample,201801,0,"E3S_s.wav",74
Sample,201801,0,"D#4S_Eb4S_s.wav",89
Sample,201801,0,"F#3S_Gb3S_s.wav",100
Sample,202001,0,"E3S_s.wav",26
Sample,202001,0,"C3S_s.wav",88
Sample,202001,0,"A#4S_Bb4S_s.wav",74
Sample,202001,0,"D3S_s.wav",100
Sample,202001,0,"D#4S_Eb4S_s.wav",82
Sample,202001,0,"D3S_s.wav",92
Sample,202201,0,"D#4S_Eb4S_s.wav",89
Sample,202201,0,"C3S_s.wav",56
Sample,202201,0,"D5S_s.wav",66
Sample,202201,0,"E3S_s.wav",43
Sample,202201,0,"A#4S_Bb4S_s.wav",61
Sample,202201,0,"F#3S_Gb3S_s.wav",100
Sample,202401,0,"G3S_s.wav",89
Sample,202401,0,"E3S_s.wav",26
Sample,202401,0,"G3S_s.wav",99
Sample,202401,0,"D5S_s.wav",77
Sample,202401,0,"D#4S_Eb4S_s.wav",77
Sample,202401,0,"G4S_s.wav",71
Sample,202401,0,"C3S_s.wav",88
Sample,202401,0,"B4S_s.wav",74
Sample,202401,0,"D5S_s.wav",67
Sample,202401,0,"B4S_s.wav",72
Sample,202601,0,"B4S_s.wav",72
Sample,202601,0,"E3S_s.wav",74
Sample,202601,0,"D#4S_Eb4S_s.wav",89
Sample,202601,0,"F#3S_Gb3S_s.wav",100
Sample,202601,0,"D5S_s.wav",67
Sample,202801,0,"C3S_s.wav",88
Sample,202801,0,"B3S_s.wav",100
Sample,202801,0,"B3S_s.wav",100
Sample,202801,0,"D#4S_Eb4S_s.wav",77
Sample,202801,0,"E3S_s.wav",26
Sample,202801,0,"B4S_s.wav",74
Sample,203001,0,"C3S_s.wav",56
Sample,203001,0,"D#4S_Eb4S_s.wav",89
Sample,203001,0,"F#3S_Gb3S_s.wav",100
Sample,203001,0,"B4S_s.wav",65
Sample,203001,0,"E3S_s.wav",61
Sample,203201,0,"D#5S_Eb5S_s.wav",61
Sample,203201,0,"E3S_s.wav",47
Sample,203201,0,"C5S_s.wav",75
Sample,203201,0,"C5S_s.wav",74
Sample,203201,0,"C4S_s.wav",100
Sample,203201,0,"C3S_s.wav",88
Sample,203201,0,"C4S_s.wav",100
Sample,203201,0,"D#4S_Eb4S_s.wav",82
Sample,203201,0,"D#5S_Eb5S_s.wav",77
Sample,203401,0,"E3S_s.wav",74
Sample,203401,0,"C5S_s.wav",72
Sample,203401,0,"D#4S_Eb4S_s.wav",89
Sample,203401,0,"D#5S_Eb5S_s.wav",66
Sample,203401,0,"F#3S_Gb3S_s.wav",100
Sample,203601,0,"G#3S_Ab3S_s.wav",100
Sample,203601,0,"C3S_s.wav",88
Sample,203601,0,"C5S_s.wav",74
Sample,203601,0,"E3S_s.wav",26
Sample,203601,0,"D#4S_Eb4S_s.wav",82
Sample,203601,0,"G#3S_Ab3S_s.wav",100
Sample,203801,0,"D#4S_Eb4S_s.wav",89
Sample,203801,0,"C3S_s.wav",56
Sample,203801,0,"D#5S_Eb5S_s.wav",52
Sample,203801,0,"E3S_s.wav",46
Sample,203801,0,"C5S_s.wav",64
Sample,203801,0,"F#3S_Gb3S_s.wav",100
Sample,204001,0,"A#3S_Bb3S_s.wav",100
Sample,204001,0,"E3S_s.wav",26
Sample,204001,0,"A#3S_Bb3S_s.wav",100
Sample,204001,0,"F5S_s.wav",77
Sample,204001,0,"D#4S_Eb4S_s.wav",77
Sample,204001,0,"A#4S_Bb4S_s.wav",64
Sample,204001,0,"C3S_s.wav",88
Sample,204001,0,"D5S_s.wav",74
Sample,204001,0,"F5S_s.wav",71
Sample,204001,0,"D5S_s.wav",70
Sample,204201,0,"A#4S_Bb4S_s.wav",64
Sample,204201,0,"E3S_s.wav",74
Sample,204201,0,"D#4S_Eb4S_s.wav",89
Sample,204201,0,"F#3S_Gb3S_s.wav",100
Sample,204201,0,"D5S_s.wav",70
Sample,204401,0,"C3S_s.wav",88
Sample,204401,0,"A#3S_Bb3S_s.wav",100
Sample,204401,0,"A#3S_Bb3S_s.wav",100
Sample,204401,0,"D#4S_Eb4S_s.wav",77
Sample,204401,0,"E3S_s.wav",26
Sample,204401,0,"D5S_s.wav",74
Sample,204601,0,"C3S_s.wav",56
Sample,204601,0,"D#4S_Eb4S_s.wav",89
Sample,204601,0,"F#3S_Gb3S_s.wav",100
Sample,204601,0,"A#4S_Bb4S_s.wav",64
Sample,204601,0,"E3S_s.wav",42
Sample,204801,0,"C3S_s.wav",88
Sample,205201,0,"G3S_s.wav",100
Sample,205201,0,"G3S_s.wav",100
Sample,205201,0,"C3S_s.wav",88
Sample,205201,0,"C#4S_Db4S_s.wav",100
Sample,205601,0,"B3S_s.wav",100
Sample,205601,0,"B3S_s.wav",100
Sample,205601,0,"C3S_s.wav",88
Sample,205601,0,"G4S_s.wav",71
Sample,206001,0,"C#4S_Db4S_s.wav",100
Sample,206001,0,"D4S_s.wav",100
Sample,206001,0,"C3S_s.wav",88
Sample,206001,0,"D4S_s.wav",100
Sample,206401,0,"C3S_s.wav",88
Sample,206401,0,"C5S_s.wav",66
Sample,206401,0,"D#4S_Eb4S_s.wav",82
Sample,206401,0,"C5S_s.wav",74
Sample,206401,0,"E3S_s.wav",46
Sample,206401,0,"D#5S_Eb5S_s.wav",55
Sample,206401,0,"C4S_s.wav",92
Sample,206401,0,"D#5S_Eb5S_s.wav",77
Sample,206401,0,"C4S_s.wav",100
Sample,206601,0,"C5S_s.wav",80
Sample,206601,0,"E3S_s.wav",74
Sample,206601,0,"D#4S_Eb4S_s.wav",89
Sample,206601,0,"F#3S_Gb3S_s.wav",100
Sample,206601,0,"D#5S_Eb5S_s.wav",64
Sample,206801,0,"E3S_s.wav",71
Sample,206801,0,"A#3S_Bb3S_s.wav",100
Sample,206801,0,"C3S_s.wav",88
Sample,206801,0,"A#3S_Bb3S_s.wav",99
Sample,207001,0,"C3S_s.wav",56
Sample,207001,0,"D#4S_Eb4S_s.wav",89
Sample,207001,0,"F#3S_Gb3S_s.wav",100
Sample,207001,0,"C5S_s.wav",79
Sample,207001,0,"E3S_s.wav",57
Sample,207001,0,"D#5S_Eb5S_s.wav",59
Sample,207201,0,"C3S_s.wav",88
Sample,207201,0,"C5S_s.wav",84
Sample,207201,0,"D#4S_Eb4S_s.wav",77
Sample,207201,0,"C5S_s.wav",71
Sample,207201,0,"E3S_s.wav",26
Sample,207201,0,"D#5S_Eb5S_s.wav",74
Sample,207201,0,"G#3S_Ab3S_s.wav",92
Sample,207201,0,"F5S_s.wav",71
Sample,207201,0,"G#3S_Ab3S_s.wav",100
Sample,207201,0,"G#5S_Ab5S_s.wav",62
Sample,207401,0,"E3S_s.wav",74
Sample,207401,0,"C5S_s.wav",80
Sample,207401,0,"D#4S_Eb4S_s.wav",89
Sample,207401,0,"D#5S_Eb5S_s.wav",66
Sample,207401,0,"F#3S_Gb3S_s.wav",100
Sample,207601,0,"F3S_s.wav",93
Sample,207601,0,"C3S_s.wav",88
Sample,207601,0,"G#4S_Ab4S_s.wav",71
Sample,207601,0,"E3S_s.wav",26
Sample,207601,0,"D#4S_Eb4S_s.wav",77
Sample,207601,0,"F3S_s.wav",100
Sample,207801,0,"D#4S_Eb4S_s.wav",89
Sample,207801,0,"C3S_s.wav",56
Sample,207801,0,"F#3S_Gb3S_s.wav",100
Sample,207801,0,"E3S_s.wav",52
Sample,207801,0,"C5S_s.wav",81
Sample,208001,0,"A4S_s.wav",77
Sample,208001,0,"C3S_s.wav",88
Sample,208001,0,"D#4S_Eb4S_s.wav",82
Sample,208001,0,"D5S_s.wav",63
Sample,208001,0,"E3S_s.wav",26
Sample,208001,0,"D3S_s.wav",92
Sample,208001,0,"D3S_s.wav",100
Sample,208201,0,"A4S_s.wav",80
Sample,208201,0,"E3S_s.wav",74
Sample,208201,0,"D#4S_Eb4S_s.wav",89
Sample,208201,0,"F#3S_Gb3S_s.wav",100
Sample,208401,0,"E3S_s.wav",26
Sample,208401,0,"C3S_s.wav",88
Sample,208401,0,"A4S_s.wav",71
Sample,208401,0,"D3S_s.wav",100
Sample,208401,0,"D#4S_Eb4S_s.wav",82
Sample,208401,0,"D3S_s.wav",92
Sample,208601,0,"D#4S_Eb4S_s.wav",89
Sample,208601,0,"C3S_s.wav",56
Sample,208601,0,"D5S_s.wav",55
Sample,208601,0,"E3S_s.wav",54
Sample,208601,0,"A4S_s.wav",74
Sample,208601,0,"F#3S_Gb3S_s.wav",100
Sample,208801,0,"F#3S_Gb3S_s.wav",92
Sample,208801,0,"C3S_s.wav",88
Sample,208801,0,"A4S_s.wav",75
Sample,208801,0,"E3S_s.wav",26
Sample,208801,0,"D#4S_Eb4S_s.wav",77
Sample,208801,0,"F#3S_Gb3S_s.wav",100
Sample,208801,0,"D5S_s.wav",65
Sample,209001,0,"E3S_s.wav",74
Sample,209001,0,"A4S_s.wav",88
Sample,209001,0,"D#4S_Eb4S_s.wav",89
Sample,209001,0,"D5S_s.wav",76
Sample,209001,0,"F#3S_Gb3S_s.wav",100
Sample,209201,0,"A3S_s.wav",92
Sample,209201,0,"C3S_s.wav",88
Sample,209201,0,"D5S_s.wav",74
Sample,209201,0,"E3S_s.wav",26
Sample,209201,0,"D#4S_Eb4S_s.wav",77
Sample,209201,0,"A3S_s.wav",100
Sample,209401,0,"D#4S_Eb4S_s.wav",89
Sample,209401,0,"C3S_s.wav",56
Sample,209401,0,"F#3S_Gb3S_s.wav",100
Sample,209401,0,"E3S_s.wav",52
Sample,209401,0,"A4S_s.wav",77
Sample,209601,0,"B4S_s.wav",76
Sample,209601,0,"C3S_s.wav",88
Sample,209601,0,"D#4S_Eb4S_s.wav",82
Sample,209601,0,"D5S_s.wav",69
Sample,209601,0,"G3S_s.wav",92
Sample,209601,0,"G3S_s.wav",100
Sample,209601,0,"E3S_s.wav",26
Sample,209801,0,"G5S_s.wav",68
Sample,209801,0,"F#3S_Gb3S_s.wav",100
Sample,209801,0,"F#5S_Gb5S_s.wav",88
Sample,209801,0,"F#5S_Gb5S_s.wav",88
Sample,209801,0,"B4S_s.wav",73
Sample,209801,0,"E3S_s.wav",74
Sample,209801,0,"D#4S_Eb4S_s.wav",89
Sample,209801,0,"D5S_s.wav",70
Sample,210001,0,"G3S_s.wav",92
Sample,210001,0,"C3S_s.wav",88
Sample,210001,0,"G3S_s.wav",100
Sample,210001,0,"E3S_s.wav",26
Sample,210201,0,"G5S_s.wav",92
Sample,210201,0,"E3S_s.wav",47
Sample,210201,0,"D5S_s.wav",64
Sample,210201,0,"G5S_s.wav",61
Sample,210201,0,"D#4S_Eb4S_s.wav",89
Sample,210201,0,"C3S_s.wav",56
Sample,210201,0,"F#3S_Gb3S_s.wav",100
Sample,210201,0,"B4S_s.wav",70
Sample,210201,0,"G5S_s.wav",92
Sample,210401,0,"E3S_s.wav",26
Sample,210401,0,"D5S_s.wav",66
Sample,210401,0,"A3S_s.wav",100
Sample,210401,0,"D#6S_Eb6S_s.wav",100
Sample,210401,0,"B4S_s.wav",69
Sample,210401,0,"D#6S_Eb6S_s.wav",100
Sample,210401,0,"D#4S_Eb4S_s.wav",77
Sample,210401,0,"A3S_s.wav",92
Sample,210401,0,"C3S_s.wav",88
Sample,210401,0,"G5S_s.wav",66
Sample,210401,0,"D#6S_Eb6S_s.wav",96
Sample,210601,0,"B4S_s.wav",76
Sample,210601,0,"E3S_s.wav",74
Sample,210601,0,"D#4S_Eb4S_s.wav",89
Sample,210601,0,"F#3S_Gb3S_s.wav",100
Sample,210701,0,"D6S_s.wav",100
Sample,210701,0,"E3S_s.wav",26
Sample,210701,0,"D6S_s.wav",100
Sample,210801,0,"E3S_s.wav",26
Sample,210801,0,"B3S_s.wav",100
Sample,210801,0,"C3S_s.wav",88
Sample,210801,0,"B3S_s.wav",92
Sample,211001,0,"C3S_s.wav",56
Sample,211001,0,"D5S_s.wav",66
Sample,211001,0,"B4S_s.wav",68
Sample,211001,0,"G5S_s.wav",62
Sample,211001,0,"E3S_s.wav",51
Sample,211001,0,"B5S_s.wav",97
Sample,211001,0,"D#4S_Eb4S_s.wav",89
Sample,211001,0,"B5S_s.wav",97
Sample,211001,0,"F#3S_Gb3S_s.wav",100
Sample,211201,0,"C6S.wav",97
Sample,211201,0,"C4S_s.wav",100
Sample,211201,0,"D#5S_Eb5S_s.wav",63
Sample,211201,0,"G5S_s.wav",74
Sample,211201,0,"C#4S_Db4S_s.wav",100
Sample,211201,0,"C3S_s.wav",88
Sample,211201,0,"C4S_s.wav",92
Sample,211201,0,"C5S_s.wav",70

[TimingPoints]
1,600,4,1,1,100,1,0
3,400,4,1,1,100,1,0

[HitObjects]
10,192,803,5,0,0:0:0:88:C3S_s.wav
266,192,803,1,0,0:0:0:100:C#4S_Db4S_s.wav
138,192,1203,1,0,0:0:0:39:E3S_s.wav
394,192,1203,1,0,0:0:0:41:F3S_s.wav
10,192,1403,1,0,0:0:0:44:E3S_s.wav
266,192,1403,1,0,0:0:0:46:F3S_s.wav
138,192,1603,1,0,0:0:0:49:E3S_s.wav
394,192,1603,1,0,0:0:0:51:F3S_s.wav
10,192,1803,1,0,0:0:0:54:E3S_s.wav
266,192,1803,1,0,0:0:0:56:F3S_s.wav
138,192,2003,1,0,0:0:0:59:E3S_s.wav
394,192,2003,1,0,0:0:0:62:F3S_s.wav
10,192,2203,1,0,0:0:0:64:E3S_s.wav
266,192,2203,1,0,0:0:0:66:F3S_s.wav
138,192,2403,1,0,0:0:0:70:E3S_s.wav
394,192,2403,1,0,0:0:0:72:F3S_s.wav
10,192,2603,1,0,0:0:0:74:E3S_s.wav
266,192,2603,1,0,0:0:0:77:F3S_s.wav
138,192,2803,1,0,0:0:0:80:E3S_s.wav
394,192,2803,1,0,0:0:0:82:F3S_s.wav
10,192,3003,1,0,0:0:0:85:E3S_s.wav
266,192,3003,1,0,0:0:0:87:F3S_s.wav
138,192,3203,1,0,0:0:0:90:E3S_s.wav
394,192,3203,1,0,0:0:0:92:F3S_s.wav
10,192,3403,1,0,0:0:0:95:E3S_s.wav
266,192,3403,1,0,0:0:0:97:F3S_s.wav
394,192,3603,1,0,0:0:0:86:E3S_s.wav
138,192,3703,1,0,0:0:0:88:E3S_s.wav
266,192,3803,1,0,0:0:0:88:E3S_s.wav
10,192,4003,1,0,0:0:0:97:C6S.wav
394,192,4003,1,0,0:0:0:83:D#5S_Eb5S_s.wav
138,192,4003,1,0,0:0:0:81:G4S_s.wav
266,192,4203,1,0,0:0:0:87:D#5S_Eb5S_s.wav
138,192,4203,1,0,0:0:0:65:C5S_s.wav
394,192,4203,1,0,0:0:0:84:F#4S_Gb4S_s.wav
10,192,4203,1,0,0:0:0:77:G4S_s.wav
266,192,4403,1,0,0:0:0:74:C3S_s.wav
394,192,4403,1,0,0:0:0:51:D#4S_Eb4S_s.wav
138,192,4503,1,0,0:0:0:74:C3S_s.wav
10,192,4603,1,0,0:0:0:84:C6S_s.wav
266,192,4603,1,0,0:0:0:81:D#5S_Eb5S_s.wav
394,192,4628,1,0,0:0:0:71:G4S_s.wav
138,192,4628,1,0,0:0:0:65:C5S_s.wav
138,192,4803,1,0,0:0:0:45:D#4S_Eb4S_s.wav
266,192,4803,1,0,0:0:0:84:G5S_s.wav
394,192,4803,1,0,0:0:0:85:D#5S_Eb5S_s.wav
10,192,4828,1,0,0:0:0:74:G4S_s.wav
394,192,4828,1,0,0:0:0:63:C5S_s.wav
138,192,4978,1,0,0:0:0:100:C3S_s.wav
394,192,5003,1,0,0:0:0:87:D#5S_Eb5S_s.wav
266,192,5003,1,0,0:0:0:80:C6S_s.wav
10,192,5003,1,0,0:0:0:80:G4S_s.wav
266,192,5128,1,0,0:0:0:77:D6S_s.wav
138,192,5178,1,0,0:0:0:67:D#6S_Eb6S_s.wav
394,192,5203,1,0,0:0:0:45:D#4S_Eb4S_s.wav
10,192,5303,1,0,0:0:0:73:C3S_s.wav
266,192,5353,1,0,0:0:0:68:G4S_s.wav
138,192,5369,1,0,0:0:0:81:D#5S_Eb5S_s.wav
394,192,5378,1,0,0:0:0:67:C5S_s.wav
10,192,5378,1,0,0:0:0:77:G6S_s.wav
138,192,5403,1,0,0:0:0:40:E3S_s.wav
266,192,5403,1,0,0:0:0:100:D#4S_Eb4S_s.wav
138,192,5569,1,0,0:0:0:77:G#4S_Ab4S_s.wav
394,192,5569,1,0,0:0:0:87:D#5S_Eb5S_s.wav
266,192,5569,1,0,0:0:0:67:C5S_s.wav
10,192,5578,1,0,0:0:0:90:G#6S_Ab6S.wav
138,192,5603,1,0,0:0:0:51:D#4S_Eb4S_s.wav
394,192,5603,1,0,0:0:0:84:F#4S_Gb4S_s.wav
266,192,5753,1,0,0:0:0:66:C5S_s.wav
10,192,5753,1,0,0:0:0:89:D#5S_Eb5S_s.wav
394,192,5753,1,0,0:0:0:77:G#4S_Ab4S_s.wav
138,192,5803,1,0,0:0:0:100:D#4S_Eb4S_s.wav
266,192,5803,1,0,0:0:0:84:F#4S_Gb4S_s.wav
10,192,6003,1,0,0:0:0:74:C3S_s.wav
394,192,6003,1,0,0:0:0:51:D#4S_Eb4S_s.wav
138,192,6103,1,0,0:0:0:74:C3S_s.wav
266,192,6153,1,0,0:0:0:83:D#5S_Eb5S_s.wav
10,192,6153,1,0,0:0:0:75:G#4S_Ab4S_s.wav
394,192,6169,1,0,0:0:0:65:C5S_s.wav
138,192,6203,1,0,0:0:0:86:G3S_s.wav
394,192,6203,1,0,0:0:0:100:D#4S_Eb4S_s.wav
266,192,6353,1,0,0:0:0:75:G#4S_Ab4S_s.wav
10,192,6353,1,0,0:0:0:69:C5S_s.wav
394,192,6369,1,0,0:0:0:74:F5S_s.wav
138,192,6378,1,0,0:0:0:91:F3S_s.wav
266,192,6403,1,0,0:0:0:91:F6S_s.wav
10,192,6403,1,0,0:0:0:87:F3S_s.wav
394,192,6403,1,0,0:0:0:45:D#4S_Eb4S_s.wav
138,192,6553,1,0,0:0:0:77:F5S_s.wav
266,192,6553,1,0,0:0:0:65:C5S_s.wav
10,192,6553,1,0,0:0:0:78:G#4S_Ab4S_s.wav
138,192,6603,1,0,0:0:0:100:F3S_s.wav
394,192,6603,1,0,0:0:0:100:D#4S_Eb4S_s.wav
266,192,6753,1,0,0:0:0:92:G#6S_Ab6S_s.wav
10,192,6803,1,0,0:0:0:73:C3S_s.wav
394,192,6803,1,0,0:0:0:45:D#4S_Eb4S_s.wav
138,192,6903,1,0,0:0:0:73:C3S_s.wav
266,192,6953,1,0,0:0:0:77:F5S_s.wav
10,192,6969,1,0,0:0:0:63:C5S_s.wav
138,192,7003,1,0,0:0:0:86:F3S_s.wav
394,192,7003,1,0,0:0:0:100:D#4S_Eb4S_s.wav
266,192,7178,1,0,0:0:0:94:G3S_s.wav
10,192,7178,1,0,0:0:0:82:B4S_s.wav
394,192,7178,1,0,0:0:0:78:G5S_s.wav
138,192,7178,1,0,0:0:0:84:D5S_s.wav
266,192,7203,1,0,0:0:0:89:G6S_s.wav
10,192,7303,1,0,0:0:0:85:G#6S_Ab6S_s.wav
394,192,7369,1,0,0:0:0:84:B4S_s.wav
138,192,7378,1,0,0:0:0:68:G5S_s.wav
266,192,7378,1,0,0:0:0:77:D5S_s.wav
10,192,7403,1,0,0:0:0:84:G6S_s.wav
394,192,7503,1,0,0:0:0:86:F6S_s.wav
138,192,7603,1,0,0:0:0:51:D#4S_Eb4S_s.wav
266,192,7603,1,0,0:0:0:95:G6S.wav
10,192,7703,1,0,0:0:0:74:C3S_s.wav
394,192,7769,1,0,0:0:0:81:B4S_s.wav
138,192,7778,1,0,0:0:0:76:D5S_s.wav
266,192,7778,1,0,0:0:0:66:G5S_s.wav
10,192,7803,1,0,0:0:0:86:G3S_s.wav
394,192,7803,1,0,0:0:0:100:D#4S_Eb4S_s.wav
138,192,7953,1,0,0:0:0:81:B4S_s.wav
394,192,7969,1,0,0:0:0:74:D5S_s.wav
266,192,7969,1,0,0:0:0:70:G5S_s.wav
10,192,7978,1,0,0:0:0:87:G3S_s.wav
138,192,8003,1,0,0:0:0:100:G3S_s.wav
266,192,8003,1,0,0:0:0:45:D#4S_Eb4S_s.wav
394,192,8169,1,0,0:0:0:83:B4S_s.wav
10,192,8178,1,0,0:0:0:70:G5S_s.wav
138,192,8203,1,0,0:0:0:100:G3S_s.wav
266,192,8203,1,0,0:0:0:100:D#4S_Eb4S_s.wav
10,192,8403,1,0,0:0:0:73:C3S_s.wav
394,192,8403,1,0,0:0:0:45:D#4S_Eb4S_s.wav
266,192,8503,1,0,0:0:0:73:C3S_s.wav
138,192,8569,1,0,0:0:0:74:D5S_s.wav
394,192,8569,1,0,0:0:0:70:G5S_s.wav
10,192,8603,1,0,0:0:0:86:G3S_s.wav
266,192,8603,1,0,0:0:0:100:D#4S_Eb4S_s.wav
138,192,8753,1,0,0:0:0:83:B4S_s.wav
394,192,8778,1,0,0:0:0:77:D5S_s.wav
10,192,8778,1,0,0:0:0:70:G5S_s.wav
266,192,8778,1,0,0:0:0:88:G3S_s.wav
138,192,8803,1,0,0:0:0:95:D6S_s.wav
394,192,8853,1,0,0:0:0:26:F#4S_Gb4S_s.wav
10,192,8903,1,0,0:0:0:100:C6S_s.wav
266,192,8903,1,0,0:0:0:100:A5S_s.wav
138,192,8953,1,0,0:0:0:29:F#4S_Gb4S_s.wav
394,192,8969,1,0,0:0:0:84:B4S_s.wav
10,192,8978,1,0,0:0:0:70:G5S_s.wav
266,192,9003,1,0,0:0:0:100:G5S_s.wav
138,192,9028,1,0,0:0:0:88:B5S_s.wav
394,192,9053,1,0,0:0:0:32:F#4S_Gb4S_s.wav
10,192,9103,1,0,0:0:0:100:A5S_s.wav
266,192,9103,1,0,0:0:0:85:C6S_s.wav
138,192,9153,1,0,0:0:0:34:F#4S_Gb4S_s.wav
394,192,9203,1,0,0:0:0:100:D6S.wav
10,192,9203,1,0,0:0:0:100:B5S.wav
266,192,9253,1,0,0:0:0:37:F#4S_Gb4S_s.wav
138,192,9303,1,0,0:0:0:37:F#4S_Gb4S_s.wav
394,192,9353,1,0,0:0:0:39:F#4S_Gb4S_s.wav
10,192,9378,1,0,0:0:0:67:G5S_s.wav
266,192,9378,1,0,0:0:0:82:B4S_s.wav
138,192,9403,1,0,0:0:0:40:F#4S_Gb4S_s.wav
394,192,9453,1,0,0:0:0:41:F#4S_Gb4S_s.wav
138,192,9503,1,0,0:0:0:42:F#4S_Gb4S_s.wav
266,192,9553,1,0,0:0:0:44:F#4S_Gb4S_s.wav
10,192,9578,1,0,0:0:0:83:B4S_s.wav
394,192,9603,1,0,0:0:0:89:G3S_s.wav
138,192,9603,1,0,0:0:0:67:G5S_s.wav
266,192,9603,1,0,0:0:0:44:F#4S_Gb4S_s.wav
10,192,9653,1,0,0:0:0:46:F#4S_Gb4S_s.wav
394,192,9703,1,0,0:0:0:48:F#4S_Gb4S_s.wav
138,192,9753,1,0,0:0:0:48:F#4S_Gb4S_s.wav
266,192,9803,1,0,0:0:0:85:B4S_s.wav
10,192,9803,1,0,0:0:0:50:F#4S_Gb4S_s.wav
394,192,9803,1,0,0:0:0:70:G5S_s.wav
138,192,9803,1,0,0:0:0:77:D5S_s.wav
266,192,9853,1,0,0:0:0:51:F#4S_Gb4S_s.wav
138,192,9903,1,0,0:0:0:52:F#4S_Gb4S_s.wav
394,192,9953,1,0,0:0:0:53:F#4S_Gb4S_s.wav
10,192,10003,1,0,0:0:0:55:F#4S_Gb4S_s.wav
266,192,10053,1,0,0:0:0:55:F#4S_Gb4S_s.wav
138,192,10103,1,0,0:0:0:57:F#4S_Gb4S_s.wav
394,192,10153,1,0,0:0:0:58:F#4S_Gb4S_s.wav
10,192,10203,1,0,0:0:0:59:F#4S_Gb4S_s.wav
266,192,10253,1,0,0:0:0:60:F#4S_Gb4S_s.wav
138,192,10303,1,0,0:0:0:62:F#4S_Gb4S_s.wav
394,192,10353,1,0,0:0:0:63:F#4S_Gb4S_s.wav
10,192,10378,1,0,0:0:0:92:C6S.wav
266,192,10403,1,0,0:0:0:83:D#5S_Eb5S_s.wav
138,192,10403,1,0,0:0:0:81:G4S_s.wav
394,192,10603,1,0,0:0:0:87:D#5S_Eb5S_s.wav
138,192,10603,1,0,0:0:0:65:C5S_s.wav
266,192,10603,1,0,0:0:0:84:F#4S_Gb4S_s.wav
10,192,10603,1,0,0:0:0:77:G4S_s.wav
138,192,10803,1,0,0:0:0:74:C3S_s.wav
394,192,10803,1,0,0:0:0:51:D#4S_Eb4S_s.wav
266,192,10903,1,0,0:0:0:74:C3S_s.wav
10,192,11003,1,0,0:0:0:100:D#4S_Eb4S_s.wav
394,192,11003,1,0,0:0:0:81:D#5S_Eb5S_s.wav
138,192,11028,1,0,0:0:0:71:G4S_s.wav
266,192,11028,1,0,0:0:0:65:C5S_s.wav
138,192,11153,1,0,0:0:0:83:G5S_s.wav
266,192,11203,1,0,0:0:0:45:D#4S_Eb4S_s.wav
10,192,11203,1,0,0:0:0:85:D#5S_Eb5S_s.wav
394,192,11228,1,0,0:0:0:63:C5S_s.wav
138,192,11336,1,0,0:0:0:78:C6S_s.wav
394,192,11378,1,0,0:0:0:100:C3S_s.wav
266,192,11403,1,0,0:0:0:87:D#5S_Eb5S_s.wav
10,192,11403,1,0,0:0:0:66:C5S_s.wav
138,192,11403,1,0,0:0:0:80:G4S_s.wav
394,192,11553,1,0,0:0:0:76:D#6S_Eb6S_s.wav
10,192,11603,1,0,0:0:0:73:C3S_s.wav
266,192,11603,1,0,0:0:0:45:D#4S_Eb4S_s.wav
138,192,11703,1,0,0:0:0:73:C3S_s.wav
394,192,11753,1,0,0:0:0:68:G4S_s.wav
10,192,11769,1,0,0:0:0:81:D#5S_Eb5S_s.wav
266,192,11778,1,0,0:0:0:67:C5S_s.wav
138,192,11803,1,0,0:0:0:85:G6S_s.wav
10,192,11803,1,0,0:0:0:40:E3S_s.wav
394,192,11803,1,0,0:0:0:100:D#4S_Eb4S_s.wav
138,192,11969,1,0,0:0:0:77:G#4S_Ab4S_s.wav
266,192,11969,1,0,0:0:0:87:D#5S_Eb5S_s.wav
394,192,11969,1,0,0:0:0:67:C5S_s.wav
10,192,12003,1,0,0:0:0:84:F#4S_Gb4S_s.wav
266,192,12003,1,0,0:0:0:96:G#6S_Ab6S_s.wav
138,192,12153,1,0,0:0:0:66:C5S_s.wav
394,192,12153,1,0,0:0:0:89:D#5S_Eb5S_s.wav
10,192,12153,1,0,0:0:0:77:G#4S_Ab4S_s.wav
138,192,12203,1,0,0:0:0:100:D#4S_Eb4S_s.wav
266,192,12203,1,0,0:0:0:84:F#4S_Gb4S_s.wav
10,192,12403,1,0,0:0:0:74:C3S_s.wav
394,192,12403,1,0,0:0:0:51:D#4S_Eb4S_s.wav
266,192,12503,1,0,0:0:0:74:C3S_s.wav
138,192,12553,1,0,0:0:0:83:D#5S_Eb5S_s.wav
394,192,12553,1,0,0:0:0:75:G#4S_Ab4S_s.wav
10,192,12569,1,0,0:0:0:65:C5S_s.wav
138,192,12603,1,0,0:0:0:86:G3S_s.wav
266,192,12603,1,0,0:0:0:100:D#4S_Eb4S_s.wav
394,192,12728,1,0,0:0:0:88:A6S_s.wav
10,192,12753,1,0,0:0:0:75:G#4S_Ab4S_s.wav
266,192,12753,1,0,0:0:0:69:C5S_s.wav
138,192,12769,1,0,0:0:0:74:F5S_s.wav
394,192,12769,1,0,0:0:0:96:A#6S_Bb6S_s.wav
10,192,12778,1,0,0:0:0:91:F3S_s.wav
266,192,12803,1,0,0:0:0:92:F3S_s.wav
394,192,12803,1,0,0:0:0:45:D#4S_Eb4S_s.wav
138,192,12953,1,0,0:0:0:77:F5S_s.wav
266,192,12953,1,0,0:0:0:65:C5S_s.wav
10,192,12953,1,0,0:0:0:78:G#4S_Ab4S_s.wav
394,192,13003,1,0,0:0:0:100:D#4S_Eb4S_s.wav
138,192,13069,1,0,0:0:0:86:G#6S_Ab6S_s.wav
10,192,13203,1,0,0:0:0:73:C3S_s.wav
266,192,13203,1,0,0:0:0:45:D#4S_Eb4S_s.wav
394,192,13303,1,0,0:0:0:73:C3S_s.wav
138,192,13353,1,0,0:0:0:88:A#6S_Bb6S_s.wav
266,192,13353,1,0,0:0:0:77:F5S_s.wav
10,192,13369,1,0,0:0:0:63:C5S_s.wav
138,192,13403,1,0,0:0:0:86:F3S_s.wav
394,192,13403,1,0,0:0:0:100:D#4S_Eb4S_s.wav
266,192,13578,1,0,0:0:0:94:G3S_s.wav
10,192,13578,1,0,0:0:0:82:B4S_s.wav
394,192,13578,1,0,0:0:0:78:G5S_s.wav
138,192,13578,1,0,0:0:0:84:D5S_s.wav
266,192,13603,1,0,0:0:0:85:G6S_s.wav
138,192,13703,1,0,0:0:0:74:F6S_s.wav
394,192,13769,1,0,0:0:0:84:B4S_s.wav
10,192,13778,1,0,0:0:0:68:G5S_s.wav
266,192,13778,1,0,0:0:0:77:D5S_s.wav
138,192,13803,1,0,0:0:0:73:E6S_s.wav
394,192,13903,1,0,0:0:0:73:F6S_s.wav
10,192,14003,1,0,0:0:0:51:D#4S_Eb4S_s.wav
266,192,14003,1,0,0:0:0:71:G6S.wav
138,192,14103,1,0,0:0:0:74:C3S_s.wav
394,192,14169,1,0,0:0:0:81:B4S_s.wav
10,192,14178,1,0,0:0:0:76:D5S_s.wav
266,192,14178,1,0,0:0:0:66:G5S_s.wav
138,192,14203,1,0,0:0:0:86:G3S_s.wav
394,192,14203,1,0,0:0:0:100:D#4S_Eb4S_s.wav
138,192,14353,1,0,0:0:0:81:B4S_s.wav
394,192,14369,1,0,0:0:0:74:D5S_s.wav
10,192,14369,1,0,0:0:0:70:G5S_s.wav
266,192,14378,1,0,0:0:0:87:G3S_s.wav
138,192,14403,1,0,0:0:0:100:G3S_s.wav
394,192,14403,1,0,0:0:0:45:D#4S_Eb4S_s.wav
10,192,14569,1,0,0:0:0:83:B4S_s.wav
394,192,14578,1,0,0:0:0:70:G5S_s.wav
138,192,14603,1,0,0:0:0:100:G3S_s.wav
266,192,14603,1,0,0:0:0:100:D#4S_Eb4S_s.wav
10,192,14803,1,0,0:0:0:73:C3S_s.wav
394,192,14803,1,0,0:0:0:45:D#4S_Eb4S_s.wav
266,192,14903,1,0,0:0:0:73:C3S_s.wav
138,192,14969,1,0,0:0:0:74:D5S_s.wav
394,192,14969,1,0,0:0:0:70:G5S_s.wav
10,192,15003,1,0,0:0:0:86:G3S_s.wav
266,192,15003,1,0,0:0:0:100:D#4S_Eb4S_s.wav
138,192,15153,1,0,0:0:0:83:B4S_s.wav
394,192,15178,1,0,0:0:0:77:D5S_s.wav
10,192,15178,1,0,0:0:0:70:G5S_s.wav
266,192,15178,1,0,0:0:0:88:G3S_s.wav
138,192,15203,1,0,0:0:0:95:D6S_s.wav
394,192,15253,1,0,0:0:0:26:F#4S_Gb4S_s.wav
10,192,15303,1,0,0:0:0:100:C6S_s.wav
266,192,15303,1,0,0:0:0:100:A5S_s.wav
138,192,15353,1,0,0:0:0:29:F#4S_Gb4S_s.wav
394,192,15369,1,0,0:0:0:84:B4S_s.wav
10,192,15378,1,0,0:0:0:70:G5S_s.wav
266,192,15403,1,0,0:0:0:100:G5S_s.wav
138,192,15428,1,0,0:0:0:88:B5S_s.wav
394,192,15453,1,0,0:0:0:32:F#4S_Gb4S_s.wav
10,192,15503,1,0,0:0:0:100:A5S_s.wav
266,192,15503,1,0,0:0:0:85:C6S_s.wav
138,192,15553,1,0,0:0:0:34:F#4S_Gb4S_s.wav
394,192,15603,1,0,0:0:0:100:D6S.wav
10,192,15603,1,0,0:0:0:100:B5S.wav
266,192,15653,1,0,0:0:0:37:F#4S_Gb4S_s.wav
138,192,15703,1,0,0:0:0:37:F#4S_Gb4S_s.wav
394,192,15753,1,0,0:0:0:39:F#4S_Gb4S_s.wav
10,192,15778,1,0,0:0:0:67:G5S_s.wav
266,192,15778,1,0,0:0:0:82:B4S_s.wav
138,192,15803,1,0,0:0:0:40:F#4S_Gb4S_s.wav
394,192,15853,1,0,0:0:0:41:F#4S_Gb4S_s.wav
138,192,15903,1,0,0:0:0:42:F#4S_Gb4S_s.wav
266,192,15953,1,0,0:0:0:44:F#4S_Gb4S_s.wav
10,192,15978,1,0,0:0:0:83:B4S_s.wav
394,192,16003,1,0,0:0:0:89:G3S_s.wav
138,192,16003,1,0,0:0:0:67:G5S_s.wav
266,192,16003,1,0,0:0:0:44:F#4S_Gb4S_s.wav
10,192,16053,1,0,0:0:0:46:F#4S_Gb4S_s.wav
394,192,16103,1,0,0:0:0:48:F#4S_Gb4S_s.wav
138,192,16153,1,0,0:0:0:48:F#4S_Gb4S_s.wav
266,192,16203,1,0,0:0:0:85:B4S_s.wav
10,192,16203,1,0,0:0:0:50:F#4S_Gb4S_s.wav
394,192,16203,1,0,0:0:0:70:G5S_s.wav
138,192,16203,1,0,0:0:0:77:D5S_s.wav
266,192,16253,1,0,0:0:0:51:F#4S_Gb4S_s.wav
138,192,16303,1,0,0:0:0:52:F#4S_Gb4S_s.wav
394,192,16353,1,0,0:0:0:53:F#4S_Gb4S_s.wav
10,192,16403,1,0,0:0:0:55:F#4S_Gb4S_s.wav
266,192,16453,1,0,0:0:0:55:F#4S_Gb4S_s.wav
138,192,16503,1,0,0:0:0:57:F#4S_Gb4S_s.wav
394,192,16553,1,0,0:0:0:58:F#4S_Gb4S_s.wav
10,192,16603,1,0,0:0:0:59:F#4S_Gb4S_s.wav
266,192,16653,1,0,0:0:0:60:F#4S_Gb4S_s.wav
138,192,16703,1,0,0:0:0:62:F#4S_Gb4S_s.wav
394,192,16753,1,0,0:0:0:63:F#4S_Gb4S_s.wav
10,192,16753,1,0,0:0:0:98:C6S.wav
266,192,16803,1,0,0:0:0:83:D#5S_Eb5S_s.wav
138,192,16803,1,0,0:0:0:81:G4S_s.wav
394,192,17003,1,0,0:0:0:87:D#5S_Eb5S_s.wav
10,192,17003,1,0,0:0:0:65:C5S_s.wav
266,192,17003,1,0,0:0:0:84:F#4S_Gb4S_s.wav
138,192,17003,1,0,0:0:0:77:G4S_s.wav
138,192,17203,1,0,0:0:0:74:C3S_s.wav
394,192,17203,1,0,0:0:0:51:D#4S_Eb4S_s.wav
266,192,17303,1,0,0:0:0:74:C3S_s.wav
10,192,17403,1,0,0:0:0:93:C6S_s.wav
394,192,17403,1,0,0:0:0:81:D#5S_Eb5S_s.wav
138,192,17428,1,0,0:0:0:71:G4S_s.wav
266,192,17428,1,0,0:0:0:65:C5S_s.wav
10,192,17569,1,0,0:0:0:93:G5S_s.wav
394,192,17603,1,0,0:0:0:45:D#4S_Eb4S_s.wav
138,192,17603,1,0,0:0:0:85:D#5S_Eb5S_s.wav
10,192,17628,1,0,0:0:0:74:G4S_s.wav
266,192,17628,1,0,0:0:0:63:C5S_s.wav
394,192,17753,1,0,0:0:0:82:C6S_s.wav
138,192,17778,1,0,0:0:0:100:C3S_s.wav
266,192,17803,1,0,0:0:0:87:D#5S_Eb5S_s.wav
10,192,17803,1,0,0:0:0:66:C5S_s.wav
394,192,17803,1,0,0:0:0:80:G4S_s.wav
138,192,17953,1,0,0:0:0:66:D#6S_Eb6S_s.wav
10,192,18003,1,0,0:0:0:73:C3S_s.wav
266,192,18003,1,0,0:0:0:45:D#4S_Eb4S_s.wav
394,192,18103,1,0,0:0:0:73:C3S_s.wav
138,192,18103,1,0,0:0:0:100:F#6S_Gb6S_s.wav
266,192,18153,1,0,0:0:0:68:G4S_s.wav
10,192,18169,1,0,0:0:0:91:G6S_s.wav
394,192,18169,1,0,0:0:0:81:D#5S_Eb5S_s.wav
138,192,18178,1,0,0:0:0:67:C5S_s.wav
10,192,18203,1,0,0:0:0:40:E3S_s.wav
266,192,18203,1,0,0:0:0:100:D#4S_Eb4S_s.wav
138,192,18369,1,0,0:0:0:77:G#4S_Ab4S_s.wav
394,192,18369,1,0,0:0:0:87:D#5S_Eb5S_s.wav
266,192,18369,1,0,0:0:0:100:G#6S_Ab6S.wav
10,192,18369,1,0,0:0:0:67:C5S_s.wav
138,192,18403,1,0,0:0:0:51:D#4S_Eb4S_s.wav
394,192,18403,1,0,0:0:0:84:F#4S_Gb4S_s.wav
266,192,18553,1,0,0:0:0:66:C5S_s.wav
10,192,18553,1,0,0:0:0:89:D#5S_Eb5S_s.wav
394,192,18553,1,0,0:0:0:77:G#4S_Ab4S_s.wav
138,192,18603,1,0,0:0:0:100:D#4S_Eb4S_s.wav
394,192,18603,1,0,0:0:0:84:F#4S_Gb4S_s.wav
10,192,18803,1,0,0:0:0:74:C3S_s.wav
266,192,18803,1,0,0:0:0:51:D#4S_Eb4S_s.wav
394,192,18903,1,0,0:0:0:74:C3S_s.wav
138,192,18953,1,0,0:0:0:83:D#5S_Eb5S_s.wav
266,192,18953,1,0,0:0:0:75:G#4S_Ab4S_s.wav
10,192,18969,1,0,0:0:0:65:C5S_s.wav
138,192,19003,1,0,0:0:0:86:G3S_s.wav
394,192,19003,1,0,0:0:0:100:D#4S_Eb4S_s.wav
266,192,19153,1,0,0:0:0:97:F6S.wav
10,192,19153,1,0,0:0:0:75:G#4S_Ab4S_s.wav
394,192,19153,1,0,0:0:0:69:C5S_s.wav
138,192,19169,1,0,0:0:0:74:F5S_s.wav
394,192,19178,1,0,0:0:0:91:F3S_s.wav
138,192,19203,1,0,0:0:0:92:F3S_s.wav
266,192,19203,1,0,0:0:0:45:D#4S_Eb4S_s.wav
394,192,19353,1,0,0:0:0:77:F5S_s.wav
10,192,19353,1,0,0:0:0:65:C5S_s.wav
266,192,19353,1,0,0:0:0:78:G#4S_Ab4S_s.wav
138,192,19403,1,0,0:0:0:100:F3S_s.wav
394,192,19403,1,0,0:0:0:100:D#4S_Eb4S_s.wav
10,192,19553,1,0,0:0:0:92:G#6S_Ab6S_s.wav
138,192,19603,1,0,0:0:0:73:C3S_s.wav
266,192,19603,1,0,0:0:0:45:D#4S_Eb4S_s.wav
394,192,19703,1,0,0:0:0:73:C3S_s.wav
10,192,19753,1,0,0:0:0:77:F5S_s.wav
266,192,19769,1,0,0:0:0:63:C5S_s.wav
138,192,19803,1,0,0:0:0:86:F3S_s.wav
394,192,19803,1,0,0:0:0:100:D#4S_Eb4S_s.wav
10,192,19978,1,0,0:0:0:94:G3S_s.wav
266,192,19978,1,0,0:0:0:82:B4S_s.wav
138,192,19978,1,0,0:0:0:78:G5S_s.wav
394,192,19978,1,0,0:0:0:84:D5S_s.wav
138,192,20003,1,0,0:0:0:85:G6S_s.wav
394,192,20103,1,0,0:0:0:100:F6S_s.wav
10,192,20169,1,0,0:0:0:84:B4S_s.wav
266,192,20178,1,0,0:0:0:68:G5S_s.wav
138,192,20178,1,0,0:0:0:77:D5S_s.wav
138,192,20203,1,0,0:0:0:84:F#4S_Gb4S_s.wav
394,192,20203,1,0,0:0:0:92:G6S.wav
10,192,20403,1,0,0:0:0:74:C3S_s.wav
266,192,20403,1,0,0:0:0:51:D#4S_Eb4S_s.wav
394,192,20503,1,0,0:0:0:74:C3S_s.wav
138,192,20569,1,0,0:0:0:81:B4S_s.wav
266,192,20578,1,0,0:0:0:76:D5S_s.wav
10,192,20578,1,0,0:0:0:66:G5S_s.wav
138,192,20603,1,0,0:0:0:86:G3S_s.wav
394,192,20603,1,0,0:0:0:100:D#4S_Eb4S_s.wav
266,192,20753,1,0,0:0:0:81:B4S_s.wav
138,192,20769,1,0,0:0:0:74:D5S_s.wav
394,192,20769,1,0,0:0:0:70:G5S_s.wav
10,192,20778,1,0,0:0:0:87:G3S_s.wav
138,192,20803,1,0,0:0:0:100:G3S_s.wav
266,192,20803,1,0,0:0:0:45:D#4S_Eb4S_s.wav
394,192,20969,1,0,0:0:0:83:B4S_s.wav
138,192,20978,1,0,0:0:0:70:G5S_s.wav
10,192,21003,1,0,0:0:0:100:G3S_s.wav
266,192,21003,1,0,0:0:0:100:D#4S_Eb4S_s.wav
138,192,21203,1,0,0:0:0:73:C3S_s.wav
394,192,21203,1,0,0:0:0:45:D#4S_Eb4S_s.wav
266,192,21303,1,0,0:0:0:73:C3S_s.wav
10,192,21369,1,0,0:0:0:74:D5S_s.wav
394,192,21369,1,0,0:0:0:70:G5S_s.wav
138,192,21403,1,0,0:0:0:86:G3S_s.wav
266,192,21403,1,0,0:0:0:100:D#4S_Eb4S_s.wav
10,192,21553,1,0,0:0:0:83:B4S_s.wav
394,192,21578,1,0,0:0:0:77:D5S_s.wav
138,192,21578,1,0,0:0:0:70:G5S_s.wav
266,192,21578,1,0,0:0:0:88:G3S_s.wav
138,192,21603,1,0,0:0:0:95:D6S_s.wav
266,192,21653,1,0,0:0:0:26:F#4S_Gb4S_s.wav
10,192,21703,1,0,0:0:0:100:C6S_s.wav
394,192,21703,1,0,0:0:0:100:A5S_s.wav
138,192,21753,1,0,0:0:0:29:F#4S_Gb4S_s.wav
266,192,21769,1,0,0:0:0:84:B4S_s.wav
10,192,21778,1,0,0:0:0:70:G5S_s.wav
394,192,21803,1,0,0:0:0:100:G5S_s.wav
138,192,21828,1,0,0:0:0:88:B5S_s.wav
266,192,21853,1,0,0:0:0:32:F#4S_Gb4S_s.wav
10,192,21903,1,0,0:0:0:100:A5S_s.wav
394,192,21903,1,0,0:0:0:85:C6S_s.wav
138,192,21953,1,0,0:0:0:34:F#4S_Gb4S_s.wav
266,192,22003,1,0,0:0:0:100:D6S.wav
10,192,22003,1,0,0:0:0:100:B5S.wav
394,192,22053,1,0,0:0:0:37:F#4S_Gb4S_s.wav
138,192,22103,1,0,0:0:0:37:F#4S_Gb4S_s.wav
266,192,22153,1,0,0:0:0:39:F#4S_Gb4S_s.wav
10,192,22178,1,0,0:0:0:67:G5S_s.wav
394,192,22178,1,0,0:0:0:82:B4S_s.wav
138,192,22203,1,0,0:0:0:40:F#4S_Gb4S_s.wav
266,192,22253,1,0,0:0:0:41:F#4S_Gb4S_s.wav
138,192,22303,1,0,0:0:0:42:F#4S_Gb4S_s.wav
394,192,22353,1,0,0:0:0:44:F#4S_Gb4S_s.wav
10,192,22378,1,0,0:0:0:83:B4S_s.wav
266,192,22403,1,0,0:0:0:89:G3S_s.wav
138,192,22403,1,0,0:0:0:67:G5S_s.wav
394,192,22403,1,0,0:0:0:44:F#4S_Gb4S_s.wav
138,192,22453,1,0,0:0:0:46:F#4S_Gb4S_s.wav
394,192,22503,1,0,0:0:0:48:F#4S_Gb4S_s.wav
10,192,22553,1,0,0:0:0:48:F#4S_Gb4S_s.wav
266,192,22603,1,0,0:0:0:85:B4S_s.wav
138,192,22603,1,0,0:0:0:50:F#4S_Gb4S_s.wav
394,192,22603,1,0,0:0:0:70:G5S_s.wav
10,192,22603,1,0,0:0:0:77:D5S_s.wav
394,192,22653,1,0,0:0:0:51:F#4S_Gb4S_s.wav
266,192,22703,1,0,0:0:0:52:F#4S_Gb4S_s.wav
138,192,22753,1,0,0:0:0:53:F#4S_Gb4S_s.wav
10,192,22803,1,0,0:0:0:55:F#4S_Gb4S_s.wav
394,192,22853,1,0,0:0:0:55:F#4S_Gb4S_s.wav
266,192,22903,1,0,0:0:0:57:F#4S_Gb4S_s.wav
138,192,22953,1,0,0:0:0:58:F#4S_Gb4S_s.wav
10,192,23003,1,0,0:0:0:59:F#4S_Gb4S_s.wav
394,192,23053,1,0,0:0:0:60:F#4S_Gb4S_s.wav
266,192,23103,1,0,0:0:0:62:F#4S_Gb4S_s.wav
138,192,23153,1,0,0:0:0:63:F#4S_Gb4S_s.wav
10,192,23178,1,0,0:0:0:97:C6S.wav
394,192,23203,1,0,0:0:0:83:D#5S_Eb5S_s.wav
266,192,23203,1,0,0:0:0:81:G4S_s.wav
138,192,23403,1,0,0:0:0:87:D#5S_Eb5S_s.wav
10,192,23403,1,0,0:0:0:65:C5S_s.wav
394,192,23403,1,0,0:0:0:84:F#4S_Gb4S_s.wav
266,192,23403,1,0,0:0:0:77:G4S_s.wav
138,192,23603,1,0,0:0:0:74:C3S_s.wav
266,192,23603,1,0,0:0:0:51:D#4S_Eb4S_s.wav
10,192,23703,1,0,0:0:0:74:C3S_s.wav
394,192,23803,1,0,0:0:0:85:C6S_s.wav
138,192,23803,1,0,0:0:0:81:D#5S_Eb5S_s.wav
266,192,23828,1,0,0:0:0:71:G4S_s.wav
10,192,23828,1,0,0:0:0:65:C5S_s.wav
394,192,23969,1,0,0:0:0:85:G5S_s.wav
138,192,24003,1,0,0:0:0:45:D#4S_Eb4S_s.wav
266,192,24003,1,0,0:0:0:85:D#5S_Eb5S_s.wav
10,192,24028,1,0,0:0:0:74:G4S_s.wav
394,192,24028,1,0,0:0:0:63:C5S_s.wav
138,192,24153,1,0,0:0:0:79:C6S_s.wav
266,192,24178,1,0,0:0:0:100:C3S_s.wav
10,192,24203,1,0,0:0:0:87:D#5S_Eb5S_s.wav
394,192,24203,1,0,0:0:0:66:C5S_s.wav
138,192,24203,1,0,0:0:0:80:G4S_s.wav
266,192,24303,1,0,0:0:0:84:D6S_s.wav
138,192,24353,1,0,0:0:0:62:D#6S_Eb6S_s.wav
10,192,24403,1,0,0:0:0:73:C3S_s.wav
394,192,24403,1,0,0:0:0:45:D#4S_Eb4S_s.wav
266,192,24503,1,0,0:0:0:73:C3S_s.wav
138,192,24553,1,0,0:0:0:68:G4S_s.wav
394,192,24569,1,0,0:0:0:81:D#5S_Eb5S_s.wav
10,192,24569,1,0,0:0:0:87:G6S_s.wav
266,192,24578,1,0,0:0:0:67:C5S_s.wav
138,192,24603,1,0,0:0:0:40:E3S_s.wav
394,192,24603,1,0,0:0:0:100:D#4S_Eb4S_s.wav
10,192,24769,1,0,0:0:0:77:G#4S_Ab4S_s.wav
266,192,24769,1,0,0:0:0:87:D#5S_Eb5S_s.wav
138,192,24769,1,0,0:0:0:67:C5S_s.wav
394,192,24769,1,0,0:0:0:91:G#6S_Ab6S.wav
138,192,24803,1,0,0:0:0:51:D#4S_Eb4S_s.wav
266,192,24803,1,0,0:0:0:84:F#4S_Gb4S_s.wav
10,192,24953,1,0,0:0:0:66:C5S_s.wav
394,192,24953,1,0,0:0:0:89:D#5S_Eb5S_s.wav
138,192,24953,1,0,0:0:0:77:G#4S_Ab4S_s.wav
138,192,25003,1,0,0:0:0:100:D#4S_Eb4S_s.wav
266,192,25003,1,0,0:0:0:84:F#4S_Gb4S_s.wav
10,192,25203,1,0,0:0:0:74:C3S_s.wav
394,192,25203,1,0,0:0:0:51:D#4S_Eb4S_s.wav
266,192,25303,1,0,0:0:0:74:C3S_s.wav
138,192,25353,1,0,0:0:0:83:D#5S_Eb5S_s.wav
394,192,25353,1,0,0:0:0:75:G#4S_Ab4S_s.wav
10,192,25369,1,0,0:0:0:65:C5S_s.wav
266,192,25403,1,0,0:0:0:100:D#4S_Eb4S_s.wav
138,192,25478,1,0,0:0:0:84:A6S_s.wav
394,192,25553,1,0,0:0:0:100:A#6S_Bb6S_s.wav
10,192,25553,1,0,0:0:0:75:G#4S_Ab4S_s.wav
266,192,25553,1,0,0:0:0:69:C5S_s.wav
138,192,25569,1,0,0:0:0:74:F5S_s.wav
394,192,25578,1,0,0:0:0:91:F3S_s.wav
138,192,25603,1,0,0:0:0:98:F3S_s.wav
394,192,25603,1,0,0:0:0:45:D#4S_Eb4S_s.wav
10,192,25753,1,0,0:0:0:77:F5S_s.wav
266,192,25753,1,0,0:0:0:65:C5S_s.wav
138,192,25753,1,0,0:0:0:78:G#4S_Ab4S_s.wav
394,192,25803,1,0,0:0:0:100:D#4S_Eb4S_s.wav
138,192,25853,1,0,0:0:0:90:G#6S_Ab6S_s.wav
10,192,26003,1,0,0:0:0:73:C3S_s.wav
266,192,26003,1,0,0:0:0:45:D#4S_Eb4S_s.wav
394,192,26103,1,0,0:0:0:73:C3S_s.wav
138,192,26153,1,0,0:0:0:84:A#6S_Bb6S_s.wav
266,192,26153,1,0,0:0:0:77:F5S_s.wav
10,192,26169,1,0,0:0:0:63:C5S_s.wav
138,192,26203,1,0,0:0:0:86:F3S_s.wav
394,192,26203,1,0,0:0:0:100:D#4S_Eb4S_s.wav
266,192,26378,1,0,0:0:0:94:G3S_s.wav
10,192,26378,1,0,0:0:0:82:B4S_s.wav
394,192,26378,1,0,0:0:0:78:G5S_s.wav
138,192,26378,1,0,0:0:0:100:G6S_s.wav
266,192,26378,1,0,0:0:0:84:D5S_s.wav
10,192,26403,1,0,0:0:0:84:F#4S_Gb4S_s.wav
394,192,26478,1,0,0:0:0:96:F6S_s.wav
138,192,26569,1,0,0:0:0:84:B4S_s.wav
266,192,26578,1,0,0:0:0:68:G5S_s.wav
10,192,26578,1,0,0:0:0:77:D5S_s.wav
394,192,26603,1,0,0:0:0:84:F#4S_Gb4S_s.wav
138,192,26628,1,0,0:0:0:86:E6S_s.wav
394,192,26703,1,0,0:0:0:66:F6S_s.wav
10,192,26803,1,0,0:0:0:51:D#4S_Eb4S_s.wav
266,192,26803,1,0,0:0:0:93:G6S.wav
138,192,26903,1,0,0:0:0:74:C3S_s.wav
394,192,26969,1,0,0:0:0:81:B4S_s.wav
10,192,26978,1,0,0:0:0:76:D5S_s.wav
266,192,26978,1,0,0:0:0:66:G5S_s.wav
138,192,27003,1,0,0:0:0:86:G3S_s.wav
394,192,27003,1,0,0:0:0:100:D#4S_Eb4S_s.wav
138,192,27153,1,0,0:0:0:81:B4S_s.wav
266,192,27169,1,0,0:0:0:74:D5S_s.wav
10,192,27169,1,0,0:0:0:70:G5S_s.wav
394,192,27178,1,0,0:0:0:87:G3S_s.wav
138,192,27203,1,0,0:0:0:100:G3S_s.wav
394,192,27203,1,0,0:0:0:45:D#4S_Eb4S_s.wav
266,192,27369,1,0,0:0:0:83:B4S_s.wav
10,192,27378,1,0,0:0:0:70:G5S_s.wav
138,192,27403,1,0,0:0:0:100:G3S_s.wav
394,192,27403,1,0,0:0:0:100:D#4S_Eb4S_s.wav
138,192,27603,1,0,0:0:0:73:C3S_s.wav
266,192,27603,1,0,0:0:0:45:D#4S_Eb4S_s.wav
394,192,27703,1,0,0:0:0:73:C3S_s.wav
10,192,27769,1,0,0:0:0:74:D5S_s.wav
266,192,27769,1,0,0:0:0:70:G5S_s.wav
138,192,27803,1,0,0:0:0:86:G3S_s.wav
394,192,27803,1,0,0:0:0:100:D#4S_Eb4S_s.wav
10,192,27953,1,0,0:0:0:83:B4S_s.wav
266,192,27978,1,0,0:0:0:77:D5S_s.wav
138,192,27978,1,0,0:0:0:70:G5S_s.wav
394,192,27978,1,0,0:0:0:88:G3S_s.wav
10,192,28003,1,0,0:0:0:95:D6S_s.wav
266,192,28053,1,0,0:0:0:26:F#4S_Gb4S_s.wav
138,192,28103,1,0,0:0:0:100:C6S_s.wav
394,192,28103,1,0,0:0:0:100:A5S_s.wav
10,192,28153,1,0,0:0:0:29:F#4S_Gb4S_s.wav
266,192,28169,1,0,0:0:0:84:B4S_s.wav
138,192,28178,1,0,0:0:0:70:G5S_s.wav
394,192,28203,1,0,0:0:0:100:G5S_s.wav
10,192,28228,1,0,0:0:0:88:B5S_s.wav
266,192,28253,1,0,0:0:0:32:F#4S_Gb4S_s.wav
138,192,28303,1,0,0:0:0:100:A5S_s.wav
394,192,28303,1,0,0:0:0:85:C6S_s.wav
10,192,28353,1,0,0:0:0:34:F#4S_Gb4S_s.wav
266,192,28403,1,0,0:0:0:100:D6S.wav
138,192,28403,1,0,0:0:0:100:B5S.wav
394,192,28453,1,0,0:0:0:37:F#4S_Gb4S_s.wav
10,192,28503,1,0,0:0:0:37:F#4S_Gb4S_s.wav
266,192,28553,1,0,0:0:0:39:F#4S_Gb4S_s.wav
138,192,28578,1,0,0:0:0:67:G5S_s.wav
394,192,28578,1,0,0:0:0:82:B4S_s.wav
10,192,28603,1,0,0:0:0:40:F#4S_Gb4S_s.wav
266,192,28653,1,0,0:0:0:41:F#4S_Gb4S_s.wav
138,192,28703,1,0,0:0:0:42:F#4S_Gb4S_s.wav
394,192,28753,1,0,0:0:0:44:F#4S_Gb4S_s.wav
10,192,28778,1,0,0:0:0:83:B4S_s.wav
266,192,28803,1,0,0:0:0:89:G3S_s.wav
138,192,28803,1,0,0:0:0:67:G5S_s.wav
394,192,28803,1,0,0:0:0:44:F#4S_Gb4S_s.wav
138,192,28853,1,0,0:0:0:46:F#4S_Gb4S_s.wav
266,192,28903,1,0,0:0:0:48:F#4S_Gb4S_s.wav
10,192,28953,1,0,0:0:0:48:F#4S_Gb4S_s.wav
394,192,29003,1,0,0:0:0:85:B4S_s.wav
138,192,29003,1,0,0:0:0:50:F#4S_Gb4S_s.wav
266,192,29003,1,0,0:0:0:70:G5S_s.wav
10,192,29003,1,0,0:0:0:77:D5S_s.wav
394,192,29053,1,0,0:0:0:51:F#4S_Gb4S_s.wav
138,192,29103,1,0,0:0:0:52:F#4S_Gb4S_s.wav
266,192,29153,1,0,0:0:0:53:F#4S_Gb4S_s.wav
10,192,29203,1,0,0:0:0:55:F#4S_Gb4S_s.wav
394,192,29253,1,0,0:0:0:55:F#4S_Gb4S_s.wav
138,192,29303,1,0,0:0:0:57:F#4S_Gb4S_s.wav
266,192,29353,1,0,0:0:0:58:F#4S_Gb4S_s.wav
10,192,29403,1,0,0:0:0:59:F#4S_Gb4S_s.wav
394,192,29453,1,0,0:0:0:60:F#4S_Gb4S_s.wav
138,192,29503,1,0,0:0:0:62:F#4S_Gb4S_s.wav
266,192,29553,1,0,0:0:0:63:F#4S_Gb4S_s.wav
10,192,29603,1,0,0:0:0:66:E3S_s.wav
394,192,29603,1,0,0:0:0:84:F#4S_Gb4S_s.wav
10,192,29803,1,0,0:0:0:77:null_s.wav
138,192,29803,1,0,0:0:0:92:F#3S_Gb3S_s.wav
266,192,29803,1,0,0:0:0:92:F#3S_Gb3S_s.wav
138,192,30003,1,0,0:0:0:88:C3S_s.wav
266,192,30003,1,0,0:0:0:100:D#3S_Eb3S_s.wav
394,192,30003,1,0,0:0:0:66:E3S_s.wav
10,192,30203,1,0,0:0:0:81:null_s.wav
138,192,30203,1,0,0:0:0:92:F#3S_Gb3S_s.wav
394,192,30203,1,0,0:0:0:92:F#3S_Gb3S_s.wav
138,192,30403,1,0,0:0:0:88:C3S_s.wav
266,192,30403,1,0,0:0:0:100:D#3S_Eb3S_s.wav
394,192,30403,1,0,0:0:0:66:E3S_s.wav
10,192,30603,1,0,0:0:0:85:B1S_s.wav
138,192,30603,1,0,0:0:0:100:D#3S_Eb3S_s.wav
266,192,30603,1,0,0:0:0:66:E3S_s.wav
138,192,30803,1,0,0:0:0:88:C3S_s.wav
266,192,30803,1,0,0:0:0:100:D#3S_Eb3S_s.wav
394,192,30803,1,0,0:0:0:66:E3S_s.wav
10,192,31003,1,0,0:0:0:89:D2S_s.wav
138,192,31003,1,0,0:0:0:92:F#3S_Gb3S_s.wav
266,192,31003,1,0,0:0:0:92:F#3S_Gb3S_s.wav
394,192,31103,1,0,0:0:0:52:E3S_s.wav
10,192,31203,1,0,0:0:0:100:D#3S_Eb3S_s.wav
266,192,31203,1,0,0:0:0:86:E3S_s.wav
138,192,31303,1,0,0:0:0:58:E3S_s.wav
10,192,31403,1,0,0:0:0:92:F#3S_Gb3S_s.wav
394,192,31403,1,0,0:0:0:92:F#3S_Gb3S_s.wav
266,192,31503,1,0,0:0:0:59:E3S_s.wav
138,192,31603,1,0,0:0:0:100:D#3S_Eb3S_s.wav
394,192,31603,1,0,0:0:0:87:E3S_s.wav
10,192,31703,1,0,0:0:0:51:E3S_s.wav
138,192,31803,1,0,0:0:0:92:F#3S_Gb3S_s.wav
266,192,31803,1,0,0:0:0:92:F#3S_Gb3S_s.wav
10,192,31903,1,0,0:0:0:99:null_s.wav
394,192,31903,1,0,0:0:0:62:E3S_s.wav
138,192,32003,1,0,0:0:0:88:C3S_s.wav
266,192,32003,1,0,0:0:0:100:D#3S_Eb3S_s.wav
394,192,32003,1,0,0:0:0:90:E3S_s.wav
10,192,32803,1,0,0:0:0:93:C6S_s.wav
394,192,33003,1,0,0:0:0:93:D#6S_Eb6S.wav
138,192,33603,1,0,0:0:0:93:D6S_s.wav
266,192,33803,1,0,0:0:0:93:C6S.wav
10,192,34203,1,0,0:0:0:53:G6S_s.wav
394,192,34228,1,0,0:0:0:65:A#6S_Bb6S_s.wav
138,192,34403,1,0,0:0:0:93:C6S_s.wav
266,192,34403,1,0,0:0:0:44:G#6S_Ab6S_s.wav
10,192,34403,1,0,0:0:0:68:D#5S_Eb5S_s.wav
394,192,34403,1,0,0:0:0:58:C5S_s.wav
138,192,34428,1,0,0:0:0:55:C7S_s.wav
266,192,34603,1,0,0:0:0:76:F#3S_Gb3S_s.wav
394,192,34603,1,0,0:0:0:93:C6S.wav
138,192,34653,1,0,0:0:0:56:G#6S_Ab6S.wav
10,192,34653,1,0,0:0:0:68:C7S.wav
266,192,34703,1,0,0:0:0:81:G#5S_Ab5S_s.wav
394,192,34703,1,0,0:0:0:81:D#5S_Eb5S_s.wav
138,192,34703,1,0,0:0:0:81:C5S_s.wav
10,192,34803,1,0,0:0:0:88:C3S_s.wav
394,192,34803,1,0,0:0:0:91:G#3S_Ab3S_s.wav
266,192,35003,1,0,0:0:0:49:G#5S_Ab5S_s.wav
138,192,35003,1,0,0:0:0:62:D#5S_Eb5S_s.wav
10,192,35003,1,0,0:0:0:76:F#3S_Gb3S_s.wav
394,192,35003,1,0,0:0:0:62:C5S_s.wav
266,192,35178,1,0,0:0:0:44:A#6S_Bb6S_s.wav
138,192,35203,1,0,0:0:0:97:G#3S_Ab3S_s.wav
394,192,35203,1,0,0:0:0:62:G#5S_Ab5S_s.wav
10,192,35203,1,0,0:0:0:71:D#5S_Eb5S_s.wav
266,192,35269,1,0,0:0:0:45:C7S_s.wav
138,192,35353,1,0,0:0:0:42:A#6S_Bb6S_s.wav
394,192,35403,1,0,0:0:0:93:A#5S_Bb5S_s.wav
10,192,35469,1,0,0:0:0:46:F6S.wav
266,192,35469,1,0,0:0:0:58:G#6S_Ab6S.wav
138,192,35478,1,0,0:0:0:84:D#5S_Eb5S_s.wav
394,192,35478,1,0,0:0:0:84:G#5S_Ab5S_s.wav
10,192,35478,1,0,0:0:0:84:C5S_s.wav
138,192,35603,1,0,0:0:0:92:G#3S_Ab3S_s.wav
266,192,35603,1,0,0:0:0:93:G#5S_Ab5S_s.wav
394,192,35703,1,0,0:0:0:74:E3S_s.wav
10,192,35803,1,0,0:0:0:74:E3S_s.wav
266,192,35803,1,0,0:0:0:63:D#5S_Eb5S_s.wav
138,192,35803,1,0,0:0:0:52:G#5S_Ab5S_s.wav
394,192,35803,1,0,0:0:0:56:C5S_s.wav
10,192,36003,1,0,0:0:0:93:G5S_s.wav
266,192,36003,1,0,0:0:0:48:D#6S_Eb6S.wav
138,192,36003,1,0,0:0:0:59:G6S.wav
394,192,36003,1,0,0:0:0:66:D#5S_Eb5S_s.wav
10,192,36028,1,0,0:0:0:72:G5S_s.wav
394,192,36028,1,0,0:0:0:39:A#4S_Bb4S_s.wav
266,192,36203,1,0,0:0:0:76:F#3S_Gb3S_s.wav
394,192,36203,1,0,0:0:0:93:A#5S_Bb5S_s.wav
138,192,36303,1,0,0:0:0:79:G5S_s.wav
10,192,36303,1,0,0:0:0:66:D#5S_Eb5S_s.wav
394,192,36303,1,0,0:0:0:39:A#4S_Bb4S_s.wav
138,192,36403,1,0,0:0:0:88:C3S_s.wav
266,192,36403,1,0,0:0:0:100:D#3S_Eb3S_s.wav
10,192,36603,1,0,0:0:0:74:E3S_s.wav
394,192,36603,1,0,0:0:0:76:F#3S_Gb3S_s.wav
266,192,36628,1,0,0:0:0:64:A#4S_Bb4S_s.wav
138,192,36628,1,0,0:0:0:64:D#5S_Eb5S_s.wav
266,192,36628,1,0,0:0:0:64:G5S_s.wav
138,192,36803,1,0,0:0:0:88:C3S_s.wav
394,192,36803,1,0,0:0:0:100:D#3S_Eb3S_s.wav
10,192,36828,1,0,0:0:0:63:A#4S_Bb4S_s.wav
266,192,36828,1,0,0:0:0:63:D#5S_Eb5S_s.wav
138,192,36828,1,0,0:0:0:63:G5S_s.wav
138,192,37003,1,0,0:0:0:61:G6S_s.wav
394,192,37003,1,0,0:0:0:73:A#6S_Bb6S_s.wav
10,192,37103,1,0,0:0:0:81:D#5S_Eb5S_s.wav
266,192,37103,1,0,0:0:0:79:G5S_s.wav
138,192,37203,1,0,0:0:0:88:C3S_s.wav
394,192,37203,1,0,0:0:0:100:D#3S_Eb3S_s.wav
10,192,37303,1,0,0:0:0:67:F6S_s.wav
266,192,37303,1,0,0:0:0:79:G#6S_Ab6S_s.wav
138,192,37403,1,0,0:0:0:67:A#4S_Bb4S_s.wav
266,192,37403,1,0,0:0:0:70:D#5S_Eb5S_s.wav
394,192,37403,1,0,0:0:0:61:G5S_s.wav
10,192,37603,1,0,0:0:0:54:D#6S_Eb6S_s.wav
266,192,37603,1,0,0:0:0:66:G6S_s.wav
138,192,37628,1,0,0:0:0:71:B4S_s.wav
394,192,37628,1,0,0:0:0:71:G5S_s.wav
10,192,37636,1,0,0:0:0:71:D5S_s.wav
138,192,37803,1,0,0:0:0:74:E3S_s.wav
266,192,37803,1,0,0:0:0:76:F#3S_Gb3S_s.wav
394,192,37903,1,0,0:0:0:88:G5S_s.wav
10,192,37903,1,0,0:0:0:51:B4S_s.wav
266,192,37903,1,0,0:0:0:62:D5S_s.wav
138,192,38003,1,0,0:0:0:100:G3S_s.wav
394,192,38003,1,0,0:0:0:60:G6S_s.wav
10,192,38103,1,0,0:0:0:60:F#6S_Gb6S_s.wav
266,192,38203,1,0,0:0:0:56:G6S_s.wav
138,192,38203,1,0,0:0:0:54:G5S_s.wav
394,192,38303,1,0,0:0:0:56:G#6S_Ab6S_s.wav
10,192,38403,1,0,0:0:0:51:G6S_s.wav
266,192,38436,1,0,0:0:0:72:D5S_s.wav
138,192,38436,1,0,0:0:0:57:B4S_s.wav
394,192,38436,1,0,0:0:0:65:G5S_s.wav
10,192,38603,1,0,0:0:0:76:F#3S_Gb3S_s.wav
394,192,38603,1,0,0:0:0:44:F6S_s.wav
266,192,38703,1,0,0:0:0:88:G5S_s.wav
138,192,38703,1,0,0:0:0:88:B4S_s.wav
10,192,38803,1,0,0:0:0:76:A5S_s.wav
394,192,38803,1,0,0:0:0:60:D#6S_Eb6S_s.wav
266,192,38903,1,0,0:0:0:74:E3S_s.wav
138,192,39003,1,0,0:0:0:56:D6S_s.wav
394,192,39003,1,0,0:0:0:88:B4S_s.wav
10,192,39178,1,0,0:0:0:68:C6S_s.wav
266,192,39203,1,0,0:0:0:93:C6S_s.wav
138,192,39203,1,0,0:0:0:68:D#5S_Eb5S_s.wav
394,192,39203,1,0,0:0:0:58:C5S_s.wav
10,192,39403,1,0,0:0:0:76:F#3S_Gb3S_s.wav
266,192,39403,1,0,0:0:0:68:C6S.wav
394,192,39403,1,0,0:0:0:93:D#6S_Eb6S.wav
138,192,39503,1,0,0:0:0:88:G5S_s.wav
266,192,39503,1,0,0:0:0:88:D#5S_Eb5S_s.wav
10,192,39503,1,0,0:0:0:88:C5S_s.wav
138,192,39603,1,0,0:0:0:88:C3S_s.wav
394,192,39603,1,0,0:0:0:100:C4S_s.wav
266,192,39803,1,0,0:0:0:49:G5S_s.wav
10,192,39803,1,0,0:0:0:62:D#5S_Eb5S_s.wav
138,192,39803,1,0,0:0:0:55:C5S_s.wav
394,192,39803,1,0,0:0:0:93:D6S_s.wav
266,192,40003,1,0,0:0:0:97:C4S_s.wav
394,192,40003,1,0,0:0:0:68:D#6S_Eb6S_s.wav
138,192,40003,1,0,0:0:0:54:G5S_s.wav
10,192,40003,1,0,0:0:0:59:C5S_s.wav
266,192,40003,1,0,0:0:0:71:D#5S_Eb5S_s.wav
138,192,40203,1,0,0:0:0:93:C6S_s.wav
394,192,40203,1,0,0:0:0:68:D#6S_Eb6S.wav
266,192,40278,1,0,0:0:0:84:D#5S_Eb5S_s.wav
10,192,40278,1,0,0:0:0:84:G5S_s.wav
394,192,40278,1,0,0:0:0:84:C5S_s.wav
138,192,40403,1,0,0:0:0:88:C3S_s.wav
394,192,40403,1,0,0:0:0:100:C4S_s.wav
266,192,40503,1,0,0:0:0:74:E3S_s.wav
10,192,40603,1,0,0:0:0:74:E3S_s.wav
394,192,40603,1,0,0:0:0:63:D#5S_Eb5S_s.wav
138,192,40603,1,0,0:0:0:52:G5S_s.wav
266,192,40603,1,0,0:0:0:56:C5S_s.wav
10,192,40736,1,0,0:0:0:51:C6S_s.wav
394,192,40769,1,0,0:0:0:70:D#6S_Eb6S_s.wav
138,192,40803,1,0,0:0:0:93:C6S_s.wav
266,192,40803,1,0,0:0:0:68:D#5S_Eb5S_s.wav
10,192,40803,1,0,0:0:0:58:C5S_s.wav
394,192,40936,1,0,0:0:0:53:C6S.wav
138,192,40978,1,0,0:0:0:67:D#6S_Eb6S.wav
266,192,41003,1,0,0:0:0:76:F#3S_Gb3S_s.wav
10,192,41103,1,0,0:0:0:81:G#5S_Ab5S_s.wav
394,192,41103,1,0,0:0:0:81:D#5S_Eb5S_s.wav
138,192,41103,1,0,0:0:0:81:C5S_s.wav
138,192,41203,1,0,0:0:0:100:G#3S_Ab3S_s.wav
266,192,41203,1,0,0:0:0:93:C6S.wav
394,192,41403,1,0,0:0:0:49:G#5S_Ab5S_s.wav
10,192,41403,1,0,0:0:0:62:D#5S_Eb5S_s.wav
266,192,41403,1,0,0:0:0:62:C5S_s.wav
138,192,41528,1,0,0:0:0:53:A#5S_Bb5S_s.wav
394,192,41553,1,0,0:0:0:62:D6S_s.wav
10,192,41603,1,0,0:0:0:93:A#5S_Bb5S_s.wav
266,192,41603,1,0,0:0:0:62:G#5S_Ab5S_s.wav
138,192,41603,1,0,0:0:0:59:C5S_s.wav
394,192,41603,1,0,0:0:0:71:D#5S_Eb5S_s.wav
138,192,41778,1,0,0:0:0:62:G#5S_Ab5S_s.wav
394,192,41778,1,0,0:0:0:65:C6S.wav
10,192,41803,1,0,0:0:0:93:G#5S_Ab5S.wav
266,192,41878,1,0,0:0:0:84:D#5S_Eb5S_s.wav
138,192,41878,1,0,0:0:0:84:G#5S_Ab5S_s.wav
394,192,41878,1,0,0:0:0:84:C5S_s.wav
10,192,42003,1,0,0:0:0:88:C3S_s.wav
266,192,42003,1,0,0:0:0:92:G#3S_Ab3S_s.wav
138,192,42103,1,0,0:0:0:74:E3S_s.wav
394,192,42203,1,0,0:0:0:74:E3S_s.wav
10,192,42203,1,0,0:0:0:63:D#5S_Eb5S_s.wav
266,192,42203,1,0,0:0:0:52:G#5S_Ab5S_s.wav
138,192,42203,1,0,0:0:0:56:C5S_s.wav
138,192,42403,1,0,0:0:0:93:G5S_s.wav
394,192,42403,1,0,0:0:0:62:G5S.wav
266,192,42403,1,0,0:0:0:66:D#5S_Eb5S_s.wav
10,192,42428,1,0,0:0:0:72:G5S_s.wav
394,192,42428,1,0,0:0:0:39:A#4S_Bb4S_s.wav
138,192,42603,1,0,0:0:0:74:E3S_s.wav
266,192,42603,1,0,0:0:0:76:F#3S_Gb3S_s.wav
10,192,42703,1,0,0:0:0:79:G5S_s.wav
394,192,42703,1,0,0:0:0:66:D#5S_Eb5S_s.wav
138,192,42703,1,0,0:0:0:39:A#4S_Bb4S_s.wav
138,192,42803,1,0,0:0:0:88:C3S_s.wav
266,192,42803,1,0,0:0:0:100:D#3S_Eb3S_s.wav
394,192,42803,1,0,0:0:0:93:A#5S_Bb5S_s.wav
10,192,43003,1,0,0:0:0:74:E3S_s.wav
266,192,43003,1,0,0:0:0:76:F#3S_Gb3S_s.wav
138,192,43028,1,0,0:0:0:64:A#4S_Bb4S_s.wav
394,192,43028,1,0,0:0:0:64:D#5S_Eb5S_s.wav
10,192,43028,1,0,0:0:0:64:G5S_s.wav
266,192,43203,1,0,0:0:0:99:D#3S_Eb3S_s.wav
394,192,43203,1,0,0:0:0:53:G5S_s.wav
138,192,43228,1,0,0:0:0:63:A#4S_Bb4S_s.wav
10,192,43228,1,0,0:0:0:63:D#5S_Eb5S_s.wav
394,192,43228,1,0,0:0:0:63:G5S_s.wav
266,192,43403,1,0,0:0:0:53:B5S_s.wav
394,192,43403,1,0,0:0:0:53:D6S_s.wav
10,192,43503,1,0,0:0:0:81:D#5S_Eb5S_s.wav
138,192,43503,1,0,0:0:0:79:G5S_s.wav
266,192,43603,1,0,0:0:0:88:C3S_s.wav
394,192,43603,1,0,0:0:0:100:D#3S_Eb3S_s.wav
10,192,43703,1,0,0:0:0:74:E3S_s.wav
138,192,43703,1,0,0:0:0:93:G#5S_Ab5S_s.wav
10,192,43803,1,0,0:0:0:61:G5S_s.wav
266,192,43803,1,0,0:0:0:53:G#5S_Ab5S_s.wav
394,192,43803,1,0,0:0:0:53:C6S_s.wav
138,192,44003,1,0,0:0:0:65:G5S.wav
394,192,44003,1,0,0:0:0:65:B5S.wav
10,192,44028,1,0,0:0:0:71:B4S_s.wav
266,192,44028,1,0,0:0:0:71:G5S_s.wav
138,192,44036,1,0,0:0:0:71:D5S_s.wav
10,192,44203,1,0,0:0:0:74:E3S_s.wav
394,192,44203,1,0,0:0:0:76:F#3S_Gb3S_s.wav
266,192,44303,1,0,0:0:0:88:G5S_s.wav
138,192,44303,1,0,0:0:0:51:B4S_s.wav
394,192,44303,1,0,0:0:0:62:D5S_s.wav
10,192,44403,1,0,0:0:0:88:C3S_s.wav
266,192,44403,1,0,0:0:0:100:G3S_s.wav
138,192,44603,1,0,0:0:0:50:B4S_s.wav
394,192,44603,1,0,0:0:0:61:D5S_s.wav
10,192,44603,1,0,0:0:0:54:G5S_s.wav
138,192,44803,1,0,0:0:0:100:G3S_s.wav
266,192,44803,1,0,0:0:0:66:G5S_s.wav
394,192,44836,1,0,0:0:0:72:D5S_s.wav
10,192,44836,1,0,0:0:0:57:B4S_s.wav
266,192,44836,1,0,0:0:0:65:G5S_s.wav
138,192,44903,1,0,0:0:0:66:G#5S_Ab5S_s.wav
10,192,45003,1,0,0:0:0:76:F#3S_Gb3S_s.wav
394,192,45003,1,0,0:0:0:80:G5S_s.wav
266,192,45103,1,0,0:0:0:88:G5S_s.wav
138,192,45103,1,0,0:0:0:88:B4S_s.wav
10,192,45203,1,0,0:0:0:100:G3S_s.wav
394,192,45203,1,0,0:0:0:69:G5S_s.wav
138,192,45303,1,0,0:0:0:74:E3S_s.wav
266,192,45303,1,0,0:0:0:72:G5S_s.wav
394,192,45403,1,0,0:0:0:71:A5S_s.wav
10,192,45403,1,0,0:0:0:88:B4S_s.wav
266,192,45503,1,0,0:0:0:69:B5S_s.wav
138,192,45603,1,0,0:0:0:69:C6S_s.wav
394,192,45603,1,0,0:0:0:68:D#5S_Eb5S_s.wav
10,192,45603,1,0,0:0:0:58:C5S_s.wav
266,192,45703,1,0,0:0:0:69:B5S_s.wav
138,192,45803,1,0,0:0:0:76:F#3S_Gb3S_s.wav
394,192,45803,1,0,0:0:0:69:C6S_s.wav
10,192,45903,1,0,0:0:0:88:G5S_s.wav
266,192,45903,1,0,0:0:0:88:D#5S_Eb5S_s.wav
138,192,45903,1,0,0:0:0:88:C5S_s.wav
10,192,46003,1,0,0:0:0:88:C3S_s.wav
394,192,46003,1,0,0:0:0:98:C4S_s.wav
266,192,46203,1,0,0:0:0:49:G5S_s.wav
138,192,46203,1,0,0:0:0:62:D#5S_Eb5S_s.wav
10,192,46203,1,0,0:0:0:93:D#6S_Eb6S_s.wav
394,192,46203,1,0,0:0:0:53:D#6S_Eb6S_s.wav
138,192,46403,1,0,0:0:0:96:C4S_s.wav
266,192,46403,1,0,0:0:0:93:D6S_s.wav
394,192,46403,1,0,0:0:0:54:G5S_s.wav
10,192,46403,1,0,0:0:0:71:D#5S_Eb5S_s.wav
138,192,46503,1,0,0:0:0:53:B5S_s.wav
266,192,46503,1,0,0:0:0:53:D6S_s.wav
10,192,46603,1,0,0:0:0:76:F#3S_Gb3S_s.wav
394,192,46603,1,0,0:0:0:93:C6S_s.wav
266,192,46678,1,0,0:0:0:84:D#5S_Eb5S_s.wav
138,192,46678,1,0,0:0:0:84:G5S_s.wav
394,192,46678,1,0,0:0:0:84:C5S_s.wav
10,192,46703,1,0,0:0:0:53:C6S_s.wav
266,192,46803,1,0,0:0:0:88:C3S_s.wav
394,192,46803,1,0,0:0:0:99:C4S_s.wav
138,192,46903,1,0,0:0:0:74:E3S_s.wav
10,192,47003,1,0,0:0:0:53:G6S_s.wav
394,192,47003,1,0,0:0:0:63:D#5S_Eb5S_s.wav
266,192,47003,1,0,0:0:0:52:G5S_s.wav
138,192,47003,1,0,0:0:0:56:C5S_s.wav
266,192,47028,1,0,0:0:0:65:A#6S_Bb6S_s.wav
138,192,47203,1,0,0:0:0:93:C6S.wav
394,192,47203,1,0,0:0:0:44:G#6S_Ab6S_s.wav
10,192,47203,1,0,0:0:0:68:D#5S_Eb5S_s.wav
266,192,47203,1,0,0:0:0:58:C5S_s.wav
138,192,47228,1,0,0:0:0:55:C7S_s.wav
138,192,47403,1,0,0:0:0:74:E3S_s.wav
394,192,47403,1,0,0:0:0:76:F#3S_Gb3S_s.wav
266,192,47453,1,0,0:0:0:56:G#6S_Ab6S.wav
10,192,47453,1,0,0:0:0:68:C7S.wav
394,192,47503,1,0,0:0:0:81:G#5S_Ab5S_s.wav
138,192,47503,1,0,0:0:0:81:D#5S_Eb5S_s.wav
266,192,47503,1,0,0:0:0:81:C5S_s.wav
10,192,47603,1,0,0:0:0:88:C3S_s.wav
394,192,47603,1,0,0:0:0:97:G#3S_Ab3S_s.wav
138,192,47803,1,0,0:0:0:49:G#5S_Ab5S_s.wav
266,192,47803,1,0,0:0:0:62:D#5S_Eb5S_s.wav
10,192,47803,1,0,0:0:0:62:C5S_s.wav
394,192,47803,1,0,0:0:0:93:C6S_s.wav
138,192,47978,1,0,0:0:0:44:A#6S_Bb6S_s.wav
394,192,48003,1,0,0:0:0:93:A#5S_Bb5S_s.wav
266,192,48003,1,0,0:0:0:62:G#5S_Ab5S_s.wav
10,192,48003,1,0,0:0:0:71:D#5S_Eb5S_s.wav
266,192,48069,1,0,0:0:0:45:C7S_s.wav
138,192,48153,1,0,0:0:0:42:A#6S_Bb6S_s.wav
394,192,48203,1,0,0:0:0:76:F#3S_Gb3S_s.wav
10,192,48269,1,0,0:0:0:46:F6S.wav
266,192,48269,1,0,0:0:0:58:G#6S_Ab6S.wav
138,192,48278,1,0,0:0:0:84:D#5S_Eb5S_s.wav
394,192,48278,1,0,0:0:0:84:G#5S_Ab5S_s.wav
138,192,48278,1,0,0:0:0:84:C5S_s.wav
10,192,48403,1,0,0:0:0:91:G#3S_Ab3S_s.wav
394,192,48403,1,0,0:0:0:93:G#5S_Ab5S_s.wav
266,192,48503,1,0,0:0:0:74:E3S_s.wav
138,192,48603,1,0,0:0:0:74:E3S_s.wav
394,192,48603,1,0,0:0:0:63:D#5S_Eb5S_s.wav
10,192,48603,1,0,0:0:0:52:G#5S_Ab5S_s.wav
266,192,48603,1,0,0:0:0:56:C5S_s.wav
138,192,48803,1,0,0:0:0:93:G5S_s.wav
394,192,48803,1,0,0:0:0:48:D#6S_Eb6S.wav
10,192,48803,1,0,0:0:0:59:G6S_s.wav
266,192,48803,1,0,0:0:0:66:D#5S_Eb5S_s.wav
138,192,48828,1,0,0:0:0:72:G5S_s.wav
394,192,48828,1,0,0:0:0:39:A#4S_Bb4S_s.wav
10,192,48903,1,0,0:0:0:59:F#6S_Gb6S_s.wav
266,192,49003,1,0,0:0:0:93:A#5S_Bb5S_s.wav
394,192,49003,1,0,0:0:0:59:G6S.wav
138,192,49103,1,0,0:0:0:79:G5S_s.wav
10,192,49103,1,0,0:0:0:66:D#5S_Eb5S_s.wav
394,192,49103,1,0,0:0:0:39:A#4S_Bb4S_s.wav
138,192,49203,1,0,0:0:0:88:C3S_s.wav
266,192,49203,1,0,0:0:0:100:D#3S_Eb3S_s.wav
10,192,49403,1,0,0:0:0:74:E3S_s.wav
394,192,49403,1,0,0:0:0:76:F#3S_Gb3S_s.wav
266,192,49428,1,0,0:0:0:64:A#4S_Bb4S_s.wav
138,192,49428,1,0,0:0:0:64:D#5S_Eb5S_s.wav
394,192,49428,1,0,0:0:0:64:G5S_s.wav
10,192,49603,1,0,0:0:0:88:C3S_s.wav
266,192,49603,1,0,0:0:0:96:D#3S_Eb3S_s.wav
138,192,49628,1,0,0:0:0:63:A#4S_Bb4S_s.wav
394,192,49628,1,0,0:0:0:63:D#5S_Eb5S_s.wav
10,192,49628,1,0,0:0:0:63:G5S_s.wav
138,192,49803,1,0,0:0:0:61:G6S_s.wav
266,192,49803,1,0,0:0:0:73:A#6S_Bb6S_s.wav
10,192,49903,1,0,0:0:0:81:D#5S_Eb5S_s.wav
394,192,49903,1,0,0:0:0:79:G5S_s.wav
138,192,50003,1,0,0:0:0:88:C3S_s.wav
266,192,50003,1,0,0:0:0:100:D#3S_Eb3S_s.wav
10,192,50103,1,0,0:0:0:67:F6S_s.wav
394,192,50103,1,0,0:0:0:79:G#6S_Ab6S_s.wav
138,192,50203,1,0,0:0:0:67:A#4S_Bb4S_s.wav
266,192,50203,1,0,0:0:0:70:D#5S_Eb5S_s.wav
394,192,50203,1,0,0:0:0:61:G5S_s.wav
10,192,50403,1,0,0:0:0:54:D#6S_Eb6S_s.wav
394,192,50403,1,0,0:0:0:66:G6S_s.wav
138,192,50428,1,0,0:0:0:71:B4S_s.wav
266,192,50428,1,0,0:0:0:71:G5S_s.wav
10,192,50436,1,0,0:0:0:71:D5S_s.wav
138,192,50603,1,0,0:0:0:74:E3S_s.wav
394,192,50603,1,0,0:0:0:76:F#3S_Gb3S_s.wav
266,192,50703,1,0,0:0:0:88:G5S_s.wav
10,192,50703,1,0,0:0:0:51:B4S_s.wav
394,192,50703,1,0,0:0:0:62:D5S_s.wav
138,192,50803,1,0,0:0:0:100:G3S_s.wav
266,192,50803,1,0,0:0:0:60:G6S_s.wav
10,192,50903,1,0,0:0:0:60:F#6S_Gb6S_s.wav
394,192,51003,1,0,0:0:0:56:G6S_s.wav
138,192,51003,1,0,0:0:0:54:G5S_s.wav
266,192,51103,1,0,0:0:0:56:G#6S_Ab6S_s.wav
10,192,51203,1,0,0:0:0:51:G6S_s.wav
394,192,51236,1,0,0:0:0:72:D5S_s.wav
138,192,51236,1,0,0:0:0:57:B4S_s.wav
266,192,51236,1,0,0:0:0:65:G5S_s.wav
10,192,51403,1,0,0:0:0:76:F#3S_Gb3S_s.wav
394,192,51403,1,0,0:0:0:44:F6S_s.wav
138,192,51503,1,0,0:0:0:88:G5S_s.wav
266,192,51503,1,0,0:0:0:88:B4S_s.wav
10,192,51603,1,0,0:0:0:76:A5S_s.wav
394,192,51603,1,0,0:0:0:60:D#6S_Eb6S_s.wav
138,192,51703,1,0,0:0:0:74:E3S_s.wav
266,192,51803,1,0,0:0:0:56:D6S_s.wav
10,192,51803,1,0,0:0:0:88:B4S_s.wav
138,192,52003,1,0,0:0:0:93:C6S_s.wav
394,192,52003,1,0,0:0:0:68:C6S.wav
266,192,52003,1,0,0:0:0:68:D#5S_Eb5S_s.wav
10,192,52003,1,0,0:0:0:58:C5S_s.wav
138,192,52203,1,0,0:0:0:76:F#3S_Gb3S_s.wav
266,192,52203,1,0,0:0:0:93:D#6S_Eb6S_s.wav
394,192,52203,1,0,0:0:0:68:D#6S_Eb6S.wav
10,192,52303,1,0,0:0:0:88:G5S_s.wav
266,192,52303,1,0,0:0:0:88:D#5S_Eb5S_s.wav
138,192,52303,1,0,0:0:0:88:C5S_s.wav
10,192,52403,1,0,0:0:0:88:C3S_s.wav
394,192,52403,1,0,0:0:0:100:C4S_s.wav
266,192,52603,1,0,0:0:0:49:G5S_s.wav
138,192,52603,1,0,0:0:0:62:D#5S_Eb5S_s.wav
10,192,52603,1,0,0:0:0:76:F#3S_Gb3S_s.wav
394,192,52603,1,0,0:0:0:55:C5S_s.wav
266,192,52803,1,0,0:0:0:93:D6S_s.wav
394,192,52803,1,0,0:0:0:68:D6S_s.wav
138,192,52803,1,0,0:0:0:54:G5S_s.wav
10,192,52803,1,0,0:0:0:59:C5S_s.wav
394,192,52803,1,0,0:0:0:71:D#5S_Eb5S_s.wav
138,192,53003,1,0,0:0:0:93:C6S_s.wav
266,192,53003,1,0,0:0:0:68:C6S.wav
394,192,53078,1,0,0:0:0:84:D#5S_Eb5S_s.wav
10,192,53078,1,0,0:0:0:84:G5S_s.wav
266,192,53078,1,0,0:0:0:84:C5S_s.wav
138,192,53203,1,0,0:0:0:88:C3S_s.wav
394,192,53203,1,0,0:0:0:100:C4S_s.wav
10,192,53303,1,0,0:0:0:74:E3S_s.wav
266,192,53403,1,0,0:0:0:53:G6S_s.wav
138,192,53403,1,0,0:0:0:63:D#5S_Eb5S_s.wav
394,192,53403,1,0,0:0:0:52:G5S_s.wav
10,192,53403,1,0,0:0:0:56:C5S_s.wav
394,192,53428,1,0,0:0:0:65:A#6S_Bb6S_s.wav
266,192,53603,1,0,0:0:0:93:C6S_s.wav
394,192,53603,1,0,0:0:0:44:G#6S_Ab6S_s.wav
138,192,53603,1,0,0:0:0:68:D#5S_Eb5S_s.wav
10,192,53603,1,0,0:0:0:58:C5S_s.wav
394,192,53628,1,0,0:0:0:55:C7S_s.wav
138,192,53803,1,0,0:0:0:76:F#3S_Gb3S_s.wav
266,192,53803,1,0,0:0:0:93:C6S_s.wav
394,192,53853,1,0,0:0:0:56:G#6S_Ab6S.wav
10,192,53853,1,0,0:0:0:68:C7S.wav
266,192,53903,1,0,0:0:0:81:G#5S_Ab5S_s.wav
138,192,53903,1,0,0:0:0:81:D#5S_Eb5S_s.wav
394,192,53903,1,0,0:0:0:81:C5S_s.wav
10,192,54003,1,0,0:0:0:88:C3S_s.wav
266,192,54003,1,0,0:0:0:100:G#3S_Ab3S_s.wav
138,192,54203,1,0,0:0:0:49:G#5S_Ab5S_s.wav
394,192,54203,1,0,0:0:0:62:D#5S_Eb5S_s.wav
10,192,54203,1,0,0:0:0:76:F#3S_Gb3S_s.wav
266,192,54203,1,0,0:0:0:62:C5S_s.wav
138,192,54403,1,0,0:0:0:53:G6S_s.wav
394,192,54403,1,0,0:0:0:53:A#6S_Bb6S_s.wav
10,192,54403,1,0,0:0:0:62:G#5S_Ab5S_s.wav
138,192,54403,1,0,0:0:0:59:C5S_s.wav
266,192,54403,1,0,0:0:0:71:D#5S_Eb5S_s.wav
138,192,54603,1,0,0:0:0:76:F#3S_Gb3S_s.wav
394,192,54603,1,0,0:0:0:93:G#5S_Ab5S_s.wav
266,192,54678,1,0,0:0:0:84:D#5S_Eb5S_s.wav
10,192,54678,1,0,0:0:0:84:G#5S_Ab5S_s.wav
394,192,54678,1,0,0:0:0:84:C5S_s.wav
138,192,54803,1,0,0:0:0:65:F6S_s.wav
394,192,54803,1,0,0:0:0:62:G#6S_Ab6S_s.wav
266,192,54903,1,0,0:0:0:74:E3S_s.wav
10,192,55003,1,0,0:0:0:74:E3S_s.wav
394,192,55003,1,0,0:0:0:63:D#5S_Eb5S_s.wav
138,192,55003,1,0,0:0:0:52:G#5S_Ab5S_s.wav
266,192,55003,1,0,0:0:0:56:C5S_s.wav
10,192,55203,1,0,0:0:0:100:D#3S_Eb3S_s.wav
394,192,55203,1,0,0:0:0:93:G5S_s.wav
138,192,55203,1,0,0:0:0:66:D#5S_Eb5S_s.wav
266,192,55228,1,0,0:0:0:72:G5S_s.wav
10,192,55228,1,0,0:0:0:62:G6S.wav
394,192,55228,1,0,0:0:0:39:A#4S_Bb4S_s.wav
138,192,55403,1,0,0:0:0:76:F#3S_Gb3S_s.wav
394,192,55403,1,0,0:0:0:93:A#5S_Bb5S_s.wav
266,192,55503,1,0,0:0:0:79:G5S_s.wav
10,192,55503,1,0,0:0:0:66:D#5S_Eb5S_s.wav
394,192,55503,1,0,0:0:0:39:A#4S_Bb4S_s.wav
138,192,55603,1,0,0:0:0:88:C3S_s.wav
394,192,55603,1,0,0:0:0:100:D#3S_Eb3S_s.wav
10,192,55803,1,0,0:0:0:74:E3S_s.wav
266,192,55803,1,0,0:0:0:76:F#3S_Gb3S_s.wav
394,192,55828,1,0,0:0:0:64:A#4S_Bb4S_s.wav
138,192,55828,1,0,0:0:0:64:D#5S_Eb5S_s.wav
394,192,55828,1,0,0:0:0:64:G5S_s.wav
10,192,56003,1,0,0:0:0:88:C3S_s.wav
266,192,56003,1,0,0:0:0:100:D#3S_Eb3S_s.wav
138,192,56028,1,0,0:0:0:53:G6S_s.wav
394,192,56028,1,0,0:0:0:63:A#4S_Bb4S_s.wav
138,192,56028,1,0,0:0:0:63:D#5S_Eb5S_s.wav
266,192,56028,1,0,0:0:0:63:G5S_s.wav
138,192,56203,1,0,0:0:0:76:F#3S_Gb3S_s.wav
394,192,56203,1,0,0:0:0:93:A#5S_Bb5S_s.wav
10,192,56228,1,0,0:0:0:53:D7S_s.wav
138,192,56303,1,0,0:0:0:81:D#5S_Eb5S_s.wav
266,192,56303,1,0,0:0:0:79:G5S_s.wav
10,192,56403,1,0,0:0:0:88:C3S_s.wav
394,192,56403,1,0,0:0:0:100:D#3S_Eb3S_s.wav
138,192,56503,1,0,0:0:0:74:E3S_s.wav
266,192,56503,1,0,0:0:0:93:G#5S_Ab5S_s.wav
394,192,56603,1,0,0:0:0:61:G5S_s.wav
10,192,56628,1,0,0:0:0:53:G#6S_Ab6S_s.wav
266,192,56628,1,0,0:0:0:53:C7S_s.wav
138,192,56803,1,0,0:0:0:93:G5S_s.wav
394,192,56803,1,0,0:0:0:66:G6S_s.wav
10,192,56828,1,0,0:0:0:71:B4S_s.wav
266,192,56828,1,0,0:0:0:71:G5S_s.wav
138,192,56836,1,0,0:0:0:71:D5S_s.wav
394,192,56903,1,0,0:0:0:66:G#6S_Ab6S_s.wav
10,192,57003,1,0,0:0:0:76:F#3S_Gb3S_s.wav
266,192,57003,1,0,0:0:0:80:G6S_s.wav
138,192,57069,1,0,0:0:0:93:D#6S_Eb6S.wav
394,192,57078,1,0,0:0:0:93:B5S.wav
10,192,57078,1,0,0:0:0:93:G5S.wav
266,192,57103,1,0,0:0:0:70:F#6S_Gb6S_s.wav
138,192,57103,1,0,0:0:0:51:B4S_s.wav
394,192,57103,1,0,0:0:0:62:D5S_s.wav
10,192,57203,1,0,0:0:0:99:G3S_s.wav
394,192,57228,1,0,0:0:0:66:G6S_s.wav
266,192,57328,1,0,0:0:0:66:G#6S_Ab6S_s.wav
138,192,57403,1,0,0:0:0:61:D5S_s.wav
394,192,57403,1,0,0:0:0:54:G5S_s.wav
10,192,57428,1,0,0:0:0:80:G6S_s.wav
266,192,57528,1,0,0:0:0:70:F#6S_Gb6S_s.wav
138,192,57603,1,0,0:0:0:100:G3S_s.wav
394,192,57628,1,0,0:0:0:69:G6S_s.wav
10,192,57636,1,0,0:0:0:72:D5S_s.wav
266,192,57636,1,0,0:0:0:57:B4S_s.wav
138,192,57636,1,0,0:0:0:65:G5S_s.wav
138,192,57778,1,0,0:0:0:66:D#6S_Eb6S_s.wav
394,192,57778,1,0,0:0:0:66:D#6S_Eb6S_s.wav
266,192,57803,1,0,0:0:0:76:F#3S_Gb3S_s.wav
10,192,57803,1,0,0:0:0:66:C6S_s.wav
394,192,57828,1,0,0:0:0:66:F6S_s.wav
138,192,57853,1,0,0:0:0:66:D6S_s.wav
266,192,57903,1,0,0:0:0:64:G6S_s.wav
10,192,57903,1,0,0:0:0:88:G5S_s.wav
394,192,57903,1,0,0:0:0:88:B4S_s.wav
138,192,57928,1,0,0:0:0:64:E6S_s.wav
266,192,57969,1,0,0:0:0:70:G#6S_Ab6S_s.wav
10,192,58003,1,0,0:0:0:70:F6S_s.wav
394,192,58003,1,0,0:0:0:100:G3S_s.wav
138,192,58036,1,0,0:0:0:76:A#6S_Bb6S_s.wav
266,192,58069,1,0,0:0:0:76:G6S_s.wav
10,192,58103,1,0,0:0:0:74:E3S_s.wav
394,192,58103,1,0,0:0:0:74:C7S_s.wav
138,192,58136,1,0,0:0:0:74:A6S_s.wav
266,192,58178,1,0,0:0:0:71:D7S_s.wav
10,192,58203,1,0,0:0:0:88:G5S_s.wav
394,192,58203,1,0,0:0:0:88:B4S_s.wav
138,192,58203,1,0,0:0:0:71:B6S_s.wav
394,192,58203,1,0,0:0:0:71:B6S_s.wav
138,192,58378,1,0,0:0:0:85:D#7S_Eb7S.wav
266,192,58378,1,0,0:0:0:85:D#7S_Eb7S.wav
394,192,58378,1,0,0:0:0:85:C7S.wav
10,192,58403,1,0,0:0:0:93:C6S.wav
394,192,58503,1,0,0:0:0:26:E3S_s.wav
138,192,58603,1,0,0:0:0:51:D#5S_Eb5S_s.wav
266,192,58603,1,0,0:0:0:63:G5S_s.wav
10,192,58703,1,0,0:0:0:26:E3S_s.wav
138,192,58803,1,0,0:0:0:99:A#3S_Bb3S_s.wav
394,192,58803,1,0,0:0:0:82:D#4S_Eb4S_s.wav
10,192,58903,1,0,0:0:0:56:C3S_s.wav
266,192,58903,1,0,0:0:0:29:E3S_s.wav
138,192,59003,1,0,0:0:0:65:G5S_s.wav
394,192,59003,1,0,0:0:0:93:C6S_s.wav
266,192,59103,1,0,0:0:0:60:E3S_s.wav
10,192,59203,1,0,0:0:0:62:G#5S_Ab5S_s.wav
394,192,59203,1,0,0:0:0:93:C6S_s.wav
138,192,59303,1,0,0:0:0:26:E3S_s.wav
10,192,59403,1,0,0:0:0:58:G#5S_Ab5S_s.wav
266,192,59403,1,0,0:0:0:93:C6S_s.wav
394,192,59503,1,0,0:0:0:26:E3S_s.wav
138,192,59603,1,0,0:0:0:93:F3S_s.wav
266,192,59603,1,0,0:0:0:77:D#4S_Eb4S_s.wav
10,192,59703,1,0,0:0:0:56:C3S_s.wav
394,192,59703,1,0,0:0:0:26:E3S_s.wav
138,192,59803,1,0,0:0:0:66:D#5S_Eb5S_s.wav
266,192,59803,1,0,0:0:0:58:G#5S_Ab5S_s.wav
10,192,59903,1,0,0:0:0:56:E3S_s.wav
138,192,60003,1,0,0:0:0:76:F5S_s.wav
394,192,60003,1,0,0:0:0:93:D6S.wav
266,192,60103,1,0,0:0:0:75:E3S_s.wav
10,192,60203,1,0,0:0:0:68:D5S_s.wav
394,192,60203,1,0,0:0:0:66:F5S_s.wav
138,192,60303,1,0,0:0:0:30:E3S_s.wav
10,192,60403,1,0,0:0:0:28:E3S_s.wav
266,192,60403,1,0,0:0:0:82:D#4S_Eb4S_s.wav
138,192,60503,1,0,0:0:0:56:C3S_s.wav
394,192,60503,1,0,0:0:0:26:E3S_s.wav
10,192,60603,1,0,0:0:0:63:F5S_s.wav
266,192,60603,1,0,0:0:0:93:D6S_s.wav
394,192,60703,1,0,0:0:0:25:E3S_s.wav
138,192,60803,1,0,0:0:0:69:G5S_s.wav
266,192,60803,1,0,0:0:0:93:D6S_s.wav
10,192,60903,1,0,0:0:0:26:E3S_s.wav
394,192,61003,1,0,0:0:0:93:D6S_s.wav
138,192,61003,1,0,0:0:0:74:B4S_s.wav
266,192,61003,1,0,0:0:0:77:D5S_s.wav
10,192,61103,1,0,0:0:0:26:E3S_s.wav
138,192,61203,1,0,0:0:0:100:B3S_s.wav
394,192,61203,1,0,0:0:0:77:D#4S_Eb4S_s.wav
10,192,61303,1,0,0:0:0:56:C3S_s.wav
266,192,61303,1,0,0:0:0:26:E3S_s.wav
138,192,61403,1,0,0:0:0:64:D5S_s.wav
394,192,61403,1,0,0:0:0:62:G5S_s.wav
266,192,61503,1,0,0:0:0:26:E3S_s.wav
10,192,61603,1,0,0:0:0:69:G5S_s.wav
394,192,61603,1,0,0:0:0:93:D#6S_Eb6S.wav
138,192,61703,1,0,0:0:0:26:E3S_s.wav
10,192,61803,1,0,0:0:0:66:D#5S_Eb5S_s.wav
266,192,61803,1,0,0:0:0:68:G5S_s.wav
394,192,61903,1,0,0:0:0:26:E3S_s.wav
138,192,62003,1,0,0:0:0:100:G#3S_Ab3S_s.wav
266,192,62003,1,0,0:0:0:82:D#4S_Eb4S_s.wav
10,192,62103,1,0,0:0:0:56:C3S_s.wav
394,192,62103,1,0,0:0:0:26:E3S_s.wav
138,192,62203,1,0,0:0:0:59:G5S_s.wav
266,192,62203,1,0,0:0:0:93:D#6S_Eb6S_s.wav
10,192,62303,1,0,0:0:0:26:E3S_s.wav
138,192,62403,1,0,0:0:0:59:F5S_s.wav
394,192,62403,1,0,0:0:0:93:F6S_s.wav
266,192,62503,1,0,0:0:0:26:E3S_s.wav
10,192,62603,1,0,0:0:0:69:F5S_s.wav
394,192,62603,1,0,0:0:0:93:A#5S_Bb5S_s.wav
138,192,62703,1,0,0:0:0:77:D5S_s.wav
266,192,62703,1,0,0:0:0:71:F5S_s.wav
10,192,62803,1,0,0:0:0:100:A#3S_Bb3S_s.wav
394,192,62803,1,0,0:0:0:77:D#4S_Eb4S_s.wav
138,192,62903,1,0,0:0:0:56:C3S_s.wav
266,192,62903,1,0,0:0:0:26:E3S_s.wav
10,192,63003,1,0,0:0:0:70:D5S_s.wav
394,192,63003,1,0,0:0:0:69:F5S_s.wav
138,192,63103,1,0,0:0:0:26:E3S_s.wav
10,192,63203,1,0,0:0:0:68:G5S_s.wav
266,192,63203,1,0,0:0:0:93:A#6S_Bb6S_s.wav
394,192,63303,1,0,0:0:0:26:E3S_s.wav
138,192,63403,1,0,0:0:0:69:G5S_s.wav
266,192,63403,1,0,0:0:0:71:G5S_s.wav
10,192,63503,1,0,0:0:0:26:E3S_s.wav
138,192,63603,1,0,0:0:0:82:D#4S_Eb4S_s.wav
394,192,63603,1,0,0:0:0:93:G#6S_Ab6S_s.wav
10,192,63703,1,0,0:0:0:56:C3S_s.wav
266,192,63703,1,0,0:0:0:26:E3S_s.wav
138,192,63803,1,0,0:0:0:54:D#5S_Eb5S_s.wav
394,192,63803,1,0,0:0:0:59:G5S_s.wav
266,192,63903,1,0,0:0:0:26:E3S_s.wav
10,192,64003,1,0,0:0:0:68:G5S_s.wav
394,192,64003,1,0,0:0:0:93:G6S_s.wav
138,192,64103,1,0,0:0:0:26:E3S_s.wav
266,192,64203,1,0,0:0:0:71:G5S_s.wav
10,192,64203,1,0,0:0:0:74:B4S_s.wav
394,192,64303,1,0,0:0:0:26:E3S_s.wav
138,192,64403,1,0,0:0:0:77:D#4S_Eb4S_s.wav
266,192,64403,1,0,0:0:0:93:F6S_s.wav
10,192,64503,1,0,0:0:0:56:C3S_s.wav
394,192,64503,1,0,0:0:0:29:E3S_s.wav
138,192,64603,1,0,0:0:0:62:D5S_s.wav
266,192,64603,1,0,0:0:0:60:G5S_s.wav
10,192,64703,1,0,0:0:0:26:E3S_s.wav
138,192,64803,1,0,0:0:0:55:D#5S_Eb5S_s.wav
394,192,64803,1,0,0:0:0:66:G5S_s.wav
266,192,64903,1,0,0:0:0:26:E3S_s.wav
10,192,65003,1,0,0:0:0:70:G5S_s.wav
394,192,65003,1,0,0:0:0:93:C6S_s.wav
138,192,65103,1,0,0:0:0:26:E3S_s.wav
10,192,65203,1,0,0:0:0:99:A#3S_Bb3S_s.wav
266,192,65203,1,0,0:0:0:82:D#4S_Eb4S_s.wav
138,192,65303,1,0,0:0:0:56:C3S_s.wav
394,192,65303,1,0,0:0:0:26:E3S_s.wav
10,192,65403,1,0,0:0:0:67:G5S_s.wav
266,192,65403,1,0,0:0:0:93:D6S_s.wav
394,192,65503,1,0,0:0:0:56:E3S_s.wav
138,192,65603,1,0,0:0:0:62:G#5S_Ab5S_s.wav
266,192,65603,1,0,0:0:0:93:D#6S_Eb6S_s.wav
10,192,65703,1,0,0:0:0:26:E3S_s.wav
138,192,65803,1,0,0:0:0:59:G#5S_Ab5S_s.wav
394,192,65803,1,0,0:0:0:93:G6S_s.wav
266,192,65903,1,0,0:0:0:26:E3S_s.wav
10,192,66003,1,0,0:0:0:93:F3S_s.wav
394,192,66003,1,0,0:0:0:77:D#4S_Eb4S_s.wav
138,192,66103,1,0,0:0:0:56:C3S_s.wav
266,192,66103,1,0,0:0:0:26:E3S_s.wav
10,192,66203,1,0,0:0:0:60:D#5S_Eb5S_s.wav
394,192,66203,1,0,0:0:0:58:G#5S_Ab5S_s.wav
138,192,66303,1,0,0:0:0:26:E3S_s.wav
10,192,66403,1,0,0:0:0:58:F#5S_Gb5S_s.wav
266,192,66403,1,0,0:0:0:93:F#6S_Gb6S.wav
394,192,66503,1,0,0:0:0:26:E3S_s.wav
138,192,66603,1,0,0:0:0:67:D5S_s.wav
266,192,66603,1,0,0:0:0:56:F#5S_Gb5S_s.wav
10,192,66703,1,0,0:0:0:26:E3S_s.wav
138,192,66803,1,0,0:0:0:26:E3S_s.wav
394,192,66803,1,0,0:0:0:82:D#4S_Eb4S_s.wav
10,192,66903,1,0,0:0:0:56:C3S_s.wav
266,192,66903,1,0,0:0:0:26:E3S_s.wav
138,192,67003,1,0,0:0:0:51:F#5S_Gb5S_s.wav
394,192,67003,1,0,0:0:0:93:G6S_s.wav
266,192,67103,1,0,0:0:0:26:E3S_s.wav
10,192,67203,1,0,0:0:0:55:F#5S_Gb5S_s.wav
394,192,67203,1,0,0:0:0:93:F#6S_Gb6S_s.wav
138,192,67303,1,0,0:0:0:26:E3S_s.wav
10,192,67403,1,0,0:0:0:68:F#5S_Gb5S_s.wav
266,192,67403,1,0,0:0:0:93:G6S_s.wav
394,192,67503,1,0,0:0:0:26:E3S_s.wav
138,192,67603,1,0,0:0:0:92:A3S_s.wav
266,192,67603,1,0,0:0:0:77:D#4S_Eb4S_s.wav
10,192,67703,1,0,0:0:0:56:C3S_s.wav
394,192,67703,1,0,0:0:0:26:E3S_s.wav
138,192,67803,1,0,0:0:0:62:D5S_s.wav
266,192,67803,1,0,0:0:0:54:F#5S_Gb5S_s.wav
10,192,67903,1,0,0:0:0:60:E3S_s.wav
138,192,68003,1,0,0:0:0:71:G5S_s.wav
394,192,68003,1,0,0:0:0:93:G6S_s.wav
266,192,68103,1,0,0:0:0:26:E3S_s.wav
10,192,68203,1,0,0:0:0:70:D5S_s.wav
394,192,68203,1,0,0:0:0:68:G5S_s.wav
138,192,68303,1,0,0:0:0:26:E3S_s.wav
10,192,68403,1,0,0:0:0:82:D#4S_Eb4S_s.wav
266,192,68403,1,0,0:0:0:93:F6S_s.wav
138,192,68503,1,0,0:0:0:56:C3S_s.wav
394,192,68503,1,0,0:0:0:26:E3S_s.wav
10,192,68603,1,0,0:0:0:64:D5S_s.wav
266,192,68603,1,0,0:0:0:61:G5S_s.wav
394,192,68703,1,0,0:0:0:48:E3S_s.wav
138,192,68803,1,0,0:0:0:66:G5S_s.wav
266,192,68803,1,0,0:0:0:93:D#6S_Eb6S_s.wav
10,192,68903,1,0,0:0:0:26:E3S_s.wav
138,192,69003,1,0,0:0:0:72:D5S_s.wav
394,192,69003,1,0,0:0:0:71:G5S_s.wav
266,192,69103,1,0,0:0:0:26:E3S_s.wav
10,192,69203,1,0,0:0:0:77:D#4S_Eb4S_s.wav
394,192,69203,1,0,0:0:0:93:D6S_s.wav
138,192,69303,1,0,0:0:0:56:C3S_s.wav
266,192,69303,1,0,0:0:0:26:E3S_s.wav
10,192,69403,1,0,0:0:0:66:D5S_s.wav
394,192,69403,1,0,0:0:0:62:G5S_s.wav
138,192,69503,1,0,0:0:0:27:E3S_s.wav
10,192,69603,1,0,0:0:0:74:G5S_s.wav
266,192,69603,1,0,0:0:0:93:C6S_s.wav
394,192,69703,1,0,0:0:0:26:E3S_s.wav
138,192,69803,1,0,0:0:0:88:F#6S_Gb6S_s.wav
266,192,69803,1,0,0:0:0:88:F#6S_Gb6S_s.wav
10,192,69903,1,0,0:0:0:26:E3S_s.wav
138,192,70003,1,0,0:0:0:92:A3S_s.wav
394,192,70003,1,0,0:0:0:82:D#4S_Eb4S_s.wav
10,192,70103,1,0,0:0:0:56:C3S_s.wav
266,192,70103,1,0,0:0:0:26:E3S_s.wav
138,192,70203,1,0,0:0:0:92:G6S_s.wav
394,192,70203,1,0,0:0:0:92:G6S_s.wav
266,192,70303,1,0,0:0:0:26:E3S_s.wav
10,192,70403,1,0,0:0:0:100:D#7S_Eb7S_s.wav
394,192,70403,1,0,0:0:0:100:D#7S_Eb7S_s.wav
138,192,70503,1,0,0:0:0:26:E3S_s.wav
10,192,70603,1,0,0:0:0:68:D5S_s.wav
266,192,70603,1,0,0:0:0:68:G5S_s.wav
138,192,70703,1,0,0:0:0:100:D7S_s.wav
394,192,70703,1,0,0:0:0:100:D7S_s.wav
10,192,70803,1,0,0:0:0:92:G3S_s.wav
266,192,70803,1,0,0:0:0:77:D#4S_Eb4S_s.wav
138,192,70903,1,0,0:0:0:56:C3S_s.wav
394,192,70903,1,0,0:0:0:26:E3S_s.wav
10,192,71003,1,0,0:0:0:97:B6S_s.wav
266,192,71003,1,0,0:0:0:97:B6S_s.wav
394,192,71103,1,0,0:0:0:51:E3S_s.wav
138,192,71203,1,0,0:0:0:97:C7S.wav
266,192,71203,1,0,0:0:0:100:C7S.wav
10,192,71303,1,0,0:0:0:26:E3S_s.wav
138,192,71403,1,0,0:0:0:51:D#5S_Eb5S_s.wav
394,192,71403,1,0,0:0:0:63:G5S_s.wav
266,192,71503,1,0,0:0:0:26:E3S_s.wav
10,192,71603,1,0,0:0:0:82:D#4S_Eb4S_s.wav
394,192,71603,1,0,0:0:0:77:D5S_s.wav
138,192,71703,1,0,0:0:0:56:C3S_s.wav
266,192,71703,1,0,0:0:0:58:E3S_s.wav
10,192,71803,1,0,0:0:0:65:G5S_s.wav
394,192,71803,1,0,0:0:0:93:C6S_s.wav
138,192,71903,1,0,0:0:0:26:E3S_s.wav
10,192,72003,1,0,0:0:0:62:G#5S_Ab5S_s.wav
266,192,72003,1,0,0:0:0:93:C6S_s.wav
394,192,72103,1,0,0:0:0:26:E3S_s.wav
138,192,72203,1,0,0:0:0:58:G#5S_Ab5S_s.wav
266,192,72203,1,0,0:0:0:93:C6S_s.wav
10,192,72303,1,0,0:0:0:26:E3S_s.wav
138,192,72403,1,0,0:0:0:77:C5S_s.wav
394,192,72403,1,0,0:0:0:71:F5S_s.wav
10,192,72503,1,0,0:0:0:56:C3S_s.wav
266,192,72503,1,0,0:0:0:47:E3S_s.wav
138,192,72603,1,0,0:0:0:66:D#5S_Eb5S_s.wav
394,192,72603,1,0,0:0:0:58:G#5S_Ab5S_s.wav
266,192,72703,1,0,0:0:0:26:E3S_s.wav
10,192,72803,1,0,0:0:0:76:F5S_s.wav
394,192,72803,1,0,0:0:0:93:D6S.wav
138,192,72903,1,0,0:0:0:26:E3S_s.wav
10,192,73003,1,0,0:0:0:68:D5S_s.wav
266,192,73003,1,0,0:0:0:66:F5S_s.wav
394,192,73103,1,0,0:0:0:26:E3S_s.wav
138,192,73203,1,0,0:0:0:77:D5S_s.wav
266,192,73203,1,0,0:0:0:71:F5S_s.wav
10,192,73303,1,0,0:0:0:56:C3S_s.wav
394,192,73303,1,0,0:0:0:26:E3S_s.wav
138,192,73403,1,0,0:0:0:63:F5S_s.wav
266,192,73403,1,0,0:0:0:93:D6S_s.wav
10,192,73503,1,0,0:0:0:26:E3S_s.wav
138,192,73603,1,0,0:0:0:69:G5S_s.wav
394,192,73603,1,0,0:0:0:93:D6S_s.wav
266,192,73703,1,0,0:0:0:26:E3S_s.wav
10,192,73803,1,0,0:0:0:70:G5S_s.wav
394,192,73803,1,0,0:0:0:93:D6S_s.wav
138,192,73903,1,0,0:0:0:26:E3S_s.wav
10,192,74003,1,0,0:0:0:77:D5S_s.wav
266,192,74003,1,0,0:0:0:71:G5S_s.wav
138,192,74103,1,0,0:0:0:56:C3S_s.wav
394,192,74103,1,0,0:0:0:26:E3S_s.wav
10,192,74203,1,0,0:0:0:64:D5S_s.wav
266,192,74203,1,0,0:0:0:62:G5S_s.wav
394,192,74303,1,0,0:0:0:55:E3S_s.wav
138,192,74403,1,0,0:0:0:69:G5S_s.wav
266,192,74403,1,0,0:0:0:71:G5S_s.wav
10,192,74503,1,0,0:0:0:26:E3S_s.wav
138,192,74603,1,0,0:0:0:68:G5S_s.wav
394,192,74603,1,0,0:0:0:93:D#6S_Eb6S_s.wav
266,192,74703,1,0,0:0:0:26:E3S_s.wav
10,192,74803,1,0,0:0:0:77:D#5S_Eb5S_s.wav
394,192,74803,1,0,0:0:0:71:G#5S_Ab5S_s.wav
138,192,74903,1,0,0:0:0:56:C3S_s.wav
266,192,74903,1,0,0:0:0:26:E3S_s.wav
10,192,75003,1,0,0:0:0:59:G5S_s.wav
394,192,75003,1,0,0:0:0:93:D#6S_Eb6S_s.wav
138,192,75103,1,0,0:0:0:29:E3S_s.wav
10,192,75203,1,0,0:0:0:71:A#5S_Bb5S_s.wav
266,192,75203,1,0,0:0:0:93:F6S_s.wav
394,192,75303,1,0,0:0:0:26:E3S_s.wav
138,192,75403,1,0,0:0:0:69:F5S_s.wav
266,192,75403,1,0,0:0:0:93:A#5S_Bb5S_s.wav
10,192,75503,1,0,0:0:0:26:E3S_s.wav
138,192,75603,1,0,0:0:0:77:F5S_s.wav
394,192,75603,1,0,0:0:0:71:A#5S_Bb5S_s.wav
10,192,75703,1,0,0:0:0:56:C3S_s.wav
266,192,75703,1,0,0:0:0:43:E3S_s.wav
138,192,75803,1,0,0:0:0:70:D5S_s.wav
394,192,75803,1,0,0:0:0:69:F5S_s.wav
266,192,75903,1,0,0:0:0:26:E3S_s.wav
10,192,76003,1,0,0:0:0:68:G5S_s.wav
394,192,76003,1,0,0:0:0:93:A#6S_Bb6S_s.wav
138,192,76103,1,0,0:0:0:26:E3S_s.wav
10,192,76203,1,0,0:0:0:66:D#5S_Eb5S_s.wav
266,192,76203,1,0,0:0:0:69:G5S_s.wav
394,192,76303,1,0,0:0:0:26:E3S_s.wav
138,192,76403,1,0,0:0:0:71:A#5S_Bb5S_s.wav
266,192,76403,1,0,0:0:0:92:G#6S_Ab6S_s.wav
10,192,76503,1,0,0:0:0:56:C3S_s.wav
394,192,76503,1,0,0:0:0:26:E3S_s.wav
138,192,76603,1,0,0:0:0:54:D#5S_Eb5S_s.wav
266,192,76603,1,0,0:0:0:59:G5S_s.wav
10,192,76703,1,0,0:0:0:26:E3S_s.wav
138,192,76803,1,0,0:0:0:68:G5S_s.wav
394,192,76803,1,0,0:0:0:92:G6S_s.wav
266,192,76903,1,0,0:0:0:26:E3S_s.wav
10,192,77003,1,0,0:0:0:70:D5S_s.wav
394,192,77003,1,0,0:0:0:71:G5S_s.wav
138,192,77103,1,0,0:0:0:26:E3S_s.wav
10,192,77203,1,0,0:0:0:71:G5S_s.wav
266,192,77203,1,0,0:0:0:92:F6S_s.wav
138,192,77303,1,0,0:0:0:56:C3S_s.wav
394,192,77303,1,0,0:0:0:26:E3S_s.wav
10,192,77403,1,0,0:0:0:62:D5S_s.wav
266,192,77403,1,0,0:0:0:60:G5S_s.wav
394,192,77503,1,0,0:0:0:54:E3S_s.wav
138,192,77603,1,0,0:0:0:55:D#5S_Eb5S_s.wav
266,192,77603,1,0,0:0:0:66:G5S_s.wav
10,192,77703,1,0,0:0:0:26:E3S_s.wav
138,192,77803,1,0,0:0:0:70:G5S_s.wav
394,192,77803,1,0,0:0:0:92:C6S_s.wav
266,192,77903,1,0,0:0:0:26:E3S_s.wav
10,192,78003,1,0,0:0:0:99:A#3S_Bb3S_s.wav
394,192,78003,1,0,0:0:0:82:D#4S_Eb4S_s.wav
138,192,78103,1,0,0:0:0:56:C3S_s.wav
266,192,78103,1,0,0:0:0:26:E3S_s.wav
10,192,78203,1,0,0:0:0:67:G5S_s.wav
394,192,78203,1,0,0:0:0:92:D6S_s.wav
138,192,78303,1,0,0:0:0:31:E3S_s.wav
10,192,78403,1,0,0:0:0:62:G#5S_Ab5S_s.wav
266,192,78403,1,0,0:0:0:92:D#6S_Eb6S_s.wav
394,192,78503,1,0,0:0:0:26:E3S_s.wav
138,192,78603,1,0,0:0:0:66:D#5S_Eb5S_s.wav
266,192,78603,1,0,0:0:0:59:G#5S_Ab5S_s.wav
10,192,78703,1,0,0:0:0:26:E3S_s.wav
394,192,78703,1,0,0:0:0:92:G6S_s.wav
138,192,78803,1,0,0:0:0:93:F3S_s.wav
266,192,78803,1,0,0:0:0:77:D#4S_Eb4S_s.wav
10,192,78903,1,0,0:0:0:56:C3S_s.wav
394,192,78903,1,0,0:0:0:48:E3S_s.wav
138,192,79003,1,0,0:0:0:60:D#5S_Eb5S_s.wav
266,192,79003,1,0,0:0:0:58:G#5S_Ab5S_s.wav
10,192,79103,1,0,0:0:0:26:E3S_s.wav
138,192,79203,1,0,0:0:0:58:F#5S_Gb5S_s.wav
394,192,79203,1,0,0:0:0:92:F#6S_Gb6S.wav
266,192,79303,1,0,0:0:0:26:E3S_s.wav
10,192,79403,1,0,0:0:0:67:D5S_s.wav
394,192,79403,1,0,0:0:0:56:F#5S_Gb5S_s.wav
138,192,79503,1,0,0:0:0:26:E3S_s.wav
10,192,79603,1,0,0:0:0:74:D5S_s.wav
266,192,79603,1,0,0:0:0:77:F#5S_Gb5S_s.wav
138,192,79703,1,0,0:0:0:56:C3S_s.wav
394,192,79703,1,0,0:0:0:26:E3S_s.wav
10,192,79803,1,0,0:0:0:51:F#5S_Gb5S_s.wav
266,192,79803,1,0,0:0:0:92:G6S_s.wav
394,192,79903,1,0,0:0:0:26:E3S_s.wav
138,192,80003,1,0,0:0:0:55:F#5S_Gb5S_s.wav
266,192,80003,1,0,0:0:0:92:F#6S_Gb6S_s.wav
10,192,80103,1,0,0:0:0:26:E3S_s.wav
138,192,80203,1,0,0:0:0:68:F#5S_Gb5S_s.wav
394,192,80203,1,0,0:0:0:92:G6S_s.wav
266,192,80303,1,0,0:0:0:26:E3S_s.wav
10,192,80403,1,0,0:0:0:77:F#5S_Gb5S_s.wav
394,192,80403,1,0,0:0:0:71:A5S_s.wav
138,192,80503,1,0,0:0:0:56:C3S_s.wav
266,192,80503,1,0,0:0:0:26:E3S_s.wav
10,192,80603,1,0,0:0:0:62:D5S_s.wav
394,192,80603,1,0,0:0:0:54:F#5S_Gb5S_s.wav
138,192,80703,1,0,0:0:0:45:E3S_s.wav
10,192,80803,1,0,0:0:0:71:G5S_s.wav
266,192,80803,1,0,0:0:0:92:G6S_s.wav
394,192,80903,1,0,0:0:0:26:E3S_s.wav
138,192,81003,1,0,0:0:0:70:D5S_s.wav
266,192,81003,1,0,0:0:0:68:G5S_s.wav
10,192,81103,1,0,0:0:0:26:E3S_s.wav
138,192,81203,1,0,0:0:0:82:D#4S_Eb4S_s.wav
394,192,81203,1,0,0:0:0:92:F6S_s.wav
10,192,81303,1,0,0:0:0:56:C3S_s.wav
266,192,81303,1,0,0:0:0:26:E3S_s.wav
138,192,81403,1,0,0:0:0:64:D5S_s.wav
394,192,81403,1,0,0:0:0:61:G5S_s.wav
266,192,81503,1,0,0:0:0:26:E3S_s.wav
10,192,81603,1,0,0:0:0:66:G5S_s.wav
394,192,81603,1,0,0:0:0:92:D#6S_Eb6S_s.wav
138,192,81703,1,0,0:0:0:26:E3S_s.wav
10,192,81803,1,0,0:0:0:72:D5S_s.wav
266,192,81803,1,0,0:0:0:71:G5S_s.wav
394,192,81903,1,0,0:0:0:26:E3S_s.wav
138,192,82003,1,0,0:0:0:77:D#4S_Eb4S_s.wav
266,192,82003,1,0,0:0:0:92:D6S_s.wav
10,192,82103,1,0,0:0:0:56:C3S_s.wav
394,192,82103,1,0,0:0:0:26:E3S_s.wav
138,192,82203,1,0,0:0:0:66:D5S_s.wav
266,192,82203,1,0,0:0:0:62:G5S_s.wav
10,192,82303,1,0,0:0:0:26:E3S_s.wav
138,192,82403,1,0,0:0:0:74:G5S_s.wav
394,192,82403,1,0,0:0:0:92:C6S_s.wav
266,192,82503,1,0,0:0:0:26:E3S_s.wav
10,192,82603,1,0,0:0:0:88:F#6S_Gb6S_s.wav
394,192,82603,1,0,0:0:0:88:F#6S_Gb6S_s.wav
138,192,82703,1,0,0:0:0:26:E3S_s.wav
10,192,82803,1,0,0:0:0:92:A3S_s.wav
266,192,82803,1,0,0:0:0:82:D#4S_Eb4S_s.wav
138,192,82903,1,0,0:0:0:56:C3S_s.wav
394,192,82903,1,0,0:0:0:26:E3S_s.wav
10,192,83003,1,0,0:0:0:92:G6S_s.wav
266,192,83003,1,0,0:0:0:92:G6S_s.wav
394,192,83103,1,0,0:0:0:26:E3S_s.wav
138,192,83203,1,0,0:0:0:100:D#7S_Eb7S_s.wav
266,192,83203,1,0,0:0:0:100:D#7S_Eb7S_s.wav
10,192,83303,1,0,0:0:0:26:E3S_s.wav
138,192,83403,1,0,0:0:0:68:D5S_s.wav
394,192,83403,1,0,0:0:0:68:G5S_s.wav
10,192,83503,1,0,0:0:0:100:D7S_s.wav
266,192,83503,1,0,0:0:0:100:D7S_s.wav
138,192,83603,1,0,0:0:0:92:G3S_s.wav
394,192,83603,1,0,0:0:0:77:D#4S_Eb4S_s.wav
10,192,83703,1,0,0:0:0:56:C3S_s.wav
266,192,83703,1,0,0:0:0:31:E3S_s.wav
138,192,83803,1,0,0:0:0:97:B6S_s.wav
394,192,83803,1,0,0:0:0:97:B6S_s.wav
266,192,83903,1,0,0:0:0:47:E3S_s.wav
10,192,84003,1,0,0:0:0:100:C7S.wav
394,192,84003,1,0,0:0:0:80:D#5S_Eb5S_s.wav
138,192,84003,1,0,0:0:0:70:C5S_s.wav
138,192,84203,1,0,0:0:0:85:E3S_s.wav
266,192,84203,1,0,0:0:0:76:F#3S_Gb3S_s.wav
394,192,84303,1,0,0:0:0:100:G5S_s.wav
10,192,84303,1,0,0:0:0:100:D#5S_Eb5S_s.wav
266,192,84303,1,0,0:0:0:100:C5S_s.wav
138,192,84403,1,0,0:0:0:88:C3S_s.wav
394,192,84403,1,0,0:0:0:91:C4S_s.wav
10,192,84603,1,0,0:0:0:61:G5S_s.wav
266,192,84603,1,0,0:0:0:74:D#5S_Eb5S_s.wav
138,192,84603,1,0,0:0:0:67:C5S_s.wav
394,192,84603,1,0,0:0:0:92:D#6S_Eb6S_s.wav
138,192,84803,1,0,0:0:0:97:C4S_s.wav
266,192,84803,1,0,0:0:0:92:D6S_s.wav
10,192,84803,1,0,0:0:0:66:G5S_s.wav
138,192,84803,1,0,0:0:0:70:C5S_s.wav
394,192,84803,1,0,0:0:0:83:D#5S_Eb5S_s.wav
10,192,85003,1,0,0:0:0:76:F#3S_Gb3S_s.wav
266,192,85003,1,0,0:0:0:92:C6S_s.wav
394,192,85078,1,0,0:0:0:96:D#5S_Eb5S_s.wav
138,192,85078,1,0,0:0:0:96:G5S_s.wav
266,192,85078,1,0,0:0:0:96:C5S_s.wav
10,192,85203,1,0,0:0:0:88:C3S_s.wav
394,192,85203,1,0,0:0:0:92:C4S_s.wav
138,192,85303,1,0,0:0:0:85:E3S_s.wav
266,192,85403,1,0,0:0:0:53:G6S_s.wav
10,192,85403,1,0,0:0:0:75:D#5S_Eb5S_s.wav
394,192,85403,1,0,0:0:0:64:G5S_s.wav
138,192,85403,1,0,0:0:0:68:C5S_s.wav
394,192,85428,1,0,0:0:0:65:A#6S_Bb6S_s.wav
266,192,85603,1,0,0:0:0:78:G#5S_Ab5S_s.wav
394,192,85603,1,0,0:0:0:44:G#6S_Ab6S_s.wav
10,192,85603,1,0,0:0:0:80:D#5S_Eb5S_s.wav
138,192,85603,1,0,0:0:0:70:C5S_s.wav
394,192,85628,1,0,0:0:0:55:C7S_s.wav
10,192,85803,1,0,0:0:0:85:E3S_s.wav
266,192,85803,1,0,0:0:0:76:F#3S_Gb3S_s.wav
394,192,85853,1,0,0:0:0:56:G#6S_Ab6S_s.wav
138,192,85853,1,0,0:0:0:68:C7S_s.wav
266,192,85903,1,0,0:0:0:92:G#5S_Ab5S_s.wav
10,192,85903,1,0,0:0:0:92:D#5S_Eb5S_s.wav
394,192,85903,1,0,0:0:0:92:C5S_s.wav
138,192,86003,1,0,0:0:0:88:C3S_s.wav
266,192,86003,1,0,0:0:0:91:G#3S_Ab3S_s.wav
10,192,86203,1,0,0:0:0:61:G#5S_Ab5S_s.wav
394,192,86203,1,0,0:0:0:74:D#5S_Eb5S_s.wav
138,192,86203,1,0,0:0:0:56:G#6S_Ab6S_s.wav
266,192,86203,1,0,0:0:0:68:C7S_s.wav
10,192,86403,1,0,0:0:0:92:A#5S_Bb5S_s.wav
394,192,86403,1,0,0:0:0:46:G6S_s.wav
138,192,86403,1,0,0:0:0:58:A#6S_Bb6S_s.wav
266,192,86403,1,0,0:0:0:74:G#5S_Ab5S_s.wav
138,192,86403,1,0,0:0:0:70:C5S_s.wav
394,192,86403,1,0,0:0:0:83:D#5S_Eb5S_s.wav
138,192,86603,1,0,0:0:0:85:E3S_s.wav
394,192,86603,1,0,0:0:0:76:F#3S_Gb3S_s.wav
10,192,86678,1,0,0:0:0:96:D#5S_Eb5S_s.wav
266,192,86678,1,0,0:0:0:96:G#5S_Ab5S_s.wav
138,192,86678,1,0,0:0:0:96:C5S_s.wav
394,192,86803,1,0,0:0:0:46:F6S_s.wav
138,192,86803,1,0,0:0:0:58:G#6S_Ab6S_s.wav
266,192,86903,1,0,0:0:0:85:E3S_s.wav
10,192,87003,1,0,0:0:0:85:E3S_s.wav
394,192,87003,1,0,0:0:0:75:D#5S_Eb5S_s.wav
138,192,87003,1,0,0:0:0:64:G#5S_Ab5S_s.wav
266,192,87003,1,0,0:0:0:68:C5S_s.wav
138,192,87203,1,0,0:0:0:92:G5S_s.wav
394,192,87203,1,0,0:0:0:48:D#6S_Eb6S.wav
10,192,87203,1,0,0:0:0:59:G6S.wav
266,192,87203,1,0,0:0:0:78:D#5S_Eb5S_s.wav
138,192,87228,1,0,0:0:0:84:G5S_s.wav
394,192,87228,1,0,0:0:0:51:A#4S_Bb4S_s.wav
138,192,87403,1,0,0:0:0:76:F#3S_Gb3S_s.wav
266,192,87403,1,0,0:0:0:92:A#5S_Bb5S_s.wav
10,192,87503,1,0,0:0:0:91:G5S_s.wav
394,192,87503,1,0,0:0:0:78:D#5S_Eb5S_s.wav
138,192,87503,1,0,0:0:0:51:A#4S_Bb4S_s.wav
10,192,87603,1,0,0:0:0:88:C3S_s.wav
266,192,87603,1,0,0:0:0:100:D#3S_Eb3S_s.wav
138,192,87803,1,0,0:0:0:85:E3S_s.wav
394,192,87803,1,0,0:0:0:76:F#3S_Gb3S_s.wav
266,192,87828,1,0,0:0:0:76:A#4S_Bb4S_s.wav
10,192,87828,1,0,0:0:0:76:D#5S_Eb5S_s.wav
394,192,87828,1,0,0:0:0:76:G5S_s.wav
138,192,88003,1,0,0:0:0:88:C3S_s.wav
266,192,88003,1,0,0:0:0:100:D#3S_Eb3S_s.wav
10,192,88028,1,0,0:0:0:75:A#4S_Bb4S_s.wav
394,192,88028,1,0,0:0:0:75:D#5S_Eb5S_s.wav
138,192,88028,1,0,0:0:0:75:G5S_s.wav
266,192,88203,1,0,0:0:0:61:G6S_s.wav
394,192,88203,1,0,0:0:0:73:A#6S_Bb6S_s.wav
10,192,88303,1,0,0:0:0:92:D#5S_Eb5S_s.wav
138,192,88303,1,0,0:0:0:91:G5S_s.wav
266,192,88403,1,0,0:0:0:88:C3S_s.wav
394,192,88403,1,0,0:0:0:100:D#3S_Eb3S_s.wav
10,192,88503,1,0,0:0:0:67:F6S_s.wav
138,192,88503,1,0,0:0:0:79:G#6S_Ab6S_s.wav
138,192,88603,1,0,0:0:0:79:A#4S_Bb4S_s.wav
266,192,88603,1,0,0:0:0:81:D#5S_Eb5S_s.wav
394,192,88603,1,0,0:0:0:73:G5S_s.wav
10,192,88803,1,0,0:0:0:54:D#6S_Eb6S_s.wav
266,192,88803,1,0,0:0:0:66:G6S_s.wav
138,192,88828,1,0,0:0:0:83:B4S_s.wav
394,192,88828,1,0,0:0:0:83:G5S_s.wav
138,192,88836,1,0,0:0:0:83:D5S_s.wav
10,192,89003,1,0,0:0:0:85:E3S_s.wav
266,192,89003,1,0,0:0:0:76:F#3S_Gb3S_s.wav
394,192,89103,1,0,0:0:0:100:G5S_s.wav
138,192,89103,1,0,0:0:0:62:B4S_s.wav
266,192,89103,1,0,0:0:0:74:D5S_s.wav
10,192,89203,1,0,0:0:0:100:G3S_s.wav
394,192,89203,1,0,0:0:0:60:G6S_s.wav
138,192,89303,1,0,0:0:0:60:F#6S_Gb6S_s.wav
266,192,89403,1,0,0:0:0:56:G6S_s.wav
10,192,89403,1,0,0:0:0:66:G5S_s.wav
394,192,89503,1,0,0:0:0:56:G#6S_Ab6S_s.wav
138,192,89603,1,0,0:0:0:51:G6S_s.wav
266,192,89636,1,0,0:0:0:84:D5S_s.wav
10,192,89636,1,0,0:0:0:69:B4S_s.wav
394,192,89636,1,0,0:0:0:77:G5S_s.wav
138,192,89803,1,0,0:0:0:76:F#3S_Gb3S_s.wav
266,192,89803,1,0,0:0:0:44:F6S_s.wav
10,192,89903,1,0,0:0:0:100:G5S_s.wav
394,192,89903,1,0,0:0:0:100:B4S_s.wav
138,192,90003,1,0,0:0:0:76:A5S_s.wav
266,192,90003,1,0,0:0:0:60:D#6S_Eb6S_s.wav
10,192,90103,1,0,0:0:0:85:E3S_s.wav
394,192,90203,1,0,0:0:0:56:D6S_s.wav
138,192,90203,1,0,0:0:0:100:B4S_s.wav
266,192,90378,1,0,0:0:0:68:C6S_s.wav
10,192,90403,1,0,0:0:0:92:C6S.wav
394,192,90403,1,0,0:0:0:80:D#5S_Eb5S_s.wav
138,192,90403,1,0,0:0:0:70:C5S_s.wav
138,192,90603,1,0,0:0:0:85:E3S_s.wav
266,192,90603,1,0,0:0:0:76:F#3S_Gb3S_s.wav
394,192,90603,1,0,0:0:0:68:B5S_s.wav
10,192,90703,1,0,0:0:0:100:G5S_s.wav
394,192,90703,1,0,0:0:0:100:D#5S_Eb5S_s.wav
138,192,90703,1,0,0:0:0:100:C5S_s.wav
138,192,90803,1,0,0:0:0:100:C4S_s.wav
266,192,90803,1,0,0:0:0:68:C6S_s.wav
394,192,91003,1,0,0:0:0:61:G5S_s.wav
10,192,91003,1,0,0:0:0:74:D#5S_Eb5S_s.wav
138,192,91003,1,0,0:0:0:92:D#6S_Eb6S_s.wav
266,192,91003,1,0,0:0:0:68:D#6S_Eb6S_s.wav
10,192,91203,1,0,0:0:0:92:D6S_s.wav
394,192,91203,1,0,0:0:0:68:D6S_s.wav
266,192,91203,1,0,0:0:0:66:G5S_s.wav
138,192,91203,1,0,0:0:0:70:C5S_s.wav
266,192,91203,1,0,0:0:0:83:D#5S_Eb5S_s.wav
10,192,91403,1,0,0:0:0:92:C6S_s.wav
394,192,91403,1,0,0:0:0:68:C6S.wav
138,192,91478,1,0,0:0:0:96:D#5S_Eb5S_s.wav
266,192,91478,1,0,0:0:0:96:G5S_s.wav
10,192,91478,1,0,0:0:0:96:C5S_s.wav
138,192,91603,1,0,0:0:0:88:C3S_s.wav
394,192,91603,1,0,0:0:0:100:C4S_s.wav
266,192,91703,1,0,0:0:0:85:E3S_s.wav
10,192,91803,1,0,0:0:0:85:E3S_s.wav
394,192,91803,1,0,0:0:0:75:D#5S_Eb5S_s.wav
138,192,91803,1,0,0:0:0:64:G5S_s.wav
266,192,91803,1,0,0:0:0:68:C5S_s.wav
10,192,91936,1,0,0:0:0:51:C6S_s.wav
394,192,91969,1,0,0:0:0:70:D#6S_Eb6S_s.wav
138,192,92003,1,0,0:0:0:92:C6S_s.wav
266,192,92003,1,0,0:0:0:80:D#5S_Eb5S_s.wav
10,192,92003,1,0,0:0:0:70:C5S_s.wav
394,192,92136,1,0,0:0:0:53:C6S.wav
138,192,92178,1,0,0:0:0:67:D#6S_Eb6S.wav
266,192,92203,1,0,0:0:0:76:F#3S_Gb3S_s.wav
10,192,92303,1,0,0:0:0:92:G#5S_Ab5S_s.wav
394,192,92303,1,0,0:0:0:92:D#5S_Eb5S_s.wav
138,192,92303,1,0,0:0:0:92:C5S_s.wav
138,192,92403,1,0,0:0:0:88:C3S_s.wav
266,192,92403,1,0,0:0:0:100:G#3S_Ab3S_s.wav
394,192,92603,1,0,0:0:0:61:G#5S_Ab5S_s.wav
10,192,92603,1,0,0:0:0:74:D#5S_Eb5S_s.wav
266,192,92603,1,0,0:0:0:92:C6S_s.wav
138,192,92728,1,0,0:0:0:53:A#5S_Bb5S_s.wav
394,192,92753,1,0,0:0:0:62:D6S_s.wav
10,192,92803,1,0,0:0:0:92:A#5S_Bb5S_s.wav
266,192,92803,1,0,0:0:0:74:G#5S_Ab5S_s.wav
138,192,92803,1,0,0:0:0:70:C5S_s.wav
394,192,92803,1,0,0:0:0:83:D#5S_Eb5S_s.wav
10,192,92978,1,0,0:0:0:62:G#5S_Ab5S_s.wav
394,192,92978,1,0,0:0:0:65:C6S.wav
266,192,93003,1,0,0:0:0:92:G#5S_Ab5S.wav
138,192,93078,1,0,0:0:0:96:D#5S_Eb5S_s.wav
394,192,93078,1,0,0:0:0:96:G#5S_Ab5S_s.wav
10,192,93078,1,0,0:0:0:96:C5S_s.wav
138,192,93203,1,0,0:0:0:88:C3S_s.wav
266,192,93203,1,0,0:0:0:92:G#3S_Ab3S_s.wav
394,192,93303,1,0,0:0:0:85:E3S_s.wav
10,192,93403,1,0,0:0:0:85:E3S_s.wav
266,192,93403,1,0,0:0:0:75:D#5S_Eb5S_s.wav
138,192,93403,1,0,0:0:0:64:G#5S_Ab5S_s.wav
394,192,93403,1,0,0:0:0:68:C5S_s.wav
10,192,93603,1,0,0:0:0:92:G5S_s.wav
266,192,93603,1,0,0:0:0:62:G5S.wav
138,192,93603,1,0,0:0:0:78:D#5S_Eb5S_s.wav
394,192,93628,1,0,0:0:0:84:G5S_s.wav
10,192,93628,1,0,0:0:0:51:A#4S_Bb4S_s.wav
266,192,93803,1,0,0:0:0:85:E3S_s.wav
394,192,93803,1,0,0:0:0:76:F#3S_Gb3S_s.wav
138,192,93903,1,0,0:0:0:91:G5S_s.wav
10,192,93903,1,0,0:0:0:78:D#5S_Eb5S_s.wav
394,192,93903,1,0,0:0:0:51:A#4S_Bb4S_s.wav
138,192,94003,1,0,0:0:0:88:C3S_s.wav
266,192,94003,1,0,0:0:0:100:D#3S_Eb3S_s.wav
394,192,94003,1,0,0:0:0:92:A#5S_Bb5S_s.wav
10,192,94203,1,0,0:0:0:85:E3S_s.wav
266,192,94203,1,0,0:0:0:76:F#3S_Gb3S_s.wav
138,192,94228,1,0,0:0:0:76:A#4S_Bb4S_s.wav
394,192,94228,1,0,0:0:0:76:D#5S_Eb5S_s.wav
138,192,94228,1,0,0:0:0:76:G5S_s.wav
10,192,94403,1,0,0:0:0:99:D#3S_Eb3S_s.wav
266,192,94403,1,0,0:0:0:53:G5S_s.wav
394,192,94428,1,0,0:0:0:75:A#4S_Bb4S_s.wav
138,192,94428,1,0,0:0:0:75:D#5S_Eb5S_s.wav
394,192,94428,1,0,0:0:0:75:G5S_s.wav
10,192,94603,1,0,0:0:0:53:B5S_s.wav
394,192,94603,1,0,0:0:0:53:D6S_s.wav
138,192,94703,1,0,0:0:0:92:D#5S_Eb5S_s.wav
266,192,94703,1,0,0:0:0:91:G5S_s.wav
10,192,94803,1,0,0:0:0:88:C3S_s.wav
394,192,94803,1,0,0:0:0:100:D#3S_Eb3S_s.wav
138,192,94903,1,0,0:0:0:85:E3S_s.wav
266,192,94903,1,0,0:0:0:92:G#5S_Ab5S_s.wav
10,192,95003,1,0,0:0:0:73:G5S_s.wav
266,192,95003,1,0,0:0:0:53:G#5S_Ab5S_s.wav
394,192,95003,1,0,0:0:0:53:C6S_s.wav
138,192,95203,1,0,0:0:0:65:G5S.wav
394,192,95203,1,0,0:0:0:65:B5S.wav
10,192,95228,1,0,0:0:0:83:B4S_s.wav
266,192,95228,1,0,0:0:0:83:G5S_s.wav
138,192,95236,1,0,0:0:0:83:D5S_s.wav
138,192,95403,1,0,0:0:0:85:E3S_s.wav
394,192,95403,1,0,0:0:0:76:F#3S_Gb3S_s.wav
266,192,95503,1,0,0:0:0:100:G5S_s.wav
10,192,95503,1,0,0:0:0:62:B4S_s.wav
394,192,95503,1,0,0:0:0:74:D5S_s.wav
138,192,95603,1,0,0:0:0:88:C3S_s.wav
394,192,95603,1,0,0:0:0:100:G3S_s.wav
10,192,95803,1,0,0:0:0:62:B4S_s.wav
266,192,95803,1,0,0:0:0:73:D5S_s.wav
394,192,95803,1,0,0:0:0:66:G5S_s.wav
138,192,96003,1,0,0:0:0:100:G3S_s.wav
266,192,96003,1,0,0:0:0:66:G5S_s.wav
10,192,96036,1,0,0:0:0:84:D5S_s.wav
394,192,96036,1,0,0:0:0:69:B4S_s.wav
138,192,96036,1,0,0:0:0:77:G5S_s.wav
266,192,96103,1,0,0:0:0:66:G#5S_Ab5S_s.wav
10,192,96203,1,0,0:0:0:76:F#3S_Gb3S_s.wav
394,192,96203,1,0,0:0:0:80:G5S_s.wav
138,192,96303,1,0,0:0:0:100:G5S_s.wav
266,192,96303,1,0,0:0:0:100:B4S_s.wav
10,192,96403,1,0,0:0:0:100:G3S_s.wav
394,192,96403,1,0,0:0:0:69:G5S_s.wav
138,192,96503,1,0,0:0:0:85:E3S_s.wav
266,192,96503,1,0,0:0:0:72:G5S_s.wav
10,192,96603,1,0,0:0:0:71:A5S_s.wav
394,192,96603,1,0,0:0:0:100:B4S_s.wav
138,192,96703,1,0,0:0:0:69:B5S_s.wav
266,192,96803,1,0,0:0:0:69:C6S_s.wav
10,192,96803,1,0,0:0:0:80:D#5S_Eb5S_s.wav
394,192,96803,1,0,0:0:0:70:C5S_s.wav
138,192,96903,1,0,0:0:0:69:B5S_s.wav
10,192,97003,1,0,0:0:0:76:F#3S_Gb3S_s.wav
266,192,97003,1,0,0:0:0:69:C6S_s.wav
394,192,97103,1,0,0:0:0:100:G5S_s.wav
138,192,97103,1,0,0:0:0:100:D#5S_Eb5S_s.wav
266,192,97103,1,0,0:0:0:100:C5S_s.wav
10,192,97203,1,0,0:0:0:88:C3S_s.wav
394,192,97203,1,0,0:0:0:98:C4S_s.wav
138,192,97403,1,0,0:0:0:61:G5S_s.wav
266,192,97403,1,0,0:0:0:74:D#5S_Eb5S_s.wav
10,192,97403,1,0,0:0:0:92:D#6S_Eb6S_s.wav
394,192,97403,1,0,0:0:0:53:D#6S_Eb6S_s.wav
138,192,97603,1,0,0:0:0:96:C4S_s.wav
266,192,97603,1,0,0:0:0:92:D6S_s.wav
10,192,97603,1,0,0:0:0:66:G5S_s.wav
394,192,97603,1,0,0:0:0:83:D#5S_Eb5S_s.wav
138,192,97703,1,0,0:0:0:53:B5S_s.wav
394,192,97703,1,0,0:0:0:53:D6S_s.wav
10,192,97803,1,0,0:0:0:76:F#3S_Gb3S_s.wav
266,192,97803,1,0,0:0:0:92:C6S_s.wav
394,192,97878,1,0,0:0:0:96:D#5S_Eb5S_s.wav
138,192,97878,1,0,0:0:0:96:G5S_s.wav
266,192,97878,1,0,0:0:0:96:C5S_s.wav
10,192,97903,1,0,0:0:0:53:C6S_s.wav
138,192,98003,1,0,0:0:0:88:C3S_s.wav
394,192,98003,1,0,0:0:0:99:C4S_s.wav
266,192,98103,1,0,0:0:0:85:E3S_s.wav
10,192,98203,1,0,0:0:0:53:G6S_s.wav
394,192,98203,1,0,0:0:0:75:D#5S_Eb5S_s.wav
138,192,98203,1,0,0:0:0:64:G5S_s.wav
266,192,98203,1,0,0:0:0:68:C5S_s.wav
10,192,98228,1,0,0:0:0:65:A#6S_Bb6S_s.wav
138,192,98403,1,0,0:0:0:92:C6S.wav
394,192,98403,1,0,0:0:0:44:G#6S_Ab6S_s.wav
266,192,98403,1,0,0:0:0:80:D#5S_Eb5S_s.wav
10,192,98403,1,0,0:0:0:70:C5S_s.wav
266,192,98428,1,0,0:0:0:55:C7S_s.wav
138,192,98603,1,0,0:0:0:85:E3S_s.wav
394,192,98603,1,0,0:0:0:76:F#3S_Gb3S_s.wav
10,192,98653,1,0,0:0:0:56:G#6S_Ab6S.wav
266,192,98653,1,0,0:0:0:68:C7S.wav
138,192,98703,1,0,0:0:0:92:G#5S_Ab5S_s.wav
394,192,98703,1,0,0:0:0:92:D#5S_Eb5S_s.wav
10,192,98703,1,0,0:0:0:92:C5S_s.wav
138,192,98803,1,0,0:0:0:97:G#3S_Ab3S_s.wav
266,192,98803,1,0,0:0:0:92:C6S_s.wav
394,192,99003,1,0,0:0:0:61:G#5S_Ab5S_s.wav
10,192,99003,1,0,0:0:0:74:D#5S_Eb5S_s.wav
138,192,99003,1,0,0:0:0:76:F#3S_Gb3S_s.wav
266,192,99003,1,0,0:0:0:74:C5S_s.wav
10,192,99203,1,0,0:0:0:97:G#3S_Ab3S_s.wav
394,192,99203,1,0,0:0:0:92:A#5S_Bb5S_s.wav
266,192,99203,1,0,0:0:0:74:G#5S_Ab5S_s.wav
138,192,99203,1,0,0:0:0:83:D#5S_Eb5S_s.wav
266,192,99303,1,0,0:0:0:44:G6S_s.wav
10,192,99328,1,0,0:0:0:55:A#6S_Bb6S_s.wav
138,192,99403,1,0,0:0:0:85:E3S_s.wav
394,192,99403,1,0,0:0:0:76:F#3S_Gb3S_s.wav
266,192,99469,1,0,0:0:0:46:F6S.wav
10,192,99469,1,0,0:0:0:58:G#6S_Ab6S.wav
394,192,99478,1,0,0:0:0:96:D#5S_Eb5S_s.wav
138,192,99478,1,0,0:0:0:96:G#5S_Ab5S_s.wav
394,192,99478,1,0,0:0:0:96:C5S_s.wav
138,192,99603,1,0,0:0:0:91:G#3S_Ab3S_s.wav
266,192,99603,1,0,0:0:0:92:G#5S_Ab5S_s.wav
394,192,99703,1,0,0:0:0:85:E3S_s.wav
10,192,99803,1,0,0:0:0:85:E3S_s.wav
266,192,99803,1,0,0:0:0:75:D#5S_Eb5S_s.wav
138,192,99803,1,0,0:0:0:64:G#5S_Ab5S_s.wav
394,192,99803,1,0,0:0:0:68:C5S_s.wav
138,192,100003,1,0,0:0:0:48:D#6S_Eb6S.wav
266,192,100003,1,0,0:0:0:59:G6S.wav
10,192,100003,1,0,0:0:0:78:D#5S_Eb5S_s.wav
394,192,100028,1,0,0:0:0:84:G5S_s.wav
138,192,100028,1,0,0:0:0:51:A#4S_Bb4S_s.wav
266,192,100203,1,0,0:0:0:76:F#3S_Gb3S_s.wav
394,192,100203,1,0,0:0:0:92:A#5S_Bb5S_s.wav
138,192,100303,1,0,0:0:0:91:G5S_s.wav
10,192,100303,1,0,0:0:0:78:D#5S_Eb5S_s.wav
266,192,100303,1,0,0:0:0:51:A#4S_Bb4S_s.wav
138,192,100403,1,0,0:0:0:88:C3S_s.wav
394,192,100403,1,0,0:0:0:100:D#3S_Eb3S_s.wav
10,192,100603,1,0,0:0:0:85:E3S_s.wav
266,192,100603,1,0,0:0:0:76:F#3S_Gb3S_s.wav
394,192,100628,1,0,0:0:0:76:A#4S_Bb4S_s.wav
138,192,100628,1,0,0:0:0:76:D#5S_Eb5S_s.wav
266,192,100628,1,0,0:0:0:76:G5S_s.wav
10,192,100803,1,0,0:0:0:88:C3S_s.wav
394,192,100803,1,0,0:0:0:96:D#3S_Eb3S_s.wav
138,192,100828,1,0,0:0:0:75:A#4S_Bb4S_s.wav
266,192,100828,1,0,0:0:0:75:D#5S_Eb5S_s.wav
138,192,100828,1,0,0:0:0:75:G5S_s.wav
138,192,101003,1,0,0:0:0:61:G6S_s.wav
394,192,101003,1,0,0:0:0:73:A#6S_Bb6S_s.wav
10,192,101103,1,0,0:0:0:92:D#5S_Eb5S_s.wav
266,192,101103,1,0,0:0:0:91:G5S_s.wav
138,192,101203,1,0,0:0:0:88:C3S_s.wav
394,192,101203,1,0,0:0:0:100:D#3S_Eb3S_s.wav
10,192,101303,1,0,0:0:0:67:F6S_s.wav
266,192,101303,1,0,0:0:0:79:G#6S_Ab6S_s.wav
138,192,101403,1,0,0:0:0:79:A#4S_Bb4S_s.wav
266,192,101403,1,0,0:0:0:81:D#5S_Eb5S_s.wav
394,192,101403,1,0,0:0:0:73:G5S_s.wav
10,192,101603,1,0,0:0:0:92:G5S_s.wav
394,192,101603,1,0,0:0:0:60:G6S_s.wav
138,192,101628,1,0,0:0:0:83:B4S_s.wav
266,192,101628,1,0,0:0:0:83:G5S_s.wav
10,192,101636,1,0,0:0:0:83:D5S_s.wav
394,192,101703,1,0,0:0:0:60:F#6S_Gb6S_s.wav
138,192,101803,1,0,0:0:0:76:F#3S_Gb3S_s.wav
266,192,101803,1,0,0:0:0:56:G6S_s.wav
10,192,101903,1,0,0:0:0:56:G#6S_Ab6S_s.wav
394,192,101903,1,0,0:0:0:62:B4S_s.wav
138,192,101903,1,0,0:0:0:74:D5S_s.wav
138,192,102003,1,0,0:0:0:100:G3S_s.wav
266,192,102003,1,0,0:0:0:60:G6S_s.wav
394,192,102103,1,0,0:0:0:60:F#6S_Gb6S_s.wav
10,192,102203,1,0,0:0:0:56:G6S_s.wav
266,192,102203,1,0,0:0:0:66:G5S_s.wav
138,192,102303,1,0,0:0:0:56:G#6S_Ab6S_s.wav
394,192,102403,1,0,0:0:0:51:G6S_s.wav
10,192,102436,1,0,0:0:0:84:D5S_s.wav
266,192,102436,1,0,0:0:0:69:B4S_s.wav
138,192,102436,1,0,0:0:0:77:G5S_s.wav
10,192,102603,1,0,0:0:0:76:F#3S_Gb3S_s.wav
394,192,102603,1,0,0:0:0:44:F6S_s.wav
266,192,102703,1,0,0:0:0:100:G5S_s.wav
138,192,102703,1,0,0:0:0:100:B4S_s.wav
10,192,102803,1,0,0:0:0:76:A5S_s.wav
394,192,102803,1,0,0:0:0:60:D#6S_Eb6S_s.wav
266,192,102903,1,0,0:0:0:85:E3S_s.wav
138,192,103003,1,0,0:0:0:56:D6S_s.wav
394,192,103003,1,0,0:0:0:100:B4S_s.wav
10,192,103203,1,0,0:0:0:92:C6S_s.wav
266,192,103203,1,0,0:0:0:68:C6S.wav
138,192,103203,1,0,0:0:0:80:D#5S_Eb5S_s.wav
394,192,103203,1,0,0:0:0:70:C5S_s.wav
10,192,103403,1,0,0:0:0:76:F#3S_Gb3S_s.wav
138,192,103403,1,0,0:0:0:92:D#6S_Eb6S_s.wav
394,192,103403,1,0,0:0:0:68:D#6S_Eb6S.wav
266,192,103503,1,0,0:0:0:100:G5S_s.wav
138,192,103503,1,0,0:0:0:100:D#5S_Eb5S_s.wav
394,192,103503,1,0,0:0:0:100:C5S_s.wav
10,192,103603,1,0,0:0:0:88:C3S_s.wav
394,192,103603,1,0,0:0:0:100:C4S_s.wav
266,192,103803,1,0,0:0:0:61:G5S_s.wav
138,192,103803,1,0,0:0:0:74:D#5S_Eb5S_s.wav
10,192,103803,1,0,0:0:0:76:F#3S_Gb3S_s.wav
394,192,103803,1,0,0:0:0:67:C5S_s.wav
266,192,104003,1,0,0:0:0:92:D6S_s.wav
394,192,104003,1,0,0:0:0:68:D6S_s.wav
138,192,104003,1,0,0:0:0:66:G5S_s.wav
10,192,104003,1,0,0:0:0:70:C5S_s.wav
394,192,104003,1,0,0:0:0:83:D#5S_Eb5S_s.wav
138,192,104203,1,0,0:0:0:92:C6S_s.wav
266,192,104203,1,0,0:0:0:68:C6S.wav
394,192,104278,1,0,0:0:0:96:D#5S_Eb5S_s.wav
10,192,104278,1,0,0:0:0:96:G5S_s.wav
266,192,104278,1,0,0:0:0:96:C5S_s.wav
138,192,104403,1,0,0:0:0:88:C3S_s.wav
394,192,104403,1,0,0:0:0:100:C4S_s.wav
10,192,104503,1,0,0:0:0:85:E3S_s.wav
266,192,104603,1,0,0:0:0:53:G6S_s.wav
138,192,104603,1,0,0:0:0:75:D#5S_Eb5S_s.wav
394,192,104603,1,0,0:0:0:64:G5S_s.wav
10,192,104603,1,0,0:0:0:68:C5S_s.wav
394,192,104628,1,0,0:0:0:65:A#6S_Bb6S_s.wav
266,192,104803,1,0,0:0:0:92:C6S_s.wav
394,192,104803,1,0,0:0:0:44:G#6S_Ab6S_s.wav
138,192,104803,1,0,0:0:0:80:D#5S_Eb5S_s.wav
10,192,104803,1,0,0:0:0:70:C5S_s.wav
394,192,104828,1,0,0:0:0:55:C7S_s.wav
138,192,105003,1,0,0:0:0:85:E3S_s.wav
266,192,105003,1,0,0:0:0:76:F#3S_Gb3S_s.wav
394,192,105053,1,0,0:0:0:56:G#6S_Ab6S.wav
10,192,105053,1,0,0:0:0:68:C7S.wav
266,192,105103,1,0,0:0:0:92:C6S_s.wav
138,192,105103,1,0,0:0:0:92:G#5S_Ab5S_s.wav
394,192,105103,1,0,0:0:0:92:D#5S_Eb5S_s.wav
10,192,105103,1,0,0:0:0:92:C5S_s.wav
266,192,105203,1,0,0:0:0:88:C3S_s.wav
394,192,105203,1,0,0:0:0:100:G#3S_Ab3S_s.wav
138,192,105403,1,0,0:0:0:61:G#5S_Ab5S_s.wav
10,192,105403,1,0,0:0:0:74:D#5S_Eb5S_s.wav
266,192,105403,1,0,0:0:0:76:F#3S_Gb3S_s.wav
394,192,105403,1,0,0:0:0:74:C5S_s.wav
138,192,105603,1,0,0:0:0:53:G6S_s.wav
266,192,105603,1,0,0:0:0:53:A#6S_Bb6S_s.wav
10,192,105603,1,0,0:0:0:74:G#5S_Ab5S_s.wav
138,192,105603,1,0,0:0:0:70:C5S_s.wav
394,192,105603,1,0,0:0:0:83:D#5S_Eb5S_s.wav
10,192,105803,1,0,0:0:0:76:F#3S_Gb3S_s.wav
266,192,105803,1,0,0:0:0:92:G#5S_Ab5S_s.wav
394,192,105878,1,0,0:0:0:96:D#5S_Eb5S_s.wav
138,192,105878,1,0,0:0:0:96:G#5S_Ab5S_s.wav
266,192,105878,1,0,0:0:0:96:C5S_s.wav
10,192,106003,1,0,0:0:0:65:F6S_s.wav
394,192,106003,1,0,0:0:0:62:G#6S_Ab6S_s.wav
138,192,106103,1,0,0:0:0:85:E3S_s.wav
266,192,106203,1,0,0:0:0:85:E3S_s.wav
10,192,106203,1,0,0:0:0:75:D#5S_Eb5S_s.wav
394,192,106203,1,0,0:0:0:64:G#5S_Ab5S_s.wav
138,192,106203,1,0,0:0:0:68:C5S_s.wav
138,192,106403,1,0,0:0:0:100:D#3S_Eb3S_s.wav
266,192,106403,1,0,0:0:0:92:G5S_s.wav
394,192,106403,1,0,0:0:0:78:D#5S_Eb5S_s.wav
10,192,106428,1,0,0:0:0:84:G5S_s.wav
394,192,106428,1,0,0:0:0:62:G6S.wav
138,192,106428,1,0,0:0:0:51:A#4S_Bb4S_s.wav
266,192,106603,1,0,0:0:0:85:E3S_s.wav
394,192,106603,1,0,0:0:0:76:F#3S_Gb3S_s.wav
138,192,106703,1,0,0:0:0:92:A#5S_Bb5S_s.wav
10,192,106703,1,0,0:0:0:78:D#5S_Eb5S_s.wav
266,192,106703,1,0,0:0:0:51:A#4S_Bb4S_s.wav
138,192,106803,1,0,0:0:0:88:C3S_s.wav
394,192,106803,1,0,0:0:0:100:D#3S_Eb3S_s.wav
10,192,107003,1,0,0:0:0:85:E3S_s.wav
266,192,107003,1,0,0:0:0:76:F#3S_Gb3S_s.wav
394,192,107028,1,0,0:0:0:76:A#4S_Bb4S_s.wav
138,192,107028,1,0,0:0:0:76:D#5S_Eb5S_s.wav
394,192,107028,1,0,0:0:0:76:G5S_s.wav
138,192,107203,1,0,0:0:0:88:C3S_s.wav
266,192,107203,1,0,0:0:0:100:D#3S_Eb3S_s.wav
10,192,107228,1,0,0:0:0:53:G6S_s.wav
394,192,107228,1,0,0:0:0:75:A#4S_Bb4S_s.wav
138,192,107228,1,0,0:0:0:75:D#5S_Eb5S_s.wav
266,192,107228,1,0,0:0:0:75:G5S_s.wav
138,192,107403,1,0,0:0:0:76:F#3S_Gb3S_s.wav
266,192,107403,1,0,0:0:0:92:A#5S_Bb5S_s.wav
10,192,107428,1,0,0:0:0:53:D7S_s.wav
138,192,107503,1,0,0:0:0:92:D#5S_Eb5S_s.wav
394,192,107503,1,0,0:0:0:91:G5S_s.wav
10,192,107603,1,0,0:0:0:88:C3S_s.wav
266,192,107603,1,0,0:0:0:100:D#3S_Eb3S_s.wav
138,192,107703,1,0,0:0:0:85:E3S_s.wav
394,192,107703,1,0,0:0:0:92:G#5S_Ab5S_s.wav
266,192,107803,1,0,0:0:0:73:G5S_s.wav
10,192,107828,1,0,0:0:0:53:G#6S_Ab6S_s.wav
394,192,107828,1,0,0:0:0:53:C7S_s.wav
138,192,108003,1,0,0:0:0:92:G5S_s.wav
266,192,108003,1,0,0:0:0:66:G6S_s.wav
10,192,108028,1,0,0:0:0:83:B4S_s.wav
394,192,108028,1,0,0:0:0:83:G5S_s.wav
138,192,108036,1,0,0:0:0:83:D5S_s.wav
266,192,108103,1,0,0:0:0:66:G#6S_Ab6S_s.wav
10,192,108203,1,0,0:0:0:76:F#3S_Gb3S_s.wav
394,192,108203,1,0,0:0:0:80:G6S_s.wav
138,192,108269,1,0,0:0:0:93:D#6S_Eb6S.wav
266,192,108278,1,0,0:0:0:93:B5S.wav
10,192,108278,1,0,0:0:0:93:G5S.wav
394,192,108303,1,0,0:0:0:70:F#6S_Gb6S_s.wav
138,192,108303,1,0,0:0:0:62:B4S_s.wav
266,192,108303,1,0,0:0:0:74:D5S_s.wav
10,192,108403,1,0,0:0:0:99:G3S_s.wav
394,192,108428,1,0,0:0:0:66:G6S_s.wav
138,192,108528,1,0,0:0:0:66:G#6S_Ab6S_s.wav
266,192,108603,1,0,0:0:0:73:D5S_s.wav
10,192,108603,1,0,0:0:0:66:G5S_s.wav
394,192,108628,1,0,0:0:0:80:G6S_s.wav
138,192,108728,1,0,0:0:0:70:F#6S_Gb6S_s.wav
394,192,108803,1,0,0:0:0:100:G3S_s.wav
266,192,108828,1,0,0:0:0:69:G6S_s.wav
10,192,108836,1,0,0:0:0:84:D5S_s.wav
138,192,108836,1,0,0:0:0:69:B4S_s.wav
394,192,108836,1,0,0:0:0:77:G5S_s.wav
266,192,108978,1,0,0:0:0:66:D#6S_Eb6S_s.wav
394,192,108978,1,0,0:0:0:66:D#6S_Eb6S_s.wav
10,192,109003,1,0,0:0:0:76:F#3S_Gb3S_s.wav
138,192,109003,1,0,0:0:0:66:C6S_s.wav
394,192,109028,1,0,0:0:0:66:F6S_s.wav
266,192,109053,1,0,0:0:0:66:D6S_s.wav
10,192,109103,1,0,0:0:0:64:G6S_s.wav
394,192,109103,1,0,0:0:0:100:G5S_s.wav
138,192,109103,1,0,0:0:0:100:B4S_s.wav
266,192,109128,1,0,0:0:0:64:E6S_s.wav
10,192,109169,1,0,0:0:0:70:G#6S_Ab6S_s.wav
394,192,109203,1,0,0:0:0:70:F6S_s.wav
138,192,109203,1,0,0:0:0:100:G3S_s.wav
266,192,109236,1,0,0:0:0:76:A#6S_Bb6S_s.wav
10,192,109269,1,0,0:0:0:76:G6S_s.wav
394,192,109303,1,0,0:0:0:85:E3S_s.wav
138,192,109303,1,0,0:0:0:74:C7S_s.wav
266,192,109336,1,0,0:0:0:74:A6S_s.wav
10,192,109378,1,0,0:0:0:71:D7S_s.wav
394,192,109403,1,0,0:0:0:100:G5S_s.wav
138,192,109403,1,0,0:0:0:100:B4S_s.wav
138,192,109403,1,0,0:0:0:71:B6S_s.wav
266,192,109403,1,0,0:0:0:71:B6S_s.wav
10,192,109578,1,0,0:0:0:85:D#7S_Eb7S.wav
394,192,109578,1,0,0:0:0:85:D#7S_Eb7S.wav
266,192,109578,1,0,0:0:0:85:C7S.wav
138,192,109603,1,0,0:0:0:92:C6S.wav
266,192,109703,1,0,0:0:0:26:E3S_s.wav
10,192,109803,1,0,0:0:0:51:D#5S_Eb5S_s.wav
394,192,109803,1,0,0:0:0:63:G5S_s.wav
138,192,109903,1,0,0:0:0:26:E3S_s.wav
10,192,110003,1,0,0:0:0:82:D#4S_Eb4S_s.wav
266,192,110003,1,0,0:0:0:77:D5S_s.wav
138,192,110103,1,0,0:0:0:56:C3S_s.wav
394,192,110103,1,0,0:0:0:29:E3S_s.wav
10,192,110203,1,0,0:0:0:65:G5S_s.wav
266,192,110203,1,0,0:0:0:92:C6S_s.wav
394,192,110303,1,0,0:0:0:60:E3S_s.wav
138,192,110403,1,0,0:0:0:62:G#5S_Ab5S_s.wav
266,192,110403,1,0,0:0:0:92:C6S_s.wav
10,192,110503,1,0,0:0:0:26:E3S_s.wav
138,192,110603,1,0,0:0:0:58:G#5S_Ab5S_s.wav
394,192,110603,1,0,0:0:0:92:C6S_s.wav
266,192,110703,1,0,0:0:0:26:E3S_s.wav
10,192,110803,1,0,0:0:0:77:C5S_s.wav
394,192,110803,1,0,0:0:0:71:F5S_s.wav
138,192,110903,1,0,0:0:0:56:C3S_s.wav
266,192,110903,1,0,0:0:0:26:E3S_s.wav
10,192,111003,1,0,0:0:0:66:D#5S_Eb5S_s.wav
394,192,111003,1,0,0:0:0:58:G#5S_Ab5S_s.wav
138,192,111103,1,0,0:0:0:56:E3S_s.wav
10,192,111203,1,0,0:0:0:76:F5S_s.wav
266,192,111203,1,0,0:0:0:92:D6S.wav
394,192,111303,1,0,0:0:0:75:E3S_s.wav
138,192,111403,1,0,0:0:0:68:D5S_s.wav
266,192,111403,1,0,0:0:0:66:F5S_s.wav
10,192,111503,1,0,0:0:0:30:E3S_s.wav
138,192,111603,1,0,0:0:0:28:E3S_s.wav
394,192,111603,1,0,0:0:0:82:D#4S_Eb4S_s.wav
10,192,111703,1,0,0:0:0:56:C3S_s.wav
266,192,111703,1,0,0:0:0:26:E3S_s.wav
138,192,111803,1,0,0:0:0:63:F5S_s.wav
394,192,111803,1,0,0:0:0:92:D6S_s.wav
266,192,111903,1,0,0:0:0:25:E3S_s.wav
10,192,112003,1,0,0:0:0:69:G5S_s.wav
394,192,112003,1,0,0:0:0:92:D6S_s.wav
138,192,112103,1,0,0:0:0:26:E3S_s.wav
266,192,112203,1,0,0:0:0:92:D6S_s.wav
10,192,112203,1,0,0:0:0:74:B4S_s.wav
394,192,112203,1,0,0:0:0:77:D5S_s.wav
138,192,112303,1,0,0:0:0:26:E3S_s.wav
266,192,112403,1,0,0:0:0:100:B3S_s.wav
394,192,112403,1,0,0:0:0:77:D#4S_Eb4S_s.wav
10,192,112503,1,0,0:0:0:56:C3S_s.wav
138,192,112503,1,0,0:0:0:26:E3S_s.wav
266,192,112603,1,0,0:0:0:64:D5S_s.wav
394,192,112603,1,0,0:0:0:62:G5S_s.wav
138,192,112703,1,0,0:0:0:26:E3S_s.wav
10,192,112803,1,0,0:0:0:69:G5S_s.wav
394,192,112803,1,0,0:0:0:92:D#6S_Eb6S.wav
266,192,112903,1,0,0:0:0:26:E3S_s.wav
138,192,113003,1,0,0:0:0:66:D#5S_Eb5S_s.wav
394,192,113003,1,0,0:0:0:68:G5S_s.wav
10,192,113103,1,0,0:0:0:26:E3S_s.wav
138,192,113203,1,0,0:0:0:100:G#3S_Ab3S_s.wav
266,192,113203,1,0,0:0:0:82:D#4S_Eb4S_s.wav
10,192,113303,1,0,0:0:0:56:C3S_s.wav
394,192,113303,1,0,0:0:0:26:E3S_s.wav
138,192,113403,1,0,0:0:0:59:G5S_s.wav
266,192,113403,1,0,0:0:0:92:D#6S_Eb6S_s.wav
394,192,113503,1,0,0:0:0:26:E3S_s.wav
10,192,113603,1,0,0:0:0:59:F5S_s.wav
266,192,113603,1,0,0:0:0:92:F6S_s.wav
138,192,113703,1,0,0:0:0:26:E3S_s.wav
10,192,113803,1,0,0:0:0:69:F5S_s.wav
394,192,113803,1,0,0:0:0:92:A#5S_Bb5S_s.wav
138,192,113903,1,0,0:0:0:77:D5S_s.wav
266,192,113903,1,0,0:0:0:71:F5S_s.wav
10,192,114003,1,0,0:0:0:100:A#3S_Bb3S_s.wav
394,192,114003,1,0,0:0:0:77:D#4S_Eb4S_s.wav
138,192,114103,1,0,0:0:0:56:C3S_s.wav
266,192,114103,1,0,0:0:0:26:E3S_s.wav
10,192,114203,1,0,0:0:0:70:D5S_s.wav
394,192,114203,1,0,0:0:0:69:F5S_s.wav
266,192,114303,1,0,0:0:0:26:E3S_s.wav
138,192,114403,1,0,0:0:0:68:G5S_s.wav
394,192,114403,1,0,0:0:0:92:A#6S_Bb6S_s.wav
10,192,114503,1,0,0:0:0:26:E3S_s.wav
138,192,114603,1,0,0:0:0:69:G5S_s.wav
266,192,114603,1,0,0:0:0:71:G5S_s.wav
394,192,114703,1,0,0:0:0:26:E3S_s.wav
10,192,114803,1,0,0:0:0:82:D#4S_Eb4S_s.wav
266,192,114803,1,0,0:0:0:92:G#6S_Ab6S_s.wav
138,192,114903,1,0,0:0:0:56:C3S_s.wav
394,192,114903,1,0,0:0:0:26:E3S_s.wav
10,192,115003,1,0,0:0:0:54:D#5S_Eb5S_s.wav
266,192,115003,1,0,0:0:0:59:G5S_s.wav
138,192,115103,1,0,0:0:0:26:E3S_s.wav
10,192,115203,1,0,0:0:0:68:G5S_s.wav
394,192,115203,1,0,0:0:0:92:G6S_s.wav
266,192,115303,1,0,0:0:0:26:E3S_s.wav
138,192,115403,1,0,0:0:0:71:G5S_s.wav
394,192,115403,1,0,0:0:0:74:B4S_s.wav
10,192,115503,1,0,0:0:0:26:E3S_s.wav
138,192,115603,1,0,0:0:0:77:D#4S_Eb4S_s.wav
266,192,115603,1,0,0:0:0:92:F6S_s.wav
10,192,115703,1,0,0:0:0:56:C3S_s.wav
394,192,115703,1,0,0:0:0:29:E3S_s.wav
138,192,115803,1,0,0:0:0:62:D5S_s.wav
266,192,115803,1,0,0:0:0:60:G5S_s.wav
394,192,115903,1,0,0:0:0:26:E3S_s.wav
10,192,116003,1,0,0:0:0:55:D#5S_Eb5S_s.wav
266,192,116003,1,0,0:0:0:66:G5S_s.wav
138,192,116103,1,0,0:0:0:26:E3S_s.wav
10,192,116203,1,0,0:0:0:70:G5S_s.wav
394,192,116203,1,0,0:0:0:92:C6S_s.wav
266,192,116303,1,0,0:0:0:26:E3S_s.wav
138,192,116403,1,0,0:0:0:99:A#3S_Bb3S_s.wav
394,192,116403,1,0,0:0:0:82:D#4S_Eb4S_s.wav
10,192,116503,1,0,0:0:0:56:C3S_s.wav
266,192,116503,1,0,0:0:0:26:E3S_s.wav
138,192,116603,1,0,0:0:0:67:G5S_s.wav
394,192,116603,1,0,0:0:0:92:D6S_s.wav
10,192,116703,1,0,0:0:0:56:E3S_s.wav
138,192,116803,1,0,0:0:0:62:G#5S_Ab5S_s.wav
266,192,116803,1,0,0:0:0:92:D#6S_Eb6S_s.wav
394,192,116903,1,0,0:0:0:26:E3S_s.wav
10,192,117003,1,0,0:0:0:59:G#5S_Ab5S_s.wav
266,192,117003,1,0,0:0:0:92:G6S_s.wav
138,192,117103,1,0,0:0:0:26:E3S_s.wav
10,192,117203,1,0,0:0:0:93:F3S_s.wav
394,192,117203,1,0,0:0:0:77:D#4S_Eb4S_s.wav
138,192,117303,1,0,0:0:0:56:C3S_s.wav
266,192,117303,1,0,0:0:0:26:E3S_s.wav
10,192,117403,1,0,0:0:0:60:D#5S_Eb5S_s.wav
394,192,117403,1,0,0:0:0:58:G#5S_Ab5S_s.wav
266,192,117503,1,0,0:0:0:26:E3S_s.wav
138,192,117603,1,0,0:0:0:58:F#5S_Gb5S_s.wav
394,192,117603,1,0,0:0:0:92:F#6S_Gb6S.wav
10,192,117703,1,0,0:0:0:26:E3S_s.wav
138,192,117803,1,0,0:0:0:67:D5S_s.wav
266,192,117803,1,0,0:0:0:56:F#5S_Gb5S_s.wav
394,192,117903,1,0,0:0:0:26:E3S_s.wav
10,192,118003,1,0,0:0:0:26:E3S_s.wav
266,192,118003,1,0,0:0:0:82:D#4S_Eb4S_s.wav
138,192,118103,1,0,0:0:0:56:C3S_s.wav
394,192,118103,1,0,0:0:0:26:E3S_s.wav
10,192,118203,1,0,0:0:0:51:F#5S_Gb5S_s.wav
266,192,118203,1,0,0:0:0:92:G6S_s.wav
138,192,118303,1,0,0:0:0:26:E3S_s.wav
10,192,118403,1,0,0:0:0:55:F#5S_Gb5S_s.wav
394,192,118403,1,0,0:0:0:92:F#6S_Gb6S_s.wav
266,192,118503,1,0,0:0:0:26:E3S_s.wav
138,192,118603,1,0,0:0:0:68:F#5S_Gb5S_s.wav
394,192,118603,1,0,0:0:0:92:G6S_s.wav
10,192,118703,1,0,0:0:0:26:E3S_s.wav
138,192,118803,1,0,0:0:0:92:A3S_s.wav
266,192,118803,1,0,0:0:0:77:D#4S_Eb4S_s.wav
10,192,118903,1,0,0:0:0:56:C3S_s.wav
394,192,118903,1,0,0:0:0:26:E3S_s.wav
138,192,119003,1,0,0:0:0:62:D5S_s.wav
266,192,119003,1,0,0:0:0:54:F#5S_Gb5S_s.wav
394,192,119103,1,0,0:0:0:60:E3S_s.wav
10,192,119203,1,0,0:0:0:71:G5S_s.wav
266,192,119203,1,0,0:0:0:92:G6S_s.wav
138,192,119303,1,0,0:0:0:26:E3S_s.wav
10,192,119403,1,0,0:0:0:70:D5S_s.wav
394,192,119403,1,0,0:0:0:68:G5S_s.wav
266,192,119503,1,0,0:0:0:26:E3S_s.wav
138,192,119603,1,0,0:0:0:82:D#4S_Eb4S_s.wav
394,192,119603,1,0,0:0:0:92:F6S_s.wav
10,192,119703,1,0,0:0:0:56:C3S_s.wav
266,192,119703,1,0,0:0:0:26:E3S_s.wav
138,192,119803,1,0,0:0:0:64:D5S_s.wav
394,192,119803,1,0,0:0:0:61:G5S_s.wav
10,192,119903,1,0,0:0:0:48:E3S_s.wav
138,192,120003,1,0,0:0:0:66:G5S_s.wav
266,192,120003,1,0,0:0:0:92:D#6S_Eb6S_s.wav
394,192,120103,1,0,0:0:0:26:E3S_s.wav
10,192,120203,1,0,0:0:0:72:D5S_s.wav
266,192,120203,1,0,0:0:0:71:G5S_s.wav
138,192,120303,1,0,0:0:0:26:E3S_s.wav
10,192,120403,1,0,0:0:0:77:D#4S_Eb4S_s.wav
394,192,120403,1,0,0:0:0:92:D6S_s.wav
138,192,120503,1,0,0:0:0:56:C3S_s.wav
266,192,120503,1,0,0:0:0:26:E3S_s.wav
10,192,120603,1,0,0:0:0:66:D5S_s.wav
394,192,120603,1,0,0:0:0:62:G5S_s.wav
266,192,120703,1,0,0:0:0:27:E3S_s.wav
138,192,120803,1,0,0:0:0:74:G5S_s.wav
394,192,120803,1,0,0:0:0:92:C6S_s.wav
10,192,120903,1,0,0:0:0:26:E3S_s.wav
138,192,121003,1,0,0:0:0:88:F#6S_Gb6S_s.wav
266,192,121003,1,0,0:0:0:88:F#6S_Gb6S_s.wav
394,192,121103,1,0,0:0:0:26:E3S_s.wav
10,192,121203,1,0,0:0:0:92:A3S_s.wav
266,192,121203,1,0,0:0:0:82:D#4S_Eb4S_s.wav
138,192,121303,1,0,0:0:0:56:C3S_s.wav
394,192,121303,1,0,0:0:0:26:E3S_s.wav
10,192,121403,1,0,0:0:0:92:G6S_s.wav
266,192,121403,1,0,0:0:0:92:G6S_s.wav
138,192,121503,1,0,0:0:0:26:E3S_s.wav
10,192,121603,1,0,0:0:0:100:D#7S_Eb7S_s.wav
394,192,121603,1,0,0:0:0:100:D#7S_Eb7S_s.wav
266,192,121703,1,0,0:0:0:26:E3S_s.wav
138,192,121803,1,0,0:0:0:68:D5S_s.wav
394,192,121803,1,0,0:0:0:68:G5S_s.wav
10,192,121903,1,0,0:0:0:100:D7S_s.wav
266,192,121903,1,0,0:0:0:100:D7S_s.wav
138,192,122003,1,0,0:0:0:92:G3S_s.wav
394,192,122003,1,0,0:0:0:77:D#4S_Eb4S_s.wav
10,192,122103,1,0,0:0:0:56:C3S_s.wav
266,192,122103,1,0,0:0:0:26:E3S_s.wav
138,192,122203,1,0,0:0:0:97:B6S_s.wav
394,192,122203,1,0,0:0:0:97:B6S_s.wav
10,192,122303,1,0,0:0:0:51:E3S_s.wav
138,192,122403,1,0,0:0:0:97:C7S.wav
266,192,122403,1,0,0:0:0:100:C7S.wav
394,192,122503,1,0,0:0:0:26:E3S_s.wav
10,192,122603,1,0,0:0:0:51:D#5S_Eb5S_s.wav
266,192,122603,1,0,0:0:0:63:G5S_s.wav
138,192,122703,1,0,0:0:0:26:E3S_s.wav
10,192,122803,1,0,0:0:0:82:D#4S_Eb4S_s.wav
394,192,122803,1,0,0:0:0:77:D5S_s.wav
138,192,122903,1,0,0:0:0:56:C3S_s.wav
266,192,122903,1,0,0:0:0:58:E3S_s.wav
10,192,123003,1,0,0:0:0:65:G5S_s.wav
394,192,123003,1,0,0:0:0:92:C6S_s.wav
266,192,123103,1,0,0:0:0:26:E3S_s.wav
138,192,123203,1,0,0:0:0:62:G#5S_Ab5S_s.wav
394,192,123203,1,0,0:0:0:92:C6S_s.wav
10,192,123303,1,0,0:0:0:26:E3S_s.wav
138,192,123403,1,0,0:0:0:58:G#5S_Ab5S_s.wav
266,192,123403,1,0,0:0:0:92:C6S_s.wav
394,192,123503,1,0,0:0:0:26:E3S_s.wav
10,192,123603,1,0,0:0:0:77:C5S_s.wav
266,192,123603,1,0,0:0:0:71:F5S_s.wav
138,192,123703,1,0,0:0:0:56:C3S_s.wav
394,192,123703,1,0,0:0:0:47:E3S_s.wav
10,192,123803,1,0,0:0:0:66:D#5S_Eb5S_s.wav
266,192,123803,1,0,0:0:0:58:G#5S_Ab5S_s.wav
138,192,123903,1,0,0:0:0:26:E3S_s.wav
10,192,124003,1,0,0:0:0:76:F5S_s.wav
394,192,124003,1,0,0:0:0:92:D6S.wav
266,192,124103,1,0,0:0:0:26:E3S_s.wav
138,192,124203,1,0,0:0:0:68:D5S_s.wav
394,192,124203,1,0,0:0:0:66:F5S_s.wav
