osu file format v14

[General]
AudioFilename: audio.mp3
AudioLeadIn: 0
PreviewTime: -1
Countdown: 0
SampleSet: Normal
StackLeniency: 0.7
Mode: 3
LetterboxInBreaks: 0
SpecialStyle: 0
WidescreenStoryboard: 0

[Editor]
DistanceSpacing: 1.2
BeatDivisor: 4
GridSize: 4
TimelineZoom: 1

[Metadata]
Title:SCIERNISCO
TitleUnicode:SCIERNISCO
Artist:BRACIA PIERDOLEC
ArtistUnicode:BRACIA PIERDOLEC
Creator:Bass
Version:POLEEE POELEE LYSEEEE POLEE
Source:TROMBKA
Tags:
BeatmapID:1482669
BeatmapSetID:700346

[Difficulty]
HPDrainRate:8
CircleSize:4
OverallDifficulty:8
ApproachRate:5
SliderMultiplier:1.4
SliderTickRate:1

[Events]
//Background and Video events
0,0,"15bd3b9caf3dde933dbc4cac5cfa2354_fb.jpg",0,0
//Break Periods
//Storyboard Layer 0 (Background)
//Storyboard Layer 1 (Fail)
//Storyboard Layer 2 (Pass)
//Storyboard Layer 3 (Foreground)
//Storyboard Sound Samples
Sample,6401,0,"D#5S_Eb5S_s.wav",83
Sample,6401,0,"C4S_s.wav",96
Sample,6401,0,"C5S_s.wav",68
Sample,6401,0,"C3S_s.wav",93
Sample,6409,0,"G4S_s.wav",81
Sample,6589,0,"D#5S_Eb5S_s.wav",87
Sample,6597,0,"C5S_s.wav",65
Sample,6601,0,"C4S_s.wav",89
Sample,6605,0,"G4S_s.wav",77
Sample,7001,0,"C3S_s.wav",86
Sample,7013,0,"D#5S_Eb5S_s.wav",81
Sample,7018,0,"G4S_s.wav",71
Sample,7022,0,"C5S_s.wav",65
Sample,7201,0,"C3S_s.wav",91
Sample,7201,0,"C4S_s.wav",100
Sample,7213,0,"D#5S_Eb5S_s.wav",85
Sample,7222,0,"C5S_s.wav",63
Sample,7222,0,"G4S_s.wav",74
Sample,7378,0,"C3S_s.wav",100
Sample,7397,0,"D#5S_Eb5S_s.wav",87
Sample,7401,0,"C5S_s.wav",66
Sample,7401,0,"C4S_s.wav",92
Sample,7406,0,"G4S_s.wav",80
Sample,7753,0,"G4S_s.wav",68
Sample,7768,0,"D#5S_Eb5S_s.wav",81
Sample,7772,0,"C5S_s.wav",67
Sample,7801,0,"C3S_s.wav",86
Sample,7963,0,"G#4S_Ab4S_s.wav",77
Sample,7963,0,"D#5S_Eb5S_s.wav",87
Sample,7968,0,"C5S_s.wav",67
Sample,8001,0,"G#3S_Ab3S_s.wav",91
Sample,8001,0,"G#3S_Ab3S_s.wav",94
Sample,8155,0,"C5S_s.wav",66
Sample,8157,0,"D#5S_Eb5S_s.wav",89
Sample,8159,0,"G#4S_Ab4S_s.wav",77
Sample,8201,0,"G#3S_Ab3S_s.wav",81
Sample,8555,0,"D#5S_Eb5S_s.wav",83
Sample,8559,0,"G#4S_Ab4S_s.wav",75
Sample,8563,0,"C5S_s.wav",65
Sample,8753,0,"G#4S_Ab4S_s.wav",75
Sample,8759,0,"C5S_s.wav",69
Sample,8761,0,"F5S_s.wav",74
Sample,8776,0,"F3S_s.wav",91
Sample,8801,0,"F3S_s.wav",87
Sample,8951,0,"F5S_s.wav",77
Sample,8952,0,"C5S_s.wav",65
Sample,8953,0,"G#4S_Ab4S_s.wav",78
Sample,9001,0,"F3S_s.wav",85
Sample,9357,0,"F5S_s.wav",77
Sample,9363,0,"G#4S_Ab4S_s.wav",74
Sample,9363,0,"C5S_s.wav",63
Sample,9572,0,"G3S_s.wav",94
Sample,9580,0,"B4S_s.wav",82
Sample,9581,0,"G5S_s.wav",78
Sample,9584,0,"D5S_s.wav",84
Sample,9601,0,"G3S_s.wav",98
Sample,9763,0,"B4S_s.wav",84
Sample,9776,0,"G5S_s.wav",68
Sample,9780,0,"D5S_s.wav",77
Sample,9801,0,"G3S_s.wav",99
Sample,9801,0,"G3S_s.wav",100
Sample,9801,0,"G3S_s.wav",92
Sample,10169,0,"B4S_s.wav",81
Sample,10176,0,"D5S_s.wav",76
Sample,10180,0,"G5S_s.wav",66
Sample,10352,0,"B4S_s.wav",81
Sample,10363,0,"D5S_s.wav",74
Sample,10364,0,"G5S_s.wav",70
Sample,10401,0,"G3S_s.wav",100
Sample,10564,0,"B4S_s.wav",83
Sample,10576,0,"D5S_s.wav",78
Sample,10576,0,"G5S_s.wav",70
Sample,10601,0,"G3S_s.wav",94
Sample,10963,0,"B4S_s.wav",78
Sample,10963,0,"D5S_s.wav",74
Sample,10964,0,"G5S_s.wav",70
Sample,11159,0,"B4S_s.wav",83
Sample,11172,0,"D5S_s.wav",77
Sample,11173,0,"G5S_s.wav",70
Sample,11180,0,"G3S_s.wav",88
Sample,11201,0,"B5S_s.wav",95
Sample,11201,0,"G3S_s.wav",97
Sample,11363,0,"B4S_s.wav",84
Sample,11376,0,"D5S_s.wav",77
Sample,11376,0,"G5S_s.wav",70
Sample,11401,0,"G3S_s.wav",98
Sample,11401,0,"G3S_s.wav",100
Sample,11401,0,"G3S_s.wav",92
Sample,11784,0,"D5S_s.wav",74
Sample,11784,0,"G5S_s.wav",67
Sample,11788,0,"B4S_s.wav",82
Sample,11988,0,"B4S_s.wav",83
Sample,11997,0,"D5S_s.wav",74
Sample,11997,0,"G5S_s.wav",67
Sample,12001,0,"G3S_s.wav",94
Sample,12197,0,"B4S_s.wav",85
Sample,12201,0,"G3S_s.wav",98
Sample,12205,0,"G5S_s.wav",70
Sample,12207,0,"D5S_s.wav",77
Sample,12801,0,"C5S_s.wav",68
Sample,12801,0,"C3S_s.wav",93
Sample,12801,0,"D#5S_Eb5S_s.wav",83
Sample,12801,0,"C4S_s.wav",97
Sample,12809,0,"G4S_s.wav",81
Sample,12989,0,"D#5S_Eb5S_s.wav",87
Sample,12997,0,"C5S_s.wav",65
Sample,13001,0,"C4S_s.wav",100
Sample,13005,0,"G4S_s.wav",77
Sample,13413,0,"D#5S_Eb5S_s.wav",81
Sample,13418,0,"G4S_s.wav",71
Sample,13422,0,"C5S_s.wav",65
Sample,13601,0,"C3S_s.wav",91
Sample,13601,0,"C4S_s.wav",99
Sample,13613,0,"D#5S_Eb5S_s.wav",85
Sample,13622,0,"C5S_s.wav",63
Sample,13622,0,"G4S_s.wav",74
Sample,13778,0,"C3S_s.wav",100
Sample,13797,0,"D#5S_Eb5S_s.wav",87
Sample,13801,0,"C5S_s.wav",66
Sample,13801,0,"C4S_s.wav",100
Sample,13806,0,"G4S_s.wav",80
Sample,14153,0,"G4S_s.wav",68
Sample,14168,0,"D#5S_Eb5S_s.wav",81
Sample,14172,0,"C5S_s.wav",67
Sample,14201,0,"C3S_s.wav",86
Sample,14363,0,"G#4S_Ab4S_s.wav",77
Sample,14363,0,"D#5S_Eb5S_s.wav",87
Sample,14368,0,"C5S_s.wav",67
Sample,14401,0,"G#3S_Ab3S_s.wav",91
Sample,14401,0,"G#3S_Ab3S_s.wav",92
Sample,14555,0,"C5S_s.wav",66
Sample,14557,0,"D#5S_Eb5S_s.wav",89
Sample,14559,0,"G#4S_Ab4S_s.wav",77
Sample,14601,0,"G#3S_Ab3S_s.wav",87
Sample,14955,0,"D#5S_Eb5S_s.wav",83
Sample,14959,0,"G#4S_Ab4S_s.wav",75
Sample,14963,0,"C5S_s.wav",65
Sample,15153,0,"G#4S_Ab4S_s.wav",75
Sample,15159,0,"C5S_s.wav",69
Sample,15161,0,"F5S_s.wav",74
Sample,15176,0,"F3S_s.wav",91
Sample,15201,0,"F3S_s.wav",92
Sample,15351,0,"F5S_s.wav",77
Sample,15352,0,"C5S_s.wav",65
Sample,15353,0,"G#4S_Ab4S_s.wav",78
Sample,15401,0,"F3S_s.wav",100
Sample,15401,0,"F3S_s.wav",93
Sample,15757,0,"F5S_s.wav",77
Sample,15763,0,"G#4S_Ab4S_s.wav",74
Sample,15763,0,"C5S_s.wav",63
Sample,15801,0,"F3S_s.wav",86
Sample,15972,0,"G3S_s.wav",94
Sample,15980,0,"B4S_s.wav",82
Sample,15981,0,"G5S_s.wav",78
Sample,15984,0,"D5S_s.wav",84
Sample,16001,0,"G3S_s.wav",100
Sample,16163,0,"B4S_s.wav",84
Sample,16176,0,"G5S_s.wav",68
Sample,16180,0,"D5S_s.wav",77
Sample,16201,0,"G3S_s.wav",97
Sample,16201,0,"G3S_s.wav",100
Sample,16201,0,"G3S_s.wav",92
Sample,16569,0,"B4S_s.wav",81
Sample,16576,0,"D5S_s.wav",76
Sample,16580,0,"G5S_s.wav",66
Sample,16752,0,"B4S_s.wav",81
Sample,16763,0,"D5S_s.wav",74
Sample,16764,0,"G5S_s.wav",70
Sample,16801,0,"G3S_s.wav",100
Sample,16964,0,"B4S_s.wav",83
Sample,16976,0,"D5S_s.wav",78
Sample,16976,0,"G5S_s.wav",70
Sample,17001,0,"G3S_s.wav",96
Sample,17363,0,"B4S_s.wav",78
Sample,17363,0,"D5S_s.wav",74
Sample,17364,0,"G5S_s.wav",70
Sample,17559,0,"B4S_s.wav",83
Sample,17572,0,"D5S_s.wav",77
Sample,17573,0,"G5S_s.wav",70
Sample,17580,0,"G3S_s.wav",88
Sample,17601,0,"B5S_s.wav",95
Sample,17601,0,"G3S_s.wav",97
Sample,17763,0,"B4S_s.wav",84
Sample,17776,0,"D5S_s.wav",77
Sample,17776,0,"G5S_s.wav",70
Sample,17801,0,"G3S_s.wav",97
Sample,17801,0,"G3S_s.wav",100
Sample,17801,0,"G3S_s.wav",92
Sample,18184,0,"D5S_s.wav",74
Sample,18184,0,"G5S_s.wav",67
Sample,18188,0,"B4S_s.wav",82
Sample,18388,0,"B4S_s.wav",83
Sample,18397,0,"D5S_s.wav",74
Sample,18397,0,"G5S_s.wav",67
Sample,18401,0,"G3S_s.wav",100
Sample,18597,0,"B4S_s.wav",85
Sample,18601,0,"G3S_s.wav",100
Sample,18605,0,"G5S_s.wav",70
Sample,18607,0,"D5S_s.wav",77
Sample,19201,0,"C5S_s.wav",68
Sample,19201,0,"C3S_s.wav",93
Sample,19201,0,"D#5S_Eb5S_s.wav",83
Sample,19201,0,"C4S_s.wav",93
Sample,19209,0,"G4S_s.wav",81
Sample,19389,0,"D#5S_Eb5S_s.wav",87
Sample,19397,0,"C5S_s.wav",65
Sample,19401,0,"C4S_s.wav",99
Sample,19405,0,"G4S_s.wav",77
Sample,19801,0,"C3S_s.wav",86
Sample,19813,0,"D#5S_Eb5S_s.wav",81
Sample,19818,0,"G4S_s.wav",71
Sample,19822,0,"C5S_s.wav",65
Sample,20001,0,"C3S_s.wav",91
Sample,20001,0,"C4S_s.wav",100
Sample,20013,0,"D#5S_Eb5S_s.wav",85
Sample,20022,0,"C5S_s.wav",63
Sample,20022,0,"G4S_s.wav",74
Sample,20178,0,"C3S_s.wav",100
Sample,20197,0,"D#5S_Eb5S_s.wav",87
Sample,20201,0,"C5S_s.wav",66
Sample,20201,0,"C4S_s.wav",97
Sample,20206,0,"G4S_s.wav",80
Sample,20553,0,"G4S_s.wav",68
Sample,20568,0,"D#5S_Eb5S_s.wav",81
Sample,20572,0,"C5S_s.wav",67
Sample,20601,0,"C3S_s.wav",86
Sample,20763,0,"G#4S_Ab4S_s.wav",77
Sample,20763,0,"D#5S_Eb5S_s.wav",87
Sample,20768,0,"C5S_s.wav",67
Sample,20801,0,"G#3S_Ab3S_s.wav",91
Sample,20801,0,"G#3S_Ab3S_s.wav",92
Sample,20955,0,"C5S_s.wav",66
Sample,20957,0,"D#5S_Eb5S_s.wav",89
Sample,20959,0,"G#4S_Ab4S_s.wav",77
Sample,21001,0,"G#3S_Ab3S_s.wav",88
Sample,21355,0,"D#5S_Eb5S_s.wav",83
Sample,21359,0,"G#4S_Ab4S_s.wav",75
Sample,21363,0,"C5S_s.wav",65
Sample,21553,0,"G#4S_Ab4S_s.wav",75
Sample,21559,0,"C5S_s.wav",69
Sample,21561,0,"F5S_s.wav",74
Sample,21576,0,"F3S_s.wav",91
Sample,21601,0,"F3S_s.wav",92
Sample,21751,0,"F5S_s.wav",77
Sample,21752,0,"C5S_s.wav",65
Sample,21753,0,"G#4S_Ab4S_s.wav",78
Sample,21801,0,"F3S_s.wav",88
Sample,22157,0,"F5S_s.wav",77
Sample,22163,0,"G#4S_Ab4S_s.wav",74
Sample,22163,0,"C5S_s.wav",63
Sample,22372,0,"G3S_s.wav",94
Sample,22380,0,"B4S_s.wav",82
Sample,22381,0,"G5S_s.wav",78
Sample,22384,0,"D5S_s.wav",84
Sample,22401,0,"G3S_s.wav",91
Sample,22563,0,"B4S_s.wav",84
Sample,22576,0,"G5S_s.wav",68
Sample,22580,0,"D5S_s.wav",77
Sample,22601,0,"G3S_s.wav",100
Sample,22601,0,"G3S_s.wav",91
Sample,22969,0,"B4S_s.wav",81
Sample,22976,0,"D5S_s.wav",76
Sample,22980,0,"G5S_s.wav",66
Sample,23152,0,"B4S_s.wav",81
Sample,23163,0,"D5S_s.wav",74
Sample,23164,0,"G5S_s.wav",70
Sample,23201,0,"G3S_s.wav",100
Sample,23364,0,"B4S_s.wav",83
Sample,23376,0,"D5S_s.wav",78
Sample,23376,0,"G5S_s.wav",70
Sample,23401,0,"G3S_s.wav",92
Sample,23763,0,"B4S_s.wav",78
Sample,23763,0,"D5S_s.wav",74
Sample,23764,0,"G5S_s.wav",70
Sample,23959,0,"B4S_s.wav",83
Sample,23972,0,"D5S_s.wav",77
Sample,23973,0,"G5S_s.wav",70
Sample,23980,0,"G3S_s.wav",88
Sample,24001,0,"B5S_s.wav",95
Sample,24001,0,"G3S_s.wav",100
Sample,24163,0,"B4S_s.wav",84
Sample,24176,0,"D5S_s.wav",77
Sample,24176,0,"G5S_s.wav",70
Sample,24201,0,"G3S_s.wav",96
Sample,24201,0,"G3S_s.wav",100
Sample,24201,0,"G3S_s.wav",92
Sample,24584,0,"D5S_s.wav",74
Sample,24584,0,"G5S_s.wav",67
Sample,24588,0,"B4S_s.wav",82
Sample,24788,0,"B4S_s.wav",83
Sample,24797,0,"D5S_s.wav",74
Sample,24797,0,"G5S_s.wav",67
Sample,24801,0,"G3S_s.wav",100
Sample,24997,0,"B4S_s.wav",85
Sample,25001,0,"G3S_s.wav",97
Sample,25005,0,"G5S_s.wav",70
Sample,25007,0,"D5S_s.wav",77
Sample,25601,0,"C5S_s.wav",68
Sample,25601,0,"C3S_s.wav",93
Sample,25601,0,"D#5S_Eb5S_s.wav",83
Sample,25601,0,"C4S_s.wav",100
Sample,25609,0,"G4S_s.wav",81
Sample,25789,0,"D#5S_Eb5S_s.wav",87
Sample,25797,0,"C5S_s.wav",65
Sample,25801,0,"C4S_s.wav",98
Sample,25805,0,"G4S_s.wav",77
Sample,26201,0,"C3S_s.wav",86
Sample,26213,0,"D#5S_Eb5S_s.wav",81
Sample,26218,0,"G4S_s.wav",71
Sample,26222,0,"C5S_s.wav",65
Sample,26401,0,"C3S_s.wav",91
Sample,26401,0,"C4S_s.wav",100
Sample,26413,0,"D#5S_Eb5S_s.wav",85
Sample,26422,0,"C5S_s.wav",63
Sample,26422,0,"G4S_s.wav",74
Sample,26578,0,"C3S_s.wav",100
Sample,26597,0,"D#5S_Eb5S_s.wav",87
Sample,26601,0,"C5S_s.wav",66
Sample,26601,0,"C4S_s.wav",100
Sample,26606,0,"G4S_s.wav",80
Sample,26953,0,"G4S_s.wav",68
Sample,26968,0,"D#5S_Eb5S_s.wav",81
Sample,26972,0,"C5S_s.wav",67
Sample,27001,0,"C3S_s.wav",86
Sample,27163,0,"G#4S_Ab4S_s.wav",77
Sample,27163,0,"D#5S_Eb5S_s.wav",87
Sample,27168,0,"C5S_s.wav",67
Sample,27201,0,"G#3S_Ab3S_s.wav",91
Sample,27201,0,"G#3S_Ab3S_s.wav",96
Sample,27355,0,"C5S_s.wav",66
Sample,27357,0,"D#5S_Eb5S_s.wav",89
Sample,27359,0,"G#4S_Ab4S_s.wav",77
Sample,27401,0,"G#3S_Ab3S_s.wav",88
Sample,27755,0,"D#5S_Eb5S_s.wav",83
Sample,27759,0,"G#4S_Ab4S_s.wav",75
Sample,27763,0,"C5S_s.wav",65
Sample,27953,0,"G#4S_Ab4S_s.wav",75
Sample,27959,0,"C5S_s.wav",69
Sample,27961,0,"F5S_s.wav",74
Sample,27976,0,"F3S_s.wav",91
Sample,28001,0,"F3S_s.wav",98
Sample,28151,0,"F5S_s.wav",77
Sample,28152,0,"C5S_s.wav",65
Sample,28153,0,"G#4S_Ab4S_s.wav",78
Sample,28201,0,"F3S_s.wav",100
Sample,28201,0,"F3S_s.wav",96
Sample,28557,0,"F5S_s.wav",77
Sample,28563,0,"G#4S_Ab4S_s.wav",74
Sample,28563,0,"C5S_s.wav",63
Sample,28601,0,"F3S_s.wav",86
Sample,28772,0,"G3S_s.wav",94
Sample,28780,0,"B4S_s.wav",82
Sample,28781,0,"G5S_s.wav",78
Sample,28784,0,"D5S_s.wav",84
Sample,28801,0,"G3S_s.wav",100
Sample,28963,0,"B4S_s.wav",84
Sample,28976,0,"G5S_s.wav",68
Sample,28980,0,"D5S_s.wav",77
Sample,29001,0,"G3S_s.wav",100
Sample,29001,0,"G3S_s.wav",98
Sample,29369,0,"B4S_s.wav",81
Sample,29376,0,"D5S_s.wav",76
Sample,29380,0,"G5S_s.wav",66
Sample,29552,0,"B4S_s.wav",81
Sample,29563,0,"D5S_s.wav",74
Sample,29564,0,"G5S_s.wav",70
Sample,29601,0,"G3S_s.wav",100
Sample,29764,0,"B4S_s.wav",83
Sample,29776,0,"D5S_s.wav",78
Sample,29776,0,"G5S_s.wav",70
Sample,29801,0,"G3S_s.wav",96
Sample,30163,0,"B4S_s.wav",78
Sample,30163,0,"D5S_s.wav",74
Sample,30164,0,"G5S_s.wav",70
Sample,30359,0,"B4S_s.wav",83
Sample,30372,0,"D5S_s.wav",77
Sample,30373,0,"G5S_s.wav",70
Sample,30380,0,"G3S_s.wav",88
Sample,30401,0,"B5S_s.wav",95
Sample,30401,0,"G3S_s.wav",99
Sample,30401,0,"null_s.wav",60
Sample,30563,0,"B4S_s.wav",84
Sample,30576,0,"D5S_s.wav",77
Sample,30576,0,"G5S_s.wav",70
Sample,30601,0,"G3S_s.wav",92
Sample,30601,0,"null_s.wav",62
Sample,30601,0,"G3S_s.wav",99
Sample,30601,0,"G3S_s.wav",100
Sample,30801,0,"null_s.wav",64
Sample,30984,0,"D5S_s.wav",74
Sample,30984,0,"G5S_s.wav",67
Sample,30988,0,"B4S_s.wav",82
Sample,31001,0,"null_s.wav",66
Sample,31188,0,"B4S_s.wav",83
Sample,31197,0,"D5S_s.wav",74
Sample,31197,0,"G5S_s.wav",67
Sample,31201,0,"G3S_s.wav",100
Sample,31201,0,"null_s.wav",68
Sample,31397,0,"B4S_s.wav",85
Sample,31401,0,"G3S_s.wav",100
Sample,31401,0,"null_s.wav",70
Sample,31405,0,"G5S_s.wav",70
Sample,31407,0,"D5S_s.wav",77
Sample,31601,0,"null_s.wav",72
Sample,31801,0,"null_s.wav",74
Sample,32001,0,"null_s.wav",76
Sample,32201,0,"null_s.wav",77
Sample,32401,0,"null_s.wav",79
Sample,32601,0,"null_s.wav",81
Sample,32801,0,"null_s.wav",83
Sample,33001,0,"B1S_s.wav",85
Sample,33201,0,"C#2S_Db2S_s.wav",87
Sample,33401,0,"D2S_s.wav",89
Sample,33601,0,"E2S_s.wav",91
Sample,33801,0,"F#2S_Gb2S_s.wav",93
Sample,34001,0,"G#2S_Ab2S_s.wav",95
Sample,34301,0,"null_s.wav",99
Sample,34301,0,"null_s.wav",99
Sample,36601,0,"G6S_s.wav",53
Sample,36614,0,"A#6S_Bb6S_s.wav",65
Sample,36801,0,"G#5S_Ab5S_s.wav",66
Sample,36801,0,"G#3S_Ab3S_s.wav",88
Sample,36801,0,"G#6S_Ab6S_s.wav",44
Sample,36802,0,"D#5S_Eb5S_s.wav",68
Sample,36811,0,"C5S_s.wav",58
Sample,36823,0,"C7S_s.wav",55
Sample,37051,0,"G#6S_Ab6S.wav",56
Sample,37053,0,"C7S.wav",68
Sample,37103,0,"G#5S_Ab5S_s.wav",81
Sample,37107,0,"D#5S_Eb5S_s.wav",81
Sample,37109,0,"C5S_s.wav",81
Sample,37201,0,"G#3S_Ab3S_s.wav",91
Sample,37393,0,"G#5S_Ab5S_s.wav",49
Sample,37394,0,"D#5S_Eb5S_s.wav",62
Sample,37401,0,"C5S_s.wav",62
Sample,37586,0,"A#6S_Bb6S_s.wav",44
Sample,37601,0,"G#3S_Ab3S_s.wav",97
Sample,37610,0,"G#5S_Ab5S_s.wav",62
Sample,37613,0,"C5S_s.wav",59
Sample,37613,0,"D#5S_Eb5S_s.wav",71
Sample,37668,0,"C7S_s.wav",45
Sample,37753,0,"A#6S_Bb6S_s.wav",42
Sample,37863,0,"F6S.wav",46
Sample,37868,0,"G#6S_Ab6S.wav",58
Sample,37872,0,"D#5S_Eb5S_s.wav",84
Sample,37873,0,"G#5S_Ab5S_s.wav",84
Sample,37878,0,"C5S_s.wav",84
Sample,38001,0,"G#3S_Ab3S_s.wav",92
Sample,38203,0,"D#5S_Eb5S_s.wav",63
Sample,38205,0,"G#5S_Ab5S_s.wav",52
Sample,38209,0,"C5S_s.wav",56
Sample,38401,0,"D#3S_Eb3S_s.wav",100
Sample,38401,0,"D#6S_Eb6S.wav",48
Sample,38409,0,"G6S.wav",59
Sample,38410,0,"D#5S_Eb5S_s.wav",66
Sample,38414,0,"G5S_s.wav",72
Sample,38422,0,"A#4S_Bb4S_s.wav",39
Sample,38701,0,"G5S_s.wav",79
Sample,38702,0,"D#5S_Eb5S_s.wav",66
Sample,38705,0,"A#4S_Bb4S_s.wav",39
Sample,38801,0,"D#3S_Eb3S_s.wav",100
Sample,39014,0,"A#4S_Bb4S_s.wav",64
Sample,39022,0,"D#5S_Eb5S_s.wav",64
Sample,39027,0,"G5S_s.wav",64
Sample,39201,0,"D#3S_Eb3S_s.wav",100
Sample,39220,0,"A#4S_Bb4S_s.wav",63
Sample,39222,0,"D#5S_Eb5S_s.wav",63
Sample,39226,0,"G5S_s.wav",63
Sample,39401,0,"A#6S_Bb6S_s.wav",73
Sample,39401,0,"G6S_s.wav",61
Sample,39501,0,"A#4S_Bb4S_s.wav",79
Sample,39501,0,"D#5S_Eb5S_s.wav",81
Sample,39501,0,"G5S_s.wav",79
Sample,39601,0,"D#3S_Eb3S_s.wav",100
Sample,39701,0,"G#6S_Ab6S_s.wav",79
Sample,39701,0,"F6S_s.wav",67
Sample,39801,0,"D#5S_Eb5S_s.wav",70
Sample,39801,0,"A#4S_Bb4S_s.wav",67
Sample,39801,0,"G5S_s.wav",61
Sample,40001,0,"D#6S_Eb6S_s.wav",54
Sample,40001,0,"G3S_s.wav",100
Sample,40001,0,"G6S_s.wav",66
Sample,40026,0,"B4S_s.wav",71
Sample,40030,0,"G5S_s.wav",71
Sample,40031,0,"D5S_s.wav",71
Sample,40301,0,"G5S_s.wav",88
Sample,40303,0,"B4S_s.wav",51
Sample,40305,0,"D5S_s.wav",62
Sample,40401,0,"G3S_s.wav",100
Sample,40401,0,"G6S_s.wav",60
Sample,40501,0,"F#6S_Gb6S_s.wav",60
Sample,40601,0,"G6S_s.wav",56
Sample,40601,0,"D5S_s.wav",61
Sample,40601,0,"B4S_s.wav",50
Sample,40602,0,"G5S_s.wav",54
Sample,40701,0,"G#6S_Ab6S_s.wav",56
Sample,40801,0,"G3S_s.wav",100
Sample,40801,0,"G6S_s.wav",51
Sample,40801,0,"D#6S_Eb6S_s.wav",40
Sample,40834,0,"D5S_s.wav",72
Sample,40835,0,"B4S_s.wav",57
Sample,40838,0,"G5S_s.wav",65
Sample,41001,0,"F6S_s.wav",44
Sample,41101,0,"G5S_s.wav",88
Sample,41101,0,"D5S_s.wav",88
Sample,41103,0,"B4S_s.wav",88
Sample,41201,0,"G3S_s.wav",100
Sample,41201,0,"D#6S_Eb6S_s.wav",60
Sample,41201,0,"A5S_s.wav",76
Sample,41401,0,"D6S_s.wav",56
Sample,41401,0,"G5S_s.wav",88
Sample,41401,0,"D5S_s.wav",88
Sample,41401,0,"B5S_s.wav",56
Sample,41403,0,"B4S_s.wav",88
Sample,41580,0,"C6S_s.wav",68
Sample,41601,0,"G5S_s.wav",66
Sample,41601,0,"C4S_s.wav",100
Sample,41602,0,"D#5S_Eb5S_s.wav",68
Sample,41611,0,"C5S_s.wav",58
Sample,41801,0,"C6S.wav",68
Sample,41903,0,"G5S_s.wav",88
Sample,41907,0,"D#5S_Eb5S_s.wav",88
Sample,41909,0,"C5S_s.wav",88
Sample,42001,0,"C4S_s.wav",100
Sample,42193,0,"G5S_s.wav",49
Sample,42194,0,"D#5S_Eb5S_s.wav",62
Sample,42201,0,"C5S_s.wav",55
Sample,42401,0,"C4S_s.wav",97
Sample,42401,0,"D#6S_Eb6S_s.wav",68
Sample,42410,0,"G5S_s.wav",54
Sample,42413,0,"C5S_s.wav",59
Sample,42413,0,"D#5S_Eb5S_s.wav",71
Sample,42601,0,"D#6S_Eb6S.wav",68
Sample,42672,0,"D#5S_Eb5S_s.wav",84
Sample,42673,0,"G5S_s.wav",84
Sample,42678,0,"C5S_s.wav",84
Sample,42801,0,"C4S_s.wav",100
Sample,43003,0,"D#5S_Eb5S_s.wav",63
Sample,43005,0,"G5S_s.wav",52
Sample,43009,0,"C5S_s.wav",56
Sample,43138,0,"C6S_s.wav",51
Sample,43163,0,"D#6S_Eb6S_s.wav",70
Sample,43201,0,"G#5S_Ab5S_s.wav",66
Sample,43201,0,"G#3S_Ab3S_s.wav",97
Sample,43202,0,"D#5S_Eb5S_s.wav",68
Sample,43211,0,"C5S_s.wav",58
Sample,43339,0,"C6S.wav",53
Sample,43372,0,"D#6S_Eb6S.wav",67
Sample,43503,0,"G#5S_Ab5S_s.wav",81
Sample,43507,0,"D#5S_Eb5S_s.wav",81
Sample,43509,0,"C5S_s.wav",81
Sample,43601,0,"G#3S_Ab3S_s.wav",100
Sample,43793,0,"G#5S_Ab5S_s.wav",49
Sample,43794,0,"D#5S_Eb5S_s.wav",62
Sample,43801,0,"C5S_s.wav",62
Sample,43914,0,"A#5S_Bb5S_s.wav",53
Sample,43944,0,"D6S_s.wav",62
Sample,44001,0,"G#3S_Ab3S_s.wav",99
Sample,44010,0,"G#5S_Ab5S_s.wav",62
Sample,44013,0,"C5S_s.wav",59
Sample,44013,0,"D#5S_Eb5S_s.wav",71
Sample,44172,0,"G#5S_Ab5S_s.wav",62
Sample,44186,0,"C6S.wav",65
Sample,44272,0,"D#5S_Eb5S_s.wav",84
Sample,44273,0,"G#5S_Ab5S_s.wav",84
Sample,44278,0,"C5S_s.wav",84
Sample,44401,0,"G#3S_Ab3S_s.wav",92
Sample,44603,0,"D#5S_Eb5S_s.wav",63
Sample,44605,0,"G#5S_Ab5S_s.wav",52
Sample,44609,0,"C5S_s.wav",56
Sample,44801,0,"D#3S_Eb3S_s.wav",100
Sample,44801,0,"G5S.wav",62
Sample,44810,0,"D#5S_Eb5S_s.wav",66
Sample,44814,0,"G5S_s.wav",72
Sample,44822,0,"A#4S_Bb4S_s.wav",39
Sample,45101,0,"G5S_s.wav",79
Sample,45102,0,"D#5S_Eb5S_s.wav",66
Sample,45105,0,"A#4S_Bb4S_s.wav",39
Sample,45201,0,"D#3S_Eb3S_s.wav",100
Sample,45414,0,"A#4S_Bb4S_s.wav",64
Sample,45422,0,"D#5S_Eb5S_s.wav",64
Sample,45427,0,"G5S_s.wav",64
Sample,45601,0,"D#3S_Eb3S_s.wav",99
Sample,45601,0,"G5S_s.wav",53
Sample,45620,0,"A#4S_Bb4S_s.wav",63
Sample,45622,0,"D#5S_Eb5S_s.wav",63
Sample,45626,0,"G5S_s.wav",63
Sample,45801,0,"D6S_s.wav",53
Sample,45801,0,"B5S_s.wav",53
Sample,45901,0,"G5S_s.wav",79
Sample,45901,0,"A#4S_Bb4S_s.wav",79
Sample,45901,0,"D#5S_Eb5S_s.wav",81
Sample,46001,0,"D#3S_Eb3S_s.wav",100
Sample,46201,0,"D#5S_Eb5S_s.wav",70
Sample,46201,0,"G#5S_Ab5S_s.wav",53
Sample,46201,0,"G5S_s.wav",61
Sample,46201,0,"A#4S_Bb4S_s.wav",67
Sample,46201,0,"C6S_s.wav",53
Sample,46401,0,"G3S_s.wav",96
Sample,46401,0,"B5S.wav",65
Sample,46401,0,"G5S.wav",65
Sample,46426,0,"B4S_s.wav",71
Sample,46430,0,"G5S_s.wav",71
Sample,46431,0,"D5S_s.wav",71
Sample,46701,0,"G5S_s.wav",88
Sample,46703,0,"B4S_s.wav",51
Sample,46705,0,"D5S_s.wav",62
Sample,46801,0,"G3S_s.wav",100
Sample,47001,0,"D5S_s.wav",61
Sample,47001,0,"B4S_s.wav",50
Sample,47002,0,"G5S_s.wav",54
Sample,47201,0,"G3S_s.wav",100
Sample,47201,0,"G5S_s.wav",66
Sample,47234,0,"D5S_s.wav",72
Sample,47235,0,"B4S_s.wav",57
Sample,47238,0,"G5S_s.wav",65
Sample,47301,0,"G#5S_Ab5S_s.wav",66
Sample,47401,0,"G5S_s.wav",80
Sample,47501,0,"G5S_s.wav",88
Sample,47501,0,"D5S_s.wav",88
Sample,47501,0,"F#5S_Gb5S_s.wav",70
Sample,47503,0,"B4S_s.wav",88
Sample,47601,0,"G3S_s.wav",100
Sample,47601,0,"G5S_s.wav",69
Sample,47701,0,"G5S_s.wav",72
Sample,47801,0,"A5S_s.wav",71
Sample,47801,0,"G5S_s.wav",88
Sample,47801,0,"D5S_s.wav",88
Sample,47803,0,"B4S_s.wav",88
Sample,47901,0,"B5S_s.wav",69
Sample,48001,0,"G5S_s.wav",66
Sample,48001,0,"C4S_s.wav",94
Sample,48001,0,"C6S_s.wav",69
Sample,48002,0,"D#5S_Eb5S_s.wav",68
Sample,48011,0,"C5S_s.wav",58
Sample,48101,0,"B5S_s.wav",69
Sample,48201,0,"C6S_s.wav",69
Sample,48303,0,"G5S_s.wav",88
Sample,48307,0,"D#5S_Eb5S_s.wav",88
Sample,48309,0,"C5S_s.wav",88
Sample,48401,0,"C4S_s.wav",98
Sample,48593,0,"G5S_s.wav",49
Sample,48594,0,"D#5S_Eb5S_s.wav",62
Sample,48601,0,"C6S_s.wav",53
Sample,48601,0,"C5S_s.wav",55
Sample,48601,0,"D#6S_Eb6S_s.wav",53
Sample,48801,0,"C4S_s.wav",96
Sample,48810,0,"G5S_s.wav",54
Sample,48813,0,"C5S_s.wav",59
Sample,48813,0,"D#5S_Eb5S_s.wav",71
Sample,48901,0,"D6S_s.wav",53
Sample,48901,0,"B5S_s.wav",53
Sample,49072,0,"D#5S_Eb5S_s.wav",84
Sample,49073,0,"G5S_s.wav",84
Sample,49078,0,"C5S_s.wav",84
Sample,49101,0,"C6S_s.wav",53
Sample,49101,0,"G#5S_Ab5S_s.wav",53
Sample,49201,0,"C4S_s.wav",99
Sample,49401,0,"G6S_s.wav",53
Sample,49403,0,"D#5S_Eb5S_s.wav",63
Sample,49405,0,"G5S_s.wav",52
Sample,49409,0,"C5S_s.wav",56
Sample,49414,0,"A#6S_Bb6S_s.wav",65
Sample,49601,0,"G#6S_Ab6S_s.wav",44
Sample,49601,0,"G#5S_Ab5S_s.wav",66
Sample,49601,0,"G#3S_Ab3S_s.wav",97
Sample,49602,0,"D#5S_Eb5S_s.wav",68
Sample,49611,0,"C5S_s.wav",58
Sample,49623,0,"C7S_s.wav",55
Sample,49851,0,"G#6S_Ab6S.wav",56
Sample,49853,0,"C7S.wav",68
Sample,49903,0,"G#5S_Ab5S_s.wav",81
Sample,49907,0,"D#5S_Eb5S_s.wav",81
Sample,49909,0,"C5S_s.wav",81
Sample,50001,0,"G#3S_Ab3S_s.wav",97
Sample,50193,0,"G#5S_Ab5S_s.wav",49
Sample,50194,0,"D#5S_Eb5S_s.wav",62
Sample,50201,0,"C5S_s.wav",62
Sample,50386,0,"A#6S_Bb6S_s.wav",44
Sample,50401,0,"G#3S_Ab3S_s.wav",97
Sample,50410,0,"G#5S_Ab5S_s.wav",62
Sample,50413,0,"C5S_s.wav",59
Sample,50413,0,"D#5S_Eb5S_s.wav",71
Sample,50468,0,"C7S_s.wav",45
Sample,50553,0,"A#6S_Bb6S_s.wav",42
Sample,50663,0,"F6S.wav",46
Sample,50668,0,"G#6S_Ab6S.wav",58
Sample,50672,0,"D#5S_Eb5S_s.wav",84
Sample,50673,0,"G#5S_Ab5S_s.wav",84
Sample,50678,0,"C5S_s.wav",84
Sample,50801,0,"G#3S_Ab3S_s.wav",91
Sample,51003,0,"D#5S_Eb5S_s.wav",63
Sample,51005,0,"G#5S_Ab5S_s.wav",52
Sample,51009,0,"C5S_s.wav",56
Sample,51201,0,"D#3S_Eb3S_s.wav",97
Sample,51201,0,"D#6S_Eb6S.wav",48
Sample,51209,0,"G6S_s.wav",59
Sample,51210,0,"D#5S_Eb5S_s.wav",66
Sample,51214,0,"G5S_s.wav",72
Sample,51222,0,"A#4S_Bb4S_s.wav",39
Sample,51301,0,"F#6S_Gb6S_s.wav",59
Sample,51401,0,"G6S.wav",59
Sample,51501,0,"G5S_s.wav",79
Sample,51502,0,"D#5S_Eb5S_s.wav",66
Sample,51505,0,"A#4S_Bb4S_s.wav",39
Sample,51601,0,"D#3S_Eb3S_s.wav",100
Sample,51814,0,"A#4S_Bb4S_s.wav",64
Sample,51822,0,"D#5S_Eb5S_s.wav",64
Sample,51827,0,"G5S_s.wav",64
Sample,52001,0,"D#3S_Eb3S_s.wav",96
Sample,52020,0,"A#4S_Bb4S_s.wav",63
Sample,52022,0,"D#5S_Eb5S_s.wav",63
Sample,52026,0,"G5S_s.wav",63
Sample,52201,0,"A#6S_Bb6S_s.wav",73
Sample,52201,0,"G6S_s.wav",61
Sample,52301,0,"G5S_s.wav",79
Sample,52301,0,"A#4S_Bb4S_s.wav",79
Sample,52301,0,"D#5S_Eb5S_s.wav",81
Sample,52401,0,"D#3S_Eb3S_s.wav",100
Sample,52501,0,"G#6S_Ab6S_s.wav",79
Sample,52501,0,"F6S_s.wav",67
Sample,52601,0,"G5S_s.wav",61
Sample,52601,0,"D#5S_Eb5S_s.wav",70
Sample,52601,0,"A#4S_Bb4S_s.wav",67
Sample,52801,0,"G3S_s.wav",100
Sample,52801,0,"G6S_s.wav",66
Sample,52801,0,"D#6S_Eb6S_s.wav",54
Sample,52826,0,"B4S_s.wav",71
Sample,52830,0,"G5S_s.wav",71
Sample,52831,0,"D5S_s.wav",71
Sample,53101,0,"G5S_s.wav",88
Sample,53103,0,"B4S_s.wav",51
Sample,53105,0,"D5S_s.wav",62
Sample,53201,0,"G3S_s.wav",100
Sample,53201,0,"G6S_s.wav",60
Sample,53301,0,"F#6S_Gb6S_s.wav",60
Sample,53401,0,"D5S_s.wav",61
Sample,53401,0,"B4S_s.wav",50
Sample,53401,0,"G6S_s.wav",56
Sample,53402,0,"G5S_s.wav",54
Sample,53501,0,"G#6S_Ab6S_s.wav",56
Sample,53601,0,"D#6S_Eb6S_s.wav",40
Sample,53601,0,"G3S_s.wav",100
Sample,53601,0,"G6S_s.wav",51
Sample,53634,0,"D5S_s.wav",72
Sample,53635,0,"B4S_s.wav",57
Sample,53638,0,"G5S_s.wav",65
Sample,53801,0,"F6S_s.wav",44
Sample,53901,0,"G5S_s.wav",88
Sample,53901,0,"D5S_s.wav",88
Sample,53903,0,"B4S_s.wav",88
Sample,54001,0,"A5S_s.wav",76
Sample,54001,0,"G3S_s.wav",100
Sample,54001,0,"D#6S_Eb6S_s.wav",60
Sample,54201,0,"D5S_s.wav",88
Sample,54201,0,"B5S_s.wav",56
Sample,54201,0,"D6S_s.wav",56
Sample,54201,0,"G5S_s.wav",88
Sample,54203,0,"B4S_s.wav",88
Sample,54401,0,"C6S.wav",68
Sample,54401,0,"G5S_s.wav",66
Sample,54401,0,"C4S_s.wav",100
Sample,54402,0,"D#5S_Eb5S_s.wav",68
Sample,54411,0,"C5S_s.wav",58
Sample,54601,0,"D#6S_Eb6S.wav",68
Sample,54703,0,"G5S_s.wav",88
Sample,54707,0,"D#5S_Eb5S_s.wav",88
Sample,54709,0,"C5S_s.wav",88
Sample,54801,0,"C4S_s.wav",100
Sample,54993,0,"G5S_s.wav",49
Sample,54994,0,"D#5S_Eb5S_s.wav",62
Sample,55001,0,"C5S_s.wav",55
Sample,55201,0,"C4S_s.wav",100
Sample,55201,0,"D6S_s.wav",68
Sample,55201,0,"B5S_s.wav",68
Sample,55210,0,"G5S_s.wav",54
Sample,55213,0,"C5S_s.wav",59
Sample,55213,0,"D#5S_Eb5S_s.wav",71
Sample,55401,0,"C6S.wav",68
Sample,55401,0,"G5S.wav",68
Sample,55472,0,"D#5S_Eb5S_s.wav",84
Sample,55473,0,"G5S_s.wav",84
Sample,55478,0,"C5S_s.wav",84
Sample,55601,0,"C4S_s.wav",100
Sample,55801,0,"G6S_s.wav",53
Sample,55803,0,"D#5S_Eb5S_s.wav",63
Sample,55805,0,"G5S_s.wav",52
Sample,55809,0,"C5S_s.wav",56
Sample,55814,0,"A#6S_Bb6S_s.wav",65
Sample,56001,0,"G#6S_Ab6S_s.wav",44
Sample,56001,0,"G#5S_Ab5S_s.wav",66
Sample,56001,0,"G#3S_Ab3S_s.wav",100
Sample,56002,0,"D#5S_Eb5S_s.wav",68
Sample,56011,0,"C5S_s.wav",58
Sample,56023,0,"C7S_s.wav",55
Sample,56251,0,"G#6S_Ab6S.wav",56
Sample,56253,0,"C7S.wav",68
Sample,56303,0,"G#5S_Ab5S_s.wav",81
Sample,56307,0,"D#5S_Eb5S_s.wav",81
Sample,56309,0,"C5S_s.wav",81
Sample,56401,0,"G#3S_Ab3S_s.wav",100
Sample,56593,0,"G#5S_Ab5S_s.wav",49
Sample,56594,0,"D#5S_Eb5S_s.wav",62
Sample,56601,0,"C5S_s.wav",62
Sample,56801,0,"G#3S_Ab3S_s.wav",100
Sample,56801,0,"A#6S_Bb6S_s.wav",53
Sample,56801,0,"G6S_s.wav",53
Sample,56810,0,"G#5S_Ab5S_s.wav",62
Sample,56813,0,"C5S_s.wav",59
Sample,56813,0,"D#5S_Eb5S_s.wav",71
Sample,57072,0,"D#5S_Eb5S_s.wav",84
Sample,57073,0,"G#5S_Ab5S_s.wav",84
Sample,57078,0,"C5S_s.wav",84
Sample,57201,0,"F6S_s.wav",65
Sample,57201,0,"G#3S_Ab3S_s.wav",94
Sample,57201,0,"G#6S_Ab6S_s.wav",62
Sample,57403,0,"D#5S_Eb5S_s.wav",63
Sample,57405,0,"G#5S_Ab5S_s.wav",52
Sample,57409,0,"C5S_s.wav",56
Sample,57601,0,"D#3S_Eb3S_s.wav",100
Sample,57610,0,"D#5S_Eb5S_s.wav",66
Sample,57614,0,"G5S_s.wav",72
Sample,57619,0,"G6S.wav",62
Sample,57622,0,"A#4S_Bb4S_s.wav",39
Sample,57901,0,"G5S_s.wav",79
Sample,57902,0,"D#5S_Eb5S_s.wav",66
Sample,57905,0,"A#4S_Bb4S_s.wav",39
Sample,58001,0,"D#3S_Eb3S_s.wav",100
Sample,58214,0,"A#4S_Bb4S_s.wav",64
Sample,58222,0,"D#5S_Eb5S_s.wav",64
Sample,58227,0,"G5S_s.wav",64
Sample,58401,0,"D#3S_Eb3S_s.wav",100
Sample,58419,0,"G6S_s.wav",53
Sample,58420,0,"A#4S_Bb4S_s.wav",63
Sample,58422,0,"D#5S_Eb5S_s.wav",63
Sample,58426,0,"G5S_s.wav",63
Sample,58619,0,"D7S_s.wav",53
Sample,58619,0,"B6S_s.wav",53
Sample,58701,0,"A#4S_Bb4S_s.wav",79
Sample,58701,0,"D#5S_Eb5S_s.wav",81
Sample,58701,0,"G5S_s.wav",79
Sample,58801,0,"D#3S_Eb3S_s.wav",100
Sample,59001,0,"D#5S_Eb5S_s.wav",70
Sample,59001,0,"A#4S_Bb4S_s.wav",67
Sample,59001,0,"G5S_s.wav",61
Sample,59019,0,"C7S_s.wav",53
Sample,59019,0,"G#6S_Ab6S_s.wav",53
Sample,59201,0,"G3S_s.wav",100
Sample,59201,0,"G6S_s.wav",66
Sample,59226,0,"B4S_s.wav",71
Sample,59230,0,"G5S_s.wav",71
Sample,59231,0,"D5S_s.wav",71
Sample,59301,0,"G#6S_Ab6S_s.wav",66
Sample,59401,0,"G6S_s.wav",80
Sample,59469,0,"D#6S_Eb6S.wav",93
Sample,59472,0,"B5S.wav",93
Sample,59501,0,"G5S_s.wav",88
Sample,59501,0,"F#6S_Gb6S_s.wav",70
Sample,59503,0,"B4S_s.wav",51
Sample,59505,0,"D5S_s.wav",62
Sample,59601,0,"G3S_s.wav",99
Sample,59619,0,"G6S_s.wav",66
Sample,59719,0,"G#6S_Ab6S_s.wav",66
Sample,59801,0,"D5S_s.wav",61
Sample,59801,0,"B4S_s.wav",50
Sample,59802,0,"G5S_s.wav",54
Sample,59819,0,"G6S_s.wav",80
Sample,59919,0,"F#6S_Gb6S_s.wav",70
Sample,60001,0,"G3S_s.wav",100
Sample,60019,0,"G6S_s.wav",69
Sample,60034,0,"D5S_s.wav",72
Sample,60035,0,"B4S_s.wav",57
Sample,60038,0,"G5S_s.wav",65
Sample,60205,0,"C6S_s.wav",66
Sample,60218,0,"F6S_s.wav",66
Sample,60243,0,"D6S_s.wav",66
Sample,60293,0,"G6S_s.wav",64
Sample,60301,0,"G5S_s.wav",88
Sample,60301,0,"D5S_s.wav",88
Sample,60303,0,"B4S_s.wav",88
Sample,60318,0,"E6S_s.wav",64
Sample,60369,0,"G#6S_Ab6S_s.wav",70
Sample,60394,0,"F6S_s.wav",70
Sample,60401,0,"G3S_s.wav",100
Sample,60438,0,"A#6S_Bb6S_s.wav",76
Sample,60463,0,"G6S_s.wav",76
Sample,60509,0,"C7S_s.wav",74
Sample,60534,0,"A6S_s.wav",74
Sample,60588,0,"D7S_s.wav",71
Sample,60601,0,"G5S_s.wav",88
Sample,60601,0,"D5S_s.wav",88
Sample,60603,0,"B4S_s.wav",88
Sample,60613,0,"B6S_s.wav",71
Sample,60776,0,"D#7S_Eb7S.wav",85
Sample,60788,0,"C7S.wav",85
Sample,60801,0,"C4S_s.wav",92
Sample,60801,0,"C4S_s.wav",100
Sample,60801,0,"G5S_s.wav",69
Sample,60801,0,"C5S_s.wav",79
Sample,60801,0,"D#5S_Eb5S_s.wav",68
Sample,61001,0,"C5S_s.wav",68
Sample,61001,0,"D#5S_Eb5S_s.wav",51
Sample,61001,0,"G5S_s.wav",63
Sample,61201,0,"A#3S_Bb3S_s.wav",100
Sample,61401,0,"C5S_s.wav",70
Sample,61401,0,"G5S_s.wav",65
Sample,61401,0,"D#5S_Eb5S_s.wav",57
Sample,61601,0,"G#3S_Ab3S_s.wav",92
Sample,61601,0,"G#3S_Ab3S_s.wav",100
Sample,61601,0,"D#5S_Eb5S_s.wav",73
Sample,61601,0,"C5S_s.wav",87
Sample,61601,0,"G#5S_Ab5S_s.wav",62
Sample,61801,0,"C5S_s.wav",81
Sample,61801,0,"D#5S_Eb5S_s.wav",66
Sample,61801,0,"G#5S_Ab5S_s.wav",58
Sample,62001,0,"F3S_s.wav",100
Sample,62201,0,"C5S_s.wav",81
Sample,62201,0,"D#5S_Eb5S_s.wav",66
Sample,62201,0,"G#5S_Ab5S_s.wav",58
Sample,62401,0,"A#3S_Bb3S_s.wav",96
Sample,62401,0,"A#3S_Bb3S_s.wav",100
Sample,62401,0,"F5S_s.wav",76
Sample,62401,0,"D5S_s.wav",74
Sample,62401,0,"A#4S_Bb4S_s.wav",66
Sample,62601,0,"A#4S_Bb4S_s.wav",57
Sample,62601,0,"F5S_s.wav",66
Sample,62601,0,"D5S_s.wav",68
Sample,62801,0,"D3S_s.wav",100
Sample,63001,0,"F5S_s.wav",63
Sample,63001,0,"D5S_s.wav",66
Sample,63001,0,"A#4S_Bb4S_s.wav",61
Sample,63201,0,"G3S_s.wav",89
Sample,63201,0,"G3S_s.wav",99
Sample,63201,0,"G5S_s.wav",69
Sample,63201,0,"B4S_s.wav",72
Sample,63201,0,"D5S_s.wav",67
Sample,63401,0,"B4S_s.wav",72
Sample,63401,0,"D5S_s.wav",67
Sample,63401,0,"G5S_s.wav",70
Sample,63401,0,"G5S_s.wav",71
Sample,63601,0,"B3S_s.wav",100
Sample,63801,0,"D5S_s.wav",64
Sample,63801,0,"B4S_s.wav",65
Sample,63801,0,"G5S_s.wav",62
Sample,64001,0,"C5S_s.wav",75
Sample,64001,0,"G5S_s.wav",69
Sample,64001,0,"D#5S_Eb5S_s.wav",61
Sample,64001,0,"C4S_s.wav",100
Sample,64001,0,"C4S_s.wav",100
Sample,64201,0,"D#5S_Eb5S_s.wav",66
Sample,64201,0,"C5S_s.wav",72
Sample,64201,0,"G5S_s.wav",68
Sample,64401,0,"G#3S_Ab3S_s.wav",100
Sample,64601,0,"G5S_s.wav",59
Sample,64601,0,"C5S_s.wav",64
Sample,64601,0,"D#5S_Eb5S_s.wav",52
Sample,64801,0,"A#4S_Bb4S_s.wav",62
Sample,64801,0,"A#3S_Bb3S_s.wav",100
Sample,64801,0,"D5S_s.wav",65
Sample,64801,0,"A#3S_Bb3S_s.wav",100
Sample,64801,0,"A#3S_Bb3S_s.wav",100
Sample,64801,0,"A#4S_Bb4S_s.wav",64
Sample,64801,0,"D5S_s.wav",70
Sample,64801,0,"F5S_s.wav",71
Sample,65001,0,"D5S_s.wav",70
Sample,65001,0,"A#4S_Bb4S_s.wav",64
Sample,65001,0,"F5S_s.wav",69
Sample,65101,0,"A#4S_Bb4S_s.wav",74
Sample,65101,0,"D5S_s.wav",77
Sample,65201,0,"A#3S_Bb3S_s.wav",100
Sample,65401,0,"D5S_s.wav",70
Sample,65401,0,"A#4S_Bb4S_s.wav",64
Sample,65401,0,"F5S_s.wav",69
Sample,65601,0,"D#3S_Eb3S_s.wav",100
Sample,65601,0,"D#3S_Eb3S_s.wav",100
Sample,65601,0,"A#4S_Bb4S_s.wav",66
Sample,65601,0,"D#5S_Eb5S_s.wav",66
Sample,65601,0,"G5S_s.wav",68
Sample,65801,0,"D#5S_Eb5S_s.wav",66
Sample,65801,0,"G5S_s.wav",69
Sample,65801,0,"A#4S_Bb4S_s.wav",68
Sample,65801,0,"A#4S_Bb4S_s.wav",74
Sample,66001,0,"G3S_s.wav",100
Sample,66001,0,"G3S_s.wav",100
Sample,66201,0,"D#5S_Eb5S_s.wav",54
Sample,66201,0,"A#4S_Bb4S_s.wav",57
Sample,66201,0,"G5S_s.wav",59
Sample,66401,0,"B3S_s.wav",100
Sample,66401,0,"B3S_s.wav",100
Sample,66401,0,"D5S_s.wav",77
Sample,66401,0,"B4S_s.wav",76
Sample,66401,0,"G5S_s.wav",68
Sample,66601,0,"B4S_s.wav",76
Sample,66601,0,"G5S_s.wav",71
Sample,66601,0,"D5S_s.wav",70
Sample,66601,0,"D5S_s.wav",69
Sample,66801,0,"D4S_s.wav",100
Sample,66801,0,"D4S_s.wav",100
Sample,67001,0,"B4S_s.wav",63
Sample,67001,0,"D5S_s.wav",62
Sample,67001,0,"G5S_s.wav",60
Sample,67201,0,"G5S_s.wav",66
Sample,67201,0,"C5S_s.wav",66
Sample,67201,0,"D#5S_Eb5S_s.wav",55
Sample,67201,0,"C4S_s.wav",100
Sample,67401,0,"G5S_s.wav",70
Sample,67401,0,"C5S_s.wav",80
Sample,67401,0,"D#5S_Eb5S_s.wav",64
Sample,67601,0,"A#3S_Bb3S_s.wav",100
Sample,67801,0,"G5S_s.wav",67
Sample,67801,0,"D#5S_Eb5S_s.wav",59
Sample,67801,0,"C5S_s.wav",79
Sample,68001,0,"C5S_s.wav",84
Sample,68001,0,"G#5S_Ab5S_s.wav",62
Sample,68001,0,"D#5S_Eb5S_s.wav",74
Sample,68001,0,"G#3S_Ab3S_s.wav",92
Sample,68001,0,"G#3S_Ab3S_s.wav",100
Sample,68201,0,"G#5S_Ab5S_s.wav",59
Sample,68201,0,"C5S_s.wav",80
Sample,68201,0,"D#5S_Eb5S_s.wav",66
Sample,68401,0,"F3S_s.wav",100
Sample,68601,0,"G#5S_Ab5S_s.wav",58
Sample,68601,0,"D#5S_Eb5S_s.wav",60
Sample,68601,0,"C5S_s.wav",81
Sample,68801,0,"D5S_s.wav",63
Sample,68801,0,"F#5S_Gb5S_s.wav",58
Sample,68801,0,"A4S_s.wav",77
Sample,68801,0,"D3S_s.wav",92
Sample,68801,0,"D3S_s.wav",100
Sample,69001,0,"F#5S_Gb5S_s.wav",56
Sample,69001,0,"D5S_s.wav",67
Sample,69001,0,"A4S_s.wav",80
Sample,69201,0,"D3S_s.wav",100
Sample,69401,0,"F#5S_Gb5S_s.wav",51
Sample,69401,0,"D5S_s.wav",55
Sample,69401,0,"A4S_s.wav",74
Sample,69601,0,"D5S_s.wav",65
Sample,69601,0,"F#5S_Gb5S_s.wav",55
Sample,69601,0,"A4S_s.wav",75
Sample,69601,0,"F#3S_Gb3S_s.wav",92
Sample,69601,0,"F#3S_Gb3S_s.wav",100
Sample,69801,0,"F#5S_Gb5S_s.wav",68
Sample,69801,0,"D5S_s.wav",76
Sample,69801,0,"A4S_s.wav",88
Sample,70001,0,"A3S_s.wav",100
Sample,70201,0,"D5S_s.wav",62
Sample,70201,0,"F#5S_Gb5S_s.wav",54
Sample,70201,0,"A4S_s.wav",77
Sample,70401,0,"D5S_s.wav",69
Sample,70401,0,"G5S_s.wav",71
Sample,70401,0,"B4S_s.wav",76
Sample,70401,0,"G3S_s.wav",92
Sample,70401,0,"G3S_s.wav",100
Sample,70601,0,"D5S_s.wav",70
Sample,70601,0,"G5S_s.wav",68
Sample,70601,0,"B4S_s.wav",73
Sample,70801,0,"G3S_s.wav",92
Sample,70801,0,"G3S_s.wav",100
Sample,71001,0,"G5S_s.wav",61
Sample,71001,0,"D5S_s.wav",64
Sample,71001,0,"B4S_s.wav",70
Sample,71201,0,"A3S_s.wav",92
Sample,71201,0,"A3S_s.wav",100
Sample,71201,0,"B4S_s.wav",69
Sample,71201,0,"D5S_s.wav",66
Sample,71201,0,"G5S_s.wav",66
Sample,71401,0,"B4S_s.wav",76
Sample,71401,0,"D5S_s.wav",72
Sample,71401,0,"G5S_s.wav",71
Sample,71601,0,"B3S_s.wav",92
Sample,71601,0,"B3S_s.wav",100
Sample,71801,0,"D5S_s.wav",66
Sample,71801,0,"G5S_s.wav",62
Sample,71801,0,"B4S_s.wav",68
Sample,72001,0,"C5S_s.wav",70
Sample,72001,0,"G5S_s.wav",74
Sample,72001,0,"D#5S_Eb5S_s.wav",63
Sample,72001,0,"C4S_s.wav",92
Sample,72001,0,"C4S_s.wav",100
Sample,72201,0,"F#5S_Gb5S_s.wav",88
Sample,72201,0,"G5S_s.wav",68
Sample,72201,0,"C5S_s.wav",81
Sample,72201,0,"F#5S_Gb5S_s.wav",88
Sample,72201,0,"D#5S_Eb5S_s.wav",68
Sample,72401,0,"A3S_s.wav",100
Sample,72601,0,"G5S_s.wav",92
Sample,72601,0,"D5S_s.wav",43
Sample,72601,0,"G5S_s.wav",53
Sample,72601,0,"G5S_s.wav",92
Sample,72601,0,"B4S_s.wav",55
Sample,72801,0,"D#6S_Eb6S_s.wav",100
Sample,72801,0,"D4S_s.wav",92
Sample,72801,0,"D#6S_Eb6S_s.wav",100
Sample,72801,0,"D4S_s.wav",100
Sample,72801,0,"D4S_s.wav",92
Sample,72801,0,"G5S_s.wav",74
Sample,72801,0,"B4S_s.wav",70
Sample,72801,0,"D5S_s.wav",63
Sample,73001,0,"B4S_s.wav",81
Sample,73001,0,"D5S_s.wav",68
Sample,73001,0,"G5S_s.wav",68
Sample,73101,0,"D6S_s.wav",100
Sample,73101,0,"D6S_s.wav",100
Sample,73201,0,"G3S_s.wav",92
Sample,73201,0,"G3S_s.wav",100
Sample,73401,0,"B5S_s.wav",97
Sample,73401,0,"B5S_s.wav",97
Sample,73601,0,"C4S_s.wav",92
Sample,73601,0,"D#5S_Eb5S_s.wav",68
Sample,73601,0,"C4S_s.wav",92
Sample,73601,0,"C6S.wav",93
Sample,73601,0,"C5S_s.wav",79
Sample,73601,0,"C4S_s.wav",100
Sample,73601,0,"G5S_s.wav",69
Sample,73601,0,"C6S.wav",97
Sample,73601,0,"C6S.wav",100
Sample,73801,0,"C5S_s.wav",68
Sample,73801,0,"D#5S_Eb5S_s.wav",51
Sample,73801,0,"G5S_s.wav",63
Sample,74001,0,"A#3S_Bb3S_s.wav",99
Sample,74001,0,"A#3S_Bb3S_s.wav",100
Sample,74201,0,"D#5S_Eb5S_s.wav",57
Sample,74201,0,"C5S_s.wav",70
Sample,74201,0,"G5S_s.wav",65
Sample,74401,0,"C5S_s.wav",87
Sample,74401,0,"G#5S_Ab5S_s.wav",62
Sample,74401,0,"D#5S_Eb5S_s.wav",73
Sample,74401,0,"G#3S_Ab3S_s.wav",92
Sample,74401,0,"G#3S_Ab3S_s.wav",100
Sample,74601,0,"G#5S_Ab5S_s.wav",58
Sample,74601,0,"C5S_s.wav",81
Sample,74601,0,"D#5S_Eb5S_s.wav",66
Sample,74801,0,"F3S_s.wav",93
Sample,74801,0,"F3S_s.wav",100
Sample,74801,0,"G#4S_Ab4S_s.wav",74
Sample,74801,0,"F3S_s.wav",93
Sample,75001,0,"C5S_s.wav",81
Sample,75001,0,"D#5S_Eb5S_s.wav",66
Sample,75001,0,"G#5S_Ab5S_s.wav",58
Sample,75201,0,"A#3S_Bb3S_s.wav",96
Sample,75201,0,"A#3S_Bb3S_s.wav",100
Sample,75201,0,"F5S_s.wav",76
Sample,75201,0,"D5S_s.wav",74
Sample,75201,0,"A#4S_Bb4S_s.wav",66
Sample,75401,0,"A#4S_Bb4S_s.wav",57
Sample,75401,0,"F5S_s.wav",66
Sample,75401,0,"D5S_s.wav",68
Sample,75601,0,"A#4S_Bb4S_s.wav",74
Sample,75601,0,"D3S_s.wav",92
Sample,75601,0,"D3S_s.wav",92
Sample,75601,0,"D3S_s.wav",100
Sample,75801,0,"A#4S_Bb4S_s.wav",61
Sample,75801,0,"F5S_s.wav",63
Sample,75801,0,"D5S_s.wav",66
Sample,76001,0,"G4S_s.wav",71
Sample,76001,0,"G3S_s.wav",89
Sample,76001,0,"B4S_s.wav",74
Sample,76001,0,"G3S_s.wav",99
Sample,76001,0,"G3S_s.wav",89
Sample,76001,0,"D5S_s.wav",67
Sample,76001,0,"B4S_s.wav",72
Sample,76001,0,"G5S_s.wav",69
Sample,76201,0,"B4S_s.wav",72
Sample,76201,0,"G5S_s.wav",70
Sample,76201,0,"D5S_s.wav",67
Sample,76401,0,"B4S_s.wav",74
Sample,76401,0,"B3S_s.wav",100
Sample,76401,0,"B3S_s.wav",100
Sample,76401,0,"B3S_s.wav",100
Sample,76601,0,"D5S_s.wav",64
Sample,76601,0,"B4S_s.wav",65
Sample,76601,0,"G5S_s.wav",62
Sample,76801,0,"C4S_s.wav",100
Sample,76801,0,"C5S_s.wav",75
Sample,76801,0,"C5S_s.wav",74
Sample,76801,0,"C4S_s.wav",100
Sample,76801,0,"D#5S_Eb5S_s.wav",61
Sample,76801,0,"G5S_s.wav",69
Sample,76801,0,"C4S_s.wav",100
Sample,77001,0,"D#5S_Eb5S_s.wav",66
Sample,77001,0,"C5S_s.wav",72
Sample,77001,0,"G5S_s.wav",68
Sample,77201,0,"G#3S_Ab3S_s.wav",100
Sample,77201,0,"G#3S_Ab3S_s.wav",100
Sample,77201,0,"C5S_s.wav",74
Sample,77201,0,"G#3S_Ab3S_s.wav",100
Sample,77401,0,"C5S_s.wav",64
Sample,77401,0,"D#5S_Eb5S_s.wav",52
Sample,77401,0,"G5S_s.wav",59
Sample,77601,0,"A#4S_Bb4S_s.wav",64
Sample,77601,0,"F5S_s.wav",77
Sample,77601,0,"A#3S_Bb3S_s.wav",100
Sample,77601,0,"D5S_s.wav",74
Sample,77601,0,"F5S_s.wav",71
Sample,77601,0,"A#3S_Bb3S_s.wav",100
Sample,77601,0,"D5S_s.wav",70
Sample,77601,0,"A#3S_Bb3S_s.wav",100
Sample,77801,0,"F5S_s.wav",69
Sample,77801,0,"D5S_s.wav",70
Sample,77801,0,"A#4S_Bb4S_s.wav",64
Sample,78001,0,"A#3S_Bb3S_s.wav",100
Sample,78001,0,"A#3S_Bb3S_s.wav",100
Sample,78001,0,"D5S_s.wav",74
Sample,78001,0,"A#3S_Bb3S_s.wav",100
Sample,78201,0,"D5S_s.wav",70
Sample,78201,0,"A#4S_Bb4S_s.wav",64
Sample,78201,0,"F5S_s.wav",69
Sample,78401,0,"D#3S_Eb3S_s.wav",100
Sample,78401,0,"D#3S_Eb3S_s.wav",100
Sample,78401,0,"A#4S_Bb4S_s.wav",66
Sample,78401,0,"D#5S_Eb5S_s.wav",66
Sample,78401,0,"G5S_s.wav",68
Sample,78601,0,"D#5S_Eb5S_s.wav",66
Sample,78601,0,"A#4S_Bb4S_s.wav",68
Sample,78601,0,"G5S_s.wav",69
Sample,78801,0,"G3S_s.wav",100
Sample,78801,0,"G3S_s.wav",100
Sample,78801,0,"D#5S_Eb5S_s.wav",74
Sample,78801,0,"G3S_s.wav",100
Sample,78801,0,"G5S_s.wav",77
Sample,79001,0,"D#5S_Eb5S_s.wav",54
Sample,79001,0,"A#4S_Bb4S_s.wav",57
Sample,79001,0,"G5S_s.wav",59
Sample,79201,0,"B3S_s.wav",100
Sample,79201,0,"B3S_s.wav",100
Sample,79201,0,"D5S_s.wav",77
Sample,79201,0,"B4S_s.wav",76
Sample,79201,0,"G5S_s.wav",68
Sample,79401,0,"B4S_s.wav",76
Sample,79401,0,"D5S_s.wav",70
Sample,79401,0,"G5S_s.wav",71
Sample,79601,0,"D4S_s.wav",100
Sample,79601,0,"D4S_s.wav",100
Sample,79601,0,"B4S_s.wav",74
Sample,79601,0,"D4S_s.wav",100
Sample,79601,0,"D5S_s.wav",77
Sample,79801,0,"B4S_s.wav",63
Sample,79801,0,"D5S_s.wav",62
Sample,79801,0,"G5S_s.wav",60
Sample,80001,0,"G5S_s.wav",66
Sample,80001,0,"C5S_s.wav",66
Sample,80001,0,"D#5S_Eb5S_s.wav",55
Sample,80001,0,"C4S_s.wav",100
Sample,80201,0,"G5S_s.wav",70
Sample,80201,0,"C5S_s.wav",80
Sample,80201,0,"D#5S_Eb5S_s.wav",64
Sample,80401,0,"A#3S_Bb3S_s.wav",100
Sample,80601,0,"G5S_s.wav",67
Sample,80601,0,"D#5S_Eb5S_s.wav",59
Sample,80601,0,"C5S_s.wav",79
Sample,80801,0,"C5S_s.wav",84
Sample,80801,0,"G#5S_Ab5S_s.wav",62
Sample,80801,0,"D#5S_Eb5S_s.wav",74
Sample,80801,0,"G#3S_Ab3S_s.wav",92
Sample,80801,0,"G#3S_Ab3S_s.wav",100
Sample,81001,0,"G#5S_Ab5S_s.wav",59
Sample,81001,0,"C5S_s.wav",80
Sample,81001,0,"D#5S_Eb5S_s.wav",66
Sample,81201,0,"F3S_s.wav",100
Sample,81401,0,"G#5S_Ab5S_s.wav",58
Sample,81401,0,"D#5S_Eb5S_s.wav",60
Sample,81401,0,"C5S_s.wav",81
Sample,81601,0,"D5S_s.wav",63
Sample,81601,0,"F#5S_Gb5S_s.wav",58
Sample,81601,0,"A4S_s.wav",77
Sample,81601,0,"D3S_s.wav",92
Sample,81601,0,"D3S_s.wav",100
Sample,81801,0,"F#5S_Gb5S_s.wav",56
Sample,81801,0,"D5S_s.wav",67
Sample,81801,0,"A4S_s.wav",80
Sample,82001,0,"D3S_s.wav",92
Sample,82001,0,"D3S_s.wav",100
Sample,82001,0,"A4S_s.wav",71
Sample,82001,0,"D3S_s.wav",92
Sample,82201,0,"D5S_s.wav",55
Sample,82201,0,"A4S_s.wav",74
Sample,82201,0,"F#5S_Gb5S_s.wav",51
Sample,82401,0,"F#3S_Gb3S_s.wav",92
Sample,82401,0,"F#3S_Gb3S_s.wav",100
Sample,82401,0,"A4S_s.wav",75
Sample,82401,0,"D5S_s.wav",65
Sample,82401,0,"F#5S_Gb5S_s.wav",55
Sample,82601,0,"D5S_s.wav",76
Sample,82601,0,"A4S_s.wav",88
Sample,82601,0,"F#5S_Gb5S_s.wav",68
Sample,82801,0,"D5S_s.wav",74
Sample,82801,0,"A3S_s.wav",92
Sample,82801,0,"A3S_s.wav",92
Sample,82801,0,"A3S_s.wav",100
Sample,83001,0,"D5S_s.wav",62
Sample,83001,0,"F#5S_Gb5S_s.wav",54
Sample,83001,0,"A4S_s.wav",77
Sample,83201,0,"D5S_s.wav",69
Sample,83201,0,"G5S_s.wav",71
Sample,83201,0,"B4S_s.wav",76
Sample,83201,0,"G3S_s.wav",92
Sample,83201,0,"G3S_s.wav",100
Sample,83401,0,"D5S_s.wav",70
Sample,83401,0,"G5S_s.wav",68
Sample,83401,0,"B4S_s.wav",73
Sample,83601,0,"G3S_s.wav",92
Sample,83601,0,"G3S_s.wav",100
Sample,83801,0,"G5S_s.wav",61
Sample,83801,0,"D5S_s.wav",64
Sample,83801,0,"B4S_s.wav",70
Sample,84001,0,"A3S_s.wav",92
Sample,84001,0,"A3S_s.wav",100
Sample,84001,0,"B4S_s.wav",69
Sample,84001,0,"D5S_s.wav",66
Sample,84001,0,"G5S_s.wav",66
Sample,84201,0,"B4S_s.wav",76
Sample,84201,0,"D5S_s.wav",72
Sample,84201,0,"G5S_s.wav",71
Sample,84401,0,"B3S_s.wav",92
Sample,84401,0,"B3S_s.wav",100
Sample,84601,0,"D5S_s.wav",66
Sample,84601,0,"G5S_s.wav",62
Sample,84601,0,"B4S_s.wav",68
Sample,84801,0,"C5S_s.wav",70
Sample,84801,0,"G5S_s.wav",74
Sample,84801,0,"D#5S_Eb5S_s.wav",63
Sample,84801,0,"C4S_s.wav",92
Sample,84801,0,"C4S_s.wav",100
Sample,85001,0,"F#5S_Gb5S_s.wav",88
Sample,85001,0,"G5S_s.wav",68
Sample,85001,0,"C5S_s.wav",81
Sample,85001,0,"F#5S_Gb5S_s.wav",88
Sample,85001,0,"D#5S_Eb5S_s.wav",68
Sample,85201,0,"A3S_s.wav",100
Sample,85401,0,"G5S_s.wav",92
Sample,85401,0,"D5S_s.wav",43
Sample,85401,0,"G5S_s.wav",53
Sample,85401,0,"G5S_s.wav",92
Sample,85401,0,"B4S_s.wav",55
Sample,85601,0,"D#6S_Eb6S_s.wav",100
Sample,85601,0,"D4S_s.wav",92
Sample,85601,0,"D#6S_Eb6S_s.wav",100
Sample,85601,0,"D4S_s.wav",100
Sample,85601,0,"D4S_s.wav",92
Sample,85601,0,"G5S_s.wav",74
Sample,85601,0,"B4S_s.wav",70
Sample,85601,0,"D5S_s.wav",63
Sample,85801,0,"B4S_s.wav",81
Sample,85801,0,"D5S_s.wav",68
Sample,85801,0,"G5S_s.wav",68
Sample,85901,0,"D6S_s.wav",100
Sample,85901,0,"D6S_s.wav",100
Sample,86001,0,"G3S_s.wav",92
Sample,86001,0,"G3S_s.wav",100
Sample,86201,0,"B5S_s.wav",97
Sample,86201,0,"B5S_s.wav",97
Sample,86401,0,"C6S.wav",97
Sample,86401,0,"C4S_s.wav",88
Sample,86401,0,"C6S.wav",100
Sample,86401,0,"C6S.wav",92
Sample,86401,0,"G5S_s.wav",78
Sample,86402,0,"D#5S_Eb5S_s.wav",80
Sample,86411,0,"C5S_s.wav",70
Sample,86703,0,"G5S_s.wav",100
Sample,86707,0,"D#5S_Eb5S_s.wav",100
Sample,86709,0,"C5S_s.wav",100
Sample,86801,0,"C4S_s.wav",91
Sample,86993,0,"G5S_s.wav",61
Sample,86994,0,"D#5S_Eb5S_s.wav",74
Sample,87001,0,"C5S_s.wav",67
Sample,87201,0,"C4S_s.wav",97
Sample,87210,0,"G5S_s.wav",66
Sample,87213,0,"C5S_s.wav",70
Sample,87213,0,"D#5S_Eb5S_s.wav",83
Sample,87472,0,"D#5S_Eb5S_s.wav",96
Sample,87473,0,"G5S_s.wav",96
Sample,87478,0,"C5S_s.wav",96
Sample,87601,0,"C4S_s.wav",92
Sample,87801,0,"G6S_s.wav",53
Sample,87803,0,"D#5S_Eb5S_s.wav",75
Sample,87805,0,"G5S_s.wav",64
Sample,87809,0,"C5S_s.wav",68
Sample,87814,0,"A#6S_Bb6S_s.wav",65
Sample,88001,0,"G#5S_Ab5S_s.wav",78
Sample,88001,0,"G#3S_Ab3S_s.wav",88
Sample,88001,0,"G#6S_Ab6S_s.wav",44
Sample,88002,0,"D#5S_Eb5S_s.wav",80
Sample,88011,0,"C5S_s.wav",70
Sample,88023,0,"C7S_s.wav",55
Sample,88251,0,"G#6S_Ab6S_s.wav",56
Sample,88253,0,"C7S_s.wav",68
Sample,88303,0,"G#5S_Ab5S_s.wav",92
Sample,88307,0,"D#5S_Eb5S_s.wav",92
Sample,88309,0,"C5S_s.wav",92
Sample,88401,0,"G#3S_Ab3S_s.wav",91
Sample,88593,0,"G#5S_Ab5S_s.wav",61
Sample,88594,0,"D#5S_Eb5S_s.wav",74
Sample,88601,0,"C5S_s.wav",74
Sample,88601,0,"G#6S_Ab6S_s.wav",56
Sample,88603,0,"C7S_s.wav",68
Sample,88801,0,"G#3S_Ab3S_s.wav",97
Sample,88801,0,"G6S_s.wav",46
Sample,88805,0,"A#6S_Bb6S_s.wav",58
Sample,88810,0,"G#5S_Ab5S_s.wav",74
Sample,88813,0,"C5S_s.wav",70
Sample,88813,0,"D#5S_Eb5S_s.wav",83
Sample,89072,0,"D#5S_Eb5S_s.wav",96
Sample,89073,0,"G#5S_Ab5S_s.wav",96
Sample,89078,0,"C5S_s.wav",96
Sample,89201,0,"G#3S_Ab3S_s.wav",92
Sample,89201,0,"F6S_s.wav",46
Sample,89205,0,"G#6S_Ab6S_s.wav",58
Sample,89403,0,"D#5S_Eb5S_s.wav",75
Sample,89405,0,"G#5S_Ab5S_s.wav",64
Sample,89409,0,"C5S_s.wav",68
Sample,89601,0,"D#3S_Eb3S_s.wav",100
Sample,89601,0,"D#6S_Eb6S.wav",48
Sample,89609,0,"G6S.wav",59
Sample,89610,0,"D#5S_Eb5S_s.wav",78
Sample,89614,0,"G5S_s.wav",84
Sample,89622,0,"A#4S_Bb4S_s.wav",51
Sample,89901,0,"G5S_s.wav",91
Sample,89902,0,"D#5S_Eb5S_s.wav",78
Sample,89905,0,"A#4S_Bb4S_s.wav",51
Sample,90001,0,"D#3S_Eb3S_s.wav",100
Sample,90214,0,"A#4S_Bb4S_s.wav",76
Sample,90222,0,"D#5S_Eb5S_s.wav",76
Sample,90227,0,"G5S_s.wav",76
Sample,90401,0,"D#3S_Eb3S_s.wav",100
Sample,90420,0,"A#4S_Bb4S_s.wav",75
Sample,90422,0,"D#5S_Eb5S_s.wav",75
Sample,90426,0,"G5S_s.wav",75
Sample,90601,0,"A#6S_Bb6S_s.wav",73
Sample,90601,0,"G6S_s.wav",61
Sample,90701,0,"G5S_s.wav",91
Sample,90701,0,"A#4S_Bb4S_s.wav",91
Sample,90701,0,"D#5S_Eb5S_s.wav",92
Sample,90801,0,"D#3S_Eb3S_s.wav",100
Sample,90901,0,"G#6S_Ab6S_s.wav",79
Sample,90901,0,"F6S_s.wav",67
Sample,91001,0,"G5S_s.wav",73
Sample,91001,0,"D#5S_Eb5S_s.wav",81
Sample,91001,0,"A#4S_Bb4S_s.wav",79
Sample,91201,0,"G3S_s.wav",100
Sample,91201,0,"G6S_s.wav",66
Sample,91201,0,"D#6S_Eb6S_s.wav",54
Sample,91226,0,"B4S_s.wav",83
Sample,91230,0,"G5S_s.wav",83
Sample,91231,0,"D5S_s.wav",83
Sample,91501,0,"G5S_s.wav",100
Sample,91503,0,"B4S_s.wav",62
Sample,91505,0,"D5S_s.wav",74
Sample,91601,0,"G3S_s.wav",100
Sample,91601,0,"G6S_s.wav",60
Sample,91701,0,"F#6S_Gb6S_s.wav",60
Sample,91801,0,"D5S_s.wav",73
Sample,91801,0,"B4S_s.wav",62
Sample,91801,0,"G6S_s.wav",56
Sample,91802,0,"G5S_s.wav",66
Sample,91901,0,"G#6S_Ab6S_s.wav",56
Sample,92001,0,"D#6S_Eb6S_s.wav",40
Sample,92001,0,"G3S_s.wav",100
Sample,92001,0,"G6S_s.wav",51
Sample,92034,0,"D5S_s.wav",84
Sample,92035,0,"B4S_s.wav",69
Sample,92038,0,"G5S_s.wav",77
Sample,92201,0,"F6S_s.wav",44
Sample,92301,0,"G5S_s.wav",100
Sample,92301,0,"D5S_s.wav",100
Sample,92303,0,"B4S_s.wav",100
Sample,92401,0,"A5S_s.wav",76
Sample,92401,0,"G3S_s.wav",100
Sample,92401,0,"D#6S_Eb6S_s.wav",60
Sample,92601,0,"D5S_s.wav",100
Sample,92601,0,"B5S_s.wav",56
Sample,92601,0,"D6S_s.wav",56
Sample,92601,0,"G5S_s.wav",100
Sample,92603,0,"B4S_s.wav",100
Sample,92780,0,"C6S_s.wav",68
Sample,92801,0,"G5S_s.wav",78
Sample,92801,0,"C4S_s.wav",100
Sample,92802,0,"D#5S_Eb5S_s.wav",80
Sample,92811,0,"C5S_s.wav",70
Sample,93001,0,"B5S_s.wav",68
Sample,93103,0,"G5S_s.wav",100
Sample,93107,0,"D#5S_Eb5S_s.wav",100
Sample,93109,0,"C5S_s.wav",100
Sample,93201,0,"C4S_s.wav",100
Sample,93201,0,"C6S_s.wav",68
Sample,93393,0,"G5S_s.wav",61
Sample,93394,0,"D#5S_Eb5S_s.wav",74
Sample,93401,0,"C5S_s.wav",67
Sample,93401,0,"D#6S_Eb6S_s.wav",68
Sample,93601,0,"C4S_s.wav",97
Sample,93601,0,"D6S_s.wav",68
Sample,93610,0,"G5S_s.wav",66
Sample,93613,0,"C5S_s.wav",70
Sample,93613,0,"D#5S_Eb5S_s.wav",83
Sample,93801,0,"C6S.wav",68
Sample,93872,0,"D#5S_Eb5S_s.wav",96
Sample,93873,0,"G5S_s.wav",96
Sample,93878,0,"C5S_s.wav",96
Sample,94001,0,"C4S_s.wav",100
Sample,94203,0,"D#5S_Eb5S_s.wav",75
Sample,94205,0,"G5S_s.wav",64
Sample,94209,0,"C5S_s.wav",68
Sample,94338,0,"C6S_s.wav",51
Sample,94363,0,"D#6S_Eb6S_s.wav",70
Sample,94401,0,"G#5S_Ab5S_s.wav",78
Sample,94401,0,"G#3S_Ab3S_s.wav",97
Sample,94402,0,"D#5S_Eb5S_s.wav",80
Sample,94411,0,"C5S_s.wav",70
Sample,94539,0,"C6S.wav",53
Sample,94572,0,"D#6S_Eb6S.wav",67
Sample,94703,0,"G#5S_Ab5S_s.wav",92
Sample,94707,0,"D#5S_Eb5S_s.wav",92
Sample,94709,0,"C5S_s.wav",92
Sample,94801,0,"G#3S_Ab3S_s.wav",100
Sample,94993,0,"G#5S_Ab5S_s.wav",61
Sample,94994,0,"D#5S_Eb5S_s.wav",74
Sample,95001,0,"C5S_s.wav",74
Sample,95114,0,"A#5S_Bb5S_s.wav",53
Sample,95144,0,"D6S_s.wav",62
Sample,95201,0,"G#3S_Ab3S_s.wav",99
Sample,95210,0,"G#5S_Ab5S_s.wav",74
Sample,95213,0,"C5S_s.wav",70
Sample,95213,0,"D#5S_Eb5S_s.wav",83
Sample,95372,0,"G#5S_Ab5S_s.wav",62
Sample,95386,0,"C6S.wav",65
Sample,95472,0,"D#5S_Eb5S_s.wav",96
Sample,95473,0,"G#5S_Ab5S_s.wav",96
Sample,95478,0,"C5S_s.wav",96
Sample,95601,0,"G#3S_Ab3S_s.wav",92
Sample,95803,0,"D#5S_Eb5S_s.wav",75
Sample,95805,0,"G#5S_Ab5S_s.wav",64
Sample,95809,0,"C5S_s.wav",68
Sample,96001,0,"D#3S_Eb3S_s.wav",100
Sample,96001,0,"G5S.wav",62
Sample,96010,0,"D#5S_Eb5S_s.wav",78
Sample,96014,0,"G5S_s.wav",84
Sample,96022,0,"A#4S_Bb4S_s.wav",51
Sample,96301,0,"G5S_s.wav",91
Sample,96302,0,"D#5S_Eb5S_s.wav",78
Sample,96305,0,"A#4S_Bb4S_s.wav",51
Sample,96401,0,"D#3S_Eb3S_s.wav",100
Sample,96614,0,"A#4S_Bb4S_s.wav",76
Sample,96622,0,"D#5S_Eb5S_s.wav",76
Sample,96627,0,"G5S_s.wav",76
Sample,96801,0,"D#3S_Eb3S_s.wav",99
Sample,96801,0,"G5S_s.wav",53
Sample,96820,0,"A#4S_Bb4S_s.wav",75
Sample,96822,0,"D#5S_Eb5S_s.wav",75
Sample,96826,0,"G5S_s.wav",75
Sample,97001,0,"D6S_s.wav",53
Sample,97001,0,"B5S_s.wav",53
Sample,97101,0,"A#4S_Bb4S_s.wav",91
Sample,97101,0,"D#5S_Eb5S_s.wav",92
Sample,97101,0,"G5S_s.wav",91
Sample,97201,0,"D#3S_Eb3S_s.wav",100
Sample,97401,0,"A#4S_Bb4S_s.wav",79
Sample,97401,0,"C6S_s.wav",53
Sample,97401,0,"G5S_s.wav",73
Sample,97401,0,"D#5S_Eb5S_s.wav",81
Sample,97401,0,"G#5S_Ab5S_s.wav",53
Sample,97601,0,"G5S.wav",65
Sample,97601,0,"G3S_s.wav",96
Sample,97601,0,"B5S.wav",65
Sample,97626,0,"B4S_s.wav",83
Sample,97630,0,"G5S_s.wav",83
Sample,97631,0,"D5S_s.wav",83
Sample,97901,0,"G5S_s.wav",100
Sample,97903,0,"B4S_s.wav",62
Sample,97905,0,"D5S_s.wav",74
Sample,98001,0,"G3S_s.wav",100
Sample,98201,0,"D5S_s.wav",73
Sample,98201,0,"B4S_s.wav",62
Sample,98202,0,"G5S_s.wav",66
Sample,98401,0,"G3S_s.wav",100
Sample,98401,0,"G5S_s.wav",66
Sample,98434,0,"D5S_s.wav",84
Sample,98435,0,"B4S_s.wav",69
Sample,98438,0,"G5S_s.wav",77
Sample,98501,0,"G#5S_Ab5S_s.wav",66
Sample,98601,0,"G5S_s.wav",80
Sample,98701,0,"F#5S_Gb5S_s.wav",70
Sample,98701,0,"G5S_s.wav",100
Sample,98701,0,"D5S_s.wav",100
Sample,98703,0,"B4S_s.wav",100
Sample,98801,0,"G3S_s.wav",100
Sample,98801,0,"G5S_s.wav",69
Sample,98901,0,"G5S_s.wav",72
Sample,99001,0,"G5S_s.wav",100
Sample,99001,0,"D5S_s.wav",100
Sample,99001,0,"A5S_s.wav",71
Sample,99003,0,"B4S_s.wav",100
Sample,99101,0,"B5S_s.wav",69
Sample,99201,0,"C6S_s.wav",69
Sample,99201,0,"G5S_s.wav",78
Sample,99201,0,"C4S_s.wav",94
Sample,99202,0,"D#5S_Eb5S_s.wav",80
Sample,99211,0,"C5S_s.wav",70
Sample,99301,0,"B5S_s.wav",69
Sample,99401,0,"C6S_s.wav",69
Sample,99503,0,"G5S_s.wav",100
Sample,99507,0,"D#5S_Eb5S_s.wav",100
Sample,99509,0,"C5S_s.wav",100
Sample,99601,0,"C4S_s.wav",98
Sample,99793,0,"G5S_s.wav",61
Sample,99794,0,"D#5S_Eb5S_s.wav",74
Sample,99801,0,"C5S_s.wav",67
Sample,99801,0,"D#6S_Eb6S_s.wav",53
Sample,99801,0,"C6S_s.wav",53
Sample,100001,0,"C4S_s.wav",96
Sample,100010,0,"G5S_s.wav",66
Sample,100013,0,"C5S_s.wav",70
Sample,100013,0,"D#5S_Eb5S_s.wav",83
Sample,100101,0,"D6S_s.wav",53
Sample,100101,0,"B5S_s.wav",53
Sample,100272,0,"D#5S_Eb5S_s.wav",96
Sample,100273,0,"G5S_s.wav",96
Sample,100278,0,"C5S_s.wav",96
Sample,100301,0,"C6S_s.wav",53
Sample,100301,0,"G#5S_Ab5S_s.wav",53
Sample,100401,0,"C4S_s.wav",99
Sample,100601,0,"G6S_s.wav",53
Sample,100603,0,"D#5S_Eb5S_s.wav",75
Sample,100605,0,"G5S_s.wav",64
Sample,100609,0,"C5S_s.wav",68
Sample,100614,0,"A#6S_Bb6S_s.wav",65
Sample,100801,0,"G#5S_Ab5S_s.wav",78
Sample,100801,0,"G#3S_Ab3S_s.wav",97
Sample,100801,0,"G#6S_Ab6S_s.wav",44
Sample,100802,0,"D#5S_Eb5S_s.wav",80
Sample,100811,0,"C5S_s.wav",70
Sample,100823,0,"C7S_s.wav",55
Sample,101051,0,"G#6S_Ab6S.wav",56
Sample,101053,0,"C7S.wav",68
Sample,101103,0,"G#5S_Ab5S_s.wav",92
Sample,101107,0,"D#5S_Eb5S_s.wav",92
Sample,101109,0,"C5S_s.wav",92
Sample,101201,0,"G#3S_Ab3S_s.wav",97
Sample,101393,0,"G#5S_Ab5S_s.wav",61
Sample,101394,0,"D#5S_Eb5S_s.wav",74
Sample,101401,0,"C5S_s.wav",74
Sample,101601,0,"G#3S_Ab3S_s.wav",97
Sample,101610,0,"G#5S_Ab5S_s.wav",74
Sample,101613,0,"C5S_s.wav",70
Sample,101613,0,"D#5S_Eb5S_s.wav",83
Sample,101701,0,"G6S_s.wav",44
Sample,101723,0,"A#6S_Bb6S_s.wav",55
Sample,101863,0,"F6S.wav",46
Sample,101868,0,"G#6S_Ab6S.wav",58
Sample,101872,0,"D#5S_Eb5S_s.wav",96
Sample,101873,0,"G#5S_Ab5S_s.wav",96
Sample,101878,0,"C5S_s.wav",96
Sample,102001,0,"G#3S_Ab3S_s.wav",91
Sample,102203,0,"D#5S_Eb5S_s.wav",75
Sample,102205,0,"G#5S_Ab5S_s.wav",64
Sample,102209,0,"C5S_s.wav",68
Sample,102401,0,"D#3S_Eb3S_s.wav",97
Sample,102401,0,"D#6S_Eb6S.wav",48
Sample,102401,0,"G6S.wav",59
Sample,102410,0,"D#5S_Eb5S_s.wav",78
Sample,102414,0,"G5S_s.wav",84
Sample,102422,0,"A#4S_Bb4S_s.wav",51
Sample,102701,0,"G5S_s.wav",91
Sample,102702,0,"D#5S_Eb5S_s.wav",78
Sample,102705,0,"A#4S_Bb4S_s.wav",51
Sample,102801,0,"D#3S_Eb3S_s.wav",100
Sample,103014,0,"A#4S_Bb4S_s.wav",76
Sample,103022,0,"D#5S_Eb5S_s.wav",76
Sample,103027,0,"G5S_s.wav",76
Sample,103201,0,"D#3S_Eb3S_s.wav",96
Sample,103220,0,"A#4S_Bb4S_s.wav",75
Sample,103222,0,"D#5S_Eb5S_s.wav",75
Sample,103226,0,"G5S_s.wav",75
Sample,103401,0,"A#6S_Bb6S_s.wav",73
Sample,103401,0,"G6S_s.wav",61
Sample,103501,0,"G5S_s.wav",91
Sample,103501,0,"A#4S_Bb4S_s.wav",91
Sample,103501,0,"D#5S_Eb5S_s.wav",92
Sample,103601,0,"D#3S_Eb3S_s.wav",100
Sample,103701,0,"G#6S_Ab6S_s.wav",79
Sample,103701,0,"F6S_s.wav",67
Sample,103801,0,"G5S_s.wav",73
Sample,103801,0,"D#5S_Eb5S_s.wav",81
Sample,103801,0,"A#4S_Bb4S_s.wav",79
Sample,104001,0,"G3S_s.wav",100
Sample,104001,0,"G6S_s.wav",60
Sample,104026,0,"B4S_s.wav",83
Sample,104030,0,"G5S_s.wav",83
Sample,104031,0,"D5S_s.wav",83
Sample,104101,0,"F#6S_Gb6S_s.wav",60
Sample,104201,0,"G6S_s.wav",56
Sample,104301,0,"G5S_s.wav",100
Sample,104301,0,"G#6S_Ab6S_s.wav",56
Sample,104303,0,"B4S_s.wav",62
Sample,104305,0,"D5S_s.wav",74
Sample,104401,0,"G3S_s.wav",100
Sample,104401,0,"G6S_s.wav",60
Sample,104501,0,"F#6S_Gb6S_s.wav",60
Sample,104601,0,"D5S_s.wav",73
Sample,104601,0,"B4S_s.wav",62
Sample,104601,0,"G6S_s.wav",56
Sample,104602,0,"G5S_s.wav",66
Sample,104701,0,"G#6S_Ab6S_s.wav",56
Sample,104801,0,"G3S_s.wav",100
Sample,104801,0,"G6S_s.wav",51
Sample,104834,0,"D5S_s.wav",84
Sample,104835,0,"B4S_s.wav",69
Sample,104838,0,"G5S_s.wav",77
Sample,105001,0,"F6S_s.wav",44
Sample,105101,0,"G5S_s.wav",100
Sample,105101,0,"D5S_s.wav",100
Sample,105103,0,"B4S_s.wav",100
Sample,105201,0,"G3S_s.wav",100
Sample,105201,0,"D#6S_Eb6S_s.wav",60
Sample,105201,0,"A5S_s.wav",76
Sample,105401,0,"D6S_s.wav",56
Sample,105401,0,"G5S_s.wav",100
Sample,105401,0,"D5S_s.wav",100
Sample,105401,0,"B5S_s.wav",56
Sample,105403,0,"B4S_s.wav",100
Sample,105601,0,"G5S_s.wav",78
Sample,105601,0,"C4S_s.wav",100
Sample,105601,0,"C6S.wav",68
Sample,105602,0,"D#5S_Eb5S_s.wav",80
Sample,105611,0,"C5S_s.wav",70
Sample,105801,0,"D#6S_Eb6S.wav",68
Sample,105903,0,"G5S_s.wav",100
Sample,105907,0,"D#5S_Eb5S_s.wav",100
Sample,105909,0,"C5S_s.wav",100
Sample,106001,0,"C4S_s.wav",100
Sample,106193,0,"G5S_s.wav",61
Sample,106194,0,"D#5S_Eb5S_s.wav",74
Sample,106201,0,"C5S_s.wav",67
Sample,106401,0,"B5S_s.wav",68
Sample,106401,0,"C4S_s.wav",100
Sample,106401,0,"D6S_s.wav",68
Sample,106410,0,"G5S_s.wav",66
Sample,106413,0,"C5S_s.wav",70
Sample,106413,0,"D#5S_Eb5S_s.wav",83
Sample,106601,0,"C6S.wav",68
Sample,106601,0,"G5S.wav",68
Sample,106672,0,"D#5S_Eb5S_s.wav",96
Sample,106673,0,"G5S_s.wav",96
Sample,106678,0,"C5S_s.wav",96
Sample,106801,0,"C4S_s.wav",100
Sample,107001,0,"G6S_s.wav",53
Sample,107003,0,"D#5S_Eb5S_s.wav",75
Sample,107005,0,"G5S_s.wav",64
Sample,107009,0,"C5S_s.wav",68
Sample,107014,0,"A#6S_Bb6S_s.wav",65
Sample,107201,0,"G#5S_Ab5S_s.wav",78
Sample,107201,0,"G#3S_Ab3S_s.wav",100
Sample,107201,0,"G#6S_Ab6S_s.wav",44
Sample,107202,0,"D#5S_Eb5S_s.wav",80
Sample,107211,0,"C5S_s.wav",70
Sample,107223,0,"C7S_s.wav",55
Sample,107451,0,"G#6S_Ab6S.wav",56
Sample,107453,0,"C7S.wav",68
Sample,107503,0,"G#5S_Ab5S_s.wav",92
Sample,107507,0,"D#5S_Eb5S_s.wav",92
Sample,107509,0,"C5S_s.wav",92
Sample,107601,0,"G#3S_Ab3S_s.wav",100
Sample,107793,0,"G#5S_Ab5S_s.wav",61
Sample,107794,0,"D#5S_Eb5S_s.wav",74
Sample,107801,0,"C5S_s.wav",74
Sample,108001,0,"G6S_s.wav",53
Sample,108001,0,"G#3S_Ab3S_s.wav",100
Sample,108001,0,"A#6S_Bb6S_s.wav",53
Sample,108010,0,"G#5S_Ab5S_s.wav",74
Sample,108013,0,"C5S_s.wav",70
Sample,108013,0,"D#5S_Eb5S_s.wav",83
Sample,108272,0,"D#5S_Eb5S_s.wav",96
Sample,108273,0,"G#5S_Ab5S_s.wav",96
Sample,108278,0,"C5S_s.wav",96
Sample,108401,0,"G#3S_Ab3S_s.wav",94
Sample,108401,0,"G#6S_Ab6S_s.wav",62
Sample,108401,0,"F6S_s.wav",65
Sample,108603,0,"D#5S_Eb5S_s.wav",75
Sample,108605,0,"G#5S_Ab5S_s.wav",64
Sample,108609,0,"C5S_s.wav",68
Sample,108801,0,"D#3S_Eb3S_s.wav",100
Sample,108810,0,"D#5S_Eb5S_s.wav",78
Sample,108814,0,"G5S_s.wav",84
Sample,108819,0,"G6S.wav",62
Sample,108822,0,"A#4S_Bb4S_s.wav",51
Sample,109101,0,"G5S_s.wav",91
Sample,109102,0,"D#5S_Eb5S_s.wav",78
Sample,109105,0,"A#4S_Bb4S_s.wav",51
Sample,109201,0,"D#3S_Eb3S_s.wav",100
Sample,109414,0,"A#4S_Bb4S_s.wav",76
Sample,109422,0,"D#5S_Eb5S_s.wav",76
Sample,109427,0,"G5S_s.wav",76
Sample,109601,0,"D#3S_Eb3S_s.wav",100
Sample,109619,0,"G6S_s.wav",53
Sample,109620,0,"A#4S_Bb4S_s.wav",75
Sample,109622,0,"D#5S_Eb5S_s.wav",75
Sample,109626,0,"G5S_s.wav",75
Sample,109819,0,"D7S_s.wav",53
Sample,109819,0,"B6S_s.wav",53
Sample,109901,0,"G5S_s.wav",91
Sample,109901,0,"A#4S_Bb4S_s.wav",91
Sample,109901,0,"D#5S_Eb5S_s.wav",92
Sample,110001,0,"D#3S_Eb3S_s.wav",100
Sample,110201,0,"G5S_s.wav",73
Sample,110201,0,"D#5S_Eb5S_s.wav",81
Sample,110201,0,"A#4S_Bb4S_s.wav",79
Sample,110219,0,"C7S_s.wav",53
Sample,110219,0,"G#6S_Ab6S_s.wav",53
Sample,110401,0,"G3S_s.wav",100
Sample,110401,0,"G6S_s.wav",66
Sample,110426,0,"B4S_s.wav",83
Sample,110430,0,"G5S_s.wav",83
Sample,110431,0,"D5S_s.wav",83
Sample,110501,0,"G#6S_Ab6S_s.wav",66
Sample,110601,0,"G6S_s.wav",80
Sample,110669,0,"D#6S_Eb6S.wav",93
Sample,110672,0,"B5S.wav",93
Sample,110701,0,"G5S_s.wav",100
Sample,110701,0,"F#6S_Gb6S_s.wav",70
Sample,110703,0,"B4S_s.wav",62
Sample,110705,0,"D5S_s.wav",74
Sample,110801,0,"G3S_s.wav",99
Sample,110819,0,"G6S_s.wav",66
Sample,110919,0,"G#6S_Ab6S_s.wav",66
Sample,111001,0,"D5S_s.wav",73
Sample,111001,0,"B4S_s.wav",62
Sample,111002,0,"G5S_s.wav",66
Sample,111019,0,"G6S_s.wav",80
Sample,111119,0,"F#6S_Gb6S_s.wav",70
Sample,111201,0,"G3S_s.wav",100
Sample,111219,0,"G6S_s.wav",69
Sample,111234,0,"D5S_s.wav",84
Sample,111235,0,"B4S_s.wav",69
Sample,111238,0,"G5S_s.wav",77
Sample,111405,0,"C6S_s.wav",66
Sample,111418,0,"F6S_s.wav",66
Sample,111443,0,"D6S_s.wav",66
Sample,111493,0,"G6S_s.wav",64
Sample,111501,0,"G5S_s.wav",100
Sample,111501,0,"D5S_s.wav",100
Sample,111503,0,"B4S_s.wav",100
Sample,111518,0,"E6S_s.wav",64
Sample,111569,0,"G#6S_Ab6S_s.wav",70
Sample,111594,0,"F6S_s.wav",70
Sample,111601,0,"G3S_s.wav",100
Sample,111638,0,"A#6S_Bb6S_s.wav",76
Sample,111663,0,"G6S_s.wav",76
Sample,111709,0,"C7S_s.wav",74
Sample,111734,0,"A6S_s.wav",74
Sample,111788,0,"D7S_s.wav",71
Sample,111801,0,"G5S_s.wav",100
Sample,111801,0,"D5S_s.wav",100
Sample,111803,0,"B4S_s.wav",100
Sample,111813,0,"B6S_s.wav",71
Sample,111976,0,"D#7S_Eb7S.wav",85
Sample,111988,0,"C7S.wav",85
Sample,112001,0,"C5S_s.wav",79
Sample,112001,0,"D#5S_Eb5S_s.wav",68
Sample,112001,0,"G5S_s.wav",69
Sample,112001,0,"C4S_s.wav",92
Sample,112001,0,"C4S_s.wav",100
Sample,112201,0,"G5S_s.wav",63
Sample,112201,0,"C5S_s.wav",68
Sample,112201,0,"D#5S_Eb5S_s.wav",51
Sample,112401,0,"A#3S_Bb3S_s.wav",99
Sample,112401,0,"A#3S_Bb3S_s.wav",100
Sample,112601,0,"C5S_s.wav",70
Sample,112601,0,"G5S_s.wav",65
Sample,112601,0,"D#5S_Eb5S_s.wav",57
Sample,112801,0,"G#3S_Ab3S_s.wav",92
Sample,112801,0,"G#3S_Ab3S_s.wav",100
Sample,112801,0,"D#5S_Eb5S_s.wav",73
Sample,112801,0,"C5S_s.wav",87
Sample,112801,0,"G#5S_Ab5S_s.wav",62
Sample,113001,0,"C5S_s.wav",81
Sample,113001,0,"D#5S_Eb5S_s.wav",66
Sample,113001,0,"G#5S_Ab5S_s.wav",58
Sample,113201,0,"G#4S_Ab4S_s.wav",74
Sample,113201,0,"F3S_s.wav",93
Sample,113201,0,"F3S_s.wav",93
Sample,113201,0,"F3S_s.wav",100
Sample,113401,0,"G#5S_Ab5S_s.wav",58
Sample,113401,0,"C5S_s.wav",81
Sample,113401,0,"D#5S_Eb5S_s.wav",66
Sample,113601,0,"D5S_s.wav",74
Sample,113601,0,"A#4S_Bb4S_s.wav",66
Sample,113601,0,"F5S_s.wav",76
Sample,113601,0,"A#3S_Bb3S_s.wav",96
Sample,113601,0,"A#3S_Bb3S_s.wav",100
Sample,113801,0,"D5S_s.wav",68
Sample,113801,0,"A#4S_Bb4S_s.wav",57
Sample,113801,0,"F5S_s.wav",66
Sample,114001,0,"D3S_s.wav",100
Sample,114201,0,"A#4S_Bb4S_s.wav",61
Sample,114201,0,"F5S_s.wav",63
Sample,114201,0,"D5S_s.wav",66
Sample,114401,0,"B4S_s.wav",72
Sample,114401,0,"D5S_s.wav",67
Sample,114401,0,"G5S_s.wav",69
Sample,114401,0,"G3S_s.wav",89
Sample,114401,0,"G3S_s.wav",99
Sample,114601,0,"G5S_s.wav",70
Sample,114601,0,"G5S_s.wav",71
Sample,114601,0,"B4S_s.wav",72
Sample,114601,0,"D5S_s.wav",67
Sample,114801,0,"B3S_s.wav",100
Sample,115001,0,"B4S_s.wav",65
Sample,115001,0,"G5S_s.wav",62
Sample,115001,0,"D5S_s.wav",64
Sample,115201,0,"C4S_s.wav",100
Sample,115201,0,"C4S_s.wav",100
Sample,115201,0,"D#5S_Eb5S_s.wav",61
Sample,115201,0,"C5S_s.wav",75
Sample,115201,0,"G5S_s.wav",69
Sample,115401,0,"C5S_s.wav",72
Sample,115401,0,"G5S_s.wav",68
Sample,115401,0,"D#5S_Eb5S_s.wav",66
Sample,115601,0,"G#3S_Ab3S_s.wav",100
Sample,115801,0,"C5S_s.wav",64
Sample,115801,0,"D#5S_Eb5S_s.wav",52
Sample,115801,0,"G5S_s.wav",59
Sample,116001,0,"A#4S_Bb4S_s.wav",64
Sample,116001,0,"D5S_s.wav",65
Sample,116001,0,"A#3S_Bb3S_s.wav",100
Sample,116001,0,"A#4S_Bb4S_s.wav",62
Sample,116001,0,"F5S_s.wav",71
Sample,116001,0,"A#3S_Bb3S_s.wav",100
Sample,116001,0,"D5S_s.wav",70
Sample,116001,0,"A#3S_Bb3S_s.wav",100
Sample,116201,0,"F5S_s.wav",69
Sample,116201,0,"D5S_s.wav",70
Sample,116201,0,"A#4S_Bb4S_s.wav",64
Sample,116301,0,"A#4S_Bb4S_s.wav",74
Sample,116301,0,"D5S_s.wav",77
Sample,116401,0,"A#3S_Bb3S_s.wav",100
Sample,116601,0,"F5S_s.wav",69
Sample,116601,0,"D5S_s.wav",70
Sample,116601,0,"A#4S_Bb4S_s.wav",64
Sample,116801,0,"D#5S_Eb5S_s.wav",66
Sample,116801,0,"G5S_s.wav",68
Sample,116801,0,"A#4S_Bb4S_s.wav",66
Sample,116801,0,"D#3S_Eb3S_s.wav",100
Sample,116801,0,"D#3S_Eb3S_s.wav",100
Sample,117001,0,"A#4S_Bb4S_s.wav",68
Sample,117001,0,"A#4S_Bb4S_s.wav",74
Sample,117001,0,"D#5S_Eb5S_s.wav",66
Sample,117001,0,"G5S_s.wav",69
Sample,117201,0,"G3S_s.wav",100
Sample,117201,0,"G3S_s.wav",100
Sample,117401,0,"G5S_s.wav",59
Sample,117401,0,"D#5S_Eb5S_s.wav",54
Sample,117401,0,"A#4S_Bb4S_s.wav",57
Sample,117601,0,"B4S_s.wav",76
Sample,117601,0,"G5S_s.wav",68
Sample,117601,0,"D5S_s.wav",77
Sample,117601,0,"B3S_s.wav",100
Sample,117601,0,"B3S_s.wav",100
Sample,117801,0,"D5S_s.wav",70
Sample,117801,0,"D5S_s.wav",69
Sample,117801,0,"B4S_s.wav",76
Sample,117801,0,"G5S_s.wav",71
Sample,118001,0,"D4S_s.wav",100
Sample,118001,0,"D4S_s.wav",100
Sample,118201,0,"G5S_s.wav",60
Sample,118201,0,"B4S_s.wav",63
Sample,118201,0,"D5S_s.wav",62
Sample,118401,0,"D#5S_Eb5S_s.wav",55
Sample,118401,0,"C4S_s.wav",100
Sample,118401,0,"G5S_s.wav",66
Sample,118401,0,"C5S_s.wav",66
Sample,118601,0,"C5S_s.wav",80
Sample,118601,0,"D#5S_Eb5S_s.wav",64
Sample,118601,0,"G5S_s.wav",70
Sample,118801,0,"A#3S_Bb3S_s.wav",100
Sample,119001,0,"D#5S_Eb5S_s.wav",59
Sample,119001,0,"C5S_s.wav",79
Sample,119001,0,"G5S_s.wav",67
Sample,119201,0,"G#3S_Ab3S_s.wav",92
Sample,119201,0,"G#3S_Ab3S_s.wav",100
Sample,119201,0,"D#5S_Eb5S_s.wav",74
Sample,119201,0,"C5S_s.wav",84
Sample,119201,0,"G#5S_Ab5S_s.wav",62
Sample,119401,0,"C5S_s.wav",80
Sample,119401,0,"D#5S_Eb5S_s.wav",66
Sample,119401,0,"G#5S_Ab5S_s.wav",59
Sample,119601,0,"F3S_s.wav",100
Sample,119801,0,"D#5S_Eb5S_s.wav",60
Sample,119801,0,"C5S_s.wav",81
Sample,119801,0,"G#5S_Ab5S_s.wav",58
Sample,120001,0,"D3S_s.wav",92
Sample,120001,0,"D3S_s.wav",100
Sample,120001,0,"A4S_s.wav",77
Sample,120001,0,"D5S_s.wav",63
Sample,120001,0,"F#5S_Gb5S_s.wav",58
Sample,120201,0,"D5S_s.wav",67
Sample,120201,0,"A4S_s.wav",80
Sample,120201,0,"F#5S_Gb5S_s.wav",56
Sample,120401,0,"D3S_s.wav",100
Sample,120601,0,"D5S_s.wav",55
Sample,120601,0,"A4S_s.wav",74
Sample,120601,0,"F#5S_Gb5S_s.wav",51
Sample,120801,0,"F#3S_Gb3S_s.wav",92
Sample,120801,0,"F#3S_Gb3S_s.wav",100
Sample,120801,0,"A4S_s.wav",75
Sample,120801,0,"D5S_s.wav",65
Sample,120801,0,"F#5S_Gb5S_s.wav",55
Sample,121001,0,"D5S_s.wav",76
Sample,121001,0,"A4S_s.wav",88
Sample,121001,0,"F#5S_Gb5S_s.wav",68
Sample,121201,0,"A3S_s.wav",100
Sample,121401,0,"F#5S_Gb5S_s.wav",54
Sample,121401,0,"A4S_s.wav",77
Sample,121401,0,"D5S_s.wav",62
Sample,121601,0,"G3S_s.wav",92
Sample,121601,0,"G3S_s.wav",100
Sample,121601,0,"B4S_s.wav",76
Sample,121601,0,"D5S_s.wav",69
Sample,121601,0,"G5S_s.wav",71
Sample,121801,0,"G5S_s.wav",68
Sample,121801,0,"B4S_s.wav",73
Sample,121801,0,"D5S_s.wav",70
Sample,122001,0,"G3S_s.wav",92
Sample,122001,0,"G3S_s.wav",100
Sample,122201,0,"B4S_s.wav",70
Sample,122201,0,"G5S_s.wav",61
Sample,122201,0,"D5S_s.wav",64
Sample,122401,0,"D5S_s.wav",66
Sample,122401,0,"G5S_s.wav",66
Sample,122401,0,"B4S_s.wav",69
Sample,122401,0,"A3S_s.wav",92
Sample,122401,0,"A3S_s.wav",100
Sample,122601,0,"G5S_s.wav",71
Sample,122601,0,"B4S_s.wav",76
Sample,122601,0,"D5S_s.wav",72
Sample,122801,0,"B3S_s.wav",92
Sample,122801,0,"B3S_s.wav",100
Sample,123001,0,"G5S_s.wav",62
Sample,123001,0,"B4S_s.wav",68
Sample,123001,0,"D5S_s.wav",66
Sample,123201,0,"C4S_s.wav",92
Sample,123201,0,"C4S_s.wav",100
Sample,123201,0,"D#5S_Eb5S_s.wav",63
Sample,123201,0,"C5S_s.wav",70
Sample,123201,0,"G5S_s.wav",74
Sample,123401,0,"F#5S_Gb5S_s.wav",88
Sample,123401,0,"D#5S_Eb5S_s.wav",68
Sample,123401,0,"C5S_s.wav",81
Sample,123401,0,"F#5S_Gb5S_s.wav",88
Sample,123401,0,"G5S_s.wav",68
Sample,123601,0,"A3S_s.wav",100
Sample,123801,0,"G5S_s.wav",92
Sample,123801,0,"B4S_s.wav",55
Sample,123801,0,"G5S_s.wav",53
Sample,123801,0,"G5S_s.wav",92
Sample,123801,0,"D5S_s.wav",43
Sample,124001,0,"G5S_s.wav",74
Sample,124001,0,"D#6S_Eb6S_s.wav",100
Sample,124001,0,"D4S_s.wav",92
Sample,124001,0,"D#6S_Eb6S_s.wav",100
Sample,124001,0,"D5S_s.wav",63
Sample,124001,0,"D4S_s.wav",92
Sample,124001,0,"B4S_s.wav",70
Sample,124001,0,"D4S_s.wav",100
Sample,124201,0,"G5S_s.wav",68
Sample,124201,0,"B4S_s.wav",81
Sample,124201,0,"D5S_s.wav",68
Sample,124301,0,"D6S_s.wav",100
Sample,124301,0,"D6S_s.wav",100
Sample,124401,0,"G3S_s.wav",92
Sample,124401,0,"G3S_s.wav",100
Sample,124601,0,"B5S_s.wav",97
Sample,124601,0,"B5S_s.wav",97
Sample,124801,0,"C6S.wav",97
Sample,124801,0,"C4S_s.wav",92
Sample,124801,0,"C6S.wav",92
Sample,124801,0,"D#5S_Eb5S_s.wav",68
Sample,124801,0,"C4S_s.wav",92
Sample,124801,0,"G5S_s.wav",69
Sample,124801,0,"C6S.wav",100
Sample,124801,0,"C5S_s.wav",79
Sample,124801,0,"C4S_s.wav",100
Sample,125001,0,"G5S_s.wav",63
Sample,125001,0,"C5S_s.wav",68
Sample,125001,0,"D#5S_Eb5S_s.wav",51
Sample,125201,0,"A#3S_Bb3S_s.wav",99
Sample,125201,0,"A#3S_Bb3S_s.wav",100
Sample,125401,0,"C5S_s.wav",70
Sample,125401,0,"G5S_s.wav",65
Sample,125401,0,"D#5S_Eb5S_s.wav",57
Sample,125601,0,"G#3S_Ab3S_s.wav",92
Sample,125601,0,"G#3S_Ab3S_s.wav",100
Sample,125601,0,"D#5S_Eb5S_s.wav",73
Sample,125601,0,"C5S_s.wav",87
Sample,125601,0,"G#5S_Ab5S_s.wav",62
Sample,125801,0,"C5S_s.wav",81
Sample,125801,0,"D#5S_Eb5S_s.wav",66
Sample,125801,0,"G#5S_Ab5S_s.wav",58
Sample,126001,0,"G#4S_Ab4S_s.wav",74
Sample,126001,0,"F3S_s.wav",93
Sample,126001,0,"F3S_s.wav",93
Sample,126001,0,"F3S_s.wav",100
Sample,126201,0,"G#5S_Ab5S_s.wav",58
Sample,126201,0,"C5S_s.wav",81
Sample,126201,0,"D#5S_Eb5S_s.wav",66
Sample,126401,0,"D5S_s.wav",74
Sample,126401,0,"A#4S_Bb4S_s.wav",66
Sample,126401,0,"F5S_s.wav",76
Sample,126401,0,"A#3S_Bb3S_s.wav",96
Sample,126401,0,"A#3S_Bb3S_s.wav",100
Sample,126601,0,"D5S_s.wav",68
Sample,126601,0,"A#4S_Bb4S_s.wav",57
Sample,126601,0,"F5S_s.wav",66
Sample,126801,0,"D3S_s.wav",92
Sample,126801,0,"D3S_s.wav",100
Sample,126801,0,"A#4S_Bb4S_s.wav",74
Sample,126801,0,"D3S_s.wav",92
Sample,127001,0,"F5S_s.wav",63
Sample,127001,0,"D5S_s.wav",66
Sample,127001,0,"A#4S_Bb4S_s.wav",61
Sample,127201,0,"D5S_s.wav",67
Sample,127201,0,"B4S_s.wav",74
Sample,127201,0,"G3S_s.wav",89
Sample,127201,0,"G4S_s.wav",71
Sample,127201,0,"G5S_s.wav",69
Sample,127201,0,"G3S_s.wav",89
Sample,127201,0,"B4S_s.wav",72
Sample,127201,0,"G3S_s.wav",99
Sample,127401,0,"D5S_s.wav",67
Sample,127401,0,"B4S_s.wav",72
Sample,127401,0,"G5S_s.wav",70
Sample,127601,0,"B3S_s.wav",100
Sample,127601,0,"B3S_s.wav",100
Sample,127601,0,"B4S_s.wav",74
Sample,127601,0,"B3S_s.wav",100
Sample,127801,0,"B4S_s.wav",65
Sample,127801,0,"G5S_s.wav",62
Sample,127801,0,"D5S_s.wav",64
Sample,128001,0,"C4S_s.wav",100
Sample,128001,0,"C5S_s.wav",75
Sample,128001,0,"C4S_s.wav",100
Sample,128001,0,"C5S_s.wav",74
Sample,128001,0,"G5S_s.wav",69
Sample,128001,0,"C4S_s.wav",100
Sample,128001,0,"D#5S_Eb5S_s.wav",61
Sample,128201,0,"C5S_s.wav",72
Sample,128201,0,"G5S_s.wav",68
Sample,128201,0,"D#5S_Eb5S_s.wav",66
Sample,128401,0,"C5S_s.wav",74
Sample,128401,0,"G#3S_Ab3S_s.wav",100
Sample,128401,0,"G#3S_Ab3S_s.wav",100
Sample,128401,0,"G#3S_Ab3S_s.wav",100
Sample,128601,0,"G5S_s.wav",59
Sample,128601,0,"C5S_s.wav",64
Sample,128601,0,"D#5S_Eb5S_s.wav",52
Sample,128801,0,"D5S_s.wav",74
Sample,128801,0,"A#3S_Bb3S_s.wav",100
Sample,128801,0,"F5S_s.wav",77
Sample,128801,0,"A#3S_Bb3S_s.wav",100
Sample,128801,0,"A#3S_Bb3S_s.wav",100
Sample,128801,0,"A#4S_Bb4S_s.wav",64
Sample,128801,0,"D5S_s.wav",70
Sample,128801,0,"F5S_s.wav",71
Sample,129001,0,"D5S_s.wav",70
Sample,129001,0,"A#4S_Bb4S_s.wav",64
Sample,129001,0,"F5S_s.wav",69
Sample,129201,0,"D5S_s.wav",74
Sample,129201,0,"A#3S_Bb3S_s.wav",100
Sample,129201,0,"A#3S_Bb3S_s.wav",100
Sample,129201,0,"A#3S_Bb3S_s.wav",100
Sample,129401,0,"F5S_s.wav",69
Sample,129401,0,"D5S_s.wav",70
Sample,129401,0,"A#4S_Bb4S_s.wav",64
Sample,129601,0,"D#5S_Eb5S_s.wav",66
Sample,129601,0,"G5S_s.wav",68
Sample,129601,0,"A#4S_Bb4S_s.wav",66
Sample,129601,0,"D#3S_Eb3S_s.wav",100
Sample,129601,0,"D#3S_Eb3S_s.wav",100
Sample,129801,0,"G5S_s.wav",69
Sample,129801,0,"D#5S_Eb5S_s.wav",66
Sample,129801,0,"A#4S_Bb4S_s.wav",68
Sample,130001,0,"G3S_s.wav",100
Sample,130001,0,"G5S_s.wav",77
Sample,130001,0,"D#5S_Eb5S_s.wav",74
Sample,130001,0,"G3S_s.wav",100
Sample,130001,0,"G3S_s.wav",100
Sample,130201,0,"G5S_s.wav",59
Sample,130201,0,"D#5S_Eb5S_s.wav",54
Sample,130201,0,"A#4S_Bb4S_s.wav",57
Sample,130401,0,"B4S_s.wav",76
Sample,130401,0,"G5S_s.wav",68
Sample,130401,0,"D5S_s.wav",77
Sample,130401,0,"B3S_s.wav",100
Sample,130401,0,"B3S_s.wav",100
Sample,130601,0,"G5S_s.wav",71
Sample,130601,0,"B4S_s.wav",76
Sample,130601,0,"D5S_s.wav",70
Sample,130801,0,"D4S_s.wav",100
Sample,130801,0,"D5S_s.wav",77
Sample,130801,0,"B4S_s.wav",74
Sample,130801,0,"D4S_s.wav",100
Sample,130801,0,"D4S_s.wav",100
Sample,131001,0,"G5S_s.wav",60
Sample,131001,0,"B4S_s.wav",63
Sample,131001,0,"D5S_s.wav",62
Sample,131201,0,"D#5S_Eb5S_s.wav",55
Sample,131201,0,"C4S_s.wav",100
Sample,131201,0,"G5S_s.wav",66
Sample,131201,0,"C5S_s.wav",66
Sample,131401,0,"C5S_s.wav",80
Sample,131401,0,"D#5S_Eb5S_s.wav",64
Sample,131401,0,"G5S_s.wav",70
Sample,131601,0,"A#3S_Bb3S_s.wav",100
Sample,131801,0,"D#5S_Eb5S_s.wav",59
Sample,131801,0,"C5S_s.wav",79
Sample,131801,0,"G5S_s.wav",67
Sample,132001,0,"G#3S_Ab3S_s.wav",92
Sample,132001,0,"G#3S_Ab3S_s.wav",100
Sample,132001,0,"D#5S_Eb5S_s.wav",74
Sample,132001,0,"C5S_s.wav",84
Sample,132001,0,"G#5S_Ab5S_s.wav",62
Sample,132201,0,"C5S_s.wav",80
Sample,132201,0,"D#5S_Eb5S_s.wav",66
Sample,132201,0,"G#5S_Ab5S_s.wav",59
Sample,132401,0,"F3S_s.wav",100
Sample,132601,0,"D#5S_Eb5S_s.wav",60
Sample,132601,0,"C5S_s.wav",81
Sample,132601,0,"G#5S_Ab5S_s.wav",58
Sample,132801,0,"D3S_s.wav",92
Sample,132801,0,"D3S_s.wav",100
Sample,132801,0,"A4S_s.wav",77
Sample,132801,0,"D5S_s.wav",63
Sample,132801,0,"F#5S_Gb5S_s.wav",58
Sample,133001,0,"D5S_s.wav",67
Sample,133001,0,"A4S_s.wav",80
Sample,133001,0,"F#5S_Gb5S_s.wav",56
Sample,133201,0,"A4S_s.wav",71
Sample,133201,0,"D3S_s.wav",92
Sample,133201,0,"D3S_s.wav",92
Sample,133201,0,"D3S_s.wav",100
Sample,133401,0,"F#5S_Gb5S_s.wav",51
Sample,133401,0,"D5S_s.wav",55
Sample,133401,0,"A4S_s.wav",74
Sample,133601,0,"D5S_s.wav",65
Sample,133601,0,"F#5S_Gb5S_s.wav",55
Sample,133601,0,"A4S_s.wav",75
Sample,133601,0,"F#3S_Gb3S_s.wav",92
Sample,133601,0,"F#3S_Gb3S_s.wav",100
Sample,133801,0,"F#5S_Gb5S_s.wav",68
Sample,133801,0,"D5S_s.wav",76
Sample,133801,0,"A4S_s.wav",88
Sample,134001,0,"A3S_s.wav",92
Sample,134001,0,"A3S_s.wav",100
Sample,134001,0,"D5S_s.wav",74
Sample,134001,0,"A3S_s.wav",92
Sample,134201,0,"F#5S_Gb5S_s.wav",54
Sample,134201,0,"A4S_s.wav",77
Sample,134201,0,"D5S_s.wav",62
Sample,134401,0,"G3S_s.wav",92
Sample,134401,0,"G3S_s.wav",100
Sample,134401,0,"B4S_s.wav",76
Sample,134401,0,"D5S_s.wav",69
Sample,134401,0,"G5S_s.wav",71
Sample,134601,0,"G5S_s.wav",68
Sample,134601,0,"B4S_s.wav",73
Sample,134601,0,"D5S_s.wav",70
Sample,134801,0,"G3S_s.wav",92
Sample,134801,0,"G3S_s.wav",100
Sample,135001,0,"B4S_s.wav",70
Sample,135001,0,"G5S_s.wav",61
Sample,135001,0,"D5S_s.wav",64
Sample,135201,0,"D5S_s.wav",66
Sample,135201,0,"G5S_s.wav",66
Sample,135201,0,"B4S_s.wav",69
Sample,135201,0,"A3S_s.wav",92
Sample,135201,0,"A3S_s.wav",100
Sample,135401,0,"G5S_s.wav",71
Sample,135401,0,"B4S_s.wav",76
Sample,135401,0,"D5S_s.wav",72
Sample,135601,0,"B3S_s.wav",92
Sample,135601,0,"B3S_s.wav",100
Sample,135801,0,"G5S_s.wav",62
Sample,135801,0,"B4S_s.wav",68
Sample,135801,0,"D5S_s.wav",66
Sample,136001,0,"C4S_s.wav",92
Sample,136001,0,"C4S_s.wav",100
Sample,136001,0,"D#5S_Eb5S_s.wav",63
Sample,136001,0,"C5S_s.wav",70
Sample,136001,0,"G5S_s.wav",74
Sample,136201,0,"F#5S_Gb5S_s.wav",88
Sample,136201,0,"D#5S_Eb5S_s.wav",68
Sample,136201,0,"C5S_s.wav",81
Sample,136201,0,"F#5S_Gb5S_s.wav",88
Sample,136201,0,"G5S_s.wav",68
Sample,136401,0,"A3S_s.wav",100
Sample,136601,0,"G5S_s.wav",92
Sample,136601,0,"B4S_s.wav",55
Sample,136601,0,"G5S_s.wav",53
Sample,136601,0,"G5S_s.wav",92
Sample,136601,0,"D5S_s.wav",43
Sample,136801,0,"G5S_s.wav",74
Sample,136801,0,"D#6S_Eb6S_s.wav",100
Sample,136801,0,"D4S_s.wav",92
Sample,136801,0,"D#6S_Eb6S_s.wav",100
Sample,136801,0,"D5S_s.wav",63
Sample,136801,0,"D4S_s.wav",92
Sample,136801,0,"B4S_s.wav",70
Sample,136801,0,"D4S_s.wav",100
Sample,137001,0,"G5S_s.wav",68
Sample,137001,0,"B4S_s.wav",81
Sample,137001,0,"D5S_s.wav",68
Sample,137101,0,"D6S_s.wav",100
Sample,137101,0,"D6S_s.wav",100
Sample,137201,0,"G3S_s.wav",92
Sample,137201,0,"G3S_s.wav",100
Sample,137401,0,"B5S_s.wav",97
Sample,137401,0,"B5S_s.wav",97
Sample,137601,0,"C6S.wav",92
Sample,137601,0,"G5S_s.wav",78
Sample,137601,0,"C6S.wav",100
Sample,137601,0,"C6S.wav",97
Sample,137601,0,"C4S_s.wav",88
Sample,137602,0,"D#5S_Eb5S_s.wav",80
Sample,137611,0,"C5S_s.wav",70
Sample,137903,0,"G5S_s.wav",100
Sample,137907,0,"D#5S_Eb5S_s.wav",100
Sample,137909,0,"C5S_s.wav",100
Sample,138001,0,"C4S_s.wav",91
Sample,138193,0,"G5S_s.wav",61
Sample,138194,0,"D#5S_Eb5S_s.wav",74
Sample,138201,0,"C5S_s.wav",67
Sample,138401,0,"C4S_s.wav",97
Sample,138410,0,"G5S_s.wav",66
Sample,138413,0,"C5S_s.wav",70
Sample,138413,0,"D#5S_Eb5S_s.wav",83
Sample,138672,0,"D#5S_Eb5S_s.wav",96
Sample,138673,0,"G5S_s.wav",96
Sample,138678,0,"C5S_s.wav",96
Sample,138801,0,"C4S_s.wav",92
Sample,139001,0,"G6S_s.wav",53
Sample,139003,0,"D#5S_Eb5S_s.wav",75
Sample,139005,0,"G5S_s.wav",64
Sample,139009,0,"C5S_s.wav",68
Sample,139014,0,"A#6S_Bb6S_s.wav",65
Sample,139201,0,"G#6S_Ab6S_s.wav",44
Sample,139201,0,"G#5S_Ab5S_s.wav",78
Sample,139201,0,"G#3S_Ab3S_s.wav",88
Sample,139202,0,"D#5S_Eb5S_s.wav",80
Sample,139211,0,"C5S_s.wav",70
Sample,139223,0,"C7S_s.wav",55
Sample,139451,0,"G#6S_Ab6S.wav",56
Sample,139453,0,"C7S.wav",68
Sample,139503,0,"G#5S_Ab5S_s.wav",92
Sample,139507,0,"D#5S_Eb5S_s.wav",92
Sample,139509,0,"C5S_s.wav",92
Sample,139601,0,"G#3S_Ab3S_s.wav",91
Sample,139793,0,"G#5S_Ab5S_s.wav",61
Sample,139794,0,"D#5S_Eb5S_s.wav",74
Sample,139801,0,"C5S_s.wav",74
Sample,140001,0,"G#3S_Ab3S_s.wav",97
Sample,140010,0,"G#5S_Ab5S_s.wav",74
Sample,140013,0,"C5S_s.wav",70
Sample,140013,0,"D#5S_Eb5S_s.wav",83
Sample,140101,0,"G6S_s.wav",44
Sample,140123,0,"A#6S_Bb6S_s.wav",55
Sample,140263,0,"F6S.wav",46
Sample,140268,0,"G#6S_Ab6S.wav",58
Sample,140272,0,"D#5S_Eb5S_s.wav",96
Sample,140273,0,"G#5S_Ab5S_s.wav",96
Sample,140278,0,"C5S_s.wav",96
Sample,140401,0,"G#3S_Ab3S_s.wav",92
Sample,140603,0,"D#5S_Eb5S_s.wav",75
Sample,140605,0,"G#5S_Ab5S_s.wav",64
Sample,140609,0,"C5S_s.wav",68
Sample,140801,0,"G6S.wav",59
Sample,140801,0,"D#3S_Eb3S_s.wav",100
Sample,140801,0,"D#6S_Eb6S.wav",48
Sample,140810,0,"D#5S_Eb5S_s.wav",78
Sample,140814,0,"G5S_s.wav",84
Sample,140822,0,"A#4S_Bb4S_s.wav",51
Sample,141101,0,"G5S_s.wav",91
Sample,141102,0,"D#5S_Eb5S_s.wav",78
Sample,141105,0,"A#4S_Bb4S_s.wav",51
Sample,141201,0,"D#3S_Eb3S_s.wav",100
Sample,141414,0,"A#4S_Bb4S_s.wav",76
Sample,141422,0,"D#5S_Eb5S_s.wav",76
Sample,141427,0,"G5S_s.wav",76
Sample,141601,0,"D#3S_Eb3S_s.wav",100
Sample,141620,0,"A#4S_Bb4S_s.wav",75
Sample,141622,0,"D#5S_Eb5S_s.wav",75
Sample,141626,0,"G5S_s.wav",75
Sample,141801,0,"A#6S_Bb6S_s.wav",73
Sample,141801,0,"G6S_s.wav",61
Sample,141901,0,"A#4S_Bb4S_s.wav",91
Sample,141901,0,"D#5S_Eb5S_s.wav",92
Sample,141901,0,"G5S_s.wav",91
Sample,142001,0,"D#3S_Eb3S_s.wav",100
Sample,142101,0,"G#6S_Ab6S_s.wav",79
Sample,142101,0,"F6S_s.wav",67
Sample,142201,0,"D#5S_Eb5S_s.wav",81
Sample,142201,0,"A#4S_Bb4S_s.wav",79
Sample,142201,0,"G5S_s.wav",73
Sample,142401,0,"G3S_s.wav",100
Sample,142401,0,"G6S_s.wav",60
Sample,142426,0,"B4S_s.wav",83
Sample,142430,0,"G5S_s.wav",83
Sample,142431,0,"D5S_s.wav",83
Sample,142501,0,"F#6S_Gb6S_s.wav",60
Sample,142601,0,"G6S_s.wav",56
Sample,142701,0,"G5S_s.wav",100
Sample,142701,0,"G#6S_Ab6S_s.wav",56
Sample,142703,0,"B4S_s.wav",62
Sample,142705,0,"D5S_s.wav",74
Sample,142801,0,"G3S_s.wav",100
Sample,142801,0,"G6S_s.wav",60
Sample,142901,0,"F#6S_Gb6S_s.wav",60
Sample,143001,0,"G6S_s.wav",56
Sample,143001,0,"D5S_s.wav",73
Sample,143001,0,"B4S_s.wav",62
Sample,143002,0,"G5S_s.wav",66
Sample,143101,0,"G#6S_Ab6S_s.wav",56
Sample,143201,0,"G3S_s.wav",100
Sample,143201,0,"G6S_s.wav",51
Sample,143234,0,"D5S_s.wav",84
Sample,143235,0,"B4S_s.wav",69
Sample,143238,0,"G5S_s.wav",77
Sample,143401,0,"F6S_s.wav",44
Sample,143501,0,"G5S_s.wav",100
Sample,143501,0,"D5S_s.wav",100
Sample,143503,0,"B4S_s.wav",100
Sample,143601,0,"A5S_s.wav",76
Sample,143601,0,"G3S_s.wav",100
Sample,143601,0,"D#6S_Eb6S_s.wav",60
Sample,143801,0,"D5S_s.wav",100
Sample,143801,0,"B5S_s.wav",56
Sample,143801,0,"D6S_s.wav",56
Sample,143801,0,"G5S_s.wav",100
Sample,143803,0,"B4S_s.wav",100
Sample,144001,0,"C6S.wav",68
Sample,144001,0,"G5S_s.wav",78
Sample,144001,0,"C4S_s.wav",100
Sample,144002,0,"D#5S_Eb5S_s.wav",80
Sample,144011,0,"C5S_s.wav",70
Sample,144201,0,"D#6S_Eb6S.wav",68
Sample,144303,0,"G5S_s.wav",100
Sample,144307,0,"D#5S_Eb5S_s.wav",100
Sample,144309,0,"C5S_s.wav",100
Sample,144401,0,"C4S_s.wav",100
Sample,144593,0,"G5S_s.wav",61
Sample,144594,0,"D#5S_Eb5S_s.wav",74
Sample,144601,0,"C5S_s.wav",67
Sample,144801,0,"C4S_s.wav",97
Sample,144801,0,"D6S_s.wav",68
Sample,144801,0,"B5S_s.wav",68
Sample,144810,0,"G5S_s.wav",66
Sample,144813,0,"C5S_s.wav",70
Sample,144813,0,"D#5S_Eb5S_s.wav",83
Sample,145001,0,"C6S.wav",68
Sample,145001,0,"G5S.wav",68
Sample,145072,0,"D#5S_Eb5S_s.wav",96
Sample,145073,0,"G5S_s.wav",96
Sample,145078,0,"C5S_s.wav",96
Sample,145201,0,"C4S_s.wav",100
Sample,145401,0,"G6S_s.wav",53
Sample,145403,0,"D#5S_Eb5S_s.wav",75
Sample,145405,0,"G5S_s.wav",64
Sample,145409,0,"C5S_s.wav",68
Sample,145414,0,"A#6S_Bb6S_s.wav",65
Sample,145601,0,"G#6S_Ab6S_s.wav",44
Sample,145601,0,"G#5S_Ab5S_s.wav",78
Sample,145601,0,"G#3S_Ab3S_s.wav",97
Sample,145602,0,"D#5S_Eb5S_s.wav",80
Sample,145611,0,"C5S_s.wav",70
Sample,145623,0,"C7S_s.wav",55
Sample,145851,0,"G#6S_Ab6S.wav",56
Sample,145853,0,"C7S.wav",68
Sample,145903,0,"G#5S_Ab5S_s.wav",92
Sample,145907,0,"D#5S_Eb5S_s.wav",92
Sample,145909,0,"C5S_s.wav",92
Sample,146001,0,"G#3S_Ab3S_s.wav",100
Sample,146193,0,"G#5S_Ab5S_s.wav",61
Sample,146194,0,"D#5S_Eb5S_s.wav",74
Sample,146201,0,"C5S_s.wav",74
Sample,146401,0,"G#3S_Ab3S_s.wav",99
Sample,146401,0,"A#6S_Bb6S_s.wav",53
Sample,146401,0,"G6S_s.wav",53
Sample,146410,0,"G#5S_Ab5S_s.wav",74
Sample,146413,0,"C5S_s.wav",70
Sample,146413,0,"D#5S_Eb5S_s.wav",83
Sample,146672,0,"D#5S_Eb5S_s.wav",96
Sample,146673,0,"G#5S_Ab5S_s.wav",96
Sample,146678,0,"C5S_s.wav",96
Sample,146801,0,"F6S_s.wav",65
Sample,146801,0,"G#3S_Ab3S_s.wav",92
Sample,146801,0,"G#6S_Ab6S_s.wav",62
Sample,147003,0,"D#5S_Eb5S_s.wav",75
Sample,147005,0,"G#5S_Ab5S_s.wav",64
Sample,147009,0,"C5S_s.wav",68
Sample,147201,0,"D#3S_Eb3S_s.wav",100
Sample,147210,0,"D#5S_Eb5S_s.wav",78
Sample,147214,0,"G5S_s.wav",84
Sample,147219,0,"G6S.wav",62
Sample,147222,0,"A#4S_Bb4S_s.wav",51
Sample,147501,0,"G5S_s.wav",91
Sample,147502,0,"D#5S_Eb5S_s.wav",78
Sample,147505,0,"A#4S_Bb4S_s.wav",51
Sample,147601,0,"D#3S_Eb3S_s.wav",100
Sample,147814,0,"A#4S_Bb4S_s.wav",76
Sample,147822,0,"D#5S_Eb5S_s.wav",76
Sample,147827,0,"G5S_s.wav",76
Sample,148001,0,"D#3S_Eb3S_s.wav",99
Sample,148019,0,"G6S_s.wav",53
Sample,148020,0,"A#4S_Bb4S_s.wav",75
Sample,148022,0,"D#5S_Eb5S_s.wav",75
Sample,148026,0,"G5S_s.wav",75
Sample,148219,0,"D7S_s.wav",53
Sample,148219,0,"B6S_s.wav",53
Sample,148301,0,"A#4S_Bb4S_s.wav",91
Sample,148301,0,"D#5S_Eb5S_s.wav",92
Sample,148301,0,"G5S_s.wav",91
Sample,148401,0,"D#3S_Eb3S_s.wav",100
Sample,148601,0,"D#5S_Eb5S_s.wav",81
Sample,148601,0,"A#4S_Bb4S_s.wav",79
Sample,148601,0,"G5S_s.wav",73
Sample,148619,0,"C7S_s.wav",53
Sample,148619,0,"G#6S_Ab6S_s.wav",53
Sample,148801,0,"G3S_s.wav",96
Sample,148801,0,"G6S_s.wav",66
Sample,148826,0,"B4S_s.wav",83
Sample,148830,0,"G5S_s.wav",83
Sample,148831,0,"D5S_s.wav",83
Sample,148901,0,"G#6S_Ab6S_s.wav",66
Sample,149001,0,"G6S_s.wav",80
Sample,149069,0,"D#6S_Eb6S.wav",93
Sample,149072,0,"B5S.wav",93
Sample,149101,0,"G5S_s.wav",100
Sample,149101,0,"F#6S_Gb6S_s.wav",70
Sample,149103,0,"B4S_s.wav",62
Sample,149105,0,"D5S_s.wav",74
Sample,149201,0,"G3S_s.wav",100
Sample,149219,0,"G6S_s.wav",66
Sample,149319,0,"G#6S_Ab6S_s.wav",66
Sample,149401,0,"D5S_s.wav",73
Sample,149401,0,"B4S_s.wav",62
Sample,149402,0,"G5S_s.wav",66
Sample,149419,0,"G6S_s.wav",80
Sample,149519,0,"F#6S_Gb6S_s.wav",70
Sample,149601,0,"G3S_s.wav",100
Sample,149619,0,"G6S_s.wav",69
Sample,149634,0,"D5S_s.wav",84
Sample,149635,0,"B4S_s.wav",69
Sample,149638,0,"G5S_s.wav",77
Sample,149805,0,"C6S_s.wav",66
Sample,149818,0,"F6S_s.wav",66
Sample,149843,0,"D6S_s.wav",66
Sample,149893,0,"G6S_s.wav",64
Sample,149901,0,"G5S_s.wav",100
Sample,149901,0,"D5S_s.wav",100
Sample,149903,0,"B4S_s.wav",100
Sample,149918,0,"E6S_s.wav",64
Sample,149969,0,"G#6S_Ab6S_s.wav",70
Sample,149994,0,"F6S_s.wav",70
Sample,150001,0,"G3S_s.wav",100
Sample,150038,0,"A#6S_Bb6S_s.wav",76
Sample,150063,0,"G6S_s.wav",76
Sample,150109,0,"C7S_s.wav",74
Sample,150134,0,"A6S_s.wav",74
Sample,150188,0,"D7S_s.wav",71
Sample,150201,0,"G5S_s.wav",100
Sample,150201,0,"D5S_s.wav",100
Sample,150203,0,"B4S_s.wav",100
Sample,150213,0,"B6S_s.wav",71
Sample,150376,0,"D#7S_Eb7S.wav",85
Sample,150388,0,"C7S.wav",85
Sample,150401,0,"C4S_s.wav",92
Sample,150401,0,"C4S_s.wav",100
Sample,150401,0,"G5S_s.wav",69
Sample,150401,0,"C5S_s.wav",79
Sample,150401,0,"D#5S_Eb5S_s.wav",68
Sample,150601,0,"C5S_s.wav",68
Sample,150601,0,"D#5S_Eb5S_s.wav",51
Sample,150601,0,"G5S_s.wav",63
Sample,150801,0,"A#3S_Bb3S_s.wav",99
Sample,150801,0,"A#3S_Bb3S_s.wav",100
Sample,151001,0,"D#5S_Eb5S_s.wav",57
Sample,151001,0,"C5S_s.wav",70
Sample,151001,0,"G5S_s.wav",65
Sample,151201,0,"C5S_s.wav",87
Sample,151201,0,"G#5S_Ab5S_s.wav",62
Sample,151201,0,"D#5S_Eb5S_s.wav",73
Sample,151201,0,"G#3S_Ab3S_s.wav",92
Sample,151201,0,"G#3S_Ab3S_s.wav",100
Sample,151401,0,"G#5S_Ab5S_s.wav",58
Sample,151401,0,"C5S_s.wav",81
Sample,151401,0,"D#5S_Eb5S_s.wav",66
Sample,151601,0,"F3S_s.wav",93
Sample,151601,0,"F3S_s.wav",100
Sample,151601,0,"G#4S_Ab4S_s.wav",74
Sample,151601,0,"F3S_s.wav",93
Sample,151801,0,"C5S_s.wav",81
Sample,151801,0,"D#5S_Eb5S_s.wav",66
Sample,151801,0,"G#5S_Ab5S_s.wav",58
Sample,152001,0,"A#3S_Bb3S_s.wav",96
Sample,152001,0,"A#3S_Bb3S_s.wav",100
Sample,152001,0,"F5S_s.wav",76
Sample,152001,0,"D5S_s.wav",74
Sample,152001,0,"A#4S_Bb4S_s.wav",66
Sample,152201,0,"A#4S_Bb4S_s.wav",57
Sample,152201,0,"F5S_s.wav",66
Sample,152201,0,"D5S_s.wav",68
Sample,152401,0,"D3S_s.wav",100
Sample,152601,0,"F5S_s.wav",63
Sample,152601,0,"D5S_s.wav",66
Sample,152601,0,"A#4S_Bb4S_s.wav",61
Sample,152801,0,"G3S_s.wav",99
Sample,152801,0,"B4S_s.wav",72
Sample,152801,0,"G3S_s.wav",89
Sample,152801,0,"G5S_s.wav",71
Sample,152801,0,"D5S_s.wav",67
Sample,152801,0,"G3S_s.wav",89
Sample,152801,0,"G5S_s.wav",69
Sample,153001,0,"B4S_s.wav",72
Sample,153001,0,"G5S_s.wav",70
Sample,153001,0,"D5S_s.wav",67
Sample,153201,0,"B3S_s.wav",100
Sample,153401,0,"B4S_s.wav",65
Sample,153401,0,"G5S_s.wav",62
Sample,153401,0,"D5S_s.wav",64
Sample,153601,0,"G5S_s.wav",69
Sample,153601,0,"C5S_s.wav",75
Sample,153601,0,"D#5S_Eb5S_s.wav",61
Sample,153601,0,"C4S_s.wav",100
Sample,153801,0,"D#5S_Eb5S_s.wav",66
Sample,153801,0,"C5S_s.wav",72
Sample,153801,0,"G5S_s.wav",68
Sample,154001,0,"G#3S_Ab3S_s.wav",100
Sample,154201,0,"G5S_s.wav",59
Sample,154201,0,"C5S_s.wav",64
Sample,154201,0,"D#5S_Eb5S_s.wav",52
Sample,154401,0,"A#4S_Bb4S_s.wav",62
Sample,154401,0,"A#3S_Bb3S_s.wav",100
Sample,154401,0,"D5S_s.wav",65
Sample,154401,0,"A#3S_Bb3S_s.wav",100
Sample,154401,0,"A#3S_Bb3S_s.wav",100
Sample,154401,0,"A#4S_Bb4S_s.wav",64
Sample,154401,0,"D5S_s.wav",70
Sample,154401,0,"F5S_s.wav",71
Sample,154601,0,"D5S_s.wav",70
Sample,154601,0,"A#4S_Bb4S_s.wav",64
Sample,154601,0,"F5S_s.wav",69
Sample,154701,0,"A#4S_Bb4S_s.wav",74
Sample,154701,0,"D5S_s.wav",77
Sample,154801,0,"A#3S_Bb3S_s.wav",100
Sample,155001,0,"D5S_s.wav",70
Sample,155001,0,"A#4S_Bb4S_s.wav",64
Sample,155001,0,"F5S_s.wav",69
Sample,155201,0,"D#3S_Eb3S_s.wav",100
Sample,155201,0,"D#3S_Eb3S_s.wav",100
Sample,155201,0,"A#4S_Bb4S_s.wav",66
Sample,155201,0,"D#5S_Eb5S_s.wav",66
Sample,155201,0,"G5S_s.wav",68
Sample,155401,0,"D#5S_Eb5S_s.wav",66
Sample,155401,0,"G5S_s.wav",69
Sample,155401,0,"A#4S_Bb4S_s.wav",68
Sample,155401,0,"A#4S_Bb4S_s.wav",74
Sample,155601,0,"G3S_s.wav",100
Sample,155601,0,"G3S_s.wav",100
Sample,155801,0,"D#5S_Eb5S_s.wav",54
Sample,155801,0,"A#4S_Bb4S_s.wav",57
Sample,155801,0,"G5S_s.wav",59
Sample,156001,0,"B3S_s.wav",100
Sample,156001,0,"B3S_s.wav",100
Sample,156001,0,"D5S_s.wav",77
Sample,156001,0,"B4S_s.wav",76
Sample,156001,0,"G5S_s.wav",68
Sample,156201,0,"B4S_s.wav",76
Sample,156201,0,"G5S_s.wav",71
Sample,156201,0,"D5S_s.wav",70
Sample,156201,0,"D5S_s.wav",69
Sample,156401,0,"D4S_s.wav",100
Sample,156401,0,"D4S_s.wav",100
Sample,156601,0,"B4S_s.wav",63
Sample,156601,0,"D5S_s.wav",62
Sample,156601,0,"G5S_s.wav",60
Sample,156801,0,"G5S_s.wav",66
Sample,156801,0,"C5S_s.wav",66
Sample,156801,0,"D#5S_Eb5S_s.wav",55
Sample,156801,0,"C4S_s.wav",100
Sample,157001,0,"G5S_s.wav",70
Sample,157001,0,"C5S_s.wav",80
Sample,157001,0,"D#5S_Eb5S_s.wav",64
Sample,157201,0,"A#3S_Bb3S_s.wav",100
Sample,157401,0,"G5S_s.wav",67
Sample,157401,0,"D#5S_Eb5S_s.wav",59
Sample,157401,0,"C5S_s.wav",79
Sample,157601,0,"C5S_s.wav",84
Sample,157601,0,"G#5S_Ab5S_s.wav",62
Sample,157601,0,"D#5S_Eb5S_s.wav",74
Sample,157601,0,"G#3S_Ab3S_s.wav",92
Sample,157601,0,"G#3S_Ab3S_s.wav",100
Sample,157801,0,"G#5S_Ab5S_s.wav",59
Sample,157801,0,"C5S_s.wav",80
Sample,157801,0,"D#5S_Eb5S_s.wav",66
Sample,158001,0,"F3S_s.wav",100
Sample,158201,0,"G#5S_Ab5S_s.wav",58
Sample,158201,0,"D#5S_Eb5S_s.wav",60
Sample,158201,0,"C5S_s.wav",81
Sample,158401,0,"D5S_s.wav",63
Sample,158401,0,"F#5S_Gb5S_s.wav",58
Sample,158401,0,"A4S_s.wav",77
Sample,158401,0,"D3S_s.wav",92
Sample,158401,0,"D3S_s.wav",100
Sample,158601,0,"F#5S_Gb5S_s.wav",56
Sample,158601,0,"D5S_s.wav",67
Sample,158601,0,"A4S_s.wav",80
Sample,158801,0,"D3S_s.wav",100
Sample,159001,0,"F#5S_Gb5S_s.wav",51
Sample,159001,0,"D5S_s.wav",55
Sample,159001,0,"A4S_s.wav",74
Sample,159201,0,"D5S_s.wav",65
Sample,159201,0,"F#5S_Gb5S_s.wav",55
Sample,159201,0,"A4S_s.wav",75
Sample,159201,0,"F#3S_Gb3S_s.wav",92
Sample,159201,0,"F#3S_Gb3S_s.wav",100
Sample,159401,0,"F#5S_Gb5S_s.wav",68
Sample,159401,0,"D5S_s.wav",76
Sample,159401,0,"A4S_s.wav",88
Sample,159601,0,"A3S_s.wav",100
Sample,159801,0,"D5S_s.wav",62
Sample,159801,0,"F#5S_Gb5S_s.wav",54
Sample,159801,0,"A4S_s.wav",77
Sample,160001,0,"D5S_s.wav",69
Sample,160001,0,"G5S_s.wav",71
Sample,160001,0,"B4S_s.wav",76
Sample,160001,0,"G3S_s.wav",92
Sample,160001,0,"G3S_s.wav",100
Sample,160201,0,"D5S_s.wav",70
Sample,160201,0,"G5S_s.wav",68
Sample,160201,0,"B4S_s.wav",73
Sample,160401,0,"G3S_s.wav",92
Sample,160401,0,"G3S_s.wav",100
Sample,160601,0,"G5S_s.wav",61
Sample,160601,0,"D5S_s.wav",64
Sample,160601,0,"B4S_s.wav",70
Sample,160801,0,"A3S_s.wav",92
Sample,160801,0,"A3S_s.wav",100
Sample,160801,0,"B4S_s.wav",69
Sample,160801,0,"D5S_s.wav",66
Sample,160801,0,"G5S_s.wav",66
Sample,161001,0,"B4S_s.wav",76
Sample,161001,0,"D5S_s.wav",72
Sample,161001,0,"G5S_s.wav",71
Sample,161201,0,"B3S_s.wav",92
Sample,161201,0,"B3S_s.wav",100
Sample,161401,0,"D5S_s.wav",66
Sample,161401,0,"G5S_s.wav",62
Sample,161401,0,"B4S_s.wav",68
Sample,161601,0,"C5S_s.wav",70
Sample,161601,0,"G5S_s.wav",74
Sample,161601,0,"D#5S_Eb5S_s.wav",63
Sample,161601,0,"C4S_s.wav",92
Sample,161601,0,"C4S_s.wav",100
Sample,161801,0,"G5S_s.wav",68
Sample,161801,0,"C5S_s.wav",81
Sample,161801,0,"D#5S_Eb5S_s.wav",68
Sample,161869,0,"D#6S_Eb6S.wav",93
Sample,161872,0,"B5S.wav",93
Sample,161876,0,"G5S.wav",93
Sample,162001,0,"A3S_s.wav",100
Sample,162201,0,"G5S_s.wav",53
Sample,162201,0,"B4S_s.wav",55
Sample,162201,0,"D5S_s.wav",43
Sample,162401,0,"G5S_s.wav",74
Sample,162401,0,"B4S_s.wav",70
Sample,162401,0,"D5S_s.wav",63
Sample,162401,0,"D4S_s.wav",100
Sample,162580,0,"D#6S_Eb6S_s.wav",66
Sample,162601,0,"B4S_s.wav",81
Sample,162601,0,"D5S_s.wav",68
Sample,162601,0,"G5S_s.wav",68
Sample,162605,0,"C6S_s.wav",66
Sample,162618,0,"F6S_s.wav",66
Sample,162643,0,"D6S_s.wav",66
Sample,162693,0,"G6S_s.wav",64
Sample,162718,0,"E6S_s.wav",64
Sample,162769,0,"G#6S_Ab6S_s.wav",70
Sample,162794,0,"F6S_s.wav",70
Sample,162801,0,"G3S_s.wav",92
Sample,162801,0,"G3S_s.wav",100
Sample,162838,0,"A#6S_Bb6S_s.wav",76
Sample,162863,0,"G6S_s.wav",76
Sample,162909,0,"C7S_s.wav",74
Sample,162934,0,"A6S_s.wav",74
Sample,162988,0,"D7S_s.wav",71
Sample,163013,0,"B6S_s.wav",71
Sample,163176,0,"D#7S_Eb7S.wav",85
Sample,163188,0,"C7S.wav",85
Sample,163201,0,"C5S_s.wav",79
Sample,163201,0,"D#5S_Eb5S_s.wav",68
Sample,163201,0,"G5S_s.wav",69
Sample,163201,0,"C4S_s.wav",92
Sample,163201,0,"C4S_s.wav",100
Sample,163401,0,"G5S_s.wav",63
Sample,163401,0,"C5S_s.wav",68
Sample,163401,0,"D#5S_Eb5S_s.wav",51
Sample,163601,0,"A#3S_Bb3S_s.wav",99
Sample,163601,0,"A#3S_Bb3S_s.wav",100
Sample,163801,0,"C5S_s.wav",70
Sample,163801,0,"G5S_s.wav",65
Sample,163801,0,"D#5S_Eb5S_s.wav",57
Sample,164001,0,"G#3S_Ab3S_s.wav",92
Sample,164001,0,"G#3S_Ab3S_s.wav",100
Sample,164001,0,"D#5S_Eb5S_s.wav",73
Sample,164001,0,"C5S_s.wav",87
Sample,164001,0,"G#5S_Ab5S_s.wav",62
Sample,164201,0,"C5S_s.wav",81
Sample,164201,0,"D#5S_Eb5S_s.wav",66
Sample,164201,0,"G#5S_Ab5S_s.wav",58
Sample,164401,0,"G#4S_Ab4S_s.wav",74
Sample,164401,0,"F3S_s.wav",93
Sample,164401,0,"F3S_s.wav",93
Sample,164401,0,"F3S_s.wav",100
Sample,164601,0,"G#5S_Ab5S_s.wav",58
Sample,164601,0,"C5S_s.wav",81
Sample,164601,0,"D#5S_Eb5S_s.wav",66
Sample,164801,0,"D5S_s.wav",74
Sample,164801,0,"A#4S_Bb4S_s.wav",66
Sample,164801,0,"F5S_s.wav",76
Sample,164801,0,"A#3S_Bb3S_s.wav",96
Sample,164801,0,"A#3S_Bb3S_s.wav",100
Sample,165001,0,"D5S_s.wav",68
Sample,165001,0,"A#4S_Bb4S_s.wav",57
Sample,165001,0,"F5S_s.wav",66
Sample,165201,0,"D3S_s.wav",92
Sample,165201,0,"D3S_s.wav",100
Sample,165201,0,"A#4S_Bb4S_s.wav",74
Sample,165201,0,"D3S_s.wav",92
Sample,165401,0,"F5S_s.wav",63
Sample,165401,0,"D5S_s.wav",66
Sample,165401,0,"A#4S_Bb4S_s.wav",61
Sample,165601,0,"D5S_s.wav",67
Sample,165601,0,"B4S_s.wav",74
Sample,165601,0,"G3S_s.wav",89
Sample,165601,0,"G4S_s.wav",71
Sample,165601,0,"G5S_s.wav",69
Sample,165601,0,"G3S_s.wav",89
Sample,165601,0,"B4S_s.wav",72
Sample,165601,0,"G3S_s.wav",99
Sample,165801,0,"D5S_s.wav",67
Sample,165801,0,"B4S_s.wav",72
Sample,165801,0,"G5S_s.wav",70
Sample,166001,0,"B3S_s.wav",100
Sample,166001,0,"B3S_s.wav",100
Sample,166001,0,"B4S_s.wav",74
Sample,166001,0,"B3S_s.wav",100
Sample,166201,0,"B4S_s.wav",65
Sample,166201,0,"G5S_s.wav",62
Sample,166201,0,"D5S_s.wav",64
Sample,166401,0,"C4S_s.wav",100
Sample,166401,0,"C5S_s.wav",75
Sample,166401,0,"C4S_s.wav",100
Sample,166401,0,"C5S_s.wav",74
Sample,166401,0,"G5S_s.wav",69
Sample,166401,0,"C4S_s.wav",100
Sample,166401,0,"D#5S_Eb5S_s.wav",61
Sample,166601,0,"C5S_s.wav",72
Sample,166601,0,"G5S_s.wav",68
Sample,166601,0,"D#5S_Eb5S_s.wav",66
Sample,166801,0,"C5S_s.wav",74
Sample,166801,0,"G#3S_Ab3S_s.wav",100
Sample,166801,0,"G#3S_Ab3S_s.wav",100
Sample,166801,0,"G#3S_Ab3S_s.wav",100
Sample,167001,0,"G5S_s.wav",59
Sample,167001,0,"C5S_s.wav",64
Sample,167001,0,"D#5S_Eb5S_s.wav",52
Sample,167201,0,"D5S_s.wav",74
Sample,167201,0,"A#3S_Bb3S_s.wav",100
Sample,167201,0,"F5S_s.wav",77
Sample,167201,0,"A#3S_Bb3S_s.wav",100
Sample,167201,0,"A#3S_Bb3S_s.wav",100
Sample,167201,0,"A#4S_Bb4S_s.wav",64
Sample,167201,0,"D5S_s.wav",70
Sample,167201,0,"F5S_s.wav",71
Sample,167401,0,"D5S_s.wav",70
Sample,167401,0,"A#4S_Bb4S_s.wav",64
Sample,167401,0,"F5S_s.wav",69
Sample,167601,0,"D5S_s.wav",74
Sample,167601,0,"A#3S_Bb3S_s.wav",100
Sample,167601,0,"A#3S_Bb3S_s.wav",100
Sample,167601,0,"A#3S_Bb3S_s.wav",100
Sample,167801,0,"F5S_s.wav",69
Sample,167801,0,"D5S_s.wav",70
Sample,167801,0,"A#4S_Bb4S_s.wav",64
Sample,168001,0,"D#5S_Eb5S_s.wav",66
Sample,168001,0,"G5S_s.wav",68
Sample,168001,0,"A#4S_Bb4S_s.wav",66
Sample,168001,0,"D#3S_Eb3S_s.wav",100
Sample,168001,0,"D#3S_Eb3S_s.wav",100
Sample,168401,0,"G3S_s.wav",100
Sample,168401,0,"G3S_s.wav",100
Sample,168401,0,"D#5S_Eb5S_s.wav",74
Sample,168401,0,"G3S_s.wav",100
Sample,168401,0,"G5S_s.wav",77
Sample,168801,0,"B3S_s.wav",100
Sample,168801,0,"B4S_s.wav",74
Sample,168801,0,"G4S_s.wav",71
Sample,168801,0,"B3S_s.wav",100
Sample,168801,0,"B3S_s.wav",100
Sample,169201,0,"D4S_s.wav",100
Sample,169201,0,"D4S_s.wav",100
Sample,169201,0,"B4S_s.wav",74
Sample,169201,0,"D4S_s.wav",100
Sample,169201,0,"D5S_s.wav",77
Sample,169601,0,"C4S_s.wav",92
Sample,169601,0,"C5S_s.wav",66
Sample,169601,0,"C5S_s.wav",74
Sample,169601,0,"C4S_s.wav",92
Sample,169601,0,"D#5S_Eb5S_s.wav",55
Sample,169601,0,"G5S_s.wav",66
Sample,169601,0,"C4S_s.wav",100
Sample,169801,0,"G5S_s.wav",70
Sample,169801,0,"C5S_s.wav",80
Sample,169801,0,"D#5S_Eb5S_s.wav",64
Sample,170001,0,"A#3S_Bb3S_s.wav",99
Sample,170001,0,"A#3S_Bb3S_s.wav",100
Sample,170201,0,"D#5S_Eb5S_s.wav",59
Sample,170201,0,"C5S_s.wav",79
Sample,170201,0,"G5S_s.wav",67
Sample,170401,0,"G#5S_Ab5S_s.wav",62
Sample,170401,0,"F5S_s.wav",71
Sample,170401,0,"G#3S_Ab3S_s.wav",92
Sample,170401,0,"C5S_s.wav",71
Sample,170401,0,"D#5S_Eb5S_s.wav",74
Sample,170401,0,"G#3S_Ab3S_s.wav",92
Sample,170401,0,"C5S_s.wav",84
Sample,170401,0,"G#3S_Ab3S_s.wav",100
Sample,170601,0,"G#5S_Ab5S_s.wav",59
Sample,170601,0,"C5S_s.wav",80
Sample,170601,0,"D#5S_Eb5S_s.wav",66
Sample,170801,0,"F3S_s.wav",93
Sample,170801,0,"F3S_s.wav",100
Sample,170801,0,"G#4S_Ab4S_s.wav",71
Sample,170801,0,"F3S_s.wav",93
Sample,171001,0,"D#5S_Eb5S_s.wav",60
Sample,171001,0,"C5S_s.wav",81
Sample,171001,0,"G#5S_Ab5S_s.wav",58
Sample,171201,0,"D3S_s.wav",92
Sample,171201,0,"D3S_s.wav",100
Sample,171201,0,"A4S_s.wav",77
Sample,171201,0,"D5S_s.wav",63
Sample,171201,0,"F#5S_Gb5S_s.wav",58
Sample,171401,0,"D5S_s.wav",67
Sample,171401,0,"A4S_s.wav",80
Sample,171401,0,"F#5S_Gb5S_s.wav",56
Sample,171601,0,"A4S_s.wav",71
Sample,171601,0,"D3S_s.wav",92
Sample,171601,0,"D3S_s.wav",92
Sample,171601,0,"D3S_s.wav",100
Sample,171801,0,"F#5S_Gb5S_s.wav",51
Sample,171801,0,"D5S_s.wav",55
Sample,171801,0,"A4S_s.wav",74
Sample,172001,0,"D5S_s.wav",65
Sample,172001,0,"F#5S_Gb5S_s.wav",55
Sample,172001,0,"A4S_s.wav",75
Sample,172001,0,"F#3S_Gb3S_s.wav",92
Sample,172001,0,"F#3S_Gb3S_s.wav",100
Sample,172201,0,"F#5S_Gb5S_s.wav",68
Sample,172201,0,"D5S_s.wav",76
Sample,172201,0,"A4S_s.wav",88
Sample,172401,0,"A3S_s.wav",92
Sample,172401,0,"A3S_s.wav",100
Sample,172401,0,"D5S_s.wav",74
Sample,172401,0,"A3S_s.wav",92
Sample,172601,0,"F#5S_Gb5S_s.wav",54
Sample,172601,0,"A4S_s.wav",77
Sample,172601,0,"D5S_s.wav",62
Sample,172801,0,"G3S_s.wav",92
Sample,172801,0,"G3S_s.wav",100
Sample,172801,0,"B4S_s.wav",76
Sample,172801,0,"D5S_s.wav",69
Sample,172801,0,"G5S_s.wav",71
Sample,173001,0,"G5S_s.wav",68
Sample,173001,0,"B4S_s.wav",73
Sample,173001,0,"D5S_s.wav",70
Sample,173201,0,"G3S_s.wav",92
Sample,173201,0,"G3S_s.wav",100
Sample,173401,0,"B4S_s.wav",70
Sample,173401,0,"G5S_s.wav",61
Sample,173401,0,"D5S_s.wav",64
Sample,173601,0,"D5S_s.wav",66
Sample,173601,0,"G5S_s.wav",66
Sample,173601,0,"B4S_s.wav",69
Sample,173601,0,"A3S_s.wav",92
Sample,173601,0,"A3S_s.wav",100
Sample,173801,0,"G5S_s.wav",71
Sample,173801,0,"B4S_s.wav",76
Sample,173801,0,"D5S_s.wav",72
Sample,174001,0,"B3S_s.wav",92
Sample,174001,0,"B3S_s.wav",100
Sample,174201,0,"G5S_s.wav",62
Sample,174201,0,"B4S_s.wav",68
Sample,174201,0,"D5S_s.wav",66
Sample,174401,0,"C3S_s.wav",89
Sample,174401,0,"C4S_s.wav",96
Sample,174401,0,"D#5S_Eb5S_s.wav",83
Sample,174401,0,"C3S_s.wav",81
Sample,174401,0,"C5S_s.wav",68
Sample,174409,0,"G4S_s.wav",81
Sample,174589,0,"D#5S_Eb5S_s.wav",87
Sample,174597,0,"C5S_s.wav",65
Sample,174601,0,"C4S_s.wav",89
Sample,174605,0,"G4S_s.wav",77
Sample,175001,0,"C3S_s.wav",86
Sample,175013,0,"D#5S_Eb5S_s.wav",81
Sample,175018,0,"G4S_s.wav",71
Sample,175022,0,"C5S_s.wav",65
Sample,175201,0,"C3S_s.wav",92
Sample,175201,0,"C4S_s.wav",100
Sample,175213,0,"D#5S_Eb5S_s.wav",85
Sample,175222,0,"C5S_s.wav",63
Sample,175222,0,"G4S_s.wav",74
Sample,175378,0,"C3S_s.wav",100
Sample,175397,0,"D#5S_Eb5S_s.wav",87
Sample,175401,0,"C5S_s.wav",66
Sample,175401,0,"C4S_s.wav",92
Sample,175406,0,"G4S_s.wav",80
Sample,175753,0,"G4S_s.wav",68
Sample,175768,0,"D#5S_Eb5S_s.wav",81
Sample,175772,0,"C5S_s.wav",67
Sample,175801,0,"C3S_s.wav",86
Sample,175963,0,"G#4S_Ab4S_s.wav",77
Sample,175963,0,"D#5S_Eb5S_s.wav",87
Sample,175968,0,"C5S_s.wav",67
Sample,176001,0,"G#3S_Ab3S_s.wav",91
Sample,176001,0,"G#3S_Ab3S_s.wav",94
Sample,176155,0,"C5S_s.wav",66
Sample,176157,0,"D#5S_Eb5S_s.wav",89
Sample,176159,0,"G#4S_Ab4S_s.wav",77
Sample,176201,0,"G#3S_Ab3S_s.wav",81
Sample,176555,0,"D#5S_Eb5S_s.wav",83
Sample,176559,0,"G#4S_Ab4S_s.wav",75
Sample,176563,0,"C5S_s.wav",65
Sample,176753,0,"G#4S_Ab4S_s.wav",75
Sample,176759,0,"C5S_s.wav",69
Sample,176761,0,"F5S_s.wav",74
Sample,176776,0,"F3S_s.wav",91
Sample,176801,0,"F3S_s.wav",87
Sample,176951,0,"F5S_s.wav",77
Sample,176952,0,"C5S_s.wav",65
Sample,176953,0,"G#4S_Ab4S_s.wav",78
Sample,177001,0,"F3S_s.wav",85
Sample,177357,0,"F5S_s.wav",77
Sample,177363,0,"G#4S_Ab4S_s.wav",74
Sample,177363,0,"C5S_s.wav",63
Sample,177572,0,"G3S_s.wav",92
Sample,177580,0,"B4S_s.wav",82
Sample,177581,0,"G5S_s.wav",78
Sample,177584,0,"D5S_s.wav",84
Sample,177601,0,"G3S_s.wav",98
Sample,177763,0,"B4S_s.wav",84
Sample,177776,0,"G5S_s.wav",68
Sample,177780,0,"D5S_s.wav",77
Sample,177801,0,"G3S_s.wav",99
Sample,177801,0,"G3S_s.wav",100
Sample,177801,0,"G3S_s.wav",92
Sample,178169,0,"B4S_s.wav",81
Sample,178176,0,"D5S_s.wav",76
Sample,178180,0,"G5S_s.wav",66
Sample,178352,0,"B4S_s.wav",81
Sample,178363,0,"D5S_s.wav",74
Sample,178364,0,"G5S_s.wav",70
Sample,178401,0,"G3S_s.wav",100
Sample,178564,0,"B4S_s.wav",83
Sample,178576,0,"D5S_s.wav",78
Sample,178576,0,"G5S_s.wav",70
Sample,178601,0,"G3S_s.wav",94
Sample,178963,0,"B4S_s.wav",78
Sample,178963,0,"D5S_s.wav",74
Sample,178964,0,"G5S_s.wav",70
Sample,179159,0,"B4S_s.wav",83
Sample,179172,0,"D5S_s.wav",77
Sample,179173,0,"G5S_s.wav",70
Sample,179180,0,"G3S_s.wav",93
Sample,179201,0,"B5S_s.wav",95
Sample,179201,0,"G3S_s.wav",97
Sample,179363,0,"B4S_s.wav",84
Sample,179376,0,"D5S_s.wav",77
Sample,179376,0,"G5S_s.wav",70
Sample,179401,0,"G3S_s.wav",98
Sample,179401,0,"G3S_s.wav",100
Sample,179401,0,"G3S_s.wav",92
Sample,179784,0,"D5S_s.wav",74
Sample,179784,0,"G5S_s.wav",67
Sample,179788,0,"B4S_s.wav",82
Sample,179988,0,"B4S_s.wav",83
Sample,179997,0,"D5S_s.wav",74
Sample,179997,0,"G5S_s.wav",67
Sample,180001,0,"G3S_s.wav",94
Sample,180197,0,"B4S_s.wav",85
Sample,180201,0,"G3S_s.wav",98
Sample,180205,0,"G5S_s.wav",70
Sample,180207,0,"D5S_s.wav",77
Sample,180801,0,"C5S_s.wav",68
Sample,180801,0,"C3S_s.wav",89
Sample,180801,0,"D#5S_Eb5S_s.wav",83
Sample,180801,0,"C4S_s.wav",97
Sample,180809,0,"G4S_s.wav",81
Sample,180989,0,"D#5S_Eb5S_s.wav",87
Sample,180997,0,"C5S_s.wav",65
Sample,181001,0,"C4S_s.wav",100
Sample,181005,0,"G4S_s.wav",77
Sample,181413,0,"D#5S_Eb5S_s.wav",81
Sample,181418,0,"G4S_s.wav",71
Sample,181422,0,"C5S_s.wav",65
Sample,181601,0,"C3S_s.wav",92
Sample,181601,0,"C4S_s.wav",99
Sample,181613,0,"D#5S_Eb5S_s.wav",85
Sample,181622,0,"C5S_s.wav",63
Sample,181622,0,"G4S_s.wav",74
Sample,181778,0,"C3S_s.wav",100
Sample,181797,0,"D#5S_Eb5S_s.wav",87
Sample,181801,0,"C5S_s.wav",66
Sample,181801,0,"C4S_s.wav",100
Sample,181806,0,"G4S_s.wav",80
Sample,182153,0,"G4S_s.wav",68
Sample,182168,0,"D#5S_Eb5S_s.wav",81
Sample,182172,0,"C5S_s.wav",67
Sample,182201,0,"C3S_s.wav",86
Sample,182363,0,"G#4S_Ab4S_s.wav",77
Sample,182363,0,"D#5S_Eb5S_s.wav",87
Sample,182368,0,"C5S_s.wav",67
Sample,182401,0,"G#3S_Ab3S_s.wav",91
Sample,182401,0,"G#3S_Ab3S_s.wav",92
Sample,182555,0,"C5S_s.wav",66
Sample,182557,0,"D#5S_Eb5S_s.wav",89
Sample,182559,0,"G#4S_Ab4S_s.wav",77
Sample,182601,0,"G#3S_Ab3S_s.wav",87
Sample,182955,0,"D#5S_Eb5S_s.wav",83
Sample,182959,0,"G#4S_Ab4S_s.wav",75
Sample,182963,0,"C5S_s.wav",65
Sample,183153,0,"G#4S_Ab4S_s.wav",75
Sample,183159,0,"C5S_s.wav",69
Sample,183161,0,"F5S_s.wav",74
Sample,183176,0,"F3S_s.wav",91
Sample,183201,0,"F3S_s.wav",92
Sample,183351,0,"F5S_s.wav",77
Sample,183352,0,"C5S_s.wav",65
Sample,183353,0,"G#4S_Ab4S_s.wav",78
Sample,183401,0,"F3S_s.wav",100
Sample,183401,0,"F3S_s.wav",93
Sample,183757,0,"F5S_s.wav",77
Sample,183763,0,"G#4S_Ab4S_s.wav",74
Sample,183763,0,"C5S_s.wav",63
Sample,183801,0,"F3S_s.wav",86
Sample,183972,0,"G3S_s.wav",92
Sample,183980,0,"B4S_s.wav",82
Sample,183981,0,"G5S_s.wav",78
Sample,183984,0,"D5S_s.wav",84
Sample,184001,0,"null_s.wav",99
Sample,184001,0,"G3S_s.wav",100
Sample,184001,0,"B1S_s.wav",99
Sample,184163,0,"B4S_s.wav",84
Sample,184176,0,"G5S_s.wav",68
Sample,184180,0,"D5S_s.wav",77
Sample,184201,0,"G3S_s.wav",97
Sample,184201,0,"G3S_s.wav",100
Sample,184201,0,"G3S_s.wav",92
Sample,184401,0,"null_s.wav",60
Sample,184569,0,"B4S_s.wav",81
Sample,184576,0,"D5S_s.wav",76
Sample,184580,0,"G5S_s.wav",66
Sample,184601,0,"null_s.wav",62
Sample,184752,0,"B4S_s.wav",81
Sample,184763,0,"D5S_s.wav",74
Sample,184764,0,"G5S_s.wav",70
Sample,184801,0,"G3S_s.wav",100
Sample,184801,0,"null_s.wav",64
Sample,184964,0,"B4S_s.wav",83
Sample,184976,0,"D5S_s.wav",78
Sample,184976,0,"G5S_s.wav",70
Sample,185001,0,"G3S_s.wav",96
Sample,185001,0,"null_s.wav",66
Sample,185201,0,"null_s.wav",68
Sample,185363,0,"B4S_s.wav",78
Sample,185363,0,"D5S_s.wav",74
Sample,185364,0,"G5S_s.wav",70
Sample,185401,0,"null_s.wav",70
Sample,185559,0,"B4S_s.wav",83
Sample,185572,0,"D5S_s.wav",77
Sample,185573,0,"G5S_s.wav",70
Sample,185580,0,"G3S_s.wav",93
Sample,185601,0,"B5S_s.wav",95
Sample,185601,0,"G3S_s.wav",97
Sample,185601,0,"null_s.wav",72
Sample,185763,0,"B4S_s.wav",84
Sample,185776,0,"D5S_s.wav",77
Sample,185776,0,"G5S_s.wav",70
Sample,185801,0,"G3S_s.wav",92
Sample,185801,0,"null_s.wav",74
Sample,185801,0,"G3S_s.wav",97
Sample,185801,0,"G3S_s.wav",100
Sample,186001,0,"null_s.wav",76
Sample,186184,0,"D5S_s.wav",74
Sample,186184,0,"G5S_s.wav",67
Sample,186188,0,"B4S_s.wav",82
Sample,186201,0,"null_s.wav",77
Sample,186388,0,"B4S_s.wav",83
Sample,186397,0,"D5S_s.wav",74
Sample,186397,0,"G5S_s.wav",67
Sample,186401,0,"G3S_s.wav",100
Sample,186401,0,"null_s.wav",79
Sample,186597,0,"B4S_s.wav",85
Sample,186601,0,"G3S_s.wav",100
Sample,186605,0,"G5S_s.wav",70
Sample,186607,0,"D5S_s.wav",77
Sample,186701,0,"null_s.wav",99
Sample,186701,0,"null_s.wav",99
Sample,187201,0,"C5S_s.wav",79
Sample,187201,0,"D#5S_Eb5S_s.wav",68
Sample,187201,0,"G5S_s.wav",69
Sample,187201,0,"C4S_s.wav",92
Sample,187201,0,"C4S_s.wav",100
Sample,187401,0,"G5S_s.wav",63
Sample,187401,0,"C5S_s.wav",68
Sample,187401,0,"D#5S_Eb5S_s.wav",51
Sample,187601,0,"A#3S_Bb3S_s.wav",99
Sample,187601,0,"A#3S_Bb3S_s.wav",100
Sample,187801,0,"C5S_s.wav",70
Sample,187801,0,"G5S_s.wav",65
Sample,187801,0,"D#5S_Eb5S_s.wav",57
Sample,188001,0,"G#3S_Ab3S_s.wav",92
Sample,188001,0,"G#3S_Ab3S_s.wav",100
Sample,188001,0,"D#5S_Eb5S_s.wav",73
Sample,188001,0,"C5S_s.wav",87
Sample,188001,0,"G#5S_Ab5S_s.wav",62
Sample,188201,0,"C5S_s.wav",81
Sample,188201,0,"D#5S_Eb5S_s.wav",66
Sample,188201,0,"G#5S_Ab5S_s.wav",58
Sample,188401,0,"G#4S_Ab4S_s.wav",74
Sample,188401,0,"F3S_s.wav",93
Sample,188401,0,"F3S_s.wav",93
Sample,188401,0,"F3S_s.wav",100
Sample,188601,0,"G#5S_Ab5S_s.wav",58
Sample,188601,0,"C5S_s.wav",81
Sample,188601,0,"D#5S_Eb5S_s.wav",66
Sample,188801,0,"D5S_s.wav",74
Sample,188801,0,"A#4S_Bb4S_s.wav",66
Sample,188801,0,"F5S_s.wav",76
Sample,188801,0,"A#3S_Bb3S_s.wav",96
Sample,188801,0,"A#3S_Bb3S_s.wav",100
Sample,189001,0,"D5S_s.wav",68
Sample,189001,0,"A#4S_Bb4S_s.wav",57
Sample,189001,0,"F5S_s.wav",66
Sample,189201,0,"D3S_s.wav",100
Sample,189401,0,"A#4S_Bb4S_s.wav",61
Sample,189401,0,"F5S_s.wav",63
Sample,189401,0,"D5S_s.wav",66
Sample,189601,0,"G3S_s.wav",89
Sample,189601,0,"B4S_s.wav",72
Sample,189601,0,"G5S_s.wav",71
Sample,189601,0,"G3S_s.wav",89
Sample,189601,0,"G5S_s.wav",69
Sample,189601,0,"D5S_s.wav",67
Sample,189601,0,"G3S_s.wav",99
Sample,189801,0,"D5S_s.wav",67
Sample,189801,0,"B4S_s.wav",72
Sample,189801,0,"G5S_s.wav",70
Sample,190001,0,"B3S_s.wav",100
Sample,190201,0,"D5S_s.wav",64
Sample,190201,0,"B4S_s.wav",65
Sample,190201,0,"G5S_s.wav",62
Sample,190401,0,"D#5S_Eb5S_s.wav",61
Sample,190401,0,"C4S_s.wav",100
Sample,190401,0,"G5S_s.wav",69
Sample,190401,0,"C5S_s.wav",75
Sample,190601,0,"C5S_s.wav",72
Sample,190601,0,"G5S_s.wav",68
Sample,190601,0,"D#5S_Eb5S_s.wav",66
Sample,190801,0,"G#3S_Ab3S_s.wav",100
Sample,191001,0,"C5S_s.wav",64
Sample,191001,0,"D#5S_Eb5S_s.wav",52
Sample,191001,0,"G5S_s.wav",59
Sample,191201,0,"A#4S_Bb4S_s.wav",64
Sample,191201,0,"D5S_s.wav",65
Sample,191201,0,"A#3S_Bb3S_s.wav",100
Sample,191201,0,"A#4S_Bb4S_s.wav",62
Sample,191201,0,"F5S_s.wav",71
Sample,191201,0,"A#3S_Bb3S_s.wav",100
Sample,191201,0,"D5S_s.wav",70
Sample,191201,0,"A#3S_Bb3S_s.wav",100
Sample,191401,0,"F5S_s.wav",69
Sample,191401,0,"D5S_s.wav",70
Sample,191401,0,"A#4S_Bb4S_s.wav",64
Sample,191501,0,"A#4S_Bb4S_s.wav",74
Sample,191501,0,"D5S_s.wav",77
Sample,191601,0,"A#3S_Bb3S_s.wav",100
Sample,191801,0,"F5S_s.wav",69
Sample,191801,0,"D5S_s.wav",70
Sample,191801,0,"A#4S_Bb4S_s.wav",64
Sample,192001,0,"D#5S_Eb5S_s.wav",66
Sample,192001,0,"G5S_s.wav",68
Sample,192001,0,"A#4S_Bb4S_s.wav",66
Sample,192001,0,"D#3S_Eb3S_s.wav",100
Sample,192001,0,"D#3S_Eb3S_s.wav",100
Sample,192201,0,"A#4S_Bb4S_s.wav",68
Sample,192201,0,"A#4S_Bb4S_s.wav",74
Sample,192201,0,"D#5S_Eb5S_s.wav",66
Sample,192201,0,"G5S_s.wav",69
Sample,192401,0,"G3S_s.wav",100
Sample,192401,0,"G3S_s.wav",100
Sample,192601,0,"G5S_s.wav",59
Sample,192601,0,"D#5S_Eb5S_s.wav",54
Sample,192601,0,"A#4S_Bb4S_s.wav",57
Sample,192801,0,"B4S_s.wav",76
Sample,192801,0,"G5S_s.wav",68
Sample,192801,0,"D5S_s.wav",77
Sample,192801,0,"B3S_s.wav",100
Sample,192801,0,"B3S_s.wav",100
Sample,193001,0,"D5S_s.wav",70
Sample,193001,0,"D5S_s.wav",69
Sample,193001,0,"B4S_s.wav",76
Sample,193001,0,"G5S_s.wav",71
Sample,193201,0,"D4S_s.wav",100
Sample,193201,0,"D4S_s.wav",100
Sample,193401,0,"G5S_s.wav",60
Sample,193401,0,"B4S_s.wav",63
Sample,193401,0,"D5S_s.wav",62
Sample,193601,0,"D#5S_Eb5S_s.wav",55
Sample,193601,0,"C4S_s.wav",100
Sample,193601,0,"G5S_s.wav",66
Sample,193601,0,"C5S_s.wav",66
Sample,193801,0,"C5S_s.wav",80
Sample,193801,0,"D#5S_Eb5S_s.wav",64
Sample,193801,0,"G5S_s.wav",70
Sample,194001,0,"A#3S_Bb3S_s.wav",100
Sample,194201,0,"D#5S_Eb5S_s.wav",59
Sample,194201,0,"C5S_s.wav",79
Sample,194201,0,"G5S_s.wav",67
Sample,194401,0,"G#3S_Ab3S_s.wav",92
Sample,194401,0,"G#3S_Ab3S_s.wav",100
Sample,194401,0,"D#5S_Eb5S_s.wav",74
Sample,194401,0,"C5S_s.wav",84
Sample,194401,0,"G#5S_Ab5S_s.wav",62
Sample,194601,0,"C5S_s.wav",80
Sample,194601,0,"D#5S_Eb5S_s.wav",66
Sample,194601,0,"G#5S_Ab5S_s.wav",59
Sample,194801,0,"F3S_s.wav",100
Sample,195001,0,"D#5S_Eb5S_s.wav",60
Sample,195001,0,"C5S_s.wav",81
Sample,195001,0,"G#5S_Ab5S_s.wav",58
Sample,195201,0,"D3S_s.wav",92
Sample,195201,0,"D3S_s.wav",100
Sample,195201,0,"A4S_s.wav",77
Sample,195201,0,"D5S_s.wav",63
Sample,195201,0,"F#5S_Gb5S_s.wav",58
Sample,195401,0,"D5S_s.wav",67
Sample,195401,0,"A4S_s.wav",80
Sample,195401,0,"F#5S_Gb5S_s.wav",56
Sample,195601,0,"D3S_s.wav",100
Sample,195801,0,"D5S_s.wav",55
Sample,195801,0,"A4S_s.wav",74
Sample,195801,0,"F#5S_Gb5S_s.wav",51
Sample,196001,0,"F#3S_Gb3S_s.wav",92
Sample,196001,0,"F#3S_Gb3S_s.wav",100
Sample,196001,0,"A4S_s.wav",75
Sample,196001,0,"D5S_s.wav",65
Sample,196001,0,"F#5S_Gb5S_s.wav",55
Sample,196201,0,"D5S_s.wav",76
Sample,196201,0,"A4S_s.wav",88
Sample,196201,0,"F#5S_Gb5S_s.wav",68
Sample,196401,0,"A3S_s.wav",100
Sample,196601,0,"F#5S_Gb5S_s.wav",54
Sample,196601,0,"A4S_s.wav",77
Sample,196601,0,"D5S_s.wav",62
Sample,196801,0,"G3S_s.wav",92
Sample,196801,0,"G3S_s.wav",100
Sample,196801,0,"B4S_s.wav",76
Sample,196801,0,"D5S_s.wav",69
Sample,196801,0,"G5S_s.wav",71
Sample,197001,0,"G5S_s.wav",68
Sample,197001,0,"B4S_s.wav",73
Sample,197001,0,"D5S_s.wav",70
Sample,197201,0,"G3S_s.wav",92
Sample,197201,0,"G3S_s.wav",100
Sample,197401,0,"B4S_s.wav",70
Sample,197401,0,"G5S_s.wav",61
Sample,197401,0,"D5S_s.wav",64
Sample,197601,0,"D5S_s.wav",66
Sample,197601,0,"G5S_s.wav",66
Sample,197601,0,"B4S_s.wav",69
Sample,197601,0,"A3S_s.wav",92
Sample,197601,0,"A3S_s.wav",100
Sample,197801,0,"G5S_s.wav",71
Sample,197801,0,"B4S_s.wav",76
Sample,197801,0,"D5S_s.wav",72
Sample,198001,0,"B3S_s.wav",92
Sample,198001,0,"B3S_s.wav",100
Sample,198201,0,"G5S_s.wav",62
Sample,198201,0,"B4S_s.wav",68
Sample,198201,0,"D5S_s.wav",66
Sample,198401,0,"C4S_s.wav",92
Sample,198401,0,"C4S_s.wav",100
Sample,198401,0,"D#5S_Eb5S_s.wav",63
Sample,198401,0,"C5S_s.wav",70
Sample,198401,0,"G5S_s.wav",74
Sample,198601,0,"F#5S_Gb5S_s.wav",88
Sample,198601,0,"D#5S_Eb5S_s.wav",68
Sample,198601,0,"C5S_s.wav",81
Sample,198601,0,"F#5S_Gb5S_s.wav",88
Sample,198601,0,"G5S_s.wav",68
Sample,198801,0,"A3S_s.wav",100
Sample,199001,0,"G5S_s.wav",92
Sample,199001,0,"B4S_s.wav",55
Sample,199001,0,"G5S_s.wav",53
Sample,199001,0,"G5S_s.wav",92
Sample,199001,0,"D5S_s.wav",43
Sample,199201,0,"G5S_s.wav",74
Sample,199201,0,"D#6S_Eb6S_s.wav",100
Sample,199201,0,"D4S_s.wav",92
Sample,199201,0,"D#6S_Eb6S_s.wav",100
Sample,199201,0,"D5S_s.wav",63
Sample,199201,0,"D4S_s.wav",92
Sample,199201,0,"B4S_s.wav",70
Sample,199201,0,"D4S_s.wav",100
Sample,199401,0,"G5S_s.wav",68
Sample,199401,0,"B4S_s.wav",81
Sample,199401,0,"D5S_s.wav",68
Sample,199501,0,"D6S_s.wav",100
Sample,199501,0,"D6S_s.wav",100
Sample,199601,0,"G3S_s.wav",92
Sample,199601,0,"G3S_s.wav",100
Sample,199801,0,"B5S_s.wav",97
Sample,199801,0,"B5S_s.wav",97
Sample,200001,0,"C6S.wav",97
Sample,200001,0,"C4S_s.wav",92
Sample,200001,0,"C6S.wav",92
Sample,200001,0,"D#5S_Eb5S_s.wav",68
Sample,200001,0,"C4S_s.wav",92
Sample,200001,0,"G5S_s.wav",69
Sample,200001,0,"C6S.wav",100
Sample,200001,0,"C5S_s.wav",79
Sample,200001,0,"C4S_s.wav",100
Sample,200201,0,"G5S_s.wav",63
Sample,200201,0,"C5S_s.wav",68
Sample,200201,0,"D#5S_Eb5S_s.wav",51
Sample,200401,0,"A#3S_Bb3S_s.wav",99
Sample,200401,0,"A#3S_Bb3S_s.wav",100
Sample,200601,0,"C5S_s.wav",70
Sample,200601,0,"G5S_s.wav",65
Sample,200601,0,"D#5S_Eb5S_s.wav",57
Sample,200801,0,"G#3S_Ab3S_s.wav",92
Sample,200801,0,"G#3S_Ab3S_s.wav",100
Sample,200801,0,"D#5S_Eb5S_s.wav",73
Sample,200801,0,"C5S_s.wav",87
Sample,200801,0,"G#5S_Ab5S_s.wav",62
Sample,201001,0,"C5S_s.wav",81
Sample,201001,0,"D#5S_Eb5S_s.wav",66
Sample,201001,0,"G#5S_Ab5S_s.wav",58
Sample,201201,0,"G#4S_Ab4S_s.wav",74
Sample,201201,0,"F3S_s.wav",93
Sample,201201,0,"F3S_s.wav",93
Sample,201201,0,"F3S_s.wav",100
Sample,201401,0,"G#5S_Ab5S_s.wav",58
Sample,201401,0,"C5S_s.wav",81
Sample,201401,0,"D#5S_Eb5S_s.wav",66
Sample,201601,0,"D5S_s.wav",74
Sample,201601,0,"A#4S_Bb4S_s.wav",66
Sample,201601,0,"F5S_s.wav",76
Sample,201601,0,"A#3S_Bb3S_s.wav",96
Sample,201601,0,"A#3S_Bb3S_s.wav",100
Sample,201801,0,"D5S_s.wav",68
Sample,201801,0,"A#4S_Bb4S_s.wav",57
Sample,201801,0,"F5S_s.wav",66
Sample,202001,0,"D3S_s.wav",92
Sample,202001,0,"D3S_s.wav",100
Sample,202001,0,"A#4S_Bb4S_s.wav",74
Sample,202001,0,"D3S_s.wav",92
Sample,202201,0,"F5S_s.wav",63
Sample,202201,0,"D5S_s.wav",66
Sample,202201,0,"A#4S_Bb4S_s.wav",61
Sample,202401,0,"D5S_s.wav",67
Sample,202401,0,"B4S_s.wav",74
Sample,202401,0,"G3S_s.wav",89
Sample,202401,0,"G4S_s.wav",71
Sample,202401,0,"G5S_s.wav",69
Sample,202401,0,"G3S_s.wav",89
Sample,202401,0,"B4S_s.wav",72
Sample,202401,0,"G3S_s.wav",99
Sample,202601,0,"D5S_s.wav",67
Sample,202601,0,"B4S_s.wav",72
Sample,202601,0,"G5S_s.wav",70
Sample,202801,0,"B3S_s.wav",100
Sample,202801,0,"B3S_s.wav",100
Sample,202801,0,"B4S_s.wav",74
Sample,202801,0,"B3S_s.wav",100
Sample,203001,0,"B4S_s.wav",65
Sample,203001,0,"G5S_s.wav",62
Sample,203001,0,"D5S_s.wav",64
Sample,203201,0,"C4S_s.wav",100
Sample,203201,0,"C5S_s.wav",75
Sample,203201,0,"C4S_s.wav",100
Sample,203201,0,"C5S_s.wav",74
Sample,203201,0,"G5S_s.wav",69
Sample,203201,0,"C4S_s.wav",100
Sample,203201,0,"D#5S_Eb5S_s.wav",61
Sample,203401,0,"C5S_s.wav",72
Sample,203401,0,"G5S_s.wav",68
Sample,203401,0,"D#5S_Eb5S_s.wav",66
Sample,203601,0,"C5S_s.wav",74
Sample,203601,0,"G#3S_Ab3S_s.wav",100
Sample,203601,0,"G#3S_Ab3S_s.wav",100
Sample,203601,0,"G#3S_Ab3S_s.wav",100
Sample,203801,0,"G5S_s.wav",59
Sample,203801,0,"C5S_s.wav",64
Sample,203801,0,"D#5S_Eb5S_s.wav",52
Sample,204001,0,"D5S_s.wav",74
Sample,204001,0,"A#3S_Bb3S_s.wav",100
Sample,204001,0,"F5S_s.wav",77
Sample,204001,0,"A#3S_Bb3S_s.wav",100
Sample,204001,0,"A#3S_Bb3S_s.wav",100
Sample,204001,0,"A#4S_Bb4S_s.wav",64
Sample,204001,0,"D5S_s.wav",70
Sample,204001,0,"F5S_s.wav",71
Sample,204201,0,"D5S_s.wav",70
Sample,204201,0,"A#4S_Bb4S_s.wav",64
Sample,204201,0,"F5S_s.wav",69
Sample,204401,0,"D5S_s.wav",74
Sample,204401,0,"A#3S_Bb3S_s.wav",100
Sample,204401,0,"A#3S_Bb3S_s.wav",100
Sample,204401,0,"A#3S_Bb3S_s.wav",100
Sample,204601,0,"F5S_s.wav",69
Sample,204601,0,"D5S_s.wav",70
Sample,204601,0,"A#4S_Bb4S_s.wav",64
Sample,204801,0,"D#3S_Eb3S_s.wav",100
Sample,204801,0,"D#3S_Eb3S_s.wav",100
Sample,205201,0,"G3S_s.wav",100
Sample,205201,0,"G5S_s.wav",77
Sample,205201,0,"D#5S_Eb5S_s.wav",74
Sample,205201,0,"G3S_s.wav",100
Sample,205201,0,"G3S_s.wav",100
Sample,205601,0,"B3S_s.wav",100
Sample,205601,0,"B3S_s.wav",100
Sample,205601,0,"G4S_s.wav",71
Sample,205601,0,"B3S_s.wav",100
Sample,205601,0,"B4S_s.wav",74
Sample,206001,0,"D4S_s.wav",100
Sample,206001,0,"D5S_s.wav",77
Sample,206001,0,"B4S_s.wav",74
Sample,206001,0,"D4S_s.wav",100
Sample,206001,0,"D4S_s.wav",100
Sample,206401,0,"C4S_s.wav",100
Sample,206401,0,"C5S_s.wav",66
Sample,206401,0,"C4S_s.wav",92
Sample,206401,0,"C5S_s.wav",74
Sample,206401,0,"G5S_s.wav",66
Sample,206401,0,"C4S_s.wav",92
Sample,206401,0,"D#5S_Eb5S_s.wav",55
Sample,206601,0,"C5S_s.wav",80
Sample,206601,0,"D#5S_Eb5S_s.wav",64
Sample,206601,0,"G5S_s.wav",70
Sample,206801,0,"A#3S_Bb3S_s.wav",99
Sample,206801,0,"A#3S_Bb3S_s.wav",100
Sample,207001,0,"G5S_s.wav",67
Sample,207001,0,"D#5S_Eb5S_s.wav",59
Sample,207001,0,"C5S_s.wav",79
Sample,207201,0,"C5S_s.wav",71
Sample,207201,0,"G#3S_Ab3S_s.wav",92
Sample,207201,0,"F5S_s.wav",71
Sample,207201,0,"G#3S_Ab3S_s.wav",100
Sample,207201,0,"G#3S_Ab3S_s.wav",92
Sample,207201,0,"G#5S_Ab5S_s.wav",62
Sample,207201,0,"C5S_s.wav",84
Sample,207201,0,"D#5S_Eb5S_s.wav",74
Sample,207401,0,"C5S_s.wav",80
Sample,207401,0,"D#5S_Eb5S_s.wav",66
Sample,207401,0,"G#5S_Ab5S_s.wav",59
Sample,207601,0,"G#4S_Ab4S_s.wav",71
Sample,207601,0,"F3S_s.wav",93
Sample,207601,0,"F3S_s.wav",93
Sample,207601,0,"F3S_s.wav",100
Sample,207801,0,"G#5S_Ab5S_s.wav",58
Sample,207801,0,"D#5S_Eb5S_s.wav",60
Sample,207801,0,"C5S_s.wav",81
Sample,208001,0,"D5S_s.wav",63
Sample,208001,0,"F#5S_Gb5S_s.wav",58
Sample,208001,0,"A4S_s.wav",77
Sample,208001,0,"D3S_s.wav",92
Sample,208001,0,"D3S_s.wav",100
Sample,208201,0,"F#5S_Gb5S_s.wav",56
Sample,208201,0,"D5S_s.wav",67
Sample,208201,0,"A4S_s.wav",80
Sample,208401,0,"D3S_s.wav",92
Sample,208401,0,"D3S_s.wav",100
Sample,208401,0,"A4S_s.wav",71
Sample,208401,0,"D3S_s.wav",92
Sample,208601,0,"D5S_s.wav",55
Sample,208601,0,"A4S_s.wav",74
Sample,208601,0,"F#5S_Gb5S_s.wav",51
Sample,208801,0,"F#3S_Gb3S_s.wav",92
Sample,208801,0,"F#3S_Gb3S_s.wav",100
Sample,208801,0,"A4S_s.wav",75
Sample,208801,0,"D5S_s.wav",65
Sample,208801,0,"F#5S_Gb5S_s.wav",55
Sample,209001,0,"D5S_s.wav",76
Sample,209001,0,"A4S_s.wav",88
Sample,209001,0,"F#5S_Gb5S_s.wav",68
Sample,209201,0,"D5S_s.wav",74
Sample,209201,0,"A3S_s.wav",92
Sample,209201,0,"A3S_s.wav",92
Sample,209201,0,"A3S_s.wav",100
Sample,209401,0,"D5S_s.wav",62
Sample,209401,0,"F#5S_Gb5S_s.wav",54
Sample,209401,0,"A4S_s.wav",77
Sample,209601,0,"D5S_s.wav",69
Sample,209601,0,"G5S_s.wav",71
Sample,209601,0,"B4S_s.wav",76
Sample,209601,0,"G3S_s.wav",92
Sample,209601,0,"G3S_s.wav",100
Sample,209801,0,"F#5S_Gb5S_s.wav",88
Sample,209801,0,"D5S_s.wav",70
Sample,209801,0,"G5S_s.wav",68
Sample,209801,0,"F#5S_Gb5S_s.wav",88
Sample,209801,0,"B4S_s.wav",73
Sample,210001,0,"G3S_s.wav",92
Sample,210001,0,"G3S_s.wav",100
Sample,210201,0,"G5S_s.wav",92
Sample,210201,0,"D5S_s.wav",64
Sample,210201,0,"G5S_s.wav",61
Sample,210201,0,"G5S_s.wav",92
Sample,210201,0,"B4S_s.wav",70
Sample,210401,0,"A3S_s.wav",92
Sample,210401,0,"G5S_s.wav",66
Sample,210401,0,"A3S_s.wav",92
Sample,210401,0,"D#6S_Eb6S_s.wav",96
Sample,210401,0,"D5S_s.wav",66
Sample,210401,0,"A3S_s.wav",100
Sample,210401,0,"B4S_s.wav",69
Sample,210401,0,"D#6S_Eb6S_s.wav",100
Sample,210401,0,"D#6S_Eb6S_s.wav",100
Sample,210601,0,"B4S_s.wav",76
Sample,210601,0,"D5S_s.wav",72
Sample,210601,0,"G5S_s.wav",71
Sample,210701,0,"D6S_s.wav",100
Sample,210701,0,"D6S_s.wav",100
Sample,210801,0,"B3S_s.wav",100
Sample,210801,0,"B3S_s.wav",92
Sample,210801,0,"B3S_s.wav",92
Sample,211001,0,"B5S_s.wav",97
Sample,211001,0,"B4S_s.wav",68
Sample,211001,0,"G5S_s.wav",62
Sample,211001,0,"B5S_s.wav",97
Sample,211001,0,"D5S_s.wav",66
Sample,211201,0,"C4S_s.wav",92
Sample,211201,0,"C6S.wav",100
Sample,211201,0,"C6S.wav",97
Sample,211201,0,"C4S_s.wav",92
Sample,211201,0,"C6S_s.wav",95

[TimingPoints]
1,600,4,1,1,100,1,0
778,400,4,1,1,100,1,0

[HitObjects]
266,192,3978,5,0,0:0:0:97:C6S.wav
10,192,3978,1,0,0:0:0:85:C3S_s.wav
138,192,4178,1,0,0:0:0:100:C3S_s.wav
394,192,4178,1,0,0:0:0:92:C3S_s.wav
10,192,4578,1,0,0:0:0:78:C3S_s.wav
266,192,4578,1,0,0:0:0:84:C6S_s.wav
138,192,4778,1,0,0:0:0:83:C3S_s.wav
394,192,4778,1,0,0:0:0:84:G5S_s.wav
266,192,4953,1,0,0:0:0:92:C3S_s.wav
10,192,4978,1,0,0:0:0:80:C6S_s.wav
394,192,5111,1,0,0:0:0:77:D6S_s.wav
138,192,5153,1,0,0:0:0:67:D#6S_Eb6S_s.wav
266,192,5378,1,0,0:0:0:77:G6S_s.wav
10,192,5378,1,0,0:0:0:78:C3S_s.wav
394,192,5553,1,0,0:0:0:90:G#6S_Ab6S.wav
138,192,5578,1,0,0:0:0:83:G#3S_Ab3S_s.wav
10,192,5778,1,0,0:0:0:100:G#3S_Ab3S_s.wav
266,192,5778,1,0,0:0:0:92:G#3S_Ab3S_s.wav
138,192,6178,1,0,0:0:0:86:G3S_s.wav
394,192,6178,1,0,0:0:0:78:G3S_s.wav
266,192,6353,1,0,0:0:0:83:F3S_s.wav
10,192,6378,1,0,0:0:0:91:F6S_s.wav
138,192,6578,1,0,0:0:0:100:F3S_s.wav
394,192,6578,1,0,0:0:0:92:F3S_s.wav
266,192,6728,1,0,0:0:0:92:G#6S_Ab6S_s.wav
10,192,6978,1,0,0:0:0:86:F3S_s.wav
394,192,6978,1,0,0:0:0:78:F3S_s.wav
138,192,7153,1,0,0:0:0:86:G3S_s.wav
266,192,7178,1,0,0:0:0:89:G6S_s.wav
10,192,7278,1,0,0:0:0:85:G#6S_Ab6S_s.wav
394,192,7378,1,0,0:0:0:84:G6S_s.wav
138,192,7478,1,0,0:0:0:86:F6S_s.wav
266,192,7578,1,0,0:0:0:95:G6S.wav
10,192,7778,1,0,0:0:0:86:G3S_s.wav
394,192,7778,1,0,0:0:0:78:G3S_s.wav
138,192,7978,1,0,0:0:0:87:G3S_s.wav
266,192,7978,1,0,0:0:0:79:G3S_s.wav
10,192,8178,1,0,0:0:0:100:G3S_s.wav
394,192,8178,1,0,0:0:0:92:G3S_s.wav
138,192,8578,1,0,0:0:0:86:G3S_s.wav
266,192,8578,1,0,0:0:0:78:G3S_s.wav
10,192,8753,1,0,0:0:0:80:G3S_s.wav
394,192,8778,1,0,0:0:0:95:D6S_s.wav
138,192,8878,1,0,0:0:0:100:C6S_s.wav
266,192,8878,1,0,0:0:0:100:A5S_s.wav
10,192,8978,1,0,0:0:0:100:G5S_s.wav
394,192,9011,1,0,0:0:0:88:B5S_s.wav
138,192,9078,1,0,0:0:0:100:A5S_s.wav
266,192,9078,1,0,0:0:0:85:C6S_s.wav
10,192,9178,1,0,0:0:0:100:D6S.wav
394,192,9178,1,0,0:0:0:100:B5S.wav
138,192,9378,1,0,0:0:0:86:G3S_s.wav
266,192,9378,1,0,0:0:0:78:G3S_s.wav
10,192,9578,1,0,0:0:0:89:G3S_s.wav
394,192,9578,1,0,0:0:0:81:G3S_s.wav
138,192,9778,1,0,0:0:0:100:G3S_s.wav
266,192,9778,1,0,0:0:0:92:G3S_s.wav
10,192,10378,1,0,0:0:0:92:C6S.wav
394,192,10378,1,0,0:0:0:85:C3S_s.wav
138,192,10578,1,0,0:0:0:100:C3S_s.wav
266,192,10578,1,0,0:0:0:92:C3S_s.wav
10,192,10978,1,0,0:0:0:86:C3S_s.wav
394,192,10978,1,0,0:0:0:78:C3S_s.wav
138,192,11128,1,0,0:0:0:83:G5S_s.wav
266,192,11178,1,0,0:0:0:83:C3S_s.wav
10,192,11311,1,0,0:0:0:78:C6S_s.wav
394,192,11353,1,0,0:0:0:92:C3S_s.wav
138,192,11544,1,0,0:0:0:76:D#6S_Eb6S_s.wav
266,192,11778,1,0,0:0:0:85:G6S_s.wav
10,192,11778,1,0,0:0:0:78:C3S_s.wav
394,192,11978,1,0,0:0:0:83:G#3S_Ab3S_s.wav
138,192,11978,1,0,0:0:0:96:G#6S_Ab6S_s.wav
10,192,12178,1,0,0:0:0:100:G#3S_Ab3S_s.wav
266,192,12178,1,0,0:0:0:92:G#3S_Ab3S_s.wav
138,192,12578,1,0,0:0:0:86:G3S_s.wav
394,192,12578,1,0,0:0:0:78:G3S_s.wav
266,192,12711,1,0,0:0:0:88:A6S_s.wav
10,192,12744,1,0,0:0:0:96:A#6S_Bb6S_s.wav
394,192,12753,1,0,0:0:0:83:F3S_s.wav
138,192,12978,1,0,0:0:0:92:F3S_s.wav
266,192,13044,1,0,0:0:0:86:G#6S_Ab6S_s.wav
10,192,13328,1,0,0:0:0:88:A#6S_Bb6S_s.wav
394,192,13378,1,0,0:0:0:78:F3S_s.wav
138,192,13553,1,0,0:0:0:86:G3S_s.wav
266,192,13578,1,0,0:0:0:85:G6S_s.wav
10,192,13678,1,0,0:0:0:74:F6S_s.wav
394,192,13778,1,0,0:0:0:73:E6S_s.wav
138,192,13878,1,0,0:0:0:73:F6S_s.wav
266,192,13978,1,0,0:0:0:71:G6S.wav
10,192,14178,1,0,0:0:0:86:G3S_s.wav
394,192,14178,1,0,0:0:0:78:G3S_s.wav
138,192,14378,1,0,0:0:0:87:G3S_s.wav
266,192,14378,1,0,0:0:0:79:G3S_s.wav
10,192,14578,1,0,0:0:0:100:G3S_s.wav
394,192,14578,1,0,0:0:0:92:G3S_s.wav
138,192,14978,1,0,0:0:0:86:G3S_s.wav
266,192,14978,1,0,0:0:0:78:G3S_s.wav
10,192,15153,1,0,0:0:0:80:G3S_s.wav
394,192,15178,1,0,0:0:0:95:D6S_s.wav
138,192,15278,1,0,0:0:0:100:C6S_s.wav
266,192,15278,1,0,0:0:0:100:A5S_s.wav
10,192,15378,1,0,0:0:0:100:G5S_s.wav
394,192,15411,1,0,0:0:0:88:B5S_s.wav
138,192,15478,1,0,0:0:0:100:A5S_s.wav
266,192,15478,1,0,0:0:0:85:C6S_s.wav
10,192,15578,1,0,0:0:0:100:D6S.wav
394,192,15578,1,0,0:0:0:100:B5S.wav
138,192,15778,1,0,0:0:0:86:G3S_s.wav
266,192,15778,1,0,0:0:0:78:G3S_s.wav
10,192,15978,1,0,0:0:0:89:G3S_s.wav
394,192,15978,1,0,0:0:0:81:G3S_s.wav
138,192,16178,1,0,0:0:0:100:G3S_s.wav
266,192,16178,1,0,0:0:0:92:G3S_s.wav
10,192,16744,1,0,0:0:0:98:C6S.wav
394,192,16778,1,0,0:0:0:85:C3S_s.wav
138,192,16978,1,0,0:0:0:100:C3S_s.wav
266,192,16978,1,0,0:0:0:92:C3S_s.wav
10,192,17378,1,0,0:0:0:78:C3S_s.wav
394,192,17378,1,0,0:0:0:93:C6S_s.wav
138,192,17544,1,0,0:0:0:93:G5S_s.wav
266,192,17578,1,0,0:0:0:83:C3S_s.wav
10,192,17728,1,0,0:0:0:82:C6S_s.wav
394,192,17753,1,0,0:0:0:92:C3S_s.wav
138,192,17928,1,0,0:0:0:66:D#6S_Eb6S_s.wav
266,192,18103,1,0,0:0:0:100:F#6S_Gb6S_s.wav
10,192,18144,1,0,0:0:0:91:G6S_s.wav
394,192,18178,1,0,0:0:0:78:C3S_s.wav
138,192,18344,1,0,0:0:0:100:G#6S_Ab6S.wav
266,192,18378,1,0,0:0:0:83:G#3S_Ab3S_s.wav
10,192,18578,1,0,0:0:0:100:G#3S_Ab3S_s.wav
394,192,18578,1,0,0:0:0:92:G#3S_Ab3S_s.wav
138,192,18978,1,0,0:0:0:86:G3S_s.wav
266,192,18978,1,0,0:0:0:78:G3S_s.wav
10,192,19128,1,0,0:0:0:97:F6S.wav
394,192,19153,1,0,0:0:0:83:F3S_s.wav
138,192,19378,1,0,0:0:0:100:F3S_s.wav
266,192,19378,1,0,0:0:0:92:F3S_s.wav
10,192,19528,1,0,0:0:0:92:G#6S_Ab6S_s.wav
138,192,19778,1,0,0:0:0:86:F3S_s.wav
394,192,19778,1,0,0:0:0:78:F3S_s.wav
266,192,19953,1,0,0:0:0:86:G3S_s.wav
10,192,19978,1,0,0:0:0:85:G6S_s.wav
394,192,20078,1,0,0:0:0:100:F6S_s.wav
138,192,20178,1,0,0:0:0:92:G3S_s.wav
266,192,20178,1,0,0:0:0:92:G6S.wav
10,192,20578,1,0,0:0:0:86:G3S_s.wav
394,192,20578,1,0,0:0:0:78:G3S_s.wav
138,192,20778,1,0,0:0:0:87:G3S_s.wav
266,192,20778,1,0,0:0:0:79:G3S_s.wav
10,192,20978,1,0,0:0:0:100:G3S_s.wav
394,192,20978,1,0,0:0:0:92:G3S_s.wav
138,192,21378,1,0,0:0:0:86:G3S_s.wav
266,192,21378,1,0,0:0:0:78:G3S_s.wav
10,192,21553,1,0,0:0:0:80:G3S_s.wav
394,192,21578,1,0,0:0:0:95:D6S_s.wav
138,192,21678,1,0,0:0:0:100:C6S_s.wav
266,192,21678,1,0,0:0:0:100:A5S_s.wav
10,192,21778,1,0,0:0:0:100:G5S_s.wav
394,192,21811,1,0,0:0:0:88:B5S_s.wav
138,192,21878,1,0,0:0:0:100:A5S_s.wav
266,192,21878,1,0,0:0:0:85:C6S_s.wav
10,192,21978,1,0,0:0:0:100:D6S.wav
394,192,21978,1,0,0:0:0:100:B5S.wav
138,192,22178,1,0,0:0:0:86:G3S_s.wav
266,192,22178,1,0,0:0:0:78:G3S_s.wav
10,192,22378,1,0,0:0:0:89:G3S_s.wav
394,192,22378,1,0,0:0:0:81:G3S_s.wav
138,192,22578,1,0,0:0:0:100:G3S_s.wav
266,192,22578,1,0,0:0:0:92:G3S_s.wav
10,192,23153,1,0,0:0:0:97:C6S.wav
394,192,23178,1,0,0:0:0:85:C3S_s.wav
138,192,23378,1,0,0:0:0:100:C3S_s.wav
266,192,23378,1,0,0:0:0:92:C3S_s.wav
10,192,23778,1,0,0:0:0:78:C3S_s.wav
394,192,23778,1,0,0:0:0:85:C6S_s.wav
138,192,23944,1,0,0:0:0:85:G5S_s.wav
266,192,23978,1,0,0:0:0:83:C3S_s.wav
10,192,24144,1,0,0:0:0:79:C6S_s.wav
394,192,24153,1,0,0:0:0:92:C3S_s.wav
138,192,24303,1,0,0:0:0:84:D6S_s.wav
266,192,24328,1,0,0:0:0:62:D#6S_Eb6S_s.wav
10,192,24553,1,0,0:0:0:87:G6S_s.wav
394,192,24578,1,0,0:0:0:78:C3S_s.wav
138,192,24753,1,0,0:0:0:91:G#6S_Ab6S.wav
266,192,24778,1,0,0:0:0:83:G#3S_Ab3S_s.wav
10,192,24978,1,0,0:0:0:100:G#3S_Ab3S_s.wav
394,192,24978,1,0,0:0:0:92:G#3S_Ab3S_s.wav
138,192,25378,1,0,0:0:0:86:G3S_s.wav
266,192,25378,1,0,0:0:0:78:G3S_s.wav
10,192,25478,1,0,0:0:0:84:A6S_s.wav
394,192,25528,1,0,0:0:0:100:A#6S_Bb6S_s.wav
138,192,25553,1,0,0:0:0:83:F3S_s.wav
266,192,25778,1,0,0:0:0:92:F3S_s.wav
10,192,25844,1,0,0:0:0:90:G#6S_Ab6S_s.wav
394,192,26128,1,0,0:0:0:84:A#6S_Bb6S_s.wav
138,192,26178,1,0,0:0:0:78:F3S_s.wav
266,192,26353,1,0,0:0:0:86:G3S_s.wav
10,192,26378,1,0,0:0:0:100:G6S_s.wav
394,192,26478,1,0,0:0:0:96:F6S_s.wav
138,192,26578,1,0,0:0:0:92:G3S_s.wav
266,192,26611,1,0,0:0:0:86:E6S_s.wav
10,192,26703,1,0,0:0:0:66:F6S_s.wav
394,192,26778,1,0,0:0:0:93:G6S.wav
138,192,26978,1,0,0:0:0:86:G3S_s.wav
266,192,26978,1,0,0:0:0:78:G3S_s.wav
10,192,27178,1,0,0:0:0:87:G3S_s.wav
394,192,27178,1,0,0:0:0:79:G3S_s.wav
138,192,27378,1,0,0:0:0:100:G3S_s.wav
266,192,27378,1,0,0:0:0:92:G3S_s.wav
10,192,27778,1,0,0:0:0:86:G3S_s.wav
394,192,27778,1,0,0:0:0:78:G3S_s.wav
138,192,27953,1,0,0:0:0:80:G3S_s.wav
266,192,27978,1,0,0:0:0:95:D6S_s.wav
10,192,28078,1,0,0:0:0:100:C6S_s.wav
394,192,28078,1,0,0:0:0:100:A5S_s.wav
138,192,28178,1,0,0:0:0:100:G5S_s.wav
266,192,28211,1,0,0:0:0:88:B5S_s.wav
10,192,28278,1,0,0:0:0:100:A5S_s.wav
394,192,28278,1,0,0:0:0:85:C6S_s.wav
138,192,28378,1,0,0:0:0:100:D6S.wav
266,192,28378,1,0,0:0:0:100:B5S.wav
10,192,28578,1,0,0:0:0:86:G3S_s.wav
394,192,28578,1,0,0:0:0:78:G3S_s.wav
138,192,28778,1,0,0:0:0:89:G3S_s.wav
266,192,28778,1,0,0:0:0:81:G3S_s.wav
10,192,28978,1,0,0:0:0:100:G3S_s.wav
394,192,28978,1,0,0:0:0:92:G3S_s.wav
138,192,32778,1,0,0:0:0:93:C6S_s.wav
266,192,32978,1,0,0:0:0:93:D#6S_Eb6S.wav
10,192,33578,1,0,0:0:0:93:D6S_s.wav
394,192,33778,1,0,0:0:0:93:C6S.wav
138,192,34378,1,0,0:0:0:93:C6S_s.wav
266,192,34578,1,0,0:0:0:93:C6S.wav
10,192,35378,1,0,0:0:0:93:A#5S_Bb5S_s.wav
394,192,35578,1,0,0:0:0:93:G#5S_Ab5S_s.wav
138,192,35978,1,0,0:0:0:93:G5S_s.wav
266,192,36178,1,0,0:0:0:93:A#5S_Bb5S_s.wav
10,192,36978,1,0,0:0:0:93:A#5S_Bb5S_s.wav
394,192,37278,1,0,0:0:0:93:G#5S_Ab5S_s.wav
138,192,37578,1,0,0:0:0:93:G5S_s.wav
266,192,39178,1,0,0:0:0:93:C6S_s.wav
10,192,39378,1,0,0:0:0:93:D#6S_Eb6S.wav
394,192,39778,1,0,0:0:0:93:D6S_s.wav
138,192,40178,1,0,0:0:0:93:C6S_s.wav
266,192,40778,1,0,0:0:0:93:C6S_s.wav
10,192,41178,1,0,0:0:0:93:C6S.wav
394,192,41578,1,0,0:0:0:93:A#5S_Bb5S_s.wav
138,192,41778,1,0,0:0:0:93:G#5S_Ab5S.wav
266,192,42378,1,0,0:0:0:93:G5S_s.wav
10,192,42778,1,0,0:0:0:93:A#5S_Bb5S_s.wav
394,192,43378,1,0,0:0:0:93:A#5S_Bb5S_s.wav
138,192,43678,1,0,0:0:0:93:G#5S_Ab5S_s.wav
266,192,43978,1,0,0:0:0:93:G5S_s.wav
10,192,45578,1,0,0:0:0:93:C6S_s.wav
394,192,46178,1,0,0:0:0:93:D#6S_Eb6S_s.wav
138,192,46378,1,0,0:0:0:93:D6S_s.wav
266,192,46578,1,0,0:0:0:93:C6S_s.wav
10,192,47178,1,0,0:0:0:93:C6S.wav
394,192,47778,1,0,0:0:0:93:C6S_s.wav
138,192,47978,1,0,0:0:0:93:A#5S_Bb5S_s.wav
266,192,48378,1,0,0:0:0:93:G#5S_Ab5S_s.wav
10,192,48778,1,0,0:0:0:93:G5S_s.wav
394,192,48978,1,0,0:0:0:93:A#5S_Bb5S_s.wav
138,192,49778,1,0,0:0:0:93:A#5S_Bb5S_s.wav
266,192,50078,1,0,0:0:0:93:G#5S_Ab5S_s.wav
10,192,50378,1,0,0:0:0:93:G5S_s.wav
394,192,51978,1,0,0:0:0:93:C6S_s.wav
138,192,52178,1,0,0:0:0:93:D#6S_Eb6S_s.wav
266,192,52778,1,0,0:0:0:93:D6S_s.wav
10,192,52978,1,0,0:0:0:93:C6S_s.wav
394,192,53578,1,0,0:0:0:93:C6S_s.wav
138,192,53778,1,0,0:0:0:93:C6S_s.wav
266,192,54378,1,0,0:0:0:93:A#5S_Bb5S_s.wav
10,192,54578,1,0,0:0:0:93:G#5S_Ab5S_s.wav
394,192,55178,1,0,0:0:0:93:G5S_s.wav
138,192,55378,1,0,0:0:0:93:A#5S_Bb5S_s.wav
266,192,56178,1,0,0:0:0:93:A#5S_Bb5S_s.wav
10,192,56478,1,0,0:0:0:93:G#5S_Ab5S_s.wav
394,192,56778,1,0,0:0:0:93:G5S_s.wav
138,192,57053,1,0,0:0:0:93:D#6S_Eb6S.wav
266,192,57053,1,0,0:0:0:93:B5S.wav
10,192,57053,1,0,0:0:0:93:G5S.wav
394,192,57053,1,0,0:0:0:93:G5S.wav
138,192,57753,1,0,0:0:0:66:D#6S_Eb6S_s.wav
394,192,57753,1,0,0:0:0:66:D#6S_Eb6S_s.wav
266,192,57778,1,0,0:0:0:66:C6S_s.wav
10,192,57803,1,0,0:0:0:66:F6S_s.wav
394,192,57828,1,0,0:0:0:66:D6S_s.wav
138,192,57878,1,0,0:0:0:64:G6S_s.wav
266,192,57903,1,0,0:0:0:64:E6S_s.wav
10,192,57953,1,0,0:0:0:70:G#6S_Ab6S_s.wav
394,192,57978,1,0,0:0:0:70:F6S_s.wav
138,192,58028,1,0,0:0:0:76:A#6S_Bb6S_s.wav
266,192,58044,1,0,0:0:0:76:G6S_s.wav
10,192,58103,1,0,0:0:0:74:C7S_s.wav
394,192,58111,1,0,0:0:0:74:A6S_s.wav
138,192,58178,1,0,0:0:0:71:D7S_s.wav
266,192,58203,1,0,0:0:0:71:B6S_s.wav
10,192,58353,1,0,0:0:0:85:D#7S_Eb7S.wav
394,192,58378,1,0,0:0:0:85:C7S.wav
138,192,58378,1,0,0:0:0:92:C4S_s.wav
266,192,58378,1,0,0:0:0:93:C6S.wav
138,192,58778,1,0,0:0:0:99:A#3S_Bb3S_s.wav
394,192,58778,1,0,0:0:0:99:A#3S_Bb3S_s.wav
10,192,58978,1,0,0:0:0:93:C6S_s.wav
138,192,59178,1,0,0:0:0:92:G#3S_Ab3S_s.wav
266,192,59178,1,0,0:0:0:93:C6S_s.wav
394,192,59378,1,0,0:0:0:93:C6S_s.wav
10,192,59578,1,0,0:0:0:93:F3S_s.wav
266,192,59578,1,0,0:0:0:93:F3S_s.wav
138,192,59978,1,0,0:0:0:96:A#3S_Bb3S_s.wav
394,192,59978,1,0,0:0:0:93:D6S.wav
10,192,60378,1,0,0:0:0:92:D3S_s.wav
266,192,60378,1,0,0:0:0:92:D3S_s.wav
138,192,60578,1,0,0:0:0:93:D6S_s.wav
10,192,60778,1,0,0:0:0:89:G3S_s.wav
394,192,60778,1,0,0:0:0:93:D6S_s.wav
266,192,60978,1,0,0:0:0:93:D6S_s.wav
138,192,60978,1,0,0:0:0:74:B4S_s.wav
394,192,60978,1,0,0:0:0:77:D5S_s.wav
10,192,61178,1,0,0:0:0:100:B3S_s.wav
394,192,61178,1,0,0:0:0:100:B3S_s.wav
138,192,61578,1,0,0:0:0:100:C4S_s.wav
266,192,61578,1,0,0:0:0:93:D#6S_Eb6S.wav
10,192,61978,1,0,0:0:0:100:G#3S_Ab3S_s.wav
394,192,61978,1,0,0:0:0:100:G#3S_Ab3S_s.wav
266,192,62178,1,0,0:0:0:93:D#6S_Eb6S_s.wav
138,192,62378,1,0,0:0:0:59:F5S_s.wav
394,192,62378,1,0,0:0:0:93:F6S_s.wav
10,192,62578,1,0,0:0:0:93:A#5S_Bb5S_s.wav
266,192,62678,1,0,0:0:0:71:F5S_s.wav
138,192,62778,1,0,0:0:0:100:A#3S_Bb3S_s.wav
394,192,62778,1,0,0:0:0:100:A#3S_Bb3S_s.wav
10,192,63178,1,0,0:0:0:100:D#3S_Eb3S_s.wav
266,192,63178,1,0,0:0:0:93:A#6S_Bb6S_s.wav
138,192,63378,1,0,0:0:0:77:D#5S_Eb5S_s.wav
394,192,63378,1,0,0:0:0:71:G5S_s.wav
10,192,63578,1,0,0:0:0:100:G3S_s.wav
266,192,63578,1,0,0:0:0:93:G#6S_Ab6S_s.wav
138,192,63978,1,0,0:0:0:100:B3S_s.wav
394,192,63978,1,0,0:0:0:93:G6S_s.wav
10,192,64178,1,0,0:0:0:71:G5S_s.wav
266,192,64178,1,0,0:0:0:74:B4S_s.wav
138,192,64378,1,0,0:0:0:100:D4S_s.wav
394,192,64378,1,0,0:0:0:93:F6S_s.wav
10,192,64778,1,0,0:0:0:92:C4S_s.wav
266,192,64778,1,0,0:0:0:92:C4S_s.wav
138,192,64978,1,0,0:0:0:93:C6S_s.wav
10,192,65178,1,0,0:0:0:99:A#3S_Bb3S_s.wav
394,192,65178,1,0,0:0:0:99:A#3S_Bb3S_s.wav
266,192,65378,1,0,0:0:0:93:D6S_s.wav
138,192,65578,1,0,0:0:0:92:G#3S_Ab3S_s.wav
394,192,65578,1,0,0:0:0:93:D#6S_Eb6S_s.wav
10,192,65778,1,0,0:0:0:93:G6S_s.wav
138,192,65978,1,0,0:0:0:93:F3S_s.wav
266,192,65978,1,0,0:0:0:93:F3S_s.wav
10,192,66378,1,0,0:0:0:92:D3S_s.wav
394,192,66378,1,0,0:0:0:93:F#6S_Gb6S.wav
138,192,66778,1,0,0:0:0:92:D3S_s.wav
266,192,66778,1,0,0:0:0:92:D3S_s.wav
394,192,66978,1,0,0:0:0:93:G6S_s.wav
10,192,67178,1,0,0:0:0:92:F#3S_Gb3S_s.wav
266,192,67178,1,0,0:0:0:93:F#6S_Gb6S_s.wav
138,192,67378,1,0,0:0:0:93:G6S_s.wav
10,192,67578,1,0,0:0:0:92:A3S_s.wav
394,192,67578,1,0,0:0:0:92:A3S_s.wav
138,192,67978,1,0,0:0:0:92:G3S_s.wav
266,192,67978,1,0,0:0:0:93:G6S_s.wav
10,192,68378,1,0,0:0:0:92:G3S_s.wav
394,192,68378,1,0,0:0:0:93:F6S_s.wav
138,192,68778,1,0,0:0:0:92:A3S_s.wav
266,192,68778,1,0,0:0:0:93:D#6S_Eb6S_s.wav
10,192,69178,1,0,0:0:0:92:B3S_s.wav
394,192,69178,1,0,0:0:0:93:D6S_s.wav
138,192,69578,1,0,0:0:0:92:C4S_s.wav
266,192,69578,1,0,0:0:0:93:C6S_s.wav
10,192,69778,1,0,0:0:0:88:F#6S_Gb6S_s.wav
394,192,69778,1,0,0:0:0:88:F#6S_Gb6S_s.wav
138,192,69978,1,0,0:0:0:92:A3S_s.wav
266,192,69978,1,0,0:0:0:92:A3S_s.wav
10,192,70178,1,0,0:0:0:92:G6S_s.wav
394,192,70178,1,0,0:0:0:92:G6S_s.wav
138,192,70378,1,0,0:0:0:100:D#7S_Eb7S_s.wav
266,192,70378,1,0,0:0:0:100:D#7S_Eb7S_s.wav
10,192,70678,1,0,0:0:0:100:D7S_s.wav
394,192,70678,1,0,0:0:0:100:D7S_s.wav
266,192,70778,1,0,0:0:0:92:G3S_s.wav
138,192,70978,1,0,0:0:0:97:B6S_s.wav
394,192,70978,1,0,0:0:0:97:B6S_s.wav
10,192,71178,1,0,0:0:0:97:C7S.wav
266,192,71178,1,0,0:0:0:100:C7S.wav
138,192,71578,1,0,0:0:0:99:A#3S_Bb3S_s.wav
394,192,71578,1,0,0:0:0:77:D5S_s.wav
10,192,71778,1,0,0:0:0:93:C6S_s.wav
138,192,71978,1,0,0:0:0:92:G#3S_Ab3S_s.wav
266,192,71978,1,0,0:0:0:93:C6S_s.wav
394,192,72178,1,0,0:0:0:93:C6S_s.wav
10,192,72378,1,0,0:0:0:77:C5S_s.wav
266,192,72378,1,0,0:0:0:71:F5S_s.wav
138,192,72778,1,0,0:0:0:96:A#3S_Bb3S_s.wav
394,192,72778,1,0,0:0:0:93:D6S.wav
10,192,73178,1,0,0:0:0:77:D5S_s.wav
266,192,73178,1,0,0:0:0:71:F5S_s.wav
138,192,73378,1,0,0:0:0:93:D6S_s.wav
10,192,73578,1,0,0:0:0:77:D5S_s.wav
394,192,73578,1,0,0:0:0:93:D6S_s.wav
266,192,73778,1,0,0:0:0:93:D6S_s.wav
138,192,73978,1,0,0:0:0:77:D5S_s.wav
394,192,73978,1,0,0:0:0:71:G5S_s.wav
10,192,74378,1,0,0:0:0:77:D#5S_Eb5S_s.wav
266,192,74378,1,0,0:0:0:71:G5S_s.wav
138,192,74578,1,0,0:0:0:93:D#6S_Eb6S_s.wav
10,192,74778,1,0,0:0:0:77:D#5S_Eb5S_s.wav
394,192,74778,1,0,0:0:0:71:G#5S_Ab5S_s.wav
266,192,74978,1,0,0:0:0:93:D#6S_Eb6S_s.wav
138,192,75178,1,0,0:0:0:71:A#5S_Bb5S_s.wav
394,192,75178,1,0,0:0:0:93:F6S_s.wav
10,192,75378,1,0,0:0:0:93:A#5S_Bb5S_s.wav
138,192,75578,1,0,0:0:0:77:F5S_s.wav
266,192,75578,1,0,0:0:0:71:A#5S_Bb5S_s.wav
10,192,75978,1,0,0:0:0:100:D#3S_Eb3S_s.wav
394,192,75978,1,0,0:0:0:93:A#6S_Bb6S_s.wav
138,192,76378,1,0,0:0:0:71:A#5S_Bb5S_s.wav
266,192,76378,1,0,0:0:0:92:G#6S_Ab6S_s.wav
10,192,76778,1,0,0:0:0:100:B3S_s.wav
394,192,76778,1,0,0:0:0:92:G6S_s.wav
138,192,77178,1,0,0:0:0:71:G5S_s.wav
266,192,77178,1,0,0:0:0:92:F6S_s.wav
10,192,77578,1,0,0:0:0:92:C4S_s.wav
394,192,77578,1,0,0:0:0:92:C4S_s.wav
266,192,77778,1,0,0:0:0:92:C6S_s.wav
138,192,77978,1,0,0:0:0:99:A#3S_Bb3S_s.wav
394,192,77978,1,0,0:0:0:99:A#3S_Bb3S_s.wav
10,192,78178,1,0,0:0:0:92:D6S_s.wav
138,192,78378,1,0,0:0:0:92:G#3S_Ab3S_s.wav
266,192,78378,1,0,0:0:0:92:D#6S_Eb6S_s.wav
394,192,78678,1,0,0:0:0:92:G6S_s.wav
10,192,78778,1,0,0:0:0:93:F3S_s.wav
266,192,78778,1,0,0:0:0:93:F3S_s.wav
138,192,79178,1,0,0:0:0:92:D3S_s.wav
394,192,79178,1,0,0:0:0:92:F#6S_Gb6S.wav
10,192,79578,1,0,0:0:0:74:D5S_s.wav
266,192,79578,1,0,0:0:0:77:F#5S_Gb5S_s.wav
138,192,79778,1,0,0:0:0:92:G6S_s.wav
10,192,79978,1,0,0:0:0:92:F#3S_Gb3S_s.wav
394,192,79978,1,0,0:0:0:92:F#6S_Gb6S_s.wav
266,192,80178,1,0,0:0:0:92:G6S_s.wav
138,192,80378,1,0,0:0:0:77:F#5S_Gb5S_s.wav
394,192,80378,1,0,0:0:0:71:A5S_s.wav
10,192,80778,1,0,0:0:0:92:G3S_s.wav
266,192,80778,1,0,0:0:0:92:G6S_s.wav
138,192,81178,1,0,0:0:0:92:G3S_s.wav
394,192,81178,1,0,0:0:0:92:F6S_s.wav
10,192,81578,1,0,0:0:0:92:A3S_s.wav
266,192,81578,1,0,0:0:0:92:D#6S_Eb6S_s.wav
138,192,81978,1,0,0:0:0:92:B3S_s.wav
394,192,81978,1,0,0:0:0:92:D6S_s.wav
10,192,82378,1,0,0:0:0:92:C4S_s.wav
266,192,82378,1,0,0:0:0:92:C6S_s.wav
138,192,82578,1,0,0:0:0:88:F#6S_Gb6S_s.wav
394,192,82578,1,0,0:0:0:88:F#6S_Gb6S_s.wav
10,192,82778,1,0,0:0:0:92:A3S_s.wav
266,192,82778,1,0,0:0:0:92:A3S_s.wav
138,192,82978,1,0,0:0:0:92:G6S_s.wav
394,192,82978,1,0,0:0:0:92:G6S_s.wav
10,192,83178,1,0,0:0:0:100:D#7S_Eb7S_s.wav
266,192,83178,1,0,0:0:0:100:D#7S_Eb7S_s.wav
138,192,83478,1,0,0:0:0:100:D7S_s.wav
394,192,83478,1,0,0:0:0:100:D7S_s.wav
10,192,83578,1,0,0:0:0:92:G3S_s.wav
138,192,83778,1,0,0:0:0:97:B6S_s.wav
266,192,83778,1,0,0:0:0:97:B6S_s.wav
10,192,83978,1,0,0:0:0:97:C7S.wav
394,192,83978,1,0,0:0:0:100:C7S.wav
266,192,84578,1,0,0:0:0:92:D#6S_Eb6S_s.wav
138,192,84778,1,0,0:0:0:92:D6S_s.wav
394,192,84978,1,0,0:0:0:92:C6S_s.wav
10,192,85378,1,0,0:0:0:92:C6S_s.wav
266,192,86178,1,0,0:0:0:92:C6S_s.wav
138,192,86378,1,0,0:0:0:92:A#5S_Bb5S_s.wav
394,192,86778,1,0,0:0:0:92:G#5S_Ab5S_s.wav
10,192,87178,1,0,0:0:0:92:G5S_s.wav
266,192,87378,1,0,0:0:0:92:A#5S_Bb5S_s.wav
138,192,88178,1,0,0:0:0:92:A#5S_Bb5S_s.wav
394,192,88478,1,0,0:0:0:92:G#5S_Ab5S_s.wav
10,192,88778,1,0,0:0:0:92:G5S_s.wav
266,192,90378,1,0,0:0:0:92:C6S.wav
138,192,90978,1,0,0:0:0:92:D#6S_Eb6S_s.wav
394,192,91178,1,0,0:0:0:92:D6S_s.wav
10,192,91378,1,0,0:0:0:92:C6S_s.wav
266,192,91978,1,0,0:0:0:92:C6S_s.wav
138,192,92578,1,0,0:0:0:92:C6S_s.wav
394,192,92778,1,0,0:0:0:92:A#5S_Bb5S_s.wav
10,192,92978,1,0,0:0:0:92:G#5S_Ab5S.wav
266,192,93578,1,0,0:0:0:92:G5S_s.wav
138,192,93978,1,0,0:0:0:92:A#5S_Bb5S_s.wav
394,192,94578,1,0,0:0:0:92:A#5S_Bb5S_s.wav
10,192,94878,1,0,0:0:0:92:G#5S_Ab5S_s.wav
266,192,95178,1,0,0:0:0:92:G5S_s.wav
138,192,96778,1,0,0:0:0:92:C6S_s.wav
394,192,97378,1,0,0:0:0:92:D#6S_Eb6S_s.wav
10,192,97578,1,0,0:0:0:92:D6S_s.wav
266,192,97778,1,0,0:0:0:92:C6S_s.wav
138,192,98378,1,0,0:0:0:92:C6S.wav
394,192,98778,1,0,0:0:0:92:C6S_s.wav
10,192,99178,1,0,0:0:0:92:A#5S_Bb5S_s.wav
266,192,99578,1,0,0:0:0:92:G#5S_Ab5S_s.wav
138,192,99978,1,0,0:0:0:92:G5S_s.wav
394,192,100178,1,0,0:0:0:92:A#5S_Bb5S_s.wav
10,192,100978,1,0,0:0:0:92:A#5S_Bb5S_s.wav
266,192,101278,1,0,0:0:0:92:G#5S_Ab5S_s.wav
138,192,101578,1,0,0:0:0:92:G5S_s.wav
394,192,103178,1,0,0:0:0:92:C6S_s.wav
10,192,103378,1,0,0:0:0:92:D#6S_Eb6S_s.wav
266,192,103978,1,0,0:0:0:92:D6S_s.wav
138,192,104178,1,0,0:0:0:92:C6S_s.wav
394,192,104778,1,0,0:0:0:92:C6S_s.wav
10,192,105078,1,0,0:0:0:92:C6S_s.wav
266,192,105578,1,0,0:0:0:92:A#5S_Bb5S_s.wav
138,192,105778,1,0,0:0:0:92:G#5S_Ab5S_s.wav
394,192,106378,1,0,0:0:0:92:G5S_s.wav
10,192,106678,1,0,0:0:0:92:A#5S_Bb5S_s.wav
266,192,107378,1,0,0:0:0:92:A#5S_Bb5S_s.wav
138,192,107678,1,0,0:0:0:92:G#5S_Ab5S_s.wav
394,192,107978,1,0,0:0:0:92:G5S_s.wav
10,192,108253,1,0,0:0:0:93:D#6S_Eb6S.wav
266,192,108253,1,0,0:0:0:93:B5S.wav
138,192,108253,1,0,0:0:0:93:G5S.wav
394,192,108253,1,0,0:0:0:93:G5S.wav
10,192,108953,1,0,0:0:0:66:D#6S_Eb6S_s.wav
266,192,108953,1,0,0:0:0:66:D#6S_Eb6S_s.wav
138,192,108978,1,0,0:0:0:66:C6S_s.wav
394,192,109003,1,0,0:0:0:66:F6S_s.wav
138,192,109028,1,0,0:0:0:66:D6S_s.wav
266,192,109078,1,0,0:0:0:64:G6S_s.wav
10,192,109103,1,0,0:0:0:64:E6S_s.wav
394,192,109153,1,0,0:0:0:70:G#6S_Ab6S_s.wav
138,192,109178,1,0,0:0:0:70:F6S_s.wav
266,192,109228,1,0,0:0:0:76:A#6S_Bb6S_s.wav
10,192,109244,1,0,0:0:0:76:G6S_s.wav
394,192,109303,1,0,0:0:0:74:C7S_s.wav
138,192,109311,1,0,0:0:0:74:A6S_s.wav
266,192,109378,1,0,0:0:0:71:D7S_s.wav
10,192,109403,1,0,0:0:0:71:B6S_s.wav
394,192,109553,1,0,0:0:0:85:D#7S_Eb7S.wav
138,192,109578,1,0,0:0:0:85:C7S.wav
10,192,109578,1,0,0:0:0:92:C4S_s.wav
266,192,109578,1,0,0:0:0:92:C6S.wav
138,192,109978,1,0,0:0:0:99:A#3S_Bb3S_s.wav
394,192,109978,1,0,0:0:0:77:D5S_s.wav
266,192,110178,1,0,0:0:0:92:C6S_s.wav
10,192,110378,1,0,0:0:0:92:G#3S_Ab3S_s.wav
394,192,110378,1,0,0:0:0:92:C6S_s.wav
138,192,110578,1,0,0:0:0:92:C6S_s.wav
10,192,110778,1,0,0:0:0:77:C5S_s.wav
266,192,110778,1,0,0:0:0:71:F5S_s.wav
138,192,111178,1,0,0:0:0:96:A#3S_Bb3S_s.wav
394,192,111178,1,0,0:0:0:92:D6S.wav
10,192,111578,1,0,0:0:0:92:D3S_s.wav
266,192,111578,1,0,0:0:0:92:D3S_s.wav
394,192,111778,1,0,0:0:0:92:D6S_s.wav
138,192,111978,1,0,0:0:0:89:G3S_s.wav
266,192,111978,1,0,0:0:0:92:D6S_s.wav
10,192,112178,1,0,0:0:0:92:D6S_s.wav
394,192,112178,1,0,0:0:0:74:B4S_s.wav
138,192,112178,1,0,0:0:0:77:D5S_s.wav
138,192,112378,1,0,0:0:0:100:B3S_s.wav
266,192,112378,1,0,0:0:0:100:B3S_s.wav
10,192,112778,1,0,0:0:0:100:C4S_s.wav
394,192,112778,1,0,0:0:0:92:D#6S_Eb6S.wav
138,192,113178,1,0,0:0:0:100:G#3S_Ab3S_s.wav
266,192,113178,1,0,0:0:0:100:G#3S_Ab3S_s.wav
394,192,113378,1,0,0:0:0:92:D#6S_Eb6S_s.wav
10,192,113578,1,0,0:0:0:59:F5S_s.wav
266,192,113578,1,0,0:0:0:92:F6S_s.wav
138,192,113778,1,0,0:0:0:92:A#5S_Bb5S_s.wav
394,192,113878,1,0,0:0:0:71:F5S_s.wav
10,192,113978,1,0,0:0:0:100:A#3S_Bb3S_s.wav
266,192,113978,1,0,0:0:0:100:A#3S_Bb3S_s.wav
138,192,114378,1,0,0:0:0:100:D#3S_Eb3S_s.wav
394,192,114378,1,0,0:0:0:92:A#6S_Bb6S_s.wav
10,192,114578,1,0,0:0:0:77:D#5S_Eb5S_s.wav
266,192,114578,1,0,0:0:0:71:G5S_s.wav
138,192,114778,1,0,0:0:0:100:G3S_s.wav
394,192,114778,1,0,0:0:0:92:G#6S_Ab6S_s.wav
10,192,115178,1,0,0:0:0:100:B3S_s.wav
266,192,115178,1,0,0:0:0:92:G6S_s.wav
138,192,115378,1,0,0:0:0:71:G5S_s.wav
394,192,115378,1,0,0:0:0:74:B4S_s.wav
10,192,115578,1,0,0:0:0:100:D4S_s.wav
266,192,115578,1,0,0:0:0:92:F6S_s.wav
138,192,115978,1,0,0:0:0:92:C4S_s.wav
394,192,115978,1,0,0:0:0:92:C4S_s.wav
10,192,116178,1,0,0:0:0:92:C6S_s.wav
138,192,116378,1,0,0:0:0:99:A#3S_Bb3S_s.wav
266,192,116378,1,0,0:0:0:99:A#3S_Bb3S_s.wav
394,192,116578,1,0,0:0:0:92:D6S_s.wav
10,192,116778,1,0,0:0:0:92:G#3S_Ab3S_s.wav
266,192,116778,1,0,0:0:0:92:D#6S_Eb6S_s.wav
138,192,116978,1,0,0:0:0:92:G6S_s.wav
10,192,117178,1,0,0:0:0:93:F3S_s.wav
394,192,117178,1,0,0:0:0:93:F3S_s.wav
138,192,117578,1,0,0:0:0:92:D3S_s.wav
266,192,117578,1,0,0:0:0:92:F#6S_Gb6S.wav
10,192,117978,1,0,0:0:0:92:D3S_s.wav
394,192,117978,1,0,0:0:0:92:D3S_s.wav
266,192,118178,1,0,0:0:0:92:G6S_s.wav
138,192,118378,1,0,0:0:0:92:F#3S_Gb3S_s.wav
394,192,118378,1,0,0:0:0:92:F#6S_Gb6S_s.wav
10,192,118578,1,0,0:0:0:92:G6S_s.wav
138,192,118778,1,0,0:0:0:92:A3S_s.wav
266,192,118778,1,0,0:0:0:92:A3S_s.wav
10,192,119178,1,0,0:0:0:92:G3S_s.wav
394,192,119178,1,0,0:0:0:92:G6S_s.wav
138,192,119578,1,0,0:0:0:92:G3S_s.wav
266,192,119578,1,0,0:0:0:92:F6S_s.wav
10,192,119978,1,0,0:0:0:92:A3S_s.wav
394,192,119978,1,0,0:0:0:92:D#6S_Eb6S_s.wav
138,192,120378,1,0,0:0:0:92:B3S_s.wav
266,192,120378,1,0,0:0:0:92:D6S_s.wav
10,192,120778,1,0,0:0:0:92:C4S_s.wav
394,192,120778,1,0,0:0:0:92:C6S_s.wav
138,192,120978,1,0,0:0:0:88:F#6S_Gb6S_s.wav
266,192,120978,1,0,0:0:0:88:F#6S_Gb6S_s.wav
10,192,121178,1,0,0:0:0:92:A3S_s.wav
394,192,121178,1,0,0:0:0:92:A3S_s.wav
138,192,121378,1,0,0:0:0:92:G6S_s.wav
266,192,121378,1,0,0:0:0:92:G6S_s.wav
10,192,121578,1,0,0:0:0:100:D#7S_Eb7S_s.wav
394,192,121578,1,0,0:0:0:100:D#7S_Eb7S_s.wav
138,192,121878,1,0,0:0:0:100:D7S_s.wav
266,192,121878,1,0,0:0:0:100:D7S_s.wav
394,192,121978,1,0,0:0:0:92:G3S_s.wav
10,192,122178,1,0,0:0:0:97:B6S_s.wav
266,192,122178,1,0,0:0:0:97:B6S_s.wav
138,192,122378,1,0,0:0:0:97:C7S.wav
394,192,122378,1,0,0:0:0:100:C7S.wav
10,192,122778,1,0,0:0:0:99:A#3S_Bb3S_s.wav
266,192,122778,1,0,0:0:0:77:D5S_s.wav
138,192,122978,1,0,0:0:0:92:C6S_s.wav
10,192,123178,1,0,0:0:0:92:G#3S_Ab3S_s.wav
394,192,123178,1,0,0:0:0:92:C6S_s.wav
266,192,123378,1,0,0:0:0:92:C6S_s.wav
138,192,123578,1,0,0:0:0:77:C5S_s.wav
394,192,123578,1,0,0:0:0:71:F5S_s.wav
10,192,123978,1,0,0:0:0:96:A#3S_Bb3S_s.wav
266,192,123978,1,0,0:0:0:92:D6S.wav
