osu file format v14

[General]
AudioFilename: audio.mp3
AudioLeadIn: 0
PreviewTime: -1
Countdown: 0
SampleSet: Soft
StackLeniency: 0.7
Mode: 0
LetterboxInBreaks: 0
WidescreenStoryboard: 0

[Editor]
DistanceSpacing: 2.6
BeatDivisor: 4
GridSize: 32
TimelineZoom: 3.099999

[Metadata]
Title:GOOD LUCK
TitleUnicode:GOOD LUCK
Artist:BPM15Q
ArtistUnicode:BPM15Q
Creator:melondy
Version:Easy
Source:
Tags:
BeatmapID:3613433
BeatmapSetID:1765273

[Difficulty]
HPDrainRate:4
CircleSize:3.8
OverallDifficulty:6
ApproachRate:9.2
SliderMultiplier:2
SliderTickRate:1

[Events]
//Background and Video events
0,0,"black background.jpg",0,0
//Break Periods
//Storyboard Layer 0 (Background)
//Storyboard Layer 1 (Fail)
//Storyboard Layer 2 (Pass)
//Storyboard Layer 3 (Foreground)
//Storyboard Layer 4 (Overlay)
//Storyboard Sound Samples

[TimingPoints]
13924,344.827586206897,4,2,0,100,1,0
24958,-66.6666666666667,4,2,0,100,0,0
33234,-200,4,2,0,100,0,0
35820,-66.6666666666667,4,2,0,100,0,0
40130,-200,4,2,0,100,0,0

[HitObjects]
393,318,13924,6,0,L|394:187,1,100
303,263,14268,2,0,L|304:132,1,100
268,59,14613,1,0,0:0:0:0:
238,187,14786,1,0,0:0:0:0:
353,139,14958,1,0,0:0:0:0:
171,91,15130,2,0,P|136:154|182:195,1,100
240,274,15475,5,0,0:0:0:0:
280,113,15648,1,0,0:0:0:0:
142,181,15820,1,0,0:0:0:0:
240,274,15992,1,0,0:0:0:0:
249,120,16165,1,0,0:0:0:0:
353,200,16337,1,0,0:0:0:0:
213,89,16510,1,0,0:0:0:0:
208,249,16682,6,0,P|164:297|120:303,1,100
74,202,17027,2,0,P|95:129|121:114,1,100
188,61,17372,1,0,0:0:0:0:
226,219,17544,1,0,0:0:0:0:
326,121,17717,2,0,L|326:249,1,100
438,323,18061,2,0,B|403:239|336:289|311:330|311:330|306:202|271:135|208:114|157:133|105:308,1,600
75,46,19441,6,0,L|74:177,1,100
170,94,19785,2,0,L|169:225,1,100
245,309,20130,1,0,0:0:0:0:
295,155,20303,1,0,0:0:0:0:
182,211,20475,1,0,0:0:0:0:
323,310,20647,2,0,P|386:272|411:229,1,100
252,107,20992,5,0,0:0:0:0:
212,263,21165,1,0,0:0:0:0:
342,214,21337,1,0,0:0:0:0:
268,61,21509,1,0,0:0:0:0:
242,228,21682,1,0,0:0:0:0:
148,128,21854,1,0,0:0:0:0:
116,259,22027,1,0,0:0:0:0:
256,192,22199,12,0,23579,0:0:0:0:
400,191,23751,5,0,0:0:0:0:
341,287,23924,1,0,0:0:0:0:
239,341,24096,1,0,0:0:0:0:
394,87,24268,1,0,0:0:0:0:
341,287,24441,1,0,0:0:0:0:
231,104,24613,2,0,P|167:136|154:189,1,100
86,327,24958,6,0,P|160:307|218:232,1,150.000005722046
339,182,25303,2,0,P|250:122|171:132,1,150.000005722046
246,289,25648,1,0,0:0:0:0:
309,70,25820,1,0,0:0:0:0:
336,183,25992,2,0,P|244:199|188:149,1,150.000005722046
151,84,26337,1,0,0:0:0:0:
262,312,26509,1,0,0:0:0:0:
389,148,26682,2,0,P|303:109|249:132,1,150.000005722046
169,296,27027,5,0,0:0:0:0:
228,97,27199,1,0,0:0:0:0:
80,149,27372,2,0,L|157:291,1,150.000005722046
214,315,27717,2,0,P|302:359|372:340,1,150.000005722046
429,265,28061,2,0,P|381:163|319:150,1,150.000005722046
288,241,28406,1,0,0:0:0:0:
215,75,28579,5,0,0:0:0:0:
181,317,28751,2,0,P|102:343|47:300,1,150.000005722046
145,187,29096,1,0,0:0:0:0:
215,75,29268,1,0,0:0:0:0:
315,172,29441,1,0,0:0:0:0:
266,260,29613,1,0,0:0:0:0:
364,312,29786,1,0,0:0:0:0:
442,234,29958,1,0,0:0:0:0:
427,89,30130,2,0,P|353:63|291:114,1,150.000005722046
62,56,30475,6,0,L|64:217,1,150.000005722046
177,326,30820,2,0,L|177:156,1,150.000005722046
335,280,31165,1,0,0:0:0:0:
85,189,31337,1,0,0:0:0:0:
404,191,31510,2,0,P|308:112|280:144,1,150.000005722046
170,320,31855,1,0,0:0:0:0:
235,79,32027,1,0,0:0:0:0:
261,339,32199,1,0,0:0:0:0:
155,95,32372,1,0,0:0:0:0:
345,306,32544,5,0,0:0:0:0:
96,149,32717,1,0,0:0:0:0:
402,248,32889,1,0,0:0:0:0:
58,228,33061,1,0,0:0:0:0:
440,169,33234,2,0,P|409:119|228:198,1,300
433,74,34613,6,0,L|422:118,1,25
272,225,34786,2,0,L|245:190,1,25
301,58,34958,2,0,L|328:88,1,25
399,258,35130,2,0,L|374:292,1,25
183,312,35303,2,0,L|164:283,1,25
176,104,35475,2,0,L|204:120,1,25
345,323,35648,2,0,L|330:360,1,25
115,244,35820,1,0,0:0:0:0:
273,88,35992,6,0,P|359:81|405:163,1,150.000005722046
467,232,36251,1,0,0:0:0:0:
390,307,36337,2,0,P|317:337|256:250,1,150.000005722046
181,152,36682,1,0,0:0:0:0:
95,338,36855,1,0,0:0:0:0:
26,182,37027,1,0,0:0:0:0:
26,182,37113,1,0,0:0:0:0:
26,182,37199,1,0,0:0:0:0:
150,67,37372,5,0,0:0:0:0:
182,308,37544,1,0,0:0:0:0:
425,81,37717,1,0,0:0:0:0:
286,348,37889,1,0,0:0:0:0:
187,48,38061,1,0,0:0:0:0:
386,321,38234,1,0,0:0:0:0:
430,92,38406,1,0,0:0:0:0:
430,92,38492,1,0,0:0:0:0:
430,92,38579,1,0,0:0:0:0:
235,319,38751,6,0,L|235:153,1,150.000005722046
117,72,39096,2,0,L|117:255,1,150.000005722046
82,348,39441,1,0,0:0:0:0:
171,134,39613,1,0,0:0:0:0:
263,341,39786,1,0,0:0:0:0:
99,88,39958,1,0,0:0:0:0:
403,79,40130,6,0,L|377:107,1,25
196,323,40303,2,0,L|175:295,1,25
191,65,40475,2,0,L|217:92,1,25
438,327,40648,2,0,L|400:309,1,25
112,181,40820,2,0,L|140:218,1,25
256,348,40992,2,0,L|276:309,1,25
435,129,41165,2,0,L|343:105,1,75
