osu file format v14

[General]
AudioFilename: audio.mp3
AudioLeadIn: 0
PreviewTime: 23424
Countdown: 1
SampleSet: Normal
StackLeniency: 0.3
Mode: 0
LetterboxInBreaks: 0
WidescreenStoryboard: 0

[Editor]
DistanceSpacing: 1.6
BeatDivisor: 6
GridSize: 16
TimelineZoom: 2.2

[Metadata]
Title:Hakuchuumu
TitleUnicode:はくちゅーむ
Artist:BPM15Q
ArtistUnicode:BPM15Q
Creator:Septembre
Version:Insane
Source:
Tags:
BeatmapID:1626591
BeatmapSetID:773840

[Difficulty]
HPDrainRate:6.5
CircleSize:3.7
OverallDifficulty:8.3
ApproachRate:9
SliderMultiplier:1.8
SliderTickRate:1

[Events]
//Background and Video events
0,0,"bg.jpg",0,0
//Break Periods
//Storyboard Layer 0 (Background)
//Storyboard Layer 1 (Fail)
//Storyboard Layer 2 (Pass)
//Storyboard Layer 3 (Foreground)
//Storyboard Sound Samples

[TimingPoints]
1356,344.827586206897,4,1,0,50,1,0
3769,-50,4,1,0,50,0,0
4114,-100,4,1,0,50,0,0
6528,-50,4,1,0,50,0,0
6873,-100,4,1,0,50,0,0
9287,-50,4,1,0,50,0,0
9631,-62.5,4,1,0,50,0,0
11011,-55.5555555555556,4,1,0,50,0,0
12390,-100,4,1,0,50,0,0
15149,-79.9999999999999,4,1,0,50,0,0
15666,-100,4,1,0,50,0,0
17562,-58.8235294117647,4,1,0,50,0,0
17907,-100,4,1,0,50,0,0
20321,-62.5,4,1,0,50,0,0
20666,-100,4,1,0,50,0,0
23080,-50,4,1,0,50,0,0
23424,-71.4285714285714,4,1,0,50,0,0
26183,-83.3333333333333,4,1,0,50,0,0
28597,-58.8235294117647,4,1,0,50,0,0
28942,-76.9230769230769,4,1,0,50,0,0
31700,-83.3333333333333,4,1,0,50,0,0
34459,-100,4,1,0,50,0,0

[HitObjects]
171,15,1356,6,0,P|126:26|109:73,1,90
141,195,1700,1,0,0:0:0:0:
141,195,1873,1,0,0:0:0:0:
141,195,2045,6,0,P|183:185|203:147,1,90
27,257,2390,1,0,0:0:0:0:
27,257,2562,1,0,0:0:0:0:
27,257,2735,6,0,P|24:313|35:348,1,90
109,292,2993,1,0,0:0:0:0:
109,292,3252,1,0,0:0:0:0:
187,246,3424,2,0,L|234:212,1,45
312,247,3597,1,0,0:0:0:0:
313,273,3683,1,0,0:0:0:0:
314,305,3769,6,0,B|269:299|281:250|320:272|378:290|435:393,1,180
406,25,4114,6,0,P|442:51|471:85,1,90
324,95,4459,1,0,0:0:0:0:
324,95,4631,1,0,0:0:0:0:
324,95,4804,2,0,P|287:68|258:34,1,90
398,148,5149,1,0,0:0:0:0:
423,172,5321,1,0,0:0:0:0:
423,172,5493,5,0,0:0:0:0:
452,199,5666,1,0,0:0:0:0:
452,199,5752,1,0,0:0:0:0:
484,231,5838,5,0,0:0:0:0:
445,308,6011,1,0,0:0:0:0:
377,254,6183,1,0,0:0:0:0:
423,172,6269,2,0,P|436:161|444:149,4,22.5
307,163,6528,6,0,B|254:171|254:171|390:77,1,180
145,16,6873,6,0,P|89:32|61:62,1,90
136,103,7218,1,0,0:0:0:0:
48,186,7390,1,0,0:0:0:0:
66,228,7476,1,0,0:0:0:0:
81,259,7562,2,0,L|102:306,2,45
152,176,7907,5,0,0:0:0:0:
152,176,7993,1,0,0:0:0:0:
172,217,8080,1,0,0:0:0:0:
66,228,8252,1,0,0:0:0:0:
20,155,8424,5,0,0:0:0:0:
8,131,8511,1,0,0:0:0:0:
3,111,8597,2,0,P|0:86|10:43,1,45
76,90,8769,1,0,0:0:0:0:
76,90,8856,5,0,0:0:0:0:
79,126,8942,1,0,0:0:0:0:
79,163,9028,1,0,0:0:0:0:
76,200,9114,2,0,P|75:231|67:260,1,45
24,326,9287,6,0,B|-35:338|68:335|102:361|102:361|132:296|199:337,1,180
169,115,9631,2,0,B|188:66|217:33|217:33|132:61|138:156|138:156|88:187,1,288
401,173,10149,1,0,0:0:0:0:
343,115,10321,2,0,B|324:66|295:33|295:33|380:61|374:156|374:156|424:187,1,288
255,189,10838,1,0,0:0:0:0:
255,189,11011,6,0,L|209:361,1,161.999995056153
106,359,11269,2,0,L|140:261,1,80.9999975280763
199,83,11528,2,0,L|227:7,1,80.9999975280763
282,112,11700,2,0,L|246:213,1,80.9999975280763
105,52,11873,1,0,0:0:0:0:
105,52,12045,6,0,B|62:73|20:43|20:43|23:91|87:104,1,161.999995056153
306,242,12390,6,0,P|357:273|397:285,1,90
385,282,12735,2,0,P|343:266|306:242,1,90
306,242,13080,2,0,P|357:273|397:285,1,90
385,282,13424,2,0,P|343:266|306:242,1,90
306,242,13769,5,0,0:0:0:0:
256,171,13942,1,0,0:0:0:0:
343,135,14114,2,0,P|365:138|400:150,1,45
458,203,14287,1,0,0:0:0:0:
370,216,14459,1,0,0:0:0:0:
274,87,14631,1,0,0:0:0:0:
174,28,14718,2,0,L|154:74,1,45
139,110,14890,6,0,L|178:17,1,90
75,54,15149,2,0,P|57:87|72:161,1,112.5
160,269,15493,1,0,0:0:0:0:
228,174,15666,2,0,P|238:151|250:127,1,45
160,269,15838,5,0,0:0:0:0:
219,358,16011,1,0,0:0:0:0:
323,335,16183,1,0,0:0:0:0:
332,229,16356,1,0,0:0:0:0:
228,174,16528,2,0,P|217:153|214:128,1,45
208,83,16700,2,0,P|216:143|232:187,2,90
299,113,17131,1,0,0:0:0:0:
299,113,17218,1,0,0:0:0:0:
299,113,17390,5,0,0:0:0:0:
299,113,17562,2,0,L|375:80,1,76.5000014591217
205,319,17907,6,0,L|154:309,1,45
76,300,18080,1,0,0:0:0:0:
62,170,18252,1,0,0:0:0:0:
196,205,18424,1,0,0:0:0:0:
59,337,18597,6,0,L|60:282,1,45
55,125,18769,1,0,0:0:0:0:
226,195,18942,1,0,0:0:0:0:
243,360,19114,5,0,0:0:0:0:
131,268,19287,1,0,0:0:0:0:
127,119,19459,2,0,L|174:141,1,45
272,198,19631,5,0,0:0:0:0:
362,58,19804,1,0,0:0:0:0:
454,195,19976,1,0,0:0:0:0:
362,326,20149,1,0,0:0:0:0:
283,291,20235,5,0,0:0:0:0:
375,280,20321,2,0,B|433:260|475:260|475:260|457:246|438:243,1,144
357,164,20666,5,0,0:0:0:0:
341,115,20752,1,0,0:0:0:0:
294,96,20838,1,0,0:0:0:0:
243,101,20924,1,0,0:0:0:0:
235,145,21011,5,0,0:0:0:0:
269,195,21097,1,0,0:0:0:0:
324,219,21183,1,0,0:0:0:0:
383,214,21269,1,0,0:0:0:0:
370,164,21356,5,0,0:0:0:0:
309,189,21442,1,0,0:0:0:0:
269,242,21528,1,0,0:0:0:0:
260,307,21614,1,0,0:0:0:0:
294,330,21700,5,0,0:0:0:0:
295,257,21787,1,0,0:0:0:0:
259,196,21873,1,0,0:0:0:0:
202,154,21959,1,0,0:0:0:0:
126,128,22045,6,0,P|85:113|24:116,1,90
68,199,22304,1,0,0:0:0:0:
116,175,22390,1,0,0:0:0:0:
116,175,22562,5,0,0:0:0:0:
116,175,22735,1,0,0:0:0:0:
116,175,23080,2,0,B|152:180|199:164|199:164|106:270|-4:232,1,270
218,333,23424,6,0,P|266:333|353:312,1,125.999996154785
341,316,23683,2,0,P|280:331|218:333,1,125.999996154785
217,332,23942,6,0,P|280:331|341:316,2,125.999996154785
217,332,24373,6,0,B|271:337|288:325|288:325|294:267,1,125.999996154785
207,254,24631,2,0,B|165:248|131:257|131:257|145:328,2,125.999996154785
293,270,25062,1,0,0:0:0:0:
293,270,25321,1,0,0:0:0:0:
354,208,25407,1,0,0:0:0:0:
354,208,25493,2,0,P|370:182|365:141,2,62.9999980773926
323,56,25838,1,0,0:0:0:0:
308,6,25896,1,0,0:0:0:0:
248,0,25953,1,0,0:0:0:0:
222,51,26011,5,0,0:0:0:0:
265,100,26097,1,0,0:0:0:0:
265,100,26183,2,0,L|339:117,1,53.9999983520508
354,208,26356,2,0,L|428:225,1,53.9999983520508
498,258,26528,2,0,P|482:298|463:319,1,53.9999983520508
372,322,26700,2,0,P|385:363|398:386,1,53.9999983520508
424,257,26873,6,0,P|442:214|452:147,1,107.999996704102
366,158,27131,1,0,0:0:0:0:
354,208,27218,2,0,P|325:249|305:260,1,53.9999983520508
251,233,27390,2,0,P|226:260|204:270,1,53.9999983520508
187,165,27562,2,0,P|219:146|302:154,1,107.999996704102
298,203,27821,5,0,0:0:0:0:
251,233,27907,1,0,0:0:0:0:
161,108,28080,1,0,0:0:0:0:
207,79,28166,2,0,L|230:62,1,26.9999991760254
286,93,28252,2,0,P|252:117|226:142,1,53.9999983520508
186,185,28424,5,0,0:0:0:0:
257,236,28511,1,0,0:0:0:0:
329,212,28597,6,0,P|356:143|317:81,1,153.000002918243
256,155,28856,1,0,0:0:0:0:
222,60,28942,6,0,P|246:19|316:-16,1,116.999994644165
196,41,29200,1,0,0:0:0:0:
132,108,29287,2,0,L|93:153,1,58.4999973220826
132,217,29459,2,0,P|104:242|78:258,1,58.4999973220826
86,253,29631,2,0,P|130:215|164:167,1,116.999994644165
264,277,29890,5,0,0:0:0:0:
264,277,29976,2,0,P|242:317|217:345,1,58.4999973220826
141,364,30149,2,0,P|157:340|170:313,1,58.4999973220826
193,259,30321,2,0,P|169:313|141:364,1,116.999994644165
