osu file format v14

[General]
AudioFilename: audio.mp3
AudioLeadIn: 0
PreviewTime: 89688
Countdown: 0
SampleSet: Normal
StackLeniency: 0.7
Mode: 1
LetterboxInBreaks: 0
WidescreenStoryboard: 1

[Editor]
Bookmarks: 89688
DistanceSpacing: 0.5
BeatDivisor: 4
GridSize: 32
TimelineZoom: 2.3

[Metadata]
Title:Hakuchu-mu
TitleUnicode:はくちゅーむ
Artist:BPM15Q
ArtistUnicode:BPM15Q
Creator:kanpakyin
Version:Oni
Source:
Tags:Yunomi nicamoq CY8ER cyber ichigorinahamu hakuchuumu electronic japanese
BeatmapID:3054672
BeatmapSetID:1477507

[Difficulty]
HPDrainRate:6
CircleSize:4
OverallDifficulty:5
ApproachRate:9.4
SliderMultiplier:1.4
SliderTickRate:1

[Events]
//Background and Video events
0,0,"BG.jpg",0,100
//Break Periods
//Storyboard Layer 0 (Background)
//Storyboard Layer 1 (Fail)
//Storyboard Layer 2 (Pass)
//Storyboard Layer 3 (Foreground)
//Storyboard Layer 4 (Overlay)
//Storyboard Sound Samples

[TimingPoints]
1413,344.827586206897,4,1,1,65,1,0
6585,-100,4,1,1,75,0,0
6930,-100,4,1,1,80,0,0
12447,-100,4,1,1,83,0,0
22102,-100,4,1,1,65,0,0
22964,-100,4,1,1,90,0,0
23223,-100,4,1,1,80,0,0
34516,-100,4,1,1,65,0,0
36844,-100,4,1,1,70,0,0
37016,-100,4,1,1,65,0,0
37275,-100,4,1,1,75,0,0
40033,-100,4,1,1,65,0,0
42447,-100,4,1,1,80,0,0
42792,-100,4,1,1,75,0,0
45033,-100,4,1,1,85,0,0
45550,-100,4,1,1,80,0,0
56413,-100,4,1,1,70,0,0
62102,-100,4,1,1,80,0,0
64861,-100,4,1,1,85,0,0
67533,-100,4,1,1,65,0,0
69947,-100,4,1,1,75,0,0
70378,-100,4,1,1,80,0,0
73050,-100,4,1,1,65,0,0
75464,-100,4,1,1,75,0,0
75895,-100,4,1,1,80,0,0
80981,-100,4,1,1,90,0,0
81154,-100,4,1,1,80,0,0
83740,-100,4,1,1,90,0,0
83913,-100,4,1,1,80,0,0
89257,-100,4,1,1,90,0,0
89688,-100,4,1,1,85,0,1
111757,-100,4,1,1,80,0,0
122792,-100,4,1,1,60,0,0
125119,-100,4,1,1,70,0,0
125378,-100,4,1,1,75,0,0
131068,-100,4,1,1,80,0,0
133223,-100,4,1,1,90,0,0
133568,-100,4,1,1,50,0,0
135206,-100,4,1,1,65,0,0
136154,-100,4,1,1,45,0,0
136326,-100,4,1,1,65,0,0
138999,-100,4,1,1,70,0,0
139344,-100,4,1,1,80,0,0
144861,-100,4,1,1,85,0,0
154516,-100,4,1,1,70,0,0
155378,-100,4,1,1,85,0,0
166930,-100,4,1,1,60,0,0
172447,-100,4,1,1,70,0,0
177964,-100,4,1,1,80,0,0
183481,-100,4,1,1,85,0,0
188395,-100,4,1,1,95,0,0
188999,-100,4,1,1,85,0,0
189516,-100,4,1,1,90,0,0
189861,-100,4,1,1,85,0,0
190119,-100,4,1,1,90,0,0
190981,-100,4,1,1,85,0,0
191757,-100,4,1,1,87,0,1
211068,-100,4,1,1,65,0,0
216154,-100,4,1,1,75,0,0
216585,-100,4,1,1,80,0,0
220723,-100,4,1,1,87,0,0
221413,-100,4,1,1,90,0,0

[Colours]
Combo1 : 241,61,137
Combo2 : 143,104,236
Combo3 : 85,202,215
Combo4 : 220,72,247
Combo5 : 247,216,70

[HitObjects]
413,129,1413,5,8,0:0:0:0:
413,129,1757,1,8,0:0:0:0:
413,129,1930,1,8,0:0:0:0:
413,129,2102,1,0,0:0:0:0:
413,129,2447,1,8,0:0:0:0:
413,129,2619,1,8,0:0:0:0:
413,129,2792,1,0,0:0:0:0:
413,129,3050,1,8,0:0:0:0:
413,129,3309,1,8,0:0:0:0:
413,129,3481,1,8,0:0:0:0:
406,132,3826,1,8,0:0:0:0:
408,132,4171,1,8,0:0:0:0:
408,131,4516,1,8,0:0:0:0:
408,131,4688,1,8,0:0:0:0:
413,129,4861,1,0,0:0:0:0:
408,132,5206,1,8,0:0:0:0:
408,131,5378,1,0,0:0:0:0:
408,131,5550,1,8,0:0:0:0:
395,125,5809,1,8,0:0:0:0:
401,132,5895,1,8,0:0:0:0:
395,126,6068,1,8,0:0:0:0:
395,126,6240,1,8,0:0:0:0:
416,161,6585,5,12,0:0:0:0:
414,139,6930,1,4,0:0:0:0:
399,145,7102,1,0,0:0:0:0:
399,145,7275,1,8,0:0:0:0:
399,145,7447,1,0,0:0:0:0:
399,143,7533,1,8,0:0:0:0:
399,145,7619,1,0,0:0:0:0:
385,139,7792,1,8,0:0:0:0:
385,139,7964,1,0,0:0:0:0:
385,140,8050,1,8,0:0:0:0:
385,139,8137,1,8,0:0:0:0:
385,136,8309,1,0,0:0:0:0:
398,135,8481,1,0,0:0:0:0:
398,135,8568,1,8,0:0:0:0:
385,136,8654,1,8,0:0:0:0:
385,139,8826,1,8,0:0:0:0:
376,132,8913,1,8,0:0:0:0:
385,139,8999,1,0,0:0:0:0:
385,139,9171,1,8,0:0:0:0:
385,136,9344,1,12,0:0:0:0:
385,136,9688,1,4,0:0:0:0:
390,143,9861,1,8,0:0:0:0:
390,143,9947,1,0,0:0:0:0:
390,143,10033,1,8,0:0:0:0:
390,142,10206,1,8,0:0:0:0:
390,142,10378,1,4,0:0:0:0:
390,142,10550,1,0,0:0:0:0:
390,142,10637,1,0,0:0:0:0:
390,142,10723,1,8,0:0:0:0:
390,136,10895,1,8,0:0:0:0:
390,142,11068,1,4,0:0:0:0:
378,129,11326,1,4,0:0:0:0:
378,129,11585,1,4,0:0:0:0:
378,129,11757,1,12,0:0:0:0:
378,129,11930,1,0,0:0:0:0:
378,129,12102,1,12,0:0:0:0:
378,129,12447,1,12,0:0:0:0:
367,134,12619,1,0,0:0:0:0:
378,129,12706,1,0,0:0:0:0:
371,124,12792,1,8,0:0:0:0:
361,138,12964,1,0,0:0:0:0:
360,138,13137,1,8,0:0:0:0:
359,137,13309,1,0,0:0:0:0:
359,137,13481,1,8,0:0:0:0:
359,137,13654,1,0,0:0:0:0:
359,137,13826,1,8,0:0:0:0:
361,138,14085,1,0,0:0:0:0:
360,138,14171,1,8,0:0:0:0:
359,137,14344,1,0,0:0:0:0:
359,137,14516,1,8,0:0:0:0:
359,137,14688,1,0,0:0:0:0:
332,112,14861,1,12,0:0:0:0:
337,136,15206,1,4,0:0:0:0:
343,128,15378,1,0,0:0:0:0:
343,128,15550,1,8,0:0:0:0:
337,125,15723,1,0,0:0:0:0:
337,125,15809,1,8,0:0:0:0:
337,125,15895,1,8,0:0:0:0:
337,125,15981,1,0,0:0:0:0:
337,125,16068,1,8,0:0:0:0:
337,125,16240,1,8,0:0:0:0:
328,106,16326,1,8,0:0:0:0:
337,125,16413,1,0,0:0:0:0:
337,125,16585,1,8,0:0:0:0:
337,125,16844,1,0,0:0:0:0:
337,125,16930,1,8,0:0:0:0:
337,125,17102,1,0,0:0:0:0:
337,125,17275,1,8,0:0:0:0:
337,125,17447,1,8,0:0:0:0:
337,125,17533,1,8,0:0:0:0:
337,125,17619,1,8,0:0:0:0:
337,125,17964,1,8,0:0:0:0:
332,117,18137,1,8,0:0:0:0:
332,118,18223,1,0,0:0:0:0:
337,125,18309,1,8,0:0:0:0:
332,117,18481,1,8,0:0:0:0:
332,117,18654,1,8,0:0:0:0:
332,117,18826,1,8,0:0:0:0:
332,117,18913,1,0,0:0:0:0:
332,117,18999,1,8,0:0:0:0:
332,117,19171,1,8,0:0:0:0:
332,117,19344,1,0,0:0:0:0:
332,117,19516,1,0,0:0:0:0:
332,117,19688,1,8,0:0:0:0:
332,117,19861,1,8,0:0:0:0:
332,117,19947,1,0,0:0:0:0:
332,117,20033,1,8,0:0:0:0:
332,117,20206,1,8,0:0:0:0:
332,118,20292,1,8,0:0:0:0:
332,117,20378,1,0,0:0:0:0:
332,117,20550,1,8,0:0:0:0:
332,117,20637,1,8,0:0:0:0:
355,128,20723,5,0,0:0:0:0:
365,124,20809,1,8,0:0:0:0:
365,124,20895,1,8,0:0:0:0:
365,124,20981,1,8,0:0:0:0:
365,124,21068,1,8,0:0:0:0:
355,128,21240,1,0,0:0:0:0:
355,128,21413,1,0,0:0:0:0:
367,133,21499,1,8,0:0:0:0:
363,128,21585,1,8,0:0:0:0:
363,128,21671,1,8,0:0:0:0:
363,128,21757,1,8,0:0:0:0:
365,124,21844,1,8,0:0:0:0:
355,128,21930,1,0,0:0:0:0:
307,99,22102,5,8,0:0:0:0:
307,99,22275,1,8,0:0:0:0:
307,99,22361,1,8,0:0:0:0:
307,99,22447,1,8,0:0:0:0:
307,99,22619,1,8,0:0:0:0:
307,99,22792,1,8,0:0:0:0:
307,99,23137,1,12,0:0:0:0:
300,116,23481,1,4,0:0:0:0:
300,116,23740,1,4,0:0:0:0:
300,116,23999,1,12,0:0:0:0:
299,116,24171,1,4,0:0:0:0:
306,121,24430,1,4,0:0:0:0:
306,121,24688,1,12,0:0:0:0:
306,119,24861,1,4,0:0:0:0:
307,112,25119,1,4,0:0:0:0:
307,112,25378,1,4,0:0:0:0:
307,112,25550,1,12,0:0:0:0:
306,119,25809,1,0,0:0:0:0:
306,119,25895,1,8,0:0:0:0:
302,108,26068,1,8,0:0:0:0:
302,108,26240,1,4,0:0:0:0:
298,102,26499,1,8,0:0:0:0:
298,102,26585,1,0,0:0:0:0:
297,101,26757,1,0,0:0:0:0:
297,101,26930,1,8,0:0:0:0:
292,93,27188,1,8,0:0:0:0:
292,93,27275,1,0,0:0:0:0:
292,93,27447,1,8,0:0:0:0:
292,93,27619,1,0,0:0:0:0:
292,97,27792,1,8,0:0:0:0:
292,97,27878,1,0,0:0:0:0:
292,97,27964,1,0,0:0:0:0:
304,105,28137,1,0,0:0:0:0:
302,103,28309,1,0,0:0:0:0:
303,109,28481,1,8,0:0:0:0:
302,108,28568,1,8,0:0:0:0:
303,109,28654,1,8,0:0:0:0:
311,98,28826,1,0,0:0:0:0:
309,98,28999,1,4,0:0:0:0:
311,96,29257,1,0,0:0:0:0:
309,96,29344,1,8,0:0:0:0:
309,96,29516,1,8,0:0:0:0:
309,96,29688,1,0,0:0:0:0:
313,94,29861,1,0,0:0:0:0:
311,96,30033,1,8,0:0:0:0:
311,96,30206,1,0,0:0:0:0:
317,95,30378,1,0,0:0:0:0:
309,96,30550,1,0,0:0:0:0:
309,96,30637,1,0,0:0:0:0:
309,96,30723,1,8,0:0:0:0:
313,94,30895,1,0,0:0:0:0:
313,93,30981,1,8,0:0:0:0:
311,96,31068,1,0,0:0:0:0:
311,96,31240,1,0,0:0:0:0:
317,95,31326,1,0,0:0:0:0:
316,108,31413,1,8,0:0:0:0:
291,131,31585,1,8,0:0:0:0:
306,102,31757,1,0,0:0:0:0:
306,102,32016,1,0,0:0:0:0:
306,102,32102,1,8,0:0:0:0:
306,102,32275,1,8,0:0:0:0:
306,102,32447,1,0,0:0:0:0:
306,102,32619,1,0,0:0:0:0:
306,102,32792,1,8,0:0:0:0:
306,102,32964,1,8,0:0:0:0:
324,107,33137,1,0,0:0:0:0:
306,102,33395,1,0,0:0:0:0:
306,102,33481,1,8,0:0:0:0:
306,102,33654,1,8,0:0:0:0:
306,102,33740,1,8,0:0:0:0:
306,102,33826,1,0,0:0:0:0:
306,102,33999,1,0,0:0:0:0:
306,102,34085,1,0,0:0:0:0:
309,97,34171,1,8,0:0:0:0:
405,178,34516,5,0,0:0:0:0:
400,172,34861,1,8,0:0:0:0:
400,172,35033,1,0,0:0:0:0:
400,172,35119,1,0,0:0:0:0:
400,172,35206,1,0,0:0:0:0:
400,172,35378,1,0,0:0:0:0:
400,172,35550,1,8,0:0:0:0:
400,172,35895,1,8,0:0:0:0:
400,172,36154,1,8,0:0:0:0:
400,172,36240,1,0,0:0:0:0:
400,172,36413,1,8,0:0:0:0:
400,172,36585,1,0,0:0:0:0:
400,172,36930,1,12,0:0:0:0:
400,172,37275,1,4,0:0:0:0:
400,172,37619,1,8,0:0:0:0:
400,172,37792,1,0,0:0:0:0:
413,173,37878,1,8,0:0:0:0:
400,172,37964,1,0,0:0:0:0:
400,172,38137,1,0,0:0:0:0:
400,172,38309,1,8,0:0:0:0:
416,174,38481,1,0,0:0:0:0:
416,174,38654,1,0,0:0:0:0:
416,174,38913,1,0,0:0:0:0:
416,174,38999,1,8,0:0:0:0:
416,174,39171,1,0,0:0:0:0:
416,173,39344,1,0,0:0:0:0:
398,178,39516,1,8,0:0:0:0:
398,178,39602,1,8,0:0:0:0:
398,178,39688,1,8,0:0:0:0:
414,192,40033,1,0,0:0:0:0:
414,191,40378,1,8,0:0:0:0:
414,190,40550,1,0,0:0:0:0:
414,190,40723,1,0,0:0:0:0:
414,192,41068,1,8,0:0:0:0:
414,191,41240,1,0,0:0:0:0:
414,191,41413,1,0,0:0:0:0:
424,185,41585,1,8,0:0:0:0:
414,190,41671,1,0,0:0:0:0:
414,190,41757,1,8,0:0:0:0:
414,192,41930,1,0,0:0:0:0:
414,192,42102,1,0,0:0:0:0:
395,179,42275,1,8,0:0:0:0:
305,232,42447,1,8,0:0:0:0:
414,190,42792,1,4,0:0:0:0:
414,192,42964,1,0,0:0:0:0:
414,192,43137,1,8,0:0:0:0:
410,187,43309,1,0,0:0:0:0:
410,187,43481,1,0,0:0:0:0:
414,190,43826,1,8,0:0:0:0:
409,186,43999,1,0,0:0:0:0:
409,186,44171,1,4,0:0:0:0:
410,187,44430,1,4,0:0:0:0:
414,190,44688,1,4,0:0:0:0:
414,190,44861,1,4,0:0:0:0:
409,186,45033,1,8,0:0:0:0:
453,174,45119,1,8,0:0:0:0:
409,186,45206,1,8,0:0:0:0:
405,173,45550,1,4,0:0:0:0:
406,173,45895,1,8,0:0:0:0:
406,173,46068,1,0,0:0:0:0:
407,173,46240,1,0,0:0:0:0:
405,173,46499,1,0,0:0:0:0:
405,173,46585,1,8,0:0:0:0:
406,173,46757,1,0,0:0:0:0:
406,173,46930,1,0,0:0:0:0:
407,173,47188,1,0,0:0:0:0:
407,173,47275,1,8,0:0:0:0:
405,173,47447,1,0,0:0:0:0:
405,173,47619,1,0,0:0:0:0:
406,173,47792,1,0,0:0:0:0:
406,173,47964,1,12,0:0:0:0:
407,173,48309,1,4,0:0:0:0:
405,173,48481,1,0,0:0:0:0:
405,173,48568,1,0,0:0:0:0:
405,173,48654,1,8,0:0:0:0:
406,173,48826,1,0,0:0:0:0:
407,173,48913,1,0,0:0:0:0:
406,173,48999,1,0,0:0:0:0:
406,173,49171,1,0,0:0:0:0:
407,173,49344,1,8,0:0:0:0:
405,173,49516,1,0,0:0:0:0:
405,173,49688,1,0,0:0:0:0:
406,173,49947,1,0,0:0:0:0:
406,173,50033,1,8,0:0:0:0:
406,173,50206,1,0,0:0:0:0:
407,173,50378,1,8,0:0:0:0:
405,173,50550,1,8,0:0:0:0:
405,173,50637,1,8,0:0:0:0:
405,173,50723,1,8,0:0:0:0:
406,173,51068,1,0,0:0:0:0:
387,175,51413,1,8,0:0:0:0:
387,175,51585,1,0,0:0:0:0:
387,175,51757,1,0,0:0:0:0:
387,175,51930,1,0,0:0:0:0:
387,175,52102,1,8,0:0:0:0:
387,175,52275,1,0,0:0:0:0:
387,175,52447,1,0,0:0:0:0:
387,175,52619,1,8,0:0:0:0:
387,175,52706,1,0,0:0:0:0:
387,175,52792,1,8,0:0:0:0:
387,175,52964,1,0,0:0:0:0:
387,175,53137,1,0,0:0:0:0:
387,175,53481,1,8,0:0:0:0:
387,175,53826,1,4,0:0:0:0:
387,175,54171,1,8,0:0:0:0:
387,175,54344,1,0,0:0:0:0:
387,175,54516,1,0,0:0:0:0:
387,175,54688,1,0,0:0:0:0:
420,164,54775,1,0,0:0:0:0:
420,164,54861,1,8,0:0:0:0:
387,175,55033,1,0,0:0:0:0:
387,175,55206,1,4,0:0:0:0:
387,175,55464,1,4,0:0:0:0:
387,175,55723,1,4,0:0:0:0:
387,175,55895,1,12,0:0:0:0:
387,175,56068,1,0,0:0:0:0:
387,175,56154,1,0,0:0:0:0:
387,175,56240,1,8,0:0:0:0:
388,121,56585,5,8,0:0:0:0:
388,121,56930,1,8,0:0:0:0:
388,121,57275,1,8,0:0:0:0:
388,121,57533,1,8,0:0:0:0:
388,121,57619,1,0,0:0:0:0:
388,121,57792,1,8,0:0:0:0:
388,121,57964,1,8,0:0:0:0:
404,126,58137,1,8,0:0:0:0:
379,112,58223,1,8,0:0:0:0:
388,121,58309,1,0,0:0:0:0:
388,121,58481,1,0,0:0:0:0:
388,121,58654,1,8,0:0:0:0:
388,121,58999,1,12,0:0:0:0:
388,121,59344,1,0,0:0:0:0:
388,121,59688,1,8,0:0:0:0:
388,121,59861,1,0,0:0:0:0:
388,121,60033,1,8,0:0:0:0:
388,121,60206,1,8,0:0:0:0:
401,121,60292,1,8,0:0:0:0:
388,121,60378,1,0,0:0:0:0:
388,121,60550,1,8,0:0:0:0:
388,121,60723,1,8,0:0:0:0:
393,124,60895,1,8,0:0:0:0:
393,124,60981,1,8,0:0:0:0:
388,121,61068,1,0,0:0:0:0:
388,121,61240,1,8,0:0:0:0:
388,121,61413,1,8,0:0:0:0:
388,121,61585,1,8,0:0:0:0:
388,121,61757,1,12,0:0:0:0:
388,121,62102,1,8,0:0:0:0:
388,121,62447,1,0,0:0:0:0:
388,121,62619,1,8,0:0:0:0:
388,121,62792,1,8,0:0:0:0:
388,121,62964,1,8,0:0:0:0:
388,121,63050,1,8,0:0:0:0:
388,121,63137,1,0,0:0:0:0:
390,131,63309,1,8,0:0:0:0:
390,131,63481,1,0,0:0:0:0:
396,132,63654,1,8,0:0:0:0:
392,112,63740,1,8,0:0:0:0:
422,116,63826,1,0,0:0:0:0:
404,122,63999,1,8,0:0:0:0:
402,117,64171,1,8,0:0:0:0:
405,133,64344,1,0,0:0:0:0:
404,132,64516,1,12,0:0:0:0:
408,143,64861,1,8,0:0:0:0:
407,144,65033,1,0,0:0:0:0:
406,143,65206,1,0,0:0:0:0:
405,143,65378,1,8,0:0:0:0:
405,146,65550,1,8,0:0:0:0:
408,143,65723,1,0,0:0:0:0:
408,143,65895,1,0,0:0:0:0:
407,144,66068,1,8,0:0:0:0:
406,143,66240,1,0,0:0:0:0:
405,143,66326,1,0,0:0:0:0:
405,143,66413,1,0,0:0:0:0:
405,146,66499,1,0,0:0:0:0:
405,146,66585,1,8,0:0:0:0:
408,143,66757,1,8,0:0:0:0:
383,141,66930,1,0,0:0:0:0:
388,146,67102,1,0,0:0:0:0:
387,150,67275,1,12,0:0:0:0:
397,157,67619,1,0,0:0:0:0:
380,161,67964,1,8,0:0:0:0:
379,159,68309,1,8,0:0:0:0:
379,159,68654,1,8,0:0:0:0:
389,155,68826,1,0,0:0:0:0:
389,155,68999,1,0,0:0:0:0:
389,155,69257,1,0,0:0:0:0:
389,155,69516,1,0,0:0:0:0:
389,155,69688,1,0,0:0:0:0:
400,153,70033,1,12,0:0:0:0:
411,146,70378,1,4,0:0:0:0:
411,146,70723,1,8,0:0:0:0:
400,153,70895,1,0,0:0:0:0:
411,146,71068,1,0,0:0:0:0:
411,146,71154,1,0,0:0:0:0:
402,150,71240,1,0,0:0:0:0:
402,150,71326,1,0,0:0:0:0:
402,150,71413,1,8,0:0:0:0:
400,148,71585,1,0,0:0:0:0:
400,148,71757,1,0,0:0:0:0:
422,152,71930,1,8,0:0:0:0:
403,136,72016,1,0,0:0:0:0:
418,152,72102,1,8,0:0:0:0:
406,144,72275,1,0,0:0:0:0:
406,144,72447,1,0,0:0:0:0:
406,144,72619,1,8,0:0:0:0:
406,144,72706,1,8,0:0:0:0:
406,144,72792,1,8,0:0:0:0:
399,150,73137,1,12,0:0:0:0:
401,149,73395,1,8,0:0:0:0:
401,149,73481,1,0,0:0:0:0:
401,149,73654,1,8,0:0:0:0:
401,149,73826,1,0,0:0:0:0:
399,150,73999,1,8,0:0:0:0:
399,150,74085,1,8,0:0:0:0:
399,150,74171,1,0,0:0:0:0:
406,155,74344,1,8,0:0:0:0:
406,153,74516,1,4,0:0:0:0:
420,151,74775,1,4,0:0:0:0:
420,151,75033,1,4,0:0:0:0:
420,151,75206,1,4,0:0:0:0:
440,157,75550,1,12,0:0:0:0:
413,151,75895,1,4,0:0:0:0:
420,151,76240,1,8,0:0:0:0:
415,149,76413,1,0,0:0:0:0:
415,149,76585,1,0,0:0:0:0:
413,151,76757,1,8,0:0:0:0:
413,151,76844,1,0,0:0:0:0:
413,151,76930,1,8,0:0:0:0:
420,151,77102,1,0,0:0:0:0:
420,151,77275,1,0,0:0:0:0:
415,149,77533,1,0,0:0:0:0:
415,149,77619,1,8,0:0:0:0:
413,151,77792,1,0,0:0:0:0:
413,151,77964,1,0,0:0:0:0:
420,151,78137,1,8,0:0:0:0:
415,145,78223,1,8,0:0:0:0:
420,151,78309,1,8,0:0:0:0:
416,143,78654,1,8,0:0:0:0:
416,141,78913,1,8,0:0:0:0:
416,141,78999,1,8,0:0:0:0:
416,137,79171,1,8,0:0:0:0:
416,138,79344,1,8,0:0:0:0:
414,137,79516,1,8,0:0:0:0:
414,137,79602,1,0,0:0:0:0:
414,137,79688,1,8,0:0:0:0:
416,141,79861,1,0,0:0:0:0:
416,141,80033,1,8,0:0:0:0:
416,138,80292,1,8,0:0:0:0:
416,138,80378,1,8,0:0:0:0:
414,137,80550,1,0,0:0:0:0:
414,137,80723,1,8,0:0:0:0:
416,141,80895,1,8,0:0:0:0:
384,157,81068,5,12,0:0:0:0:
374,148,81413,1,8,0:0:0:0:
363,141,81671,1,8,0:0:0:0:
374,148,81757,1,8,0:0:0:0:
358,153,81930,1,8,0:0:0:0:
374,148,82102,1,8,0:0:0:0:
354,152,82275,1,8,0:0:0:0:
374,148,82447,1,8,0:0:0:0:
363,141,82619,1,0,0:0:0:0:
374,148,82792,1,8,0:0:0:0:
370,153,82964,1,0,0:0:0:0:
370,152,83050,1,8,0:0:0:0:
374,148,83137,1,8,0:0:0:0:
382,146,83309,1,0,0:0:0:0:
374,148,83481,1,8,0:0:0:0:
374,148,83654,1,8,0:0:0:0:
374,148,83826,1,12,0:0:0:0:
374,148,84171,1,8,0:0:0:0:
374,148,84344,1,8,0:0:0:0:
374,148,84516,1,8,0:0:0:0:
374,148,84688,1,8,0:0:0:0:
374,148,84861,1,8,0:0:0:0:
374,148,85033,1,8,0:0:0:0:
374,148,85206,1,8,0:0:0:0:
374,148,85378,1,8,0:0:0:0:
374,148,85550,1,0,0:0:0:0:
374,148,85723,1,8,0:0:0:0:
374,148,85895,1,8,0:0:0:0:
374,148,86068,1,8,0:0:0:0:
374,148,86240,1,0,0:0:0:0:
374,148,86585,1,8,0:0:0:0:
374,148,86757,1,8,0:0:0:0:
410,141,86930,5,8,0:0:0:0:
407,150,87016,1,8,0:0:0:0:
407,150,87102,1,8,0:0:0:0:
407,150,87188,1,8,0:0:0:0:
407,150,87275,1,8,0:0:0:0:
407,150,87361,1,8,0:0:0:0:
407,150,87447,1,8,0:0:0:0:
407,150,87533,1,8,0:0:0:0:
407,150,87619,1,8,0:0:0:0:
400,140,87792,1,8,0:0:0:0:
407,150,87878,1,8,0:0:0:0:
407,150,87964,1,8,0:0:0:0:
407,150,88137,1,8,0:0:0:0:
403,127,88309,5,8,0:0:0:0:
390,130,88481,1,0,0:0:0:0:
409,138,88568,1,8,0:0:0:0:
409,137,88654,1,0,0:0:0:0:
402,139,88826,1,8,0:0:0:0:
402,139,88999,1,8,0:0:0:0:
379,118,89344,1,4,0:0:0:0:
382,131,89688,1,0,0:0:0:0:
384,128,89947,1,0,0:0:0:0:
406,123,90033,1,8,0:0:0:0:
392,130,90206,1,0,0:0:0:0:
387,127,90378,1,0,0:0:0:0:
387,127,90637,1,8,0:0:0:0:
387,127,90723,1,0,0:0:0:0:
387,127,90895,1,0,0:0:0:0:
387,127,91068,1,0,0:0:0:0:
378,132,91240,1,0,0:0:0:0:
378,132,91413,1,8,0:0:0:0:
390,119,91585,1,0,0:0:0:0:
390,119,91757,1,8,0:0:0:0:
390,118,91930,1,0,0:0:0:0:
391,122,92102,1,8,0:0:0:0:
390,118,92275,1,8,0:0:0:0:
390,119,92447,1,0,0:0:0:0:
387,133,92792,1,0,0:0:0:0:
391,122,92964,1,8,0:0:0:0:
391,122,93137,1,8,0:0:0:0:
384,130,93309,1,0,0:0:0:0:
384,130,93481,1,8,0:0:0:0:
386,131,93654,1,8,0:0:0:0:
379,141,93826,1,4,0:0:0:0:
379,141,94085,1,8,0:0:0:0:
379,141,94171,1,0,0:0:0:0:
379,141,94344,1,8,0:0:0:0:
379,141,94516,1,4,0:0:0:0:
378,126,94688,1,0,0:0:0:0:
378,126,94775,1,8,0:0:0:0:
378,126,94861,1,8,0:0:0:0:
376,126,94947,1,8,0:0:0:0:
376,126,95033,1,8,0:0:0:0:
377,124,95119,1,8,0:0:0:0:
377,124,95206,1,0,0:0:0:0:
368,129,95550,1,8,0:0:0:0:
368,129,95723,1,0,0:0:0:0:
368,129,95895,1,0,0:0:0:0:
374,132,96068,1,0,0:0:0:0:
374,132,96240,1,8,0:0:0:0:
374,131,96413,1,8,0:0:0:0:
374,131,96585,1,0,0:0:0:0:
382,129,96930,1,0,0:0:0:0:
374,132,97102,1,8,0:0:0:0:
374,132,97275,1,8,0:0:0:0:
374,131,97447,1,0,0:0:0:0:
374,131,97533,1,8,0:0:0:0:
374,131,97619,1,8,0:0:0:0:
379,135,97792,1,8,0:0:0:0:
379,134,97964,1,0,0:0:0:0:
374,132,98309,1,8,0:0:0:0:
374,131,98481,1,8,0:0:0:0:
374,131,98654,1,8,0:0:0:0:
374,129,98826,1,0,0:0:0:0:
374,129,98913,1,0,0:0:0:0:
374,129,98999,1,8,0:0:0:0:
374,132,99171,1,8,0:0:0:0:
374,132,99344,1,4,0:0:0:0:
374,131,99602,1,0,0:0:0:0:
364,117,99688,1,8,0:0:0:0:
374,129,99861,1,0,0:0:0:0:
374,129,100033,1,8,0:0:0:0:
374,132,100378,1,12,0:0:0:0:
374,131,100723,1,4,0:0:0:0:
374,129,101068,1,8,0:0:0:0:
374,132,101240,1,0,0:0:0:0:
374,132,101413,1,0,0:0:0:0:
374,131,101585,1,0,0:0:0:0:
374,131,101671,1,0,0:0:0:0:
374,131,101757,1,8,0:0:0:0:
374,129,101930,1,8,0:0:0:0:
385,128,102102,1,0,0:0:0:0:
385,128,102275,1,12,0:0:0:0:
385,128,102447,1,0,0:0:0:0:
385,128,102619,1,12,0:0:0:0:
385,128,102792,1,0,0:0:0:0:
385,128,102964,1,12,0:0:0:0:
382,122,103137,1,0,0:0:0:0:
382,122,103309,1,12,0:0:0:0:
382,122,103481,1,0,0:0:0:0:
375,132,103826,1,0,0:0:0:0:
375,132,103999,1,8,0:0:0:0:
375,132,104171,1,8,0:0:0:0:
375,132,104516,1,8,0:0:0:0:
375,132,104688,1,0,0:0:0:0:
381,157,104861,5,4,0:0:0:0:
381,157,105119,1,0,0:0:0:0:
381,157,105206,1,8,0:0:0:0:
381,157,105378,1,0,0:0:0:0:
381,157,105550,1,0,0:0:0:0:
381,157,105809,1,8,0:0:0:0:
381,157,105895,1,8,0:0:0:0:
381,157,105981,1,8,0:0:0:0:
381,157,106068,1,8,0:0:0:0:
396,155,106154,1,8,0:0:0:0:
396,155,106240,1,0,0:0:0:0:
409,160,106499,1,0,0:0:0:0:
400,165,106585,1,8,0:0:0:0:
393,168,106757,1,0,0:0:0:0:
393,168,106930,1,8,0:0:0:0:
390,168,107102,1,0,0:0:0:0:
390,168,107275,1,8,0:0:0:0:
388,167,107447,1,8,0:0:0:0:
393,168,107619,1,0,0:0:0:0:
393,168,107792,1,12,0:0:0:0:
390,168,107964,1,0,0:0:0:0:
388,167,108137,1,12,0:0:0:0:
390,168,108309,1,0,0:0:0:0:
385,166,108481,1,12,0:0:0:0:
393,168,108654,1,0,0:0:0:0:
393,168,108826,1,12,0:0:0:0:
390,168,108999,1,0,0:0:0:0:
404,170,109257,1,0,0:0:0:0:
404,170,109344,1,8,0:0:0:0:
404,170,109516,1,8,0:0:0:0:
404,170,109688,1,0,0:0:0:0:
404,170,109861,1,0,0:0:0:0:
404,170,110033,1,8,0:0:0:0:
405,169,110206,1,8,0:0:0:0:
404,170,110378,1,4,0:0:0:0:
404,170,110637,1,8,0:0:0:0:
404,170,110723,1,8,0:0:0:0:
404,170,110895,1,0,0:0:0:0:
404,170,111068,1,8,0:0:0:0:
409,167,111413,1,12,0:0:0:0:
447,110,111757,5,4,0:0:0:0:
447,110,112016,1,0,0:0:0:0:
447,110,112275,1,0,0:0:0:0:
447,110,112447,1,8,0:0:0:0:
447,110,112706,1,0,0:0:0:0:
447,110,112964,1,0,0:0:0:0:
447,110,113137,1,4,0:0:0:0:
454,123,113395,1,0,0:0:0:0:
454,123,113481,1,8,0:0:0:0:
454,123,113654,1,0,0:0:0:0:
454,123,113826,1,8,0:0:0:0:
454,123,113999,1,0,0:0:0:0:
454,123,114085,1,8,0:0:0:0:
454,123,114171,1,8,0:0:0:0:
454,123,114344,1,0,0:0:0:0:
454,123,114516,1,4,0:0:0:0:
454,123,114775,1,0,0:0:0:0:
454,123,115033,1,0,0:0:0:0:
454,123,115206,1,8,0:0:0:0:
454,123,115464,1,0,0:0:0:0:
454,123,115723,1,0,0:0:0:0:
450,111,115895,1,4,0:0:0:0:
450,111,116154,1,8,0:0:0:0:
450,111,116240,1,8,0:0:0:0:
450,111,116413,1,0,0:0:0:0:
450,111,116585,1,8,0:0:0:0:
450,111,116757,1,0,0:0:0:0:
450,111,116844,1,0,0:0:0:0:
450,111,116930,1,8,0:0:0:0:
437,95,117016,1,8,0:0:0:0:
450,111,117102,1,8,0:0:0:0:
447,105,117188,1,8,0:0:0:0:
445,98,117619,1,12,0:0:0:0:
446,91,117792,1,0,0:0:0:0:
445,91,117964,1,0,0:0:0:0:
445,91,118137,1,0,0:0:0:0:
445,91,118309,1,12,0:0:0:0:
444,90,118654,1,0,0:0:0:0:
446,91,118826,1,0,0:0:0:0:
445,91,118999,1,12,0:0:0:0:
445,91,119171,1,8,0:0:0:0:
445,91,119344,1,0,0:0:0:0:
444,90,119688,1,12,0:0:0:0:
446,91,119861,1,8,0:0:0:0:
445,91,120033,1,8,0:0:0:0:
431,79,120378,1,12,0:0:0:0:
431,79,120723,1,8,0:0:0:0:
424,79,120895,1,0,0:0:0:0:
424,79,121068,1,12,0:0:0:0:
424,79,121240,1,0,0:0:0:0:
424,79,121413,1,12,0:0:0:0:
424,79,121671,1,8,0:0:0:0:
424,79,121757,1,8,0:0:0:0:
424,79,121930,1,12,0:0:0:0:
424,79,122102,1,12,0:0:0:0:
424,79,122275,1,0,0:0:0:0:
424,79,122447,1,12,0:0:0:0:
424,79,122792,1,0,0:0:0:0:
432,88,123309,1,0,0:0:0:0:
422,89,123481,1,0,0:0:0:0:
422,89,123826,1,8,0:0:0:0:
417,97,124171,1,0,0:0:0:0:
417,96,124516,1,0,0:0:0:0:
417,96,124688,1,8,0:0:0:0:
417,96,124861,1,0,0:0:0:0:
417,97,125206,1,12,0:0:0:0:
417,96,125550,1,0,0:0:0:0:
417,97,125895,1,8,0:0:0:0:
412,105,126068,1,0,0:0:0:0:
412,105,126240,1,0,0:0:0:0:
412,104,126413,1,0,0:0:0:0:
412,104,126499,1,0,0:0:0:0:
412,104,126585,1,8,0:0:0:0:
412,103,126757,1,0,0:0:0:0:
401,112,126930,1,0,0:0:0:0:
405,108,127188,1,0,0:0:0:0:
405,108,127275,1,8,0:0:0:0:
402,112,127447,1,0,0:0:0:0:
398,108,127619,1,0,0:0:0:0:
398,108,127792,1,8,0:0:0:0:
401,112,127878,1,8,0:0:0:0:
401,112,127964,1,8,0:0:0:0:
407,124,128309,1,0,0:0:0:0:
407,122,128654,1,8,0:0:0:0:
413,131,128826,1,0,0:0:0:0:
413,131,128999,1,0,0:0:0:0:
413,125,129171,1,0,0:0:0:0:
413,124,129344,1,8,0:0:0:0:
413,122,129516,1,0,0:0:0:0:
413,122,129688,1,0,0:0:0:0:
413,131,129861,1,8,0:0:0:0:
413,131,129947,1,0,0:0:0:0:
413,131,130033,1,8,0:0:0:0:
417,138,130206,1,0,0:0:0:0:
416,136,130378,1,0,0:0:0:0:
416,135,130550,1,0,0:0:0:0:
414,134,130723,1,8,0:0:0:0:
421,125,131068,1,0,0:0:0:0:
421,125,131240,1,0,0:0:0:0:
421,124,131413,1,8,0:0:0:0:
421,124,131585,1,0,0:0:0:0:
421,122,131757,1,0,0:0:0:0:
421,125,131930,1,0,0:0:0:0:
421,125,132102,1,8,0:0:0:0:
357,134,132275,1,0,0:0:0:0:
411,131,132361,1,0,0:0:0:0:
412,133,132447,1,0,0:0:0:0:
411,131,132533,1,0,0:0:0:0:
411,131,132619,1,0,0:0:0:0:
411,131,132706,1,0,0:0:0:0:
411,131,132792,1,8,0:0:0:0:
411,131,132964,1,0,0:0:0:0:
411,131,133137,1,0,0:0:0:0:
414,136,133309,1,8,0:0:0:0:
414,135,133395,1,8,0:0:0:0:
412,133,133481,1,8,0:0:0:0:
411,131,133826,1,0,0:0:0:0:
429,136,134344,1,0,0:0:0:0:
412,133,134516,1,0,0:0:0:0:
411,131,134861,1,0,0:0:0:0:
401,145,135206,1,8,0:0:0:0:
401,145,135378,1,8,0:0:0:0:
401,145,135464,1,8,0:0:0:0:
401,145,135550,1,8,0:0:0:0:
401,145,135723,1,8,0:0:0:0:
401,145,135895,1,8,0:0:0:0:
393,145,136240,1,0,0:0:0:0:
390,140,136585,1,8,0:0:0:0:
393,145,136930,1,8,0:0:0:0:
381,154,137275,1,8,0:0:0:0:
381,154,137619,1,8,0:0:0:0:
397,134,137792,1,0,0:0:0:0:
378,153,137964,1,8,0:0:0:0:
381,154,138309,1,8,0:0:0:0:
393,145,138481,1,0,0:0:0:0:
393,145,138654,1,8,0:0:0:0:
416,145,138826,1,8,0:0:0:0:
416,145,138999,1,12,0:0:0:0:
393,145,139344,1,8,0:0:0:0:
399,143,139516,1,8,0:0:0:0:
399,143,139688,1,8,0:0:0:0:
399,143,139861,1,8,0:0:0:0:
399,143,140033,1,8,0:0:0:0:
398,143,140206,1,8,0:0:0:0:
398,143,140378,1,0,0:0:0:0:
399,143,140550,1,8,0:0:0:0:
399,143,140723,1,8,0:0:0:0:
399,143,140895,1,8,0:0:0:0:
399,143,140981,1,8,0:0:0:0:
399,143,141068,1,0,0:0:0:0:
398,143,141240,1,8,0:0:0:0:
398,143,141413,1,8,0:0:0:0:
399,143,141585,1,8,0:0:0:0:
399,143,141757,1,8,0:0:0:0:
399,143,141930,1,8,0:0:0:0:
393,139,142102,1,8,0:0:0:0:
393,139,142188,1,8,0:0:0:0:
398,143,142275,1,8,0:0:0:0:
392,138,142447,1,8,0:0:0:0:
392,138,142533,1,8,0:0:0:0:
392,138,142619,1,8,0:0:0:0:
391,138,142706,1,8,0:0:0:0:
391,138,142792,1,8,0:0:0:0:
393,139,142878,1,8,0:0:0:0:
388,138,142964,1,8,0:0:0:0:
393,139,143137,1,8,0:0:0:0:
393,139,143223,1,8,0:0:0:0:
386,138,143309,1,8,0:0:0:0:
386,138,143395,1,8,0:0:0:0:
393,124,144516,5,8,0:0:0:0:
373,124,144861,1,4,0:0:0:0:
373,124,145119,1,8,0:0:0:0:
372,122,145206,1,0,0:0:0:0:
372,124,145378,1,0,0:0:0:0:
371,121,145550,1,8,0:0:0:0:
373,124,145723,1,0,0:0:0:0:
373,124,145895,1,0,0:0:0:0:
372,122,146240,1,0,0:0:0:0:
358,122,146499,1,0,0:0:0:0:
358,122,146585,1,0,0:0:0:0:
357,122,146757,1,0,0:0:0:0:
357,122,146930,1,8,0:0:0:0:
357,122,147102,1,0,0:0:0:0:
356,122,147275,1,0,0:0:0:0:
346,119,147447,1,0,0:0:0:0:
346,119,147619,1,8,0:0:0:0:
345,117,147878,1,8,0:0:0:0:
345,117,147964,1,0,0:0:0:0:
345,117,148137,1,0,0:0:0:0:
345,117,148309,1,8,0:0:0:0:
346,119,148481,1,0,0:0:0:0:
346,119,148654,1,0,0:0:0:0:
345,117,148999,1,0,0:0:0:0:
345,117,149171,1,0,0:0:0:0:
345,117,149257,1,8,0:0:0:0:
345,117,149344,1,8,0:0:0:0:
338,113,149516,1,0,0:0:0:0:
338,113,149688,1,12,0:0:0:0:
337,113,149861,1,8,0:0:0:0:
337,113,149947,1,8,0:0:0:0:
337,112,150033,1,8,0:0:0:0:
337,112,150119,1,8,0:0:0:0:
337,112,150206,1,8,0:0:0:0:
338,113,150378,1,0,0:0:0:0:
338,113,150550,1,8,0:0:0:0:
338,113,150637,1,0,0:0:0:0:
338,113,150723,1,0,0:0:0:0:
337,113,150895,1,0,0:0:0:0:
337,112,151068,1,8,0:0:0:0:
337,112,151240,1,0,0:0:0:0:
335,112,151413,1,0,0:0:0:0:
338,113,151757,1,0,0:0:0:0:
337,112,152016,1,0,0:0:0:0:
337,112,152102,1,0,0:0:0:0:
337,112,152275,1,0,0:0:0:0:
338,113,152447,1,8,0:0:0:0:
338,113,152619,1,0,0:0:0:0:
338,113,152792,1,0,0:0:0:0:
337,112,153137,1,0,0:0:0:0:
321,127,153395,1,8,0:0:0:0:
323,128,153481,1,0,0:0:0:0:
314,125,153654,1,0,0:0:0:0:
314,125,153826,1,8,0:0:0:0:
310,122,153999,1,0,0:0:0:0:
310,122,154171,1,0,0:0:0:0:
310,122,154344,1,0,0:0:0:0:
313,118,154430,1,0,0:0:0:0:
314,124,154516,1,8,0:0:0:0:
352,117,154775,1,8,0:0:0:0:
345,120,154861,1,8,0:0:0:0:
352,117,155033,1,8,0:0:0:0:
352,117,155206,1,8,0:0:0:0:
357,117,155378,1,8,0:0:0:0:
358,117,155464,1,8,0:0:0:0:
358,117,155550,1,8,0:0:0:0:
358,117,155637,1,8,0:0:0:0:
358,117,155723,1,8,0:0:0:0:
358,117,155895,1,4,0:0:0:0:
332,117,156154,1,8,0:0:0:0:
332,117,156240,1,8,0:0:0:0:
332,117,156413,1,0,0:0:0:0:
332,117,156585,1,8,0:0:0:0:
332,117,156930,1,0,0:0:0:0:
332,117,157102,1,8,0:0:0:0:
332,117,157275,1,8,0:0:0:0:
332,117,157447,1,0,0:0:0:0:
332,117,157533,1,8,0:0:0:0:
332,117,157619,1,0,0:0:0:0:
332,117,157792,1,8,0:0:0:0:
332,117,157964,1,8,0:0:0:0:
332,117,158137,1,8,0:0:0:0:
332,117,158309,1,0,0:0:0:0:
473,355,158654,1,8,0:0:0:0:
319,111,158999,1,8,0:0:0:0:
318,105,159171,1,0,0:0:0:0:
318,105,159344,1,8,0:0:0:0:
331,102,159516,1,8,0:0:0:0:
331,102,159602,1,8,0:0:0:0:
331,102,159688,1,0,0:0:0:0:
331,102,159861,1,0,0:0:0:0:
331,102,160033,1,8,0:0:0:0:
331,102,160206,1,0,0:0:0:0:
344,117,160292,1,8,0:0:0:0:
331,102,160378,1,0,0:0:0:0:
360,94,160550,1,8,0:0:0:0:
354,102,160723,1,8,0:0:0:0:
354,102,160895,1,8,0:0:0:0:
354,101,160981,1,8,0:0:0:0:
354,102,161068,1,8,0:0:0:0:
354,101,161154,1,8,0:0:0:0:
354,101,161240,1,8,0:0:0:0:
354,101,161326,1,8,0:0:0:0:
353,100,161413,1,0,0:0:0:0:
354,102,161757,1,0,0:0:0:0:
354,102,161930,1,8,0:0:0:0:
354,102,162102,1,0,0:0:0:0:
374,101,162361,1,0,0:0:0:0:
374,101,162447,1,0,0:0:0:0:
372,97,162619,1,0,0:0:0:0:
372,97,162792,1,0,0:0:0:0:
369,106,162964,1,0,0:0:0:0:
368,110,163050,1,8,0:0:0:0:
368,109,163137,1,0,0:0:0:0:
374,101,163309,1,8,0:0:0:0:
371,94,163481,1,0,0:0:0:0:
372,97,163740,1,0,0:0:0:0:
373,92,163999,1,0,0:0:0:0:
373,92,164171,1,0,0:0:0:0:
373,92,164344,1,0,0:0:0:0:
371,94,164516,1,0,0:0:0:0:
372,97,164688,1,0,0:0:0:0:
372,97,164775,1,0,0:0:0:0:
372,97,164861,1,8,0:0:0:0:
373,92,164947,1,0,0:0:0:0:
373,92,165033,1,0,0:0:0:0:
373,92,165119,1,0,0:0:0:0:
373,92,165206,1,0,0:0:0:0:
371,94,165378,1,0,0:0:0:0:
371,94,165464,1,0,0:0:0:0:
372,97,165550,1,0,0:0:0:0:
368,92,165723,1,8,0:0:0:0:
368,92,165809,1,8,0:0:0:0:
368,92,165895,1,8,0:0:0:0:
373,92,166068,1,8,0:0:0:0:
373,92,166240,1,8,0:0:0:0:
371,94,166413,1,8,0:0:0:0:
368,92,166585,1,8,0:0:0:0:
368,92,166757,1,8,0:0:0:0:
368,92,166930,1,0,0:0:0:0:
360,96,167619,1,0,0:0:0:0:
360,96,168137,1,8,0:0:0:0:
372,98,168481,1,0,0:0:0:0:
360,96,168654,1,8,0:0:0:0:
360,96,168999,1,0,0:0:0:0:
360,96,169344,1,0,0:0:0:0:
360,96,169516,1,8,0:0:0:0:
378,94,169861,1,0,0:0:0:0:
376,90,170206,1,0,0:0:0:0:
376,90,170378,1,8,0:0:0:0:
378,94,170895,1,8,0:0:0:0:
376,90,171240,1,0,0:0:0:0:
376,90,171413,1,8,0:0:0:0:
367,94,171757,1,0,0:0:0:0:
366,123,172447,5,0,0:0:0:0:
366,123,172792,1,8,0:0:0:0:
353,102,173050,1,0,0:0:0:0:
353,102,173137,1,0,0:0:0:0:
353,102,173309,1,0,0:0:0:0:
353,102,173481,1,8,0:0:0:0:
353,102,173826,1,0,0:0:0:0:
353,102,174171,1,8,0:0:0:0:
353,102,174344,1,8,0:0:0:0:
353,102,174430,1,0,0:0:0:0:
353,102,174516,1,0,0:0:0:0:
353,102,174688,1,0,0:0:0:0:
353,102,174861,1,8,0:0:0:0:
353,102,175206,1,0,0:0:0:0:
353,102,175550,1,8,0:0:0:0:
353,102,175809,1,0,0:0:0:0:
353,102,175895,1,0,0:0:0:0:
353,102,176068,1,0,0:0:0:0:
353,102,176240,1,8,0:0:0:0:
353,102,176585,1,0,0:0:0:0:
353,102,176930,1,8,0:0:0:0:
353,102,177188,1,0,0:0:0:0:
353,102,177275,1,0,0:0:0:0:
353,102,177447,1,0,0:0:0:0:
353,102,177619,1,8,0:0:0:0:
353,102,177964,1,4,0:0:0:0:
353,102,178137,1,0,0:0:0:0:
353,102,178309,1,8,0:0:0:0:
378,101,178481,1,0,0:0:0:0:
376,100,178654,1,8,0:0:0:0:
376,100,178999,1,8,0:0:0:0:
376,100,179171,1,0,0:0:0:0:
376,100,179257,1,0,0:0:0:0:
375,100,179344,1,8,0:0:0:0:
378,101,179516,1,12,0:0:0:0:
376,100,179688,1,0,0:0:0:0:
376,100,179861,1,12,0:0:0:0:
376,100,180033,1,0,0:0:0:0:
376,100,180206,1,12,0:0:0:0:
375,100,180378,1,8,0:0:0:0:
378,101,180550,1,12,0:0:0:0:
376,100,180723,1,0,0:0:0:0:
383,105,181068,1,8,0:0:0:0:
383,105,181240,1,0,0:0:0:0:
360,96,181326,1,0,0:0:0:0:
383,105,181413,1,8,0:0:0:0:
378,114,181585,1,0,0:0:0:0:
383,105,181757,1,8,0:0:0:0:
383,105,181930,1,0,0:0:0:0:
383,105,182102,1,8,0:0:0:0:
383,105,182275,1,0,0:0:0:0:
383,105,182447,1,8,0:0:0:0:
383,105,182619,1,0,0:0:0:0:
383,105,182706,1,0,0:0:0:0:
383,105,182792,1,8,0:0:0:0:
383,105,182964,1,8,0:0:0:0:
383,105,183137,1,12,0:0:0:0:
383,105,183481,1,8,0:0:0:0:
383,105,183654,1,8,0:0:0:0:
383,105,183826,1,8,0:0:0:0:
383,105,183999,1,8,0:0:0:0:
383,105,184171,1,8,0:0:0:0:
383,105,184344,1,8,0:0:0:0:
383,105,184516,1,8,0:0:0:0:
383,105,184688,1,8,0:0:0:0:
383,105,184861,1,0,0:0:0:0:
383,105,185033,1,8,0:0:0:0:
366,110,185119,1,8,0:0:0:0:
383,105,185206,1,8,0:0:0:0:
383,105,185378,1,8,0:0:0:0:
383,105,185464,1,8,0:0:0:0:
383,105,185550,1,8,0:0:0:0:
383,105,185723,1,8,0:0:0:0:
374,103,185809,1,8,0:0:0:0:
377,102,185895,1,8,0:0:0:0:
377,102,186068,1,8,0:0:0:0:
376,101,186240,1,0,0:0:0:0:
367,109,186326,1,8,0:0:0:0:
376,101,186413,1,8,0:0:0:0:
375,101,186499,1,0,0:0:0:0:
374,101,186585,1,8,0:0:0:0:
374,101,186757,1,0,0:0:0:0:
377,102,186844,1,8,0:0:0:0:
377,102,186930,1,0,0:0:0:0:
376,102,187102,1,8,0:0:0:0:
376,101,187188,1,8,0:0:0:0:
376,101,187275,1,8,0:0:0:0:
374,101,187361,1,8,0:0:0:0:
375,101,187447,1,8,0:0:0:0:
353,99,187533,1,8,0:0:0:0:
416,117,188654,1,12,0:0:0:0:
413,130,188999,1,4,0:0:0:0:
413,129,189344,1,8,0:0:0:0:
413,130,189688,1,4,0:0:0:0:
398,135,190206,1,4,0:0:0:0:
398,134,190550,1,4,0:0:0:0:
401,135,190895,1,4,0:0:0:0:
401,135,191068,1,8,0:0:0:0:
385,138,191326,1,8,0:0:0:0:
385,138,191413,1,8,0:0:0:0:
389,143,191585,1,8,0:0:0:0:
389,143,191671,1,8,0:0:0:0:
389,143,191757,1,0,0:0:0:0:
386,138,191930,1,0,0:0:0:0:
387,144,192102,1,8,0:0:0:0:
387,144,192275,1,8,0:0:0:0:
387,144,192447,1,8,0:0:0:0:
389,143,192619,1,0,0:0:0:0:
389,143,192792,1,12,0:0:0:0:
387,144,192964,1,12,0:0:0:0:
387,144,193309,1,0,0:0:0:0:
368,139,193395,1,0,0:0:0:0:
387,144,193481,1,8,0:0:0:0:
389,143,193654,1,0,0:0:0:0:
389,143,193740,1,8,0:0:0:0:
387,144,193826,1,8,0:0:0:0:
387,144,193999,1,8,0:0:0:0:
387,144,194085,1,0,0:0:0:0:
387,144,194171,1,8,0:0:0:0:
387,144,194344,1,8,0:0:0:0:
387,144,194516,1,0,0:0:0:0:
389,143,194775,1,8,0:0:0:0:
389,143,194861,1,0,0:0:0:0:
387,144,195033,1,8,0:0:0:0:
387,144,195206,1,0,0:0:0:0:
387,144,195378,1,0,0:0:0:0:
387,144,195464,1,0,0:0:0:0:
387,144,195550,1,8,0:0:0:0:
389,143,195723,1,0,0:0:0:0:
387,144,195895,1,0,0:0:0:0:
404,137,196068,1,0,0:0:0:0:
387,144,196240,1,8,0:0:0:0:
387,144,196413,1,8,0:0:0:0:
387,144,196585,1,0,0:0:0:0:
389,143,196757,1,0,0:0:0:0:
389,143,196844,1,8,0:0:0:0:
389,143,196930,1,8,0:0:0:0:
387,144,197102,1,8,0:0:0:0:
387,144,197275,1,0,0:0:0:0:
387,144,197447,1,0,0:0:0:0:
387,144,197619,1,8,0:0:0:0:
389,143,197792,1,8,0:0:0:0:
389,143,197878,1,8,0:0:0:0:
389,143,197964,1,0,0:0:0:0:
387,144,198137,1,0,0:0:0:0:
387,144,198309,1,12,0:0:0:0:
387,144,198481,1,4,0:0:0:0:
389,143,198826,1,0,0:0:0:0:
389,143,198913,1,0,0:0:0:0:
389,143,198999,1,0,0:0:0:0:
396,139,199085,1,0,0:0:0:0:
396,139,199171,1,0,0:0:0:0:
396,139,199257,1,0,0:0:0:0:
396,139,199344,1,8,0:0:0:0:
403,138,199516,1,0,0:0:0:0:
403,138,199688,1,12,0:0:0:0:
401,143,199861,1,0,0:0:0:0:
402,143,200033,1,4,0:0:0:0:
399,153,200292,1,0,0:0:0:0:
399,153,200378,1,8,0:0:0:0:
399,150,200550,1,8,0:0:0:0:
399,150,200723,1,0,0:0:0:0:
399,150,201068,1,8,0:0:0:0:
399,153,201240,1,8,0:0:0:0:
399,153,201413,1,0,0:0:0:0:
399,150,201585,1,12,0:0:0:0:
406,147,201757,1,0,0:0:0:0:
406,147,201930,1,12,0:0:0:0:
406,147,202102,1,0,0:0:0:0:
406,147,202275,1,12,0:0:0:0:
406,142,202447,1,0,0:0:0:0:
406,147,202619,1,12,0:0:0:0:
406,147,202792,1,0,0:0:0:0:
418,155,202964,1,0,0:0:0:0:
410,151,203050,1,0,0:0:0:0:
418,155,203137,1,8,0:0:0:0:
418,155,203309,1,8,0:0:0:0:
418,155,203481,1,8,0:0:0:0:
418,155,203654,1,0,0:0:0:0:
418,155,203826,1,8,0:0:0:0:
406,141,203999,1,8,0:0:0:0:
418,155,204171,1,4,0:0:0:0:
430,155,204430,1,0,0:0:0:0:
418,155,204516,1,8,0:0:0:0:
418,155,204688,1,8,0:0:0:0:
418,155,204861,1,4,0:0:0:0:
418,155,205033,1,0,0:0:0:0:
418,155,205119,1,8,0:0:0:0:
422,166,205206,1,8,0:0:0:0:
418,155,205378,1,8,0:0:0:0:
418,155,205464,1,8,0:0:0:0:
418,155,205550,1,0,0:0:0:0:
418,155,205895,1,8,0:0:0:0:
418,155,206240,1,0,0:0:0:0:
418,155,206413,1,0,0:0:0:0:
418,155,206499,1,0,0:0:0:0:
418,155,206585,1,8,0:0:0:0:
418,155,206757,1,8,0:0:0:0:
418,155,207102,1,12,0:0:0:0:
418,155,207275,1,0,0:0:0:0:
418,155,207447,1,12,0:0:0:0:
418,155,207619,1,0,0:0:0:0:
418,155,207792,1,12,0:0:0:0:
418,155,207964,1,0,0:0:0:0:
418,155,208137,1,12,0:0:0:0:
418,155,208309,1,0,0:0:0:0:
418,155,208481,1,0,0:0:0:0:
418,155,208568,1,0,0:0:0:0:
418,155,208654,1,8,0:0:0:0:
418,155,208826,1,8,0:0:0:0:
418,155,208999,1,0,0:0:0:0:
418,155,209171,1,0,0:0:0:0:
418,155,209344,1,8,0:0:0:0:
418,155,209516,1,4,0:0:0:0:
418,155,209861,1,0,0:0:0:0:
418,155,209947,1,0,0:0:0:0:
418,155,210033,1,8,0:0:0:0:
418,155,210206,1,0,0:0:0:0:
418,155,210378,1,8,0:0:0:0:
418,155,210723,1,12,0:0:0:0:
367,115,211068,5,4,0:0:0:0:
361,100,211326,1,0,0:0:0:0:
360,111,211413,1,8,0:0:0:0:
360,111,211585,1,0,0:0:0:0:
359,111,211757,1,0,0:0:0:0:
359,111,212102,1,8,0:0:0:0:
354,114,212275,1,0,0:0:0:0:
354,114,212447,1,0,0:0:0:0:
359,111,212706,1,0,0:0:0:0:
359,111,212792,1,8,0:0:0:0:
354,114,212964,1,0,0:0:0:0:
359,111,213137,1,0,0:0:0:0:
355,107,213309,1,0,0:0:0:0:
348,92,213395,1,8,0:0:0:0:
354,114,213481,1,8,0:0:0:0:
359,111,213654,1,0,0:0:0:0:
359,111,213826,1,0,0:0:0:0:
358,118,214085,1,0,0:0:0:0:
359,111,214171,1,8,0:0:0:0:
343,105,214344,1,0,0:0:0:0:
343,105,214516,1,0,0:0:0:0:
343,105,214861,1,8,0:0:0:0:
343,105,215033,1,0,0:0:0:0:
343,105,215206,1,0,0:0:0:0:
343,105,215464,1,0,0:0:0:0:
343,105,215550,1,8,0:0:0:0:
343,105,215723,1,0,0:0:0:0:
343,105,215895,1,0,0:0:0:0:
343,105,216154,1,8,0:0:0:0:
329,103,216240,1,8,0:0:0:0:
329,103,216326,1,8,0:0:0:0:
346,95,216413,1,8,0:0:0:0:
346,95,216585,1,0,0:0:0:0:
349,98,216844,1,0,0:0:0:0:
348,98,216930,1,8,0:0:0:0:
348,98,217102,1,8,0:0:0:0:
334,104,217447,5,0,0:0:0:0:
339,101,217619,1,8,0:0:0:0:
339,100,217964,1,0,0:0:0:0:
339,100,218223,1,0,0:0:0:0:
339,100,218309,1,8,0:0:0:0:
339,101,218481,1,8,0:0:0:0:
339,100,218826,1,0,0:0:0:0:
339,100,218913,1,8,0:0:0:0:
339,100,218999,1,8,0:0:0:0:
339,100,219171,1,0,0:0:0:0:
339,100,219344,1,0,0:0:0:0:
339,100,219602,1,0,0:0:0:0:
339,100,219688,1,8,0:0:0:0:
339,100,219861,1,8,0:0:0:0:
333,105,220206,1,0,0:0:0:0:
333,105,220378,1,8,0:0:0:0:
332,105,220723,1,12,0:0:0:0:
333,105,220981,1,8,0:0:0:0:
333,105,221068,1,0,0:0:0:0:
333,105,221240,1,8,0:0:0:0:
332,105,221413,1,12,0:0:0:0:
