osu file format v14

[General]
AudioFilename: audio.mp3
AudioLeadIn: 0
PreviewTime: 90088
Countdown: 0
SampleSet: Soft
StackLeniency: 0.7
Mode: 0
LetterboxInBreaks: 0
WidescreenStoryboard: 1

[Editor]
Bookmarks: 1813,7330,12847,18364,23881,29399,34916,40433,45950,51468,56985,62502,68019,73537,79054,84571,90088,95606,101123,106640,112157,118019,123192,128709,134226,139744,145261,150778,156295,161813,167330,172847,178364,183881,189399,194916,200433,205950,211468,216985,221813
DistanceSpacing: 0.7
BeatDivisor: 4
GridSize: 4
TimelineZoom: 1.3

[Metadata]
Title:Hakuchu-mu
TitleUnicode:はくちゅーむ
Artist:BPM15Q
ArtistUnicode:BPM15Q
Creator:Venyera
Version:Melo's Insane
Source:
Tags:Yunomi livia BNY963 nicamoq CY8ER ichigorinahamu hakuchuumu melophobia arronchu1207 electronic japanese
BeatmapID:2884457
BeatmapSetID:1072748

[Difficulty]
HPDrainRate:4.5
CircleSize:4
OverallDifficulty:7
ApproachRate:9
SliderMultiplier:2
SliderTickRate:1

[Events]
//Background and Video events
0,0,"BG.jpg",0,0
//Break Periods
2,122981,124596
2,167120,171837
//Storyboard Layer 0 (Background)
//Storyboard Layer 1 (Fail)
//Storyboard Layer 2 (Pass)
//Storyboard Layer 3 (Foreground)
//Storyboard Layer 4 (Overlay)
//Storyboard Sound Samples

[TimingPoints]
1403,344.827586206897,4,2,99,70,1,0
1403,-133.333333333333,4,2,99,70,0,0
6920,-100,4,2,99,70,0,0
7437,-100,4,2,99,40,0,0
7782,-100,4,2,99,60,0,0
7868,-100,4,2,99,40,0,0
8127,-100,4,2,99,60,0,0
8213,-100,4,2,99,70,0,0
8816,-100,4,2,99,40,0,0
9161,-100,4,2,99,60,0,0
9247,-100,4,2,99,70,0,0
10196,-100,4,2,99,40,0,0
10368,-100,4,2,99,70,0,0
10454,-100,4,2,99,40,0,0
10540,-100,4,2,99,60,0,0
10627,-100,4,2,99,70,0,0
10799,-100,4,2,99,40,0,0
10885,-100,4,2,99,60,0,0
10971,-100,4,2,99,70,0,0
12437,-100,4,2,99,50,0,0
17954,-100,4,2,99,60,0,0
19334,-100,4,2,99,70,0,0
20713,-100,4,2,99,80,0,0
22092,-100,4,2,99,60,0,0
23471,-100,4,2,99,70,0,0
26230,-100,4,2,99,80,0,0
34506,-100,4,2,99,60,0,0
45540,-100,4,2,99,70,0,0
56575,-100,4,1,99,90,0,0
59161,-100,4,1,99,60,0,0
59247,-100,4,1,99,90,0,0
61920,-100,4,1,99,60,0,0
62006,-100,4,1,99,90,0,0
64678,-100,4,1,99,60,0,0
64765,-100,4,1,99,90,0,0
67437,-100,4,1,99,60,0,0
67609,-100,4,2,99,60,0,0
78644,-100,4,2,99,70,0,0
84161,-100,4,2,99,70,0,0
86920,-100,4,2,99,50,0,0
89678,-100,4,2,99,90,0,1
111747,-100,4,2,99,70,0,1
113127,-100,4,2,99,90,0,1
114506,-100,4,2,99,70,0,1
115885,-100,4,2,99,90,0,1
117265,-133.333333333333,4,2,99,90,0,1
117609,-100,4,2,99,90,0,1
122437,-133.333333333333,4,2,99,70,0,1
122782,-133.333333333333,4,2,99,50,0,0
125196,-100,4,2,99,70,0,0
128299,-100,4,2,99,50,0,0
131058,-100,4,2,99,60,0,0
132437,-100,4,2,99,70,0,0
133816,-133.333333333333,4,2,99,70,0,0
136575,-100,4,2,99,50,0,0
139334,-100,4,2,99,60,0,0
142092,-100,4,2,99,70,0,0
143471,-100,4,2,99,5,0,0
144506,-100,4,2,99,70,0,0
154506,-133.333333333333,4,2,99,50,0,0
155885,-100,4,1,99,90,0,0
166920,-133.333333333333,4,2,99,50,0,0
172437,-117.647058823529,4,2,99,70,0,0
177954,-100,4,2,99,60,0,0
183471,-100,4,2,99,50,0,0
185023,-100,4,2,99,60,0,0
186230,-100,4,2,99,70,0,0
187609,-100,4,2,99,5,0,0
188644,-100,4,2,99,70,0,0
191403,-100,4,2,99,90,0,1
211058,-133.333333333333,4,2,99,70,0,0
216230,-100,4,2,99,70,0,0

[Colours]
Combo1 : 241,61,137
Combo2 : 143,104,236
Combo3 : 85,202,215
Combo4 : 220,72,247
Combo5 : 247,216,70

[HitObjects]
12,136,1403,6,0,P|77:104|155:105,1,150.000005722046,6|2,0:0|0:0,0:0:0:0:
248,132,1920,1,0,0:0:0:0:
336,88,2092,2,0,P|346:161|360:240,1,150.000005722046,2|0,0:0|0:0,0:0:0:0:
376,332,2609,1,2,0:0:0:0:
284,300,2782,2,0,P|228:304|156:328,1,112.500004291535,2|2,0:0|0:0,0:0:0:0:
56,144,3299,2,0,P|91:158|136:168,1,75.0000028610231,0|2,0:0|0:0,0:0:0:0:
263,61,3644,2,0,L|255:29,2,18.7500007152558,0|0|0,1:0|1:0|0:0,0:0:0:0:
275,109,3816,2,0,L|255:189,1,75.0000028610231,2|0,0:1|0:0,0:0:0:0:
336,320,4161,6,0,P|265:294|191:293,1,150.000005722046,2|2,0:0|0:0,0:0:0:0:
112,348,4678,1,2,0:0:0:0:
44,288,4850,2,0,P|40:236|60:172,1,112.500004291535,0|2,0:0|0:0,0:0:0:0:
80,156,5196,1,0,0:0:0:0:
64,60,5367,1,2,0:0:0:0:
176,144,5540,6,0,P|232:136|288:100,1,112.500004291535,2|2,0:0|0:0,0:0:0:0:
304,80,5885,1,0,0:0:0:0:
384,136,6057,1,2,0:0:0:0:
460,72,6230,2,0,P|475:125|488:184,1,112.500004291535,2|0,0:0|0:0,0:0:0:0:
436,304,6574,2,0,P|426:263|412:216,1,75.0000028610231,8|0,0:3|0:0,0:0:0:0:
280,72,6920,6,0,P|276:116|264:176,1,100,12|2,0:0|0:0,0:0:0:0:
100,136,7265,1,8,0:1:0:0:
56,276,7437,1,8,0:1:0:0:
84,256,7523,1,2,0:0:0:0:
116,244,7609,1,8,0:1:0:0:
152,240,7696,1,8,0:1:0:0:
188,244,7782,1,8,0:1:0:0:
300,312,7954,2,0,L|360:292,2,50,2|8|8,0:0|0:1|0:1,0:0:0:0:
448,216,8299,6,0,P|396:204|348:192,1,100,2|0,0:0|0:0,0:0:0:0:
316,184,8558,1,2,0:0:0:0:
280,176,8644,1,8,0:1:0:0:
88,60,8816,1,8,0:1:0:0:
112,84,8902,1,2,0:0:0:0:
128,116,8989,1,8,0:1:0:0:
128,152,9075,1,8,0:1:0:0:
120,184,9161,1,8,0:1:0:0:
0,296,9334,2,0,P|52:286|100:280,1,100,8|0,1:3|0:0,0:0:0:0:
384,244,9678,6,0,P|332:232|280:216,1,100,4|2,0:0|0:0,0:0:0:0:
192,56,10023,1,8,0:1:0:0:
144,164,10195,1,8,0:1:0:0:
180,156,10281,1,2,0:0:0:0:
216,148,10367,1,4,0:0:0:0:
252,140,10454,1,8,0:1:0:0:
288,132,10540,1,8,0:1:0:0:
336,272,10713,2,0,L|276:256,2,50,2|8|8,0:0|0:1|0:1,0:0:0:0:
432,196,11057,5,4,0:0:0:0:
164,342,11316,1,4,0:0:0:0:
171,37,11575,1,4,0:0:0:0:
256,196,11747,1,4,0:0:0:0:
260,172,12092,6,0,L|271:295,1,100,2|0,0:1|0:0,0:0:0:0:
120,336,12437,6,0,P|116:264|104:180,1,150,12|2,0:1|0:0,0:0:0:0:
16,156,12782,2,0,P|24:104|36:48,1,100,8|10,0:1|0:0,0:0:0:0:
200,128,13127,2,0,P|208:179|220:236,1,100,8|2,0:1|0:0,0:0:0:0:
244,336,13471,1,8,0:1:0:0:
344,220,13644,1,10,0:0:0:0:
472,304,13816,6,0,P|404:296|316:336,1,150,8|10,0:1|0:0,0:0:0:0:
244,336,14161,2,0,P|192:328|144:308,1,100,8|10,0:1|0:0,0:0:0:0:
40,228,14506,1,8,0:1:0:0:
204,132,14678,1,2,0:0:0:0:
92,64,14851,2,0,P|99:115|112:168,1,100,2|0,0:1|0:0,0:0:0:0:
172,324,15196,6,0,P|244:292|332:296,1,150,12|2,0:0|0:0,0:0:0:0:
392,332,15540,2,0,P|440:312|484:292,1,100,8|10,0:1|0:0,0:0:0:0:
444,128,15885,1,8,0:1:0:0:
380,208,16058,1,2,0:0:0:0:
348,220,16144,1,0,0:0:0:0:
312,220,16230,2,0,P|260:208|208:176,1,100,8|10,0:1|0:0,0:0:0:0:
234,86,16575,5,8,0:1:0:0:
312,149,16747,1,2,0:0:0:0:
203,284,16920,1,8,0:1:0:0:
141,122,17092,1,10,0:0:0:0:
297,248,17265,1,8,0:1:0:0:
125,220,17437,1,0,1:0:0:0:
219,185,17609,1,2,1:1:0:0:
223,190,17954,5,8,0:1:0:0:
259,109,18127,1,8,0:1:0:0:
310,199,18299,1,8,0:1:0:0:
144,232,18471,1,8,0:1:0:0:
156,129,18644,1,8,0:1:0:0:
239,277,18816,1,8,0:1:0:0:
346,120,18989,1,8,0:1:0:0:
223,190,19161,1,8,0:1:0:0:
361,201,19334,5,8,0:1:0:0:
304,35,19507,1,8,0:1:0:0:
189,166,19678,1,8,0:1:0:0:
342,301,19852,1,8,0:1:0:0:
284,135,20024,1,8,0:1:0:0:
170,266,20197,1,8,0:1:0:0:
210,61,20369,1,10,0:1:0:0:
361,200,20540,1,8,0:1:0:0:
224,296,20713,6,0,L|185:332,3,50,8|8|8|8,0:1|0:1|0:1|0:1,0:1:0:0:
96,240,21058,2,0,L|57:276,3,50,8|8|8|8,0:1|0:1|0:1|0:1,0:1:0:0:
8,128,21403,5,8,0:1:0:0:
36,144,21489,1,8,0:1:0:0:
72,148,21575,1,8,0:1:0:0:
104,136,21661,1,8,0:1:0:0:
128,112,21747,1,8,0:1:0:0:
148,84,21834,1,8,0:1:0:0:
180,72,21920,1,8,0:1:0:0:
216,72,22006,1,8,0:1:0:0:
248,84,22092,6,0,L|264:192,1,100,2|0,1:0|0:0,0:0:0:0:
268,208,22351,1,2,1:0:0:0:
272,232,22437,1,0,1:0:0:0:
144,164,22609,1,2,1:0:0:0:
384,176,22782,1,2,1:0:0:0:
388,188,23127,6,0,L|366:348,1,150,8|0,0:1|0:0,0:0:0:0:
276,352,23471,6,0,P|204:320|128:324,1,150,8|8,0:0|0:0,0:0:0:0:
40,84,23989,1,8,0:0:0:0:
132,128,24161,2,0,P|208:128|264:76,1,150,8|8,0:0|0:0,0:0:0:0:
424,296,24678,1,8,0:0:0:0:
340,344,24851,6,0,P|268:308|192:304,1,150,8|8,0:0|0:0,0:0:0:0:
76,180,25368,1,8,0:0:0:0:
76,180,25454,1,0,0:0:0:0:
76,180,25541,2,0,P|160:176|216:132,1,150,8|0,0:1|0:0,0:0:0:0:
264,64,25885,2,0,L|256:24,2,25,8|8|8,0:1|0:1|0:1,0:0:0:0:
340,108,26058,2,0,L|332:160,1,50,8|8,0:1|0:1,0:0:0:0:
424,64,26230,6,0,P|452:128|452:208,1,150,4|2,0:0|0:0,0:0:0:0:
404,268,26575,1,8,0:0:0:0:
464,352,26747,1,2,0:0:0:0:
300,244,26920,2,0,P|228:216|156:220,1,150,8|2,0:1|0:0,0:0:0:0:
84,256,27265,1,8,0:0:0:0:
160,104,27437,1,2,0:0:0:0:
324,168,27609,6,0,P|398:171|467:143,1,150,8|10,0:0|0:0,0:0:0:0:
512,76,27954,1,8,0:0:0:0:
372,28,28127,1,10,0:0:0:0:
372,28,28213,1,0,0:0:0:0:
372,28,28299,2,0,L|388:128,1,100,8|8,0:1|0:1,0:0:0:0:
380,152,28558,1,8,0:1:0:0:
372,176,28644,2,0,L|388:284,1,100,8|2,0:0|0:1,0:0:0:0:
376,300,28903,1,2,0:1:0:0:
364,324,28988,6,0,P|288:315|208:312,1,150,12|10,0:0|0:0,0:0:0:0:
144,272,29334,1,8,0:1:0:0:
64,348,29506,1,10,0:0:0:0:
144,272,29678,2,0,P|144:188|120:128,1,150,10|10,0:0|0:0,0:0:0:0:
40,64,30023,2,0,L|148:32,1,100,8|2,0:1|0:0,0:0:0:0:
256,124,30368,6,0,P|328:120|400:80,1,150,10|10,0:0|0:0,0:0:0:0:
444,24,30712,1,8,0:1:0:0:
512,136,30885,1,8,0:1:0:0:
512,136,30971,1,0,0:0:0:0:
512,136,31057,1,8,0:0:0:0:
380,212,31229,1,2,0:0:0:0:
380,212,31316,2,0,L|396:266,1,50,8|8,0:1|0:1,0:0:0:0:
312,280,31489,1,2,0:0:0:0:
312,280,31576,2,0,L|328:334,1,50,2|0,0:0|0:0,0:0:0:0:
240,336,31747,6,0,P|164:316|84:300,1,150,4|10,0:0|0:0,0:0:0:0:
16,324,32092,1,8,0:1:0:0:
104,216,32265,1,10,0:0:0:0:
0,128,32437,2,0,P|76:112|152:88,1,150,10|2,0:0|0:0,0:0:0:0:
220,52,32782,1,8,0:1:0:0:
328,120,32954,5,2,0:0:0:0:
328,120,33040,1,0,0:0:0:0:
328,120,33126,1,8,0:0:0:0:
268,240,33298,1,0,0:0:0:0:
268,240,33385,2,0,L|252:294,1,50,10|8,0:0|0:0,0:0:0:0:
336,308,33558,1,0,0:0:0:0:
336,308,33645,2,0,L|320:362,1,50,10|8,0:0|0:1,0:0:0:0:
416,348,33816,2,0,L|440:248,1,100,8|8,0:0|0:1,0:0:0:0:
444,228,34075,1,8,0:1:0:0:
452,204,34161,1,12,0:0:0:0:
128,204,34506,6,0,P|232:212|308:140,1,200,4|8,0:0|0:1,0:0:0:0:
228,44,35023,1,8,0:0:0:0:
204,68,35109,1,8,0:0:0:0:
176,92,35196,2,0,P|127:79|80:64,1,100,2|8,0:0|0:0,0:0:0:0:
220,192,35540,1,8,0:0:0:0:
336,72,35713,1,2,0:0:0:0:
300,152,35885,5,10,0:0:0:0:
228,44,36058,1,0,0:0:0:0:
228,44,36144,1,10,0:0:0:0:
228,44,36230,1,8,0:0:0:0:
140,144,36403,1,10,0:0:0:0:
28,52,36575,2,0,P|20:100|36:160,1,100,10|0,0:0|0:0,0:0:0:0:
96,344,36920,2,0,P|106:290|96:236,1,100,8|0,0:1|0:0,0:0:0:0:
224,348,37265,6,0,P|271:333|336:320,1,100,4|2,0:0|0:0,0:0:0:0:
436,176,37609,1,8,0:0:0:0:
420,276,37782,1,10,0:0:0:0:
304,116,37954,1,8,0:0:0:0:
312,112,38040,1,0,0:0:0:0:
320,108,38127,1,2,0:0:0:0:
224,192,38299,1,8,0:0:0:0:
260,40,38471,1,10,0:0:0:0:
152,112,38644,6,0,P|101:100|48:84,1,100,10|0,0:0|0:0,0:0:0:0:
28,64,38903,1,10,0:0:0:0:
8,36,38989,1,8,0:1:0:0:
80,180,39161,1,10,0:0:0:0:
172,36,39334,1,8,0:1:0:0:
84,84,39506,1,0,1:0:0:0:
84,84,39592,1,0,1:0:0:0:
84,84,39678,1,8,1:2:0:0:
320,260,40023,6,0,P|416:260|476:172,1,200,10|8,0:0|0:1,0:0:0:0:
364,152,40540,1,10,0:0:0:0:
320,260,40713,2,0,P|328:305|336:364,1,100,8|2,0:0|0:0,0:0:0:0:
236,192,41058,1,8,0:1:0:0:
236,192,41144,1,0,0:0:0:0:
236,192,41230,1,10,0:0:0:0:
176,284,41403,6,0,P|128:272|68:260,1,100,10|0,0:0|0:0,0:0:0:0:
44,260,41661,1,10,0:0:0:0:
8,268,41747,1,8,0:1:0:0:
84,116,41920,1,10,0:0:0:0:
236,168,42092,1,10,0:0:0:0:
228,172,42178,1,8,0:1:0:0:
220,176,42265,1,8,0:1:0:0:
232,64,42437,1,2,0:1:0:0:
288,256,42609,1,0,0:0:0:0:
424,168,42782,6,0,P|488:104|472:-8,1,200,4|8,0:0|0:1,0:0:0:0:
328,148,43299,1,10,0:0:0:0:
392,280,43471,2,0,P|443:264|504:244,1,100,8|2,0:0|0:0,0:0:0:0:
244,220,43816,1,8,0:1:0:0:
328,148,43989,1,10,0:0:0:0:
304,344,44161,6,0,L|124:324,1,150,12|0,0:0|0:0,0:0:0:0:
72,316,44506,1,8,0:1:0:0:
136,192,44678,1,12,0:0:0:0:
8,88,44851,2,0,L|28:196,1,100,8|0,0:3|1:0,0:0:0:0:
32,220,45109,1,0,1:0:0:0:
40,256,45196,1,8,0:3:0:0:
280,115,45540,6,0,P|366:70|462:90,1,200,4|8,0:0|0:1,0:0:0:0:
292,280,46058,1,10,0:0:0:0:
220,200,46230,2,0,P|176:184|116:180,1,100,8|2,0:0|0:0,0:0:0:0:
88,184,46489,1,0,0:0:0:0:
56,196,46575,1,8,0:1:0:0:
116,72,46747,1,10,0:0:0:0:
216,104,46920,6,0,P|268:96|324:64,1,100,8|2,0:0|0:0,0:0:0:0:
336,52,47178,1,8,0:0:0:0:
356,24,47265,1,0,0:1:0:0:
460,96,47437,1,10,0:0:0:0:
460,96,47609,2,0,P|472:144|480:200,1,100,8|2,0:0|0:0,0:0:0:0:
452,304,47954,1,2,0:1:0:0:
344,232,48127,1,0,0:0:0:0:
252,320,48299,6,0,P|202:307|148:300,1,100,4|2,0:0|0:0,0:0:0:0:
60,248,48644,1,8,0:1:0:0:
260,140,48816,1,10,0:0:0:0:
144,112,48989,2,0,P|149:162|156:220,1,100,8|2,0:0|0:0,0:0:0:0:
284,308,49334,2,0,L|300:252,2,50,8|0|10,0:1|0:0|0:0,0:0:0:0:
252,136,49678,6,0,L|356:152,1,100,8|2,0:0|0:0,0:0:0:0:
384,156,49937,1,8,0:0:0:0:
420,164,50023,1,8,0:1:0:0:
240,232,50196,1,10,0:0:0:0:
272,44,50368,1,8,0:3:0:0:
312,148,50540,1,0,1:0:0:0:
312,148,50627,1,0,1:0:0:0:
312,148,50713,1,8,0:3:0:0:
84,360,51058,6,0,P|28:288|32:180,1,200,12|8,0:0|0:1,0:0:0:0:
148,136,51575,1,10,0:0:0:0:
148,136,51661,1,0,0:0:0:0:
148,136,51747,2,0,P|144:80|132:32,1,100,8|2,0:0|0:0,0:0:0:0:
32,80,52092,1,8,0:1:0:0:
134,222,52265,1,10,0:0:0:0:
270,112,52437,6,0,P|262:164|267:218,1,100,10|0,0:0|0:0,0:0:0:0:
275,247,52696,1,10,0:0:0:0:
288,282,52782,1,8,0:1:0:0:
372,224,52954,1,10,0:0:0:0:
188,288,53127,1,10,0:0:0:0:
180,276,53471,2,0,P|187:329|196:376,1,100,2|0,0:1|0:0,0:0:0:0:
376,212,53816,6,0,P|368:158|360:112,1,100,12|2,0:0|0:0,0:0:0:0:
344,12,54161,1,8,0:1:0:0:
232,136,54334,1,10,0:0:0:0:
376,212,54506,2,0,P|424:200|492:188,1,100,8|2,0:0|0:0,0:0:0:0:
356,328,54851,1,8,0:1:0:0:
360,344,54937,1,0,0:0:0:0:
364,356,55023,1,10,0:0:0:0:
276,256,55196,6,0,P|225:244|172:236,1,100,12|2,0:0|0:0,0:0:0:0:
144,236,55454,1,8,0:0:0:0:
108,240,55540,1,8,0:1:0:0:
208,144,55713,1,12,0:0:0:0:
20,88,55885,1,8,0:3:0:0:
116,32,56058,1,2,0:0:0:0:
116,32,56144,1,2,0:0:0:0:
116,32,56230,2,0,P|118:82|120:140,1,100,2|2,0:1|0:0,0:0:0:0:
104,164,56489,1,2,0:0:0:0:
88,196,56575,6,0,P|80:264|132:324,1,150,2|2,1:0|1:2,0:0:0:0:
224,328,56920,2,0,P|264:300|280:248,1,100,0|2,1:2|1:0,0:0:0:0:
224,60,57265,1,0,1:0:0:0:
284,156,57437,1,2,1:0:0:0:
400,116,57609,1,8,1:2:0:0:
440,232,57782,1,2,1:0:0:0:
360,344,57954,6,0,P|320:300|312:256,1,100,2|0,0:0|0:0,0:0:0:0:
320,184,58213,1,2,0:0:0:0:
368,120,58299,2,0,P|423:97|467:104,1,100,8|2,0:2|0:0,0:0:0:0:
492,268,58644,1,2,0:0:0:0:
360,344,58816,1,0,0:0:0:0:
360,344,58903,1,2,0:0:0:0:
360,344,58989,2,0,L|224:328,1,100,8|0,0:3|2:0,0:0:0:0:
64,288,59334,6,0,P|156:284|200:216,1,150,8|2,0:2|0:0,0:0:0:0:
212,160,59678,2,0,P|200:108|160:68,1,100,0|8,0:1|0:2,0:0:0:0:
32,48,60023,1,2,0:0:0:0:
112,160,60196,1,2,0:0:0:0:
48,284,60368,1,8,0:2:0:0:
164,360,60540,1,2,0:0:0:0:
200,252,60713,6,0,P|244:212|288:204,1,100,2|0,0:0|0:0,0:0:0:0:
360,216,60972,1,2,0:0:0:0:
423,260,61058,2,0,P|446:315|439:359,1,100,8|2,0:2|0:0,0:0:0:0:
496,184,61403,2,0,P|472:129|480:85,1,100,2|2,0:1|0:0,0:0:0:0:
492,52,61661,1,0,0:0:0:0:
492,52,61747,2,0,L|384:64,1,100,8|0,0:3|2:0,0:0:0:0:
256,179,62092,6,0,P|260:128|236:84,1,100,12|0,0:2|0:0,0:0:0:0:
192,264,62437,2,0,P|188:315|212:359,1,100,8|2,0:2|0:0,0:0:0:0:
348,376,62782,1,8,0:1:0:0:
460,292,62954,1,2,0:0:0:0:
476,152,63127,1,8,0:2:0:0:
368,64,63299,1,2,0:0:0:0:
220,52,63471,6,0,P|184:88|180:148,1,100,8|0,0:2|0:0,0:0:0:0:
196,208,63730,1,2,0:0:0:0:
196,284,63816,2,0,P|187:332|152:366,1,100,8|2,0:2|0:0,0:0:0:0:
16,300,64161,1,8,0:1:0:0:
196,208,64334,1,0,0:2:0:0:
72,112,64506,2,0,L|88:220,1,100,8|0,0:3|2:0,0:0:0:0:
204,252,64851,5,8,0:2:0:0:
292,188,65023,1,8,0:2:0:0:
120,192,65196,1,8,0:2:0:0:
376,248,65368,1,8,0:2:0:0:
204,148,65540,5,8,0:2:0:0:
292,292,65713,1,8,0:2:0:0:
284,92,65885,1,8,0:2:0:0:
212,348,66058,1,8,0:2:0:0:
248,220,66230,5,8,0:2:0:0:
245,195,66316,1,8,0:2:0:0:
242,170,66402,1,8,0:2:0:0:
239,145,66488,1,8,0:2:0:0:
236,120,66574,1,8,0:2:0:0:
176,276,66747,1,8,0:2:0:0:
340,220,66920,1,8,0:1:0:0:
236,120,67092,1,2,0:0:0:0:
236,120,67178,1,2,0:0:0:0:
236,120,67265,2,0,L|248:220,1,100,8|2,0:2|2:1,0:0:0:0:
264,352,67609,6,0,P|184:312|72:320,1,200,12|0,0:0|0:0,0:0:0:0:
0,236,68127,1,2,0:0:0:0:
75,318,68299,2,0,P|115:234|115:174,1,150,2|0,0:0|0:0,0:0:0:0:
84,92,68644,1,2,0:0:0:0:
200,140,68816,1,8,0:0:0:0:
244,32,68989,6,0,P|292:44|344:48,1,100,10|0,0:0|0:0,0:0:0:0:
376,40,69247,1,10,0:0:0:0:
408,28,69334,1,0,0:0:0:0:
500,100,69506,1,10,0:0:0:0:
500,100,69678,2,0,P|508:176|512:252,1,150,10|0,0:0|0:0,0:0:0:0:
452,308,70023,1,2,0:1:0:0:
332,224,70196,1,2,0:0:0:0:
240,344,70368,6,0,P|285:329|352:316,1,100,12|2,0:0|0:0,0:0:0:0:
452,308,70713,1,8,0:1:0:0:
316,196,70885,1,10,0:0:0:0:
180,272,71058,2,0,P|134:257|68:244,1,100,8|2,0:0|0:0,0:0:0:0:
4,140,71403,1,8,0:1:0:0:
36,136,71489,1,0,0:0:0:0:
68,124,71575,1,10,0:0:0:0:
192,24,71747,6,0,P|172:72|176:124,1,100,8|2,0:0|0:0,0:0:0:0:
188,152,72006,1,8,0:0:0:0:
216,176,72092,1,8,0:1:0:0:
308,152,72265,1,10,0:0:0:0:
164,272,72437,1,8,0:1:0:0:
328,372,72609,1,0,1:0:0:0:
328,372,72696,1,0,1:0:0:0:
328,372,72782,2,0,P|348:324|344:272,1,100,8|0,0:3|0:0,0:0:0:0:
280,132,73127,6,0,P|364:120|408:72,1,150,4|2,0:0|0:0,0:0:0:0:
480,116,73471,2,0,P|488:176|492:216,1,100,8|2,0:0|0:0,0:0:0:0:
368,348,73816,2,0,P|360:288|356:248,1,100,8|2,0:0|0:0,0:0:0:0:
348,208,74075,1,2,0:0:0:0:
344,172,74161,1,8,0:0:0:0:
328,68,74334,1,2,0:0:0:0:
432,196,74506,5,4,0:0:0:0:
164,342,74765,1,4,0:0:0:0:
171,37,75024,1,4,0:0:0:0:
256,192,75196,1,4,0:0:0:0:
252,176,75540,6,0,P|257:228|260:280,1,100,2|0,0:1|0:0,0:0:0:0:
164,342,75885,6,0,P|108:336|56:324,1,100,12|2,0:0|0:0,0:0:0:0:
0,248,76230,1,8,0:1:0:0:
68,160,76403,1,10,0:0:0:0:
160,212,76575,2,0,P|208:201|258:196,1,100,8|2,0:0|0:0,0:0:0:0:
324,80,76920,1,8,0:1:0:0:
368,276,77092,1,10,0:0:0:0:
512,172,77265,6,0,P|424:172|352:136,1,150,12|12,0:0|0:0,0:0:0:0:
324,80,77609,1,8,0:1:0:0:
250,212,77782,1,12,0:0:0:0:
124,132,77954,2,0,P|125:185|132:248,1,100,12|0,0:0|1:0,0:0:0:0:
136,268,78213,1,0,1:0:0:0:
144,300,78299,1,8,0:3:0:0:
144,308,78644,6,0,P|89:312|16:324,1,100,8|2,0:1|0:0,0:0:0:0:
260,238,78989,2,0,P|314:233|388:222,1,100,8|2,0:1|0:0,0:0:0:0:
164,96,79334,1,8,0:1:0:0:
120,192,79506,1,2,0:0:0:0:
280,344,79678,1,8,0:1:0:0:
260,238,79850,1,2,0:0:0:0:
168,304,80023,5,8,0:1:0:0:
164,96,80196,1,2,0:0:0:0:
80,256,80368,1,8,0:1:0:0:
256,136,80540,1,2,0:0:0:0:
68,92,80713,1,8,0:1:0:0:
216,232,80885,1,0,1:0:0:0:
264,32,81058,1,2,1:1:0:0:
268,48,81403,6,0,P|220:40|154:27,1,100,8|2,0:1|0:0,0:0:0:0:
276,160,81747,2,0,P|323:152|390:139,1,100,8|2,0:1|0:0,0:0:0:0:
236,268,82092,1,8,0:1:0:0:
132,228,82265,1,2,0:0:0:0:
208,360,82437,1,8,0:1:0:0:
344,288,82609,1,2,0:0:0:0:
140,308,82782,5,8,0:1:0:0:
276,160,82954,1,2,0:0:0:0:
236,268,83127,1,8,0:1:0:0:
200,84,83299,1,2,0:0:0:0:
360,248,83471,1,8,0:1:0:0:
172,196,83644,1,0,1:0:0:0:
384,120,83816,1,2,1:1:0:0:
376,108,84161,5,8,0:1:0:0:
426,211,84334,1,8,0:1:0:0:
242,252,84506,1,8,0:1:0:0:
244,149,84678,1,8,0:1:0:0:
327,204,84851,1,8,0:1:0:0:
224,328,85023,1,8,0:1:0:0:
136,184,85196,1,8,0:1:0:0:
120,280,85368,1,8,0:1:0:0:
244,149,85540,5,8,0:1:0:0:
72,96,85713,1,8,0:1:0:0:
140,372,85885,1,8,0:1:0:0:
228,240,86058,1,8,0:1:0:0:
120,240,86230,1,8,0:1:0:0:
268,336,86403,1,8,0:1:0:0:
292,168,86575,1,8,0:1:0:0:
180,316,86747,1,8,0:1:0:0:
204,144,86920,5,8,0:1:0:0:
218,112,87006,1,8,0:1:0:0:
244,89,87092,1,8,0:1:0:0:
276,76,87178,1,8,0:1:0:0:
312,84,87264,1,8,0:1:0:0:
348,88,87351,1,8,0:1:0:0:
384,88,87437,1,8,0:1:0:0:
416,72,87523,1,8,0:1:0:0:
436,44,87609,5,8,0:1:0:0:
468,60,87696,1,8,0:1:0:0:
488,88,87782,1,8,0:1:0:0:
500,120,87868,1,8,0:1:0:0:
504,156,87954,1,8,0:1:0:0:
496,192,88040,1,8,0:1:0:0:
484,224,88127,1,8,0:1:0:0:
464,252,88213,1,8,0:1:0:0:
436,272,88299,6,0,P|383:256|308:261,1,100,2|0,0:1|0:0,0:0:0:0:
300,264,88558,1,2,0:1:0:0:
268,288,88644,1,0,0:1:0:0:
164,224,88816,1,2,0:1:0:0:
48,272,88989,2,0,L|36:156,1,100,2|0,0:1|0:0,0:0:0:0:
252,32,89334,2,0,B|260:92|260:92|252:116|252:116|260:184,1,150,8|0,0:1|0:0,0:0:0:0:
323,276,89678,6,0,B|219:252|219:252|179:268,1,150,12|8,0:0|0:0,0:0:0:0:
100,308,90023,2,0,P|48:296|-28:276,1,100,8|8,0:1|0:1,0:0:0:0:
36,136,90368,1,0,0:0:0:0:
144,172,90540,1,2,0:0:0:0:
144,172,90627,1,0,0:0:0:0:
144,172,90713,2,0,P|191:160|252:148,1,100,8|2,0:1|0:0,0:0:0:0:
444,128,91058,5,8,0:0:0:0:
336,36,91230,1,2,0:0:0:0:
336,36,91316,1,0,0:0:0:0:
336,36,91403,2,0,P|340:84|348:140,1,100,8|2,0:1|0:0,0:0:0:0:
368,344,91747,1,8,0:0:0:0:
460,240,91920,1,2,0:0:0:0:
464,248,92006,1,8,0:1:0:0:
468,256,92092,1,8,0:1:0:0:
320,204,92265,1,2,0:0:0:0:
216,312,92437,5,8,0:0:0:0:
136,240,92609,1,2,0:0:0:0:
136,240,92696,1,8,0:0:0:0:
136,240,92782,2,0,P|83:247|32:268,1,100,8|2,0:1|0:0,0:0:0:0:
92,108,93127,2,0,P|172:112|236:64,1,150,8|2,0:0|0:0,0:0:0:0:
280,136,93471,2,0,P|328:144|376:160,1,100,8|2,0:1|0:0,0:0:0:0:
456,24,93816,6,0,B|480:116|480:116|464:172,1,150,12|8,0:0|0:0,0:0:0:0:
436,252,94161,1,8,0:1:0:0:
324,200,94334,1,10,0:0:0:0:
236,320,94506,2,0,B|256:268|256:268|228:176,1,150,12|8,0:0|0:1,0:0:0:0:
204,96,94851,2,0,L|196:72,2,25,8|8|8,0:1|0:1|0:1,0:0:0:0:
120,152,95023,2,0,L|96:88,1,50,8|8,0:1|0:1,0:0:0:0:
24,148,95196,6,0,B|4:200|4:200|16:244,1,100,12|2,0:0|0:0,0:0:0:0:
28,276,95454,1,0,0:0:0:0:
40,308,95540,2,0,P|90:291|144:276,1,100,8|8,0:1|0:1,0:0:0:0:
272,340,95885,1,8,0:0:0:0:
360,232,96058,1,2,0:0:0:0:
360,232,96144,1,0,0:0:0:0:
360,232,96230,2,0,P|312:219|248:192,1,100,8|2,0:1|0:0,0:0:0:0:
208,24,96575,5,8,0:0:0:0:
284,96,96747,1,2,0:0:0:0:
284,96,96834,1,0,0:0:0:0:
284,96,96920,2,0,P|338:80|384:56,1,100,8|2,0:1|0:0,0:0:0:0:
200,232,97265,1,8,0:0:0:0:
80,260,97437,1,2,0:0:0:0:
80,260,97523,1,8,0:1:0:0:
80,260,97609,2,0,P|62:212|44:144,1,100,8|2,0:1|0:0,0:0:0:0:
124,68,97954,5,12,0:0:0:0:
278,118,98126,1,2,0:0:0:0:
182,148,98299,1,8,0:1:0:0:
278,18,98471,1,2,0:0:0:0:
278,251,98643,5,8,0:0:0:0:
479,184,98815,1,2,0:0:0:0:
278,118,98988,1,8,0:1:0:0:
403,289,99160,1,2,0:0:0:0:
364,184,99333,6,0,P|296:156|212:164,1,150,12|8,0:0|0:0,0:0:0:0:
136,188,99678,1,8,0:1:0:0:
152,100,99851,1,10,0:0:0:0:
204,248,100023,1,8,0:1:0:0:
32,352,100196,1,2,0:1:0:0:
72,256,100368,1,8,0:0:0:0:
240,348,100540,1,2,0:1:0:0:
324,264,100713,6,0,B|220:240|220:240|180:256,1,150,12|8,0:0|0:0,0:0:0:0:
100,308,101058,2,0,P|50:295|-28:272,1,100,8|8,0:1|0:1,0:0:0:0:
100,88,101403,1,8,0:0:0:0:
120,200,101575,1,2,0:0:0:0:
120,200,101662,1,0,0:0:0:0:
120,200,101747,2,0,P|70:187|-8:164,1,100,8|2,0:1|0:0,0:0:0:0:
216,52,102093,5,8,0:0:0:0:
236,184,102265,2,0,L|248:132,1,50,2|0,0:1|0:0,0:0:0:0:
324,88,102437,2,0,B|337:128|337:128|324:196,1,100,8|2,0:1|0:1,0:0:0:0:
284,336,102782,1,8,0:0:0:0:
144,216,102954,2,0,L|200:216,1,50,2|8,0:1|0:1,0:1:0:0:
152,300,103127,2,0,B|104:300|104:300|60:268,1,100,8|2,0:1|0:1,0:0:0:0:
12,132,103471,5,12,0:0:0:0:
128,72,103643,1,2,0:0:0:0:
128,72,103730,1,8,0:0:0:0:
128,72,103816,2,0,P|140:120|132:172,1,100,8|8,0:1|0:1,0:0:0:0:
48,360,104161,2,0,P|108:328|208:348,1,150,8|2,0:0|0:0,0:0:0:0:
280,360,104505,2,0,P|331:350|388:336,1,100,8|2,0:1|0:0,0:0:0:0:
484,200,104850,6,0,B|392:224|392:224|336:208,1,150,12|8,0:0|0:0,0:0:0:0:
296,120,105196,1,8,0:1:0:0:
216,264,105368,1,10,0:0:0:0:
28,184,105540,2,0,B|120:160|120:160|176:176,1,150,12|8,0:0|0:1,0:0:0:0:
272,200,105885,2,0,L|284:240,2,25,8|8|8,0:1|0:1|0:1,0:0:0:0:
360,152,106057,2,0,L|380:204,1,50,8|8,0:1|0:1,0:0:0:0:
468,80,106230,6,0,B|448:132|448:132|464:176,1,100,12|2,0:0|0:0,0:0:0:0:
472,207,106488,1,8,0:0:0:0:
480,239,106574,2,0,P|464:287|440:339,1,100,8|8,0:1|0:1,0:0:0:0:
288,328,106919,1,8,0:0:0:0:
328,200,107092,1,2,0:0:0:0:
328,200,107178,1,0,0:0:0:0:
328,200,107264,2,0,P|316:148|300:96,1,100,8|0,0:1|0:0,0:0:0:0:
188,220,107609,5,8,0:1:0:0:
140,56,107782,2,0,L|196:56,1,50,2|0,0:1|0:0,0:0:0:0:
160,140,107954,2,8,B|112:140|112:140|64:112,1,100,8|10,0:1|0:1,0:1:0:0:
28,304,108299,1,8,0:0:0:0:
164,248,108471,2,0,L|108:248,1,50,2|8,0:1|0:1,0:0:0:0:
144,332,108643,2,8,B|192:332|192:332|240:304,1,100,8|2,0:1|0:1,0:1:0:0:
384,128,108989,5,12,0:0:0:0:
236,192,109162,1,2,0:0:0:0:
292,108,109335,1,8,0:1:0:0:
400,224,109506,1,2,0:0:0:0:
472,160,109679,5,8,0:0:0:0:
336,288,109851,1,2,0:0:0:0:
292,108,110023,1,8,0:1:0:0:
336,288,110195,1,2,0:0:0:0:
493,201,110368,6,0,B|405:169|405:169|333:197,1,150,12|8,0:0|0:0,0:0:0:0:
208,160,110712,2,0,L|308:120,1,100,8|10,0:1|0:0,0:0:0:0:
223,354,111058,5,8,0:1:0:0:
98,204,111230,1,2,0:1:0:0:
286,252,111403,1,8,0:1:0:0:
105,325,111575,1,2,0:1:0:0:
3,147,111747,6,0,B|56:132|56:132|96:136|96:136|156:120,1,150,8|8,0:0|0:0,0:0:0:0:
332,8,112265,1,8,0:0:0:0:
332,8,112351,1,0,0:0:0:0:
332,8,112437,2,0,B|364:88|364:88|356:156,1,150,8|8,0:1|0:0,0:0:0:0:
208,336,112954,2,0,L|144:348,1,50,8|0,0:1|0:0,0:0:0:0:
100,252,113127,6,0,L|-24:228,1,100,12|2,0:0|0:0,0:0:0:0:
180,144,113471,1,8,0:1:0:0:
224,240,113644,1,8,0:1:0:0:
48,124,113816,1,8,0:0:0:0:
132,56,113989,1,2,0:0:0:0:
132,56,114075,1,8,0:1:0:0:
132,56,114161,1,8,0:1:0:0:
180,144,114334,1,2,0:0:0:0:
276,56,114506,6,0,B|336:72|376:36|376:36|416:52,1,150,8|8,0:0|0:0,0:0:0:0:
356,348,115023,1,8,0:0:0:0:
287,275,115196,2,0,B|239:239|183:267|183:267|143:243,1,150,8|8,0:1|0:0,0:0:0:0:
36,88,115713,6,0,P|88:76|140:64,1,100,8|12,0:0|0:0,0:0:0:0:
304,32,116058,1,2,0:0:0:0:
304,32,116144,1,8,0:1:0:0:
304,32,116230,1,8,0:1:0:0:
280,204,116403,1,10,0:0:0:0:
208,132,116575,1,8,0:0:0:0:
376,100,116747,2,0,L|388:148,1,50,2|8,0:0|0:1,0:0:0:0:
292,252,116920,2,0,L|279:203,1,50,8|8,0:1|0:1,0:0:0:0:
424,280,117092,2,0,L|436:328,1,50,8|8,0:1|0:1,0:0:0:0:
308,364,117265,6,0,B|268:352|268:352|244:356|244:356|192:340,1,112.500004291535,2|8,0:0|0:0,0:0:0:0:
112,304,117609,6,0,P|168:288|208:256,1,100,12|8,0:0|0:1,0:0:0:0:
320,60,117954,1,8,0:0:0:0:
284,176,118127,1,2,0:0:0:0:
464,144,118299,1,8,0:1:0:0:
304,268,118471,1,2,0:0:0:0:
380,200,118644,6,0,P|396:252|396:304,1,100,8|2,0:0|0:0,0:0:0:0:
152,376,118989,2,0,P|136:324|136:272,1,100,8|8,0:1|0:1,0:0:0:0:
232,104,119334,1,8,0:0:0:0:
128,172,119506,1,2,0:0:0:0:
128,172,119592,1,8,0:1:0:0:
128,172,119678,2,0,P|72:164|12:148,1,100,8|2,0:1|0:0,0:0:0:0:
232,104,120023,6,0,P|223:71|216:16,2,66.6666666666667,10|2|2,0:0|0:0|0:0,0:0:0:0:
316,156,120368,2,0,P|308:188|296:220,2,66.6666666666667,8|2|2,0:1|0:0|0:0,0:0:0:0:
412,100,120713,1,8,0:0:0:0:
512,328,120885,1,2,0:0:0:0:
424,244,121058,1,8,0:1:0:0:
396,360,121230,1,2,0:0:0:0:
300,288,121403,6,0,P|232:256|148:260,1,150,8|8,0:1|0:1,0:0:0:0:
96,304,121747,2,0,P|44:292|-16:264,1,100,8|8,0:1|0:1,0:0:0:0:
24,144,122092,2,0,P|92:140|172:88,1,150,8|0,0:1|0:0,0:0:0:0:
248,4,122437,6,0,P|256:84|268:176,1,150.000005722046,12|4,0:1|0:0,0:0:0:0:
452,226,125196,6,0,P|405:234|348:242,1,100,2|0,0:1|0:0,0:0:0:0:
268,344,125540,6,0,P|176:300|76:312,1,200,8|8,0:0|0:1,0:0:0:0:
32,132,126058,1,8,0:0:0:0:
4,232,126230,2,0,P|55:224|108:200,1,100,10|2,0:0|0:0,0:0:0:0:
172,124,126575,1,8,0:1:0:0:
172,124,126661,1,0,0:0:0:0:
172,124,126747,1,10,0:0:0:0:
296,264,126920,6,0,P|268:220|272:156,1,100,10|0,0:0|0:0,0:0:0:0:
284,100,127178,1,10,0:0:0:0:
340,48,127265,2,0,P|388:28|450:43,1,100,8|10,0:1|0:0,0:0:0:0:
464,196,127609,1,8,0:0:0:0:
388,136,127782,1,2,0:1:0:0:
388,136,127868,1,2,0:1:0:0:
388,136,127954,1,0,0:0:0:0:
388,136,128299,6,0,P|404:184|404:240,1,100,10|2,0:0|0:0,0:0:0:0:
352,328,128644,1,8,0:1:0:0:
236,232,128816,1,10,0:0:0:0:
128,344,128989,2,0,P|182:330|236:316,1,100,8|2,0:0|0:0,0:0:0:0:
56,200,129334,1,8,0:1:0:0:
56,200,129420,1,0,0:0:0:0:
56,200,129506,1,10,0:0:0:0:
136,88,129678,6,0,P|184:84|248:104,1,100,10|2,0:0|0:0,0:0:0:0:
260,112,129937,1,10,0:0:0:0:
284,128,130023,1,8,0:1:0:0:
488,84,130196,1,10,0:0:0:0:
381,48,130368,2,0,P|388:98|393:156,1,100,8|8,0:0|0:3,0:0:0:0:
312,332,130713,2,0,P|305:284|300:232,1,100,2|0,0:1|0:0,0:0:0:0:
328,96,131058,5,8,0:0:0:0:
436,236,131230,1,10,0:0:0:0:
188,288,131403,1,8,0:1:0:0:
224,188,131575,1,10,0:0:0:0:
300,268,131747,1,8,0:0:0:0:
208,84,131920,1,10,0:0:0:0:
60,224,132092,1,8,0:1:0:0:
60,104,132265,5,8,0:0:0:0:
84,109,132351,1,8,0:0:0:0:
108,114,132437,1,8,0:0:0:0:
133,119,132523,1,8,0:0:0:0:
157,124,132609,1,8,0:0:0:0:
182,129,132696,1,8,0:0:0:0:
204,132,132782,6,0,L|264:116,1,50,8|0,0:1|0:0,0:0:0:0:
352,72,132954,2,0,L|412:96,1,50,8|0,0:0|0:0,0:0:0:0:
304,276,133127,2,0,L|244:252,1,50,8|0,0:0|0:0,0:0:0:0:
412,216,133299,1,2,0:1:0:0:
432,208,133385,1,2,0:1:0:0:
452,200,133471,1,8,0:3:0:0:
460,208,133816,6,0,P|464:284|432:372,1,150.000005722046,2|0,0:0|0:0,0:0:0:0:
352,368,134334,1,2,0:0:0:0:
256,352,134506,2,0,P|200:328|120:328,1,112.500004291535,2|2,0:0|0:0,0:0:0:0:
104,336,134851,1,0,0:0:0:0:
164,224,135023,1,2,0:0:0:0:
32,144,135196,5,2,1:1:0:0:
168,56,135368,1,0,1:1:0:0:
156,84,135454,1,2,1:1:0:0:
144,112,135540,1,0,1:1:0:0:
64,44,135713,1,2,1:1:0:0:
256,116,135885,1,2,1:1:0:0:
256,116,136230,2,0,L|260:144,1,18.7500007152558,0|0,0:0|1:0,0:0:0:0:
124,293,136575,6,0,P|75:294|36:324,1,100,8|0,0:1|0:0,0:0:0:0:
208,240,136920,2,0,P|244:268|312:264,1,100,8|0,0:1|0:0,0:0:0:0:
440,344,137265,2,0,P|408:288|408:248,1,100,8|0,0:1|0:0,0:0:0:0:
428,104,137609,2,0,P|392:140|344:152,1,100,8|8,0:1|0:0,0:0:0:0:
144,112,137954,5,8,0:1:0:0:
226,38,138126,1,0,0:0:0:0:
226,38,138212,1,0,0:0:0:0:
226,38,138298,1,8,0:1:0:0:
268,255,138471,1,8,0:0:0:0:
164,219,138644,1,8,0:1:0:0:
330,74,138816,1,2,0:1:0:0:
246,147,138989,1,2,0:1:0:0:
256,152,139334,5,8,0:1:0:0:
168,256,139506,1,8,0:1:0:0:
336,344,139678,1,8,0:1:0:0:
300,244,139851,1,8,0:1:0:0:
228,332,140023,1,8,0:1:0:0:
384,184,140196,1,8,0:1:0:0:
428,288,140368,1,8,0:1:0:0:
268,152,140540,1,8,0:1:0:0:
416,72,140713,5,8,0:1:0:0:
320,252,140885,1,8,0:1:0:0:
132,192,141058,1,8,0:1:0:0:
168,68,141230,1,8,0:1:0:0:
236,160,141403,1,8,0:1:0:0:
52,100,141575,1,8,0:1:0:0:
76,264,141747,1,8,0:1:0:0:
160,140,141920,1,8,0:1:0:0:
232,264,142092,6,0,L|276:292,3,50,8|8|8|8,0:1|0:1|0:1|0:1,0:0:0:0:
352,240,142437,2,0,L|400:268,3,50,8|8|8|8,0:1|0:1|0:1|0:1,0:1:0:0:
488,156,142782,5,8,0:1:0:0:
448,168,142868,1,8,0:1:0:0:
408,164,142954,1,8,0:1:0:0:
372,148,143040,1,8,0:1:0:0:
340,120,143127,1,8,0:1:0:0:
308,96,143213,1,8,0:1:0:0:
268,88,143299,1,8,0:1:0:0:
228,92,143385,1,8,0:1:0:0:
256,192,143471,12,0,144506,1:0:0:0:
96,296,144851,6,0,B|180:264|180:264|256:288,1,150,12|10,0:0|0:0,0:0:0:0:
316,308,145196,2,0,P|363:289|416:264,1,100,8|10,0:0|0:0,0:0:0:0:
456,72,145540,1,8,0:1:0:0:
396,176,145713,1,10,0:0:0:0:
296,108,145885,1,8,0:0:0:0:
240,216,146058,1,2,0:0:0:0:
0,148,146230,6,0,P|64:120|144:132,1,150,10|10,0:0|0:0,0:0:0:0:
213,165,146575,2,0,P|265:153|309:121,1,100,8|10,0:0|0:0,0:0:0:0:
424,112,146920,1,8,0:1:0:0:
376,224,147092,1,10,0:0:0:0:
304,128,147265,1,8,0:0:0:0:
496,212,147437,1,2,0:0:0:0:
332,316,147609,6,0,P|257:307|176:304,1,150,8|10,0:0|0:0,0:0:0:0:
32,268,147954,2,0,P|80:256|128:236,1,100,8|10,0:0|0:0,0:0:0:0:
84,52,148299,1,8,0:1:0:0:
56,164,148471,1,10,0:0:0:0:
252,272,148644,1,8,0:0:0:0:
212,168,148816,1,2,0:0:0:0:
32,312,148989,6,0,P|96:296|176:316,1,150,10|8,0:0|0:1,0:0:0:0:
252,272,149334,2,0,B|296:292|296:292|356:288,1,100,8|10,0:0|0:0,0:0:0:0:
480,136,149678,1,8,0:1:0:0:
392,204,149851,1,8,0:1:0:0:
356,188,149937,1,8,0:1:0:0:
324,160,150023,1,2,0:1:0:0:
248,88,150196,5,2,0:1:0:0:
212,68,150282,1,2,0:1:0:0:
172,64,150368,2,0,P|103:73|8:112,1,150,8|10,0:0|0:0,0:0:0:0:
8,176,150713,2,0,P|22:225|40:280,1,100,8|10,0:0|0:0,0:0:0:0:
100,352,151058,1,8,0:1:0:0:
236,264,151230,1,10,0:0:0:0:
176,188,151403,1,8,0:0:0:0:
136,276,151575,1,2,0:0:0:0:
304,332,151747,6,0,P|376:312|456:296,1,150,10|10,0:0|0:0,0:0:0:0:
472,216,152092,2,0,P|420:200|368:192,1,100,8|10,0:0|0:0,0:0:0:0:
252,228,152437,1,8,0:1:0:0:
372,88,152609,1,10,0:0:0:0:
200,60,152782,1,8,0:0:0:0:
272,140,152954,1,2,0:0:0:0:
96,128,153127,6,0,P|106:204|124:304,1,150,10|8,0:0|0:1,0:0:0:0:
168,348,153471,2,0,L|280:320,1,100,8|10,0:1|0:0,0:0:0:0:
336,288,153730,1,0,0:0:0:0:
336,288,153816,2,0,L|444:308,1,100,8|10,0:1|0:0,0:0:0:0:
408,96,154161,1,8,0:0:0:0:
408,200,154334,5,2,0:0:0:0:
408,200,154420,1,2,0:0:0:0:
408,200,154506,2,0,B|376:168|336:180|336:180|300:192|268:160,2,150.000005722046,0|0|0,1:1|1:1|1:1,0:0:0:0:
360,320,155368,5,2,1:1:0:0:
337,312,155454,1,2,1:1:0:0:
314,304,155540,1,2,1:1:0:0:
291,297,155626,1,2,1:1:0:0:
268,289,155712,1,2,1:1:0:0:
246,282,155799,1,2,1:1:0:0:
224,276,155885,6,0,P|152:289|76:308,1,150,4|2,0:2|0:0,0:0:0:0:
32,320,156230,2,0,P|20:268|12:216,1,100,0|8,0:0|0:2,0:0:0:0:
44,100,156575,1,0,0:0:0:0:
208,56,156747,1,2,0:0:0:0:
316,188,156920,1,8,0:2:0:0:
204,316,157092,1,2,0:0:0:0:
68,200,157265,6,0,P|128:172|164:172,1,100,2|0,0:0|0:0,0:0:0:0:
240,180,157523,1,2,0:0:0:0:
316,188,157609,2,0,P|365:183|408:159,1,100,8|2,0:0|0:0,0:0:0:0:
464,324,157954,2,0,P|408:296|312:288,1,150,2|2,0:0|0:0,0:0:0:0:
240,296,158299,2,0,P|192:316|140:348,1,100,8|2,0:2|0:0,0:0:0:0:
12,224,158644,6,0,P|64:232|152:180,1,150,2|2,0:0|0:0,0:0:0:0:
212,128,158989,2,0,L|184:0,1,100,0|8,0:0|0:2,0:0:0:0:
276,248,159334,1,0,0:0:0:0:
387,105,159506,1,2,0:0:0:0:
366,208,159678,1,8,0:2:0:0:
296,48,159851,1,2,0:0:0:0:
387,105,160023,6,0,P|436:128|460:192,1,100,2|0,0:0|0:0,0:0:0:0:
468,244,160282,1,2,0:0:0:0:
440,316,160368,2,0,P|401:354|333:354,1,100,8|2,0:2|0:0,0:0:0:0:
216,224,160713,1,0,0:0:0:0:
216,224,160799,1,0,0:0:0:0:
216,224,160885,1,0,0:0:0:0:
216,224,160971,1,0,0:0:0:0:
216,224,161058,1,2,0:0:0:0:
196,264,161144,1,2,0:0:0:0:
160,288,161230,1,2,0:0:0:0:
116,296,161316,1,2,0:0:0:0:
72,284,161403,6,0,P|40:212|44:132,1,150,12|2,0:2|0:0,0:0:0:0:
92,72,161747,2,0,P|144:92|192:104,1,100,8|2,0:2|0:0,0:0:0:0:
384,48,162092,6,0,P|360:100|360:152,1,100,8|2,0:2|0:0,0:0:0:0:
396,224,162351,2,0,P|393:274|373:326,1,100,8|2,0:2|0:0,0:0:0:0:
304,368,162609,1,8,0:2:0:0:
92,312,162782,6,0,P|148:300|180:264,1,100,8|0,0:2|0:0,0:0:0:0:
208,204,163040,1,2,0:0:0:0:
216,128,163127,2,0,P|185:79|140:61,1,100,8|2,0:2|0:0,0:0:0:0:
24,200,163471,6,0,P|68:172|132:164,1,100,8|2,0:2|0:0,0:0:0:0:
208,204,163730,2,0,P|252:224|312:220,1,100,8|2,0:2|0:0,0:0:0:0:
384,184,163989,1,8,0:2:0:0:
440,340,164161,6,0,P|388:332|312:316,1,100,8|8,0:2|0:2,0:0:0:0:
64,284,164506,1,8,0:2:0:0:
160,348,164678,1,8,0:2:0:0:
180,320,164765,1,8,0:2:0:0:
188,288,164851,1,8,0:1:0:0:
188,252,164937,1,8,0:2:0:0:
172,220,165023,1,8,0:2:0:0:
144,196,165109,1,8,0:2:0:0:
124,164,165196,1,8,0:2:0:0:
116,132,165282,1,8,0:2:0:0:
120,96,165368,1,8,0:2:0:0:
140,68,165454,1,8,0:2:0:0:
168,48,165540,1,8,0:2:0:0:
256,192,165627,12,4,166920,0:0:0:0:
380,328,172437,6,0,P|420:315|468:296,1,85.0000016212464,8|2,0:3|0:0,0:0:0:0:
496,176,172782,2,0,P|436:160|364:116,1,127.50000243187,8|8,0:0|0:0,0:0:0:0:
340,56,173127,1,8,0:3:0:0:
264,156,173299,1,10,0:0:0:0:
152,96,173471,2,0,P|157:137|168:188,1,85.0000016212464,8|2,0:1|0:0,0:0:0:0:
260,268,173816,6,0,P|256:312|244:372,2,85.0000016212464,8|2|8,0:3|0:0|0:1,0:0:0:0:
356,112,174334,1,2,0:0:0:0:
356,112,174420,1,8,0:0:0:0:
356,112,174506,1,8,0:2:0:0:
468,52,174678,1,10,0:0:0:0:
372,208,174851,1,8,0:1:0:0:
224,104,175023,1,2,0:0:0:0:
256,276,175196,6,0,P|272:232|272:180,1,85.0000016212464,8|2,0:3|0:0,0:0:0:0:
120,72,175540,1,8,0:1:0:0:
164,184,175713,1,2,0:0:0:0:
164,184,175799,1,8,0:0:0:0:
164,184,175885,1,0,0:0:0:0:
56,164,176058,1,10,0:0:0:0:
156,304,176230,1,8,0:1:0:0:
300,204,176403,5,2,0:0:0:0:
300,204,176489,1,0,0:0:0:0:
300,204,176575,2,0,P|344:192|392:184,1,85.0000016212464,8|2,0:0|0:0,0:0:0:0:
408,368,176920,1,8,0:1:0:0:
276,320,177092,1,2,0:0:0:0:
276,320,177178,1,8,0:0:0:0:
276,320,177265,2,0,P|232:312|176:304,1,85.0000016212464,8|10,0:3|0:0,0:0:0:0:
44,256,177609,1,8,0:1:0:0:
96,352,177782,1,2,0:0:0:0:
200,208,177954,6,0,P|136:168|44:172,1,150,8|0,0:3|0:0,0:0:0:0:
32,176,178299,2,0,P|8:128|8:72,1,100,8|0,0:3|0:0,0:0:0:0:
136,88,178644,2,0,P|152:40|196:12,1,100,8|0,0:3|0:0,0:0:0:0:
328,72,178989,1,8,0:3:0:0:
236,188,179161,6,0,P|240:240|276:284,1,100,8|8,0:0|0:3,0:0:0:0:
416,244,179506,2,0,P|460:264|520:248,1,100,10|8,0:1|0:3,0:0:0:0:
340,160,179851,2,0,P|372:124|424:108,1,100,10|8,0:1|0:3,0:0:0:0:
156,88,180196,2,0,P|179:131|219:160,1,100,8|2,0:1|0:1,0:0:0:0:
224,280,180540,5,10,0:1:0:0:
224,280,180627,1,8,0:1:0:0:
224,280,180713,2,0,P|144:268|80:316,1,150,8|0,0:3|0:0,0:0:0:0:
12,268,181058,2,0,P|5:217|0:148,1,100,8|0,0:3|0:0,0:0:0:0:
100,36,181403,2,0,P|108:88|112:136,1,100,8|0,0:3|0:0,0:0:0:0:
292,64,181747,1,8,0:3:0:0:
332,200,181920,6,0,P|286:190|216:172,1,100,8|8,0:0|0:3,0:0:0:0:
424,56,182265,1,0,0:0:0:0:
340,128,182437,1,8,0:3:0:0:
440,168,182609,1,8,0:0:0:0:
208,160,182782,5,8,0:3:0:0:
320,256,182954,1,8,0:1:0:0:
180,308,183126,1,2,1:1:0:0:
188,316,183471,5,8,0:1:0:0:
108,240,183644,1,8,0:1:0:0:
272,120,183816,1,8,0:1:0:0:
224,220,183989,1,8,0:1:0:0:
64,88,184161,1,8,0:1:0:0:
156,28,184334,1,8,0:1:0:0:
108,240,184506,1,8,0:1:0:0:
22,170,184678,1,8,0:1:0:0:
216,72,184851,1,8,0:1:0:0:
352,216,185023,5,10,0:1:0:0:
352,216,185109,1,8,0:1:0:0:
352,216,185196,2,0,L|344:272,1,50,8|0,0:1|0:1,0:0:0:0:
256,336,185367,1,10,0:1:0:0:
256,336,185453,1,8,0:1:0:0:
256,336,185540,2,0,L|244:280,1,50,8|0,0:1|0:1,0:0:0:0:
148,216,185713,1,10,0:1:0:0:
148,216,185799,1,8,0:1:0:0:
148,216,185886,2,0,L|140:272,1,50,8|0,0:1|0:1,0:0:0:0:
52,340,186058,6,0,L|40:284,1,50,10|8,0:1|0:1,0:0:0:0:
16,180,186230,1,8,0:1:0:0:
16,144,186316,1,8,0:1:0:0:
24,108,186403,1,8,0:1:0:0:
48,80,186489,1,8,0:1:0:0:
80,64,186575,1,8,0:1:0:0:
116,68,186661,1,8,0:1:0:0:
148,84,186747,1,8,0:1:0:0:
180,96,186834,1,8,0:1:0:0:
216,96,186920,5,8,0:1:0:0:
252,88,187006,1,8,0:1:0:0:
280,68,187092,1,8,0:1:0:0:
308,48,187178,1,8,0:1:0:0:
344,40,187265,1,8,0:1:0:0:
376,48,187351,1,8,0:1:0:0:
408,64,187437,1,8,0:1:0:0:
432,92,187523,1,8,0:1:0:0:
256,192,187609,12,4,188644,0:0:0:0:
312,332,188989,6,0,B|372:348|408:300|408:300|456:288|504:320,3,200,8|2|8|2,0:1|0:0|0:1|0:0,0:0:0:0:
320,136,190196,6,0,P|326:189|332:240,1,100,8|0,0:1|0:0,0:0:0:0:
331,235,190540,1,8,0:1:0:0:
228,100,190713,1,2,0:0:0:0:
396,80,190885,1,8,0:1:0:0:
244,196,191058,6,0,L|176:208,1,50,8|0,0:1|0:0,0:0:0:0:
196,100,191230,2,0,L|136:112,1,50,8|8,0:1|0:1,0:1:0:0:
80,188,191403,6,0,L|0:160,1,50,8|0,0:1|0:0,0:0:0:0:
40,300,191575,2,0,L|100:284,1,50,8|8,0:1|0:1,0:0:0:0:
180,268,191747,5,4,0:0:0:0:
252,351,191920,1,2,0:0:0:0:
399,224,192092,1,8,0:1:0:0:
362,330,192264,1,2,0:0:0:0:
215,160,192437,1,8,0:0:0:0:
325,139,192609,1,2,0:0:0:0:
289,245,192782,1,8,0:1:0:0:
144,68,192954,6,0,B|212:44|212:44|268:52|268:52|344:28,1,200,12|8,0:0|0:3,0:0:0:0:
448,72,193471,1,2,0:1:0:0:
367,160,193644,1,8,0:1:0:0:
352,152,193730,1,8,0:1:0:0:
336,144,193816,1,8,0:1:0:0:
396,264,193989,1,10,0:1:0:0:
484,184,194161,1,8,0:1:0:0:
448,352,194334,1,2,0:1:0:0:
284,304,194506,6,0,P|220:280|136:288,1,150,4|8,0:0|0:0,0:0:0:0:
100,356,194851,2,0,P|48:352|0:332,1,100,8|8,0:1|0:1,0:0:0:0:
44,160,195196,1,8,0:0:0:0:
140,216,195368,1,2,0:0:0:0:
140,216,195454,1,0,0:0:0:0:
140,216,195540,1,8,0:1:0:0:
188,24,195713,6,0,P|160:64|152:128,1,100,2|8,0:0|0:0,0:0:0:0:
336,240,196058,2,0,P|383:227|430:183,2,100,2|8|8,0:0|0:1|0:1,0:0:0:0:
216,204,196575,1,8,0:0:0:0:
304,44,196747,1,2,0:0:0:0:
304,44,196834,1,8,0:1:0:0:
304,44,196920,2,0,P|308:93|312:148,1,100,8|2,0:1|0:0,0:0:0:0:
264,340,197265,5,12,0:0:0:0:
336,240,197437,1,2,0:0:0:0:
188,104,197609,1,8,0:1:0:0:
184,224,197782,1,8,0:1:0:0:
272,168,197954,5,10,0:0:0:0:
112,48,198127,1,2,0:0:0:0:
96,256,198299,1,8,0:1:0:0:
0,140,198471,6,0,B|52:136|116:140|116:140,1,100,10|2,0:0|0:0,0:0:0:0:
316,64,198816,1,10,0:0:0:0:
319,88,198902,1,8,0:1:0:0:
323,113,198988,1,8,0:1:0:0:
326,138,199074,1,8,0:0:0:0:
330,162,199160,1,8,0:0:0:0:
333,187,199247,1,8,0:0:0:0:
337,212,199334,1,8,0:1:0:0:
226,184,199506,5,2,0:1:0:0:
418,131,199678,1,8,0:1:0:0:
369,320,199851,1,2,0:1:0:0:
172,276,200023,6,0,P|128:220|132:136,1,150,12|8,0:0|0:1,0:0:0:0:
168,72,200368,2,0,P|212:48|272:48,1,100,8|8,0:1|0:1,0:0:0:0:
388,84,200713,1,8,0:0:0:0:
320,192,200885,1,2,0:0:0:0:
320,192,200971,1,0,0:0:0:0:
320,192,201058,1,8,0:1:0:0:
400,292,201230,6,0,P|452:284|508:248,1,100,2|8,0:0|0:0,0:0:0:0:
296,288,201575,1,2,0:1:0:0:
292,308,201661,1,0,0:0:0:0:
288,328,201747,1,8,0:1:0:0:
240,200,201920,2,0,P|232:152|208:96,1,100,2|8,0:1|0:0,0:0:0:0:
136,232,202265,1,2,0:1:0:0:
132,252,202351,1,8,0:1:0:0:
128,272,202437,2,0,P|100:324|68:356,1,100,8|2,0:1|0:1,0:0:0:0:
24,184,202782,5,12,0:0:0:0:
60,60,202954,1,2,0:0:0:0:
152,152,203127,1,8,0:1:0:0:
308,20,203299,1,8,0:1:0:0:
216,88,203471,1,8,0:0:0:0:
368,224,203644,1,2,0:0:0:0:
424,92,203816,1,8,0:1:0:0:
272,184,203989,1,2,0:0:0:0:
348,340,204161,6,0,P|276:312|192:320,1,150,12|8,0:0|0:0,0:0:0:0:
124,252,204506,1,8,0:1:0:0:
80,372,204678,1,8,0:0:0:0:
4,176,204850,2,0,B|60:164|60:164|100:172|100:172|176:148,1,150,12|8,0:0|0:0,0:0:0:0:
236,180,205195,2,0,L|248:220,2,25,8|8|8,0:1|0:1|0:1,0:0:0:0:
312,140,205367,2,0,L|322:89,1,50,8|8,0:1|0:1,0:0:0:0:
400,152,205540,6,0,P|424:224|412:316,1,150,12|8,0:0|0:0,0:0:0:0:
352,348,205885,2,0,P|308:328|232:320,1,100,8|8,0:1|0:1,0:0:0:0:
148,240,206230,1,8,0:0:0:0:
72,328,206403,1,2,0:0:0:0:
72,328,206489,1,0,0:0:0:0:
72,328,206575,1,8,0:1:0:0:
52,132,206747,1,2,0:0:0:0:
148,216,206920,5,8,0:0:0:0:
228,132,207092,2,0,P|232:80|200:24,1,100,2|8,0:1|0:1,0:0:0:0:
312,240,207437,2,0,P|308:292|340:348,1,100,2|8,0:1|0:0,0:0:0:0:
476,160,207782,1,2,0:1:0:0:
476,160,207868,1,8,0:1:0:0:
476,160,207954,2,0,P|420:152|372:144,1,100,8|2,0:0|0:1,0:0:0:0:
228,300,208299,5,12,0:0:0:0:
348,208,208471,1,2,0:0:0:0:
176,76,208644,1,8,0:1:0:0:
176,216,208816,1,8,0:1:0:0:
264,152,208989,5,8,0:0:0:0:
64,240,209161,1,2,0:0:0:0:
88,24,209334,1,8,0:1:0:0:
264,152,209506,6,0,B|360:116|368:176|468:140,1,200,12|2,0:0|0:0,0:0:0:0:
460,142,209937,1,0,0:0:0:0:
460,142,210023,1,8,0:1:0:0:
312,232,210196,1,2,0:0:0:0:
404,64,210368,5,8,0:0:0:0:
412,252,210540,1,2,0:1:0:0:
244,164,210713,1,8,0:1:0:0:
467,149,210885,1,2,0:1:0:0:
352,312,211058,6,0,P|300:296|228:296,1,112.500004291535,10|10,0:0|0:0,0:0:0:0:
152,324,211403,1,8,0:1:0:0:
16,272,211575,1,8,0:1:0:0:
16,272,211747,2,0,P|-4:216|8:148,1,112.500004291535,10|2,0:0|0:0,0:0:0:0:
68,96,212092,2,0,L|148:112,1,75.0000028610231,8|2,0:1|0:0,0:0:0:0:
236,216,212437,6,0,P|288:192|360:184,1,112.500004291535,10|10,0:0|0:0,0:0:0:0:
420,128,212782,1,8,0:1:0:0:
512,248,212954,1,8,0:1:0:0:
400,348,213127,2,0,P|340:348|276:320,1,112.500004291535,10|8,0:0|0:1,0:0:0:0:
216,276,213471,2,0,P|177:287|124:308,1,75.0000028610231,8|2,0:1|0:0,0:0:0:0:
0,384,213816,6,0,P|24:324|16:256,1,112.500004291535,10|10,0:0|0:0,0:0:0:0:
4,184,214161,1,8,0:1:0:0:
88,16,214334,1,8,0:1:0:0:
0,84,214506,2,0,P|52:100|112:128,1,112.500004291535,10|2,0:0|0:0,0:0:0:0:
192,164,214851,2,0,P|228:152|272:132,1,75.0000028610231,8|2,0:1|0:0,0:0:0:0:
392,32,215196,6,0,P|384:88|408:168,1,112.500004291535,10|10,0:0|0:0,0:0:0:0:
460,208,215540,1,8,0:1:0:0:
384,348,215713,1,10,0:0:0:0:
264,248,215885,2,0,P|208:236|140:252,1,112.500004291535,10|8,0:0|0:1,0:0:0:0:
88,304,216230,2,0,L|100:340,2,25,8|8|8,0:1|0:1|0:1,0:0:0:0:
8,252,216403,2,0,L|20:204,1,50,8|8,0:1|0:1,0:0:0:0:
0,112,216575,6,0,B|88:136|88:136|144:120,1,150,10|10,0:0|0:0,0:0:0:0:
236,80,216920,1,8,0:1:0:0:
288,220,217092,2,0,P|333:203|396:200,1,100,8|2,0:1|0:0,0:0:0:0:
448,332,217437,1,8,0:0:0:0:
448,332,217523,1,8,0:0:0:0:
448,332,217609,2,0,P|402:348|340:352,1,100,8|2,0:1|0:0,0:0:0:0:
84,324,217954,6,0,P|164:312|224:248,1,150,10|10,0:0|0:0,0:0:0:0:
260,176,218299,1,8,0:1:0:0:
128,64,218471,2,0,P|134:113|144:172,1,100,8|2,0:1|0:0,0:0:0:0:
369,162,218816,1,8,0:0:0:0:
369,162,218903,1,8,0:1:0:0:
369,162,218989,2,0,P|377:113|384:64,1,100,8|2,0:1|0:0,0:0:0:0:
448,304,219334,6,0,P|380:272|288:280,1,150,10|10,0:0|0:0,0:0:0:0:
220,224,219678,1,8,0:1:0:0:
132,336,219851,1,8,0:1:0:0:
4,276,220023,1,2,0:0:0:0:
92,168,220196,1,8,0:1:0:0:
92,168,220282,1,8,0:0:0:0:
92,168,220368,2,0,P|141:150|192:144,1,100,8|2,0:1|0:0,0:0:0:0:
380,206,220713,5,10,0:1:0:0:
380,206,220799,1,8,0:0:0:0:
181,292,220971,1,10,0:1:0:0:
181,292,221058,1,10,0:1:0:0:
206,77,221230,1,10,0:1:0:0:
256,192,221403,5,10,0:1:0:0:
