osu file format v14

[General]
AudioFilename: audio.mp3
AudioLeadIn: 0
PreviewTime: 90088
Countdown: 0
SampleSet: Soft
StackLeniency: 0.7
Mode: 0
LetterboxInBreaks: 0
WidescreenStoryboard: 1

[Editor]
Bookmarks: 1403,6920,12437,23471,28989,34506,45540,56575,62092,67609,75885,78644,84161,89678,111747,122782,131058,133816,139334,144851,155885,167330,167675,168019,168364,168709,169054,169399,169744,170088,170433,170778,171123,171468,171813,172157,172437,183471,188989,191403,211058,221403
DistanceSpacing: 0.5
BeatDivisor: 4
GridSize: 32
TimelineZoom: 2.3

[Metadata]
Title:Hakuchu-mu
TitleUnicode:はくちゅーむ
Artist:BPM15Q
ArtistUnicode:BPM15Q
Creator:Venyera
Version:Dream
Source:
Tags:Yunomi livia BNY963 nicamoq CY8ER ichigorinahamu hakuchuumu melophobia arronchu1207 electronic japanese
BeatmapID:2930810
BeatmapSetID:1072748

[Difficulty]
HPDrainRate:5
CircleSize:4
OverallDifficulty:8
ApproachRate:9.4
SliderMultiplier:2
SliderTickRate:1

[Events]
//Background and Video events
0,0,"BG.jpg",0,0
//Break Periods
2,166947,171897
//Storyboard Layer 0 (Background)
//Storyboard Layer 1 (Fail)
//Storyboard Layer 2 (Pass)
//Storyboard Layer 3 (Foreground)
//Storyboard Layer 4 (Overlay)
//Storyboard Sound Samples

[TimingPoints]
1403,344.827586206897,4,2,1,70,1,0
1403,-100,4,2,1,50,0,0
2782,-83.3333333333333,4,2,1,50,0,0
3040,-71.4285714285714,4,2,1,50,0,0
3299,-66.6666666666667,4,2,1,60,0,0
4161,-100,4,2,1,50,0,0
6575,-66.6666666666667,4,2,1,60,0,0
6920,-100,4,2,1,50,0,0
8644,-76.9230769230769,4,2,1,50,0,0
9334,-66.6666666666667,4,2,1,60,0,0
9678,-83.3333333333333,4,2,1,50,0,0
11058,-66.6666666666667,4,2,1,70,0,0
12092,-50,4,2,1,70,0,0
12437,-100,4,2,1,70,0,0
13816,-66.6666666666667,4,2,1,70,0,0
14851,-50,4,2,1,70,0,0
15196,-100,4,2,1,70,0,0
16575,-66.6666666666667,4,2,1,70,0,0
17609,-50,4,2,1,70,0,0
17954,-100,4,2,1,80,0,0
23127,-40,4,2,1,80,0,0
23471,-66.6666666666667,4,2,1,80,0,0
25540,-45.4545454545455,4,2,1,80,0,0
25799,-66.6666666666667,4,2,1,5,0,0
25885,-66.6666666666667,4,2,1,80,0,0
34506,-133.333333333333,4,2,1,60,0,0
36920,-66.6666666666667,4,2,1,70,0,0
37265,-100,4,2,1,70,0,0
42437,-200,4,2,1,70,0,0
42782,-83.3333333333333,4,2,1,70,0,0
43127,-100,4,2,1,70,0,0
44161,-66.6666666666667,4,2,1,70,0,0
45540,-83.3333333333333,4,2,1,70,0,0
47954,-200,4,2,1,70,0,0
48299,-66.6666666666667,4,2,1,70,0,0
48644,-83.3333333333333,4,2,1,70,0,0
53127,-200,4,2,1,70,0,0
53471,-66.6666666666667,4,2,1,70,0,0
53816,-83.3333333333333,4,2,1,70,0,0
55196,-66.6666666666667,4,2,1,70,0,0
56575,-133.333333333333,4,2,1,30,0,0
57609,-117.647058823529,4,2,1,40,0,0
57954,-105.263157894737,4,2,1,50,0,0
58989,-66.6666666666667,4,2,1,60,0,0
59334,-100,4,2,1,50,0,0
59851,-90.9090909090909,4,2,1,60,0,0
60368,-83.3333333333333,4,2,1,70,0,0
61058,-76.9230769230769,4,2,1,80,0,0
61747,-66.6666666666667,4,2,1,80,0,0
62092,-100,4,2,1,70,0,0
63471,-83.3333333333333,4,2,1,70,0,0
64506,-66.6666666666667,4,2,1,70,0,0
64851,-66.6666666666667,4,2,1,80,0,0
67609,-133.333333333333,4,2,1,60,0,0
68989,-100,4,2,1,70,0,0
69247,-66.6666666666667,4,2,1,70,0,0
69506,-100,4,2,1,70,0,0
69678,-76.9230769230769,4,2,1,70,0,0
69851,-66.6666666666667,4,2,1,70,0,0
70023,-66.6666666666667,4,2,1,70,0,0
72437,-58.8235294117647,4,2,1,70,0,0
73127,-133.333333333333,4,2,1,60,0,0
74506,-100,4,2,1,70,0,0
74765,-76.9230769230769,4,2,1,70,0,0
75023,-66.6666666666667,4,2,1,70,0,0
75196,-200,4,2,1,70,0,0
75540,-100,4,2,1,70,0,0
75885,-66.6666666666667,4,2,1,70,0,0
77954,-58.8235294117647,4,2,1,70,0,0
78644,-76.9230769230769,4,2,1,70,0,0
81058,-133.333333333333,4,2,1,70,0,0
81403,-76.9230769230769,4,2,1,70,0,0
83816,-133.333333333333,4,2,1,80,0,0
84161,-66.6666666666667,4,2,1,80,0,0
88989,-133.333333333333,4,2,1,80,0,0
89334,-50,4,2,1,80,0,0
89678,-66.6666666666667,4,2,1,80,0,1
93816,-55.5555555555556,4,2,1,80,0,1
94161,-50,4,2,1,80,0,1
94334,-66.6666666666667,4,2,1,80,0,1
94506,-50,4,2,1,80,0,1
94765,-66.6666666666667,4,2,1,80,0,1
98299,-58.8235294117647,4,2,1,80,0,1
98471,-50,4,2,1,80,0,1
98644,-50,4,2,1,80,0,1
99334,-55.5555555555556,4,2,1,80,0,1
99678,-50,4,2,1,80,0,1
99851,-66.6666666666667,4,2,1,80,0,1
100023,-50,4,2,1,80,0,1
100368,-40,4,2,1,80,0,1
100713,-66.6666666666667,4,2,1,80,0,1
102609,-50,4,2,1,80,0,1
102954,-40,4,2,1,80,0,1
103299,-33.3333333333333,4,2,1,80,0,1
103471,-66.6666666666667,4,2,1,80,0,1
104851,-58.8235294117647,4,2,1,80,0,1
105196,-50,4,2,1,80,0,1
105368,-66.6666666666667,4,2,1,80,0,1
105540,-50,4,2,1,80,0,1
105799,-66.6666666666667,4,2,1,80,0,1
108127,-50,4,2,1,80,0,1
108471,-40,4,2,1,80,0,1
108816,-33.3333333333333,4,2,1,80,0,1
109161,-66.6666666666667,4,2,1,80,0,1
109334,-58.8235294117647,4,2,1,80,0,1
109506,-50,4,2,1,80,0,1
109678,-50,4,2,1,80,0,1
110368,-58.8235294117647,4,2,1,80,0,1
110713,-50,4,2,1,80,0,1
110885,-66.6666666666667,4,2,1,80,0,1
111058,-50,4,2,1,80,0,1
111403,-40,4,2,1,80,0,1
111747,-66.6666666666667,4,2,1,90,0,1
112006,-50,4,2,1,90,0,1
112265,-66.6666666666667,4,2,1,90,0,1
112696,-50,4,2,1,90,0,1
113127,-66.6666666666667,4,2,1,90,0,1
113471,-50,4,2,1,90,0,1
113644,-66.6666666666667,4,2,1,90,0,1
113816,-55.5555555555556,4,2,1,90,0,1
114075,-50,4,2,1,90,0,1
114334,-66.6666666666667,4,2,1,90,0,1
114506,-66.6666666666667,4,2,1,90,0,1
114765,-50,4,2,1,90,0,1
115196,-66.6666666666667,4,2,1,90,0,1
115454,-50,4,2,1,90,0,1
116403,-66.6666666666667,4,2,1,90,0,1
116575,-50,4,2,1,90,0,1
117265,-100,4,2,1,90,0,1
117609,-66.6666666666667,4,2,1,90,0,1
117954,-55.5555555555556,4,2,1,90,0,1
118299,-66.6666666666667,4,2,1,90,0,1
120023,-66.6666666666667,4,2,1,90,0,1
122092,-66.6666666666667,4,2,1,90,0,1
122782,-133.333333333333,4,2,1,70,0,0
125196,-66.6666666666667,4,2,1,70,0,0
125540,-100,4,2,1,70,0,0
126230,-83.3333333333333,4,2,1,70,0,0
126920,-71.4285714285714,4,2,1,70,0,0
127178,-66.6666666666667,4,2,1,70,0,0
128299,-100,4,2,1,70,0,0
129678,-83.3333333333333,4,2,1,70,0,0
129937,-66.6666666666667,4,2,1,70,0,0
130196,-76.9230769230769,4,2,1,70,0,0
130368,-66.6666666666667,4,2,1,70,0,0
130713,-66.6666666666667,4,2,1,70,0,0
133816,-66.6666666666667,4,2,1,50,0,0
136575,-66.6666666666667,4,2,1,70,0,0
139334,-133.333333333333,4,2,1,80,0,0
140023,-100,4,2,1,80,0,0
144506,-100,4,2,5,70,0,0
144592,-100,4,2,1,5,0,0
144851,-100,4,2,1,80,0,0
145196,-66.6666666666667,4,2,1,80,0,0
145368,-50,4,2,1,80,0,0
145713,-66.6666666666667,4,2,1,80,0,0
146230,-50,4,2,1,80,0,0
146575,-66.6666666666667,4,2,1,80,0,0
146747,-50,4,2,1,80,0,0
147092,-66.6666666666667,4,2,1,80,0,0
147609,-50,4,2,1,80,0,0
147954,-66.6666666666667,4,2,1,80,0,0
148127,-50,4,2,1,80,0,0
148471,-66.6666666666667,4,2,1,80,0,0
148989,-50,4,2,1,80,0,0
149334,-66.6666666666667,4,2,1,80,0,0
150368,-50,4,2,1,80,0,0
150885,-40,4,2,1,80,0,0
151230,-50,4,2,1,80,0,0
151747,-40,4,2,1,80,0,0
152092,-50,4,2,1,80,0,0
152265,-40,4,2,1,80,0,0
152609,-50,4,2,1,80,0,0
153127,-40,4,2,1,80,0,0
153471,-50,4,2,1,80,0,0
153644,-40,4,2,1,80,0,0
153989,-50,4,2,1,80,0,0
155885,-133.333333333333,4,2,1,70,0,0
156230,-100,4,2,1,70,0,0
156403,-76.9230769230769,4,2,1,70,0,0
156747,-100,4,2,1,70,0,0
156920,-76.9230769230769,4,2,1,70,0,0
157609,-100,4,2,1,70,0,0
157954,-76.9230769230769,4,2,1,70,0,0
158299,-66.6666666666667,4,2,1,70,0,0
158644,-133.333333333333,4,2,1,70,0,0
158989,-100,4,2,1,70,0,0
159161,-76.9230769230769,4,2,1,70,0,0
159506,-100,4,2,1,70,0,0
159678,-76.9230769230769,4,2,1,70,0,0
160368,-100,4,2,1,70,0,0
161403,-76.9230769230769,4,2,1,70,0,0
162092,-50,4,2,1,70,0,0
162351,-66.6666666666667,4,2,1,70,0,0
162609,-76.9230769230769,4,2,1,70,0,0
163471,-50,4,2,1,70,0,0
163730,-66.6666666666667,4,2,1,70,0,0
163989,-76.9230769230769,4,2,1,70,0,0
164161,-66.6666666666667,4,2,1,80,0,0
172437,-133.333333333333,4,2,1,60,0,0
173471,-100,4,2,1,60,0,0
173816,-133.333333333333,4,2,1,60,0,0
177954,-100,4,2,1,70,0,0
178299,-76.9230769230769,4,2,1,70,0,0
178644,-66.6666666666667,4,2,1,70,0,0
178989,-55.5555555555556,4,2,1,70,0,0
179334,-100,4,2,1,70,0,0
179678,-76.9230769230769,4,2,1,70,0,0
180023,-66.6666666666667,4,2,1,70,0,0
180368,-55.5555555555556,4,2,1,70,0,0
180713,-76.9230769230769,4,2,1,70,0,0
183127,-50,4,2,1,80,0,0
186575,-40,4,2,1,90,0,0
187265,-43.4782608695652,4,2,1,90,0,0
187609,-40,4,2,1,90,0,0
188989,-35.7142857142857,4,2,1,80,0,0
191058,-66.6666666666667,4,2,1,80,0,0
191403,-66.6666666666667,4,2,1,80,0,1
193299,-100,4,2,1,80,0,1
193471,-66.6666666666667,4,2,1,80,0,1
194161,-100,4,2,1,80,0,1
194506,-66.6666666666667,4,2,1,80,0,1
197609,-58.8235294117647,4,2,1,80,0,1
197782,-50,4,2,1,80,0,1
198816,-50,4,2,1,80,0,1
199678,-40,4,2,1,80,0,1
200023,-66.6666666666667,4,2,1,80,0,1
201920,-50,4,2,1,80,0,1
202265,-40,4,2,1,80,0,1
202609,-33.3333333333333,4,2,1,80,0,1
203471,-66.6666666666667,4,2,1,80,0,1
204161,-58.8235294117647,4,2,1,80,0,1
204506,-50,4,2,1,80,0,1
204678,-66.6666666666667,4,2,1,80,0,1
204851,-50,4,2,1,80,0,1
205109,-66.6666666666667,4,2,1,80,0,1
207437,-50,4,2,1,80,0,1
207782,-40,4,2,1,80,0,1
208127,-33.3333333333333,4,2,1,80,0,1
208471,-66.6666666666667,4,2,1,80,0,1
208644,-58.8235294117647,4,2,1,80,0,1
208816,-50,4,2,1,80,0,1
209506,-50,4,2,1,80,0,1
210023,-50,4,2,1,80,0,1
210196,-66.6666666666667,4,2,1,80,0,1
210368,-50,4,2,1,80,0,1
210713,-40,4,2,1,80,0,1
211058,-100,4,2,1,60,0,0
216230,-200,4,2,1,70,0,0

[Colours]
Combo1 : 241,61,137
Combo2 : 143,104,236
Combo3 : 85,202,215
Combo4 : 220,72,247
Combo5 : 247,216,70

[HitObjects]
258,139,1403,6,0,P|303:208|412:216,1,200,6|2,1:0|1:0,1:0:0:0:
512,123,1920,1,0,1:0:0:0:
329,322,2092,2,0,P|420:326|507:258,1,200,2|2,1:0|1:0,1:0:0:0:
512,123,2609,1,0,1:0:0:0:
390,37,2782,6,0,P|380:113|410:167,1,119.999996337891,2|0,1:0|1:0,1:0:0:0:
329,322,3040,2,0,P|339:246|299:187,1,139.999995727539,2|0,1:0|1:0,1:0:0:0:
234,47,3299,2,0,L|249:120,1,75.0000028610231,2|0,1:0|1:0,1:0:0:0:
149,250,3471,2,0,L|165:172,1,75.0000028610231,2|0,1:0|1:0,1:0:0:0:
72,145,3644,1,2,1:0:0:0:
72,145,3730,1,0,1:0:0:0:
72,145,3816,6,0,B|50:215|50:215|66:307,1,150.000005722046,12|0,1:0|1:0,1:0:0:0:
165,177,4161,6,0,P|139:61|73:38,1,200,2|2,1:0|1:0,1:0:0:0:
72,145,4678,1,0,1:0:0:0:
79,246,4851,2,0,P|192:281|245:235,1,200,2|2,1:0|1:0,1:0:0:0:
72,145,5368,1,0,1:0:0:0:
112,361,5540,6,0,P|162:368|222:348,1,100,2|0,1:0|1:0,1:0:0:0:
321,339,5799,1,2,1:0:0:0:
321,339,5885,1,2,1:0:0:0:
155,283,6058,1,2,1:0:0:0:
325,149,6230,2,0,B|302:206|302:206|320:339,1,150,2|0,1:0|1:0,1:0:0:0:
422,195,6575,6,0,P|422:86|359:49,1,150.000005722046,12|0,1:0|1:0,1:0:0:0:
127,124,6920,6,0,B|170:135|170:135|238:125,1,100,6|0,3:0|3:0,3:0:0:0:
397,63,7265,1,8,3:0:0:0:
181,31,7437,1,8,3:0:0:0:
144,21,7523,1,8,3:0:0:0:
107,21,7609,1,8,3:0:0:0:
71,32,7695,1,8,3:0:0:0:
40,53,7781,1,8,3:0:0:0:
139,276,7954,1,8,3:0:0:0:
139,276,8040,1,8,3:0:0:0:
139,276,8127,1,8,3:0:0:0:
144,170,8299,5,8,3:0:0:0:
42,233,8471,1,8,3:0:0:0:
42,233,8557,1,8,3:0:0:0:
42,233,8644,2,0,P|79:185|153:172,1,129.999994049073,8|8,3:0|3:0,3:0:0:0:
340,262,8903,1,8,3:0:0:0:
316,270,8989,2,0,P|282:279|237:273,1,64.9999970245363,8|0,3:0|3:0,3:0:0:0:
357,125,9161,1,0,3:0:0:0:
279,178,9334,6,0,P|271:85|321:34,1,150.000005722046,12|0,3:0|3:0,3:0:0:0:
456,195,9678,6,0,L|463:339,1,119.999996337891,6|0,3:0|3:0,3:0:0:0:
252,277,10023,1,8,3:0:0:0:
450,75,10196,1,8,3:0:0:0:
450,75,10282,1,8,3:0:0:0:
450,75,10368,2,0,L|457:219,1,119.999996337891,6|0,3:0|3:0,3:0:0:0:
62,309,10713,5,8,3:0:0:0:
59,249,10799,1,8,3:0:0:0:
56,189,10885,1,8,3:0:0:0:
193,30,11058,6,0,P|151:106|195:182,1,150.000005722046,6|0,3:0|3:0,3:0:0:0:
350,191,11316,2,0,P|305:116|217:116,1,150.000005722046,6|0,3:0|3:0,3:0:0:0:
256,278,11575,2,0,L|264:171,1,75.0000028610231,6|0,3:0|3:0,3:0:0:0:
462,32,11747,2,0,B|438:83|438:83|458:243,1,150.000005722046,6|0,3:0|3:0,3:0:0:0:
470,346,12006,1,0,3:0:0:0:
470,346,12092,6,0,P|481:347|435:298,1,200,4|0,3:0|3:0,3:0:0:0:
232,356,12437,6,0,P|284:351|331:292,1,100,8|0,0:0|0:0,0:0:0:0:
196,268,12782,2,0,P|201:320|260:367,1,100,8|0,0:0|0:0,0:0:0:0:
283,232,13127,2,0,P|231:237|184:296,1,100,8|0,0:0|0:0,0:0:0:0:
319,320,13471,2,0,P|313:268|254:221,1,100,8|0,0:0|0:0,0:0:0:0:
112,170,13816,6,0,P|170:146|188:47,1,150.000005722046,8|0,0:0|0:0,0:0:0:0:
26,133,14075,1,0,0:0:0:0:
26,133,14161,2,0,P|21:206|60:258,1,75.0000028610231,8|0,0:0|0:0,0:0:0:0:
101,77,14334,2,0,P|65:49|33:42,1,75.0000028610231
163,254,14506,2,0,B|215:235|215:235|339:265,1,150.000005722046,8|0,0:0|0:0,0:0:0:0:
462,347,14851,6,0,B|408:362|408:362|360:352|360:352|390:313|390:313|484:298,1,200,4|0,0:0|0:0,0:0:0:0:
486,167,15196,6,0,P|432:163|371:198,1,100,8|0,0:0|0:0,0:0:0:0:
403,275,15540,2,0,P|407:221|372:160,1,100,8|0,0:0|0:0,0:0:0:0:
295,167,15885,2,0,P|341:185|390:180,1,100,8|0,0:0|0:0,0:0:0:0:
403,84,16230,2,0,P|384:130|389:179,1,100,8|0,0:0|0:0,0:0:0:0:
243,346,16575,6,0,P|137:358|91:301,1,150.000005722046,8|0,0:0|0:0,0:0:0:0:
190,278,16834,1,0,0:0:0:0:
190,278,16920,2,0,P|221:258|258:257,1,75.0000028610231,8|0,0:0|0:0,0:0:0:0:
407,339,17092,2,0,P|375:358|338:359,1,75.0000028610231
506,250,17265,2,0,L|491:323,1,75.0000028610231,8|0,0:0|0:0,0:0:0:0:
357,275,17437,2,0,L|340:186,1,75.0000028610231,8|0,0:0|0:0,0:0:0:0:
469,82,17609,6,0,B|470:56|443:35|443:35|419:96|419:96|441:192,1,200,4|0,0:0|0:0,0:0:0:0:
339,40,17954,6,0,L|274:45,1,50,8|0,0:0|0:0,0:0:0:0:
182,106,18127,2,0,L|247:111,1,50,8|0,0:0|0:0,0:0:0:0:
370,174,18299,6,0,L|305:179,1,50,8|0,0:0|0:0,0:0:0:0:
149,237,18471,2,0,L|214:242,1,50,8|0,0:0|0:0,0:0:0:0:
395,310,18644,6,8,L|330:315,1,50,8|0,0:0|0:0,0:0:0:0:
115,379,18816,2,0,L|180:384,1,50,8|0,0:0|0:0,0:0:0:0:
400,360,18989,6,0,L|392:279,1,50,8|0,0:0|0:0,0:0:0:0:
119,329,19161,2,0,L|111:410,1,50,8|0,0:0|0:0,0:0:0:0:
375,224,19334,6,0,L|367:143,1,50,8|0,0:0|0:0,0:0:0:0:
154,188,19506,2,0,L|146:269,1,50,8|0,0:0|0:0,0:0:0:0:
343,89,19678,6,0,L|335:8,1,50,8|0,0:0|0:0,0:0:0:0:
186,56,19850,2,0,L|178:137,1,50,8|0,0:0|0:0,0:0:0:0:
433,52,20023,6,0,L|441:-29,1,50,8|0,0:0|0:0,0:0:0:0:
279,183,20196,2,0,L|271:264,1,50,8|0,0:0|0:0,0:0:0:0:
295,36,20368,6,0,L|214:28,1,50,8|0,0:0|0:0,0:0:0:0:
426,190,20541,2,0,L|507:198,1,50,8|0,0:0|0:0,0:0:0:0:
439,313,20713,5,8,0:0:0:0:
423,319,20799,1,8,0:0:0:0:
407,321,20885,1,8,0:0:0:0:
390,320,20971,1,8,0:0:0:0:
374,317,21058,1,8,0:0:0:0:
350,308,21144,1,8,0:0:0:0:
325,307,21230,1,8,0:0:0:0:
301,315,21316,1,8,0:0:0:0:
281,329,21403,5,8,0:0:0:0:
225,353,21489,1,8,0:0:0:0:
167,333,21575,1,8,0:0:0:0:
138,280,21661,1,8,0:0:0:0:
152,220,21747,5,8,0:0:0:0:
188,157,21833,1,8,0:0:0:0:
167,87,21919,1,8,0:0:0:0:
101,56,22005,1,8,0:0:0:0:
33,82,22091,1,8,0:0:0:0:
227,254,22351,6,0,L|284:248,1,50,8|8,1:0|1:0,0:0:0:0:
97,139,22609,1,8,1:0:0:0:
323,182,22782,1,8,1:0:0:0:
34,74,23127,6,0,B|21:46|21:46|3:37|3:37|36:24|36:24|42:28|42:28|85:9|85:9|86:48|86:48|81:51|81:51|83:92|83:92|79:88|79:88|47:155|47:155|52:157|52:157|69:250,1,375,12|0,0:0|0:0,0:0:0:0:
223,335,23471,6,0,B|197:280|197:280|215:164,1,150.000005722046,2|0,0:0|0:0,0:0:0:0:
318,27,23730,2,0,L|293:163,1,75.0000028610231,2|0,0:0|0:0,0:0:0:0:
332,22,23989,2,0,L|307:158,1,75.0000028610231,2|0,0:0|0:0,0:0:0:0:
465,190,24161,6,0,B|410:216|410:216|294:198,1,150.000005722046,2|0,0:0|0:0,0:0:0:0:
425,74,24420,2,0,L|547:83,1,75.0000028610231,2|0,0:0|0:0,0:0:0:0:
414,60,24678,2,0,L|536:69,1,75.0000028610231,2|0,0:0|0:0,0:0:0:0:
512,318,24851,6,0,B|406:304|406:304|490:276,1,150.000005722046,2|0,0:0|0:0,0:0:0:0:
218,235,25109,2,0,L|243:371,1,75.0000028610231,2|0,0:0|0:0,0:0:0:0:
205,261,25368,5,2,0:0:0:0:
211,297,25454,1,0,0:0:0:0:
218,334,25540,2,0,B|266:339|266:339|297:329|297:329|355:341|355:341|329:259|329:259|341:225|341:225|324:143,1,330.000010070801,8|0,0:0|0:0,0:0:0:0:
425,38,25885,6,0,L|386:46,1,37.5000014305115,8|8,0:0|0:0,0:0:0:0:
457,93,25971,1,8,0:0:0:0:
415,149,26057,1,8,0:0:0:0:
462,216,26143,1,8,0:0:0:0:
402,274,26230,6,0,B|340:288|340:288|230:246,1,150.000005722046,2|0,0:0|0:0,0:0:0:0:
58,177,26489,1,0,0:0:0:0:
48,210,26575,2,0,L|56:285,1,75.0000028610231,2|0,0:0|0:0,0:0:0:0:
215,177,26747,2,0,L|223:102,1,75.0000028610231
80,85,26920,6,0,B|142:71|142:71|252:113,1,150.000005722046,8|0,0:0|0:0,0:0:0:0:
151,255,27178,1,0,0:0:0:0:
184,265,27264,2,0,L|259:257,1,75.0000028610231,2|0,0:0|0:0,0:0:0:0:
340,141,27437,2,0,L|415:149,1,75.0000028610231
500,288,27609,6,0,B|438:274|438:274|328:316,1,150.000005722046,2|0,0:0|0:0,0:0:0:0:
196,380,27868,1,2,0:0:0:0:
213,344,27954,2,0,B|224:276|202:233|202:233|159:307,1,150.000005722046,2|2,0:0|0:0,0:0:0:0:
75,201,28213,1,0,0:0:0:0:
65,234,28299,2,0,P|61:271|73:309,1,75.0000028610231,8|0,0:0|0:0,0:0:0:0:
336,358,28471,5,8,0:0:0:0:
349,285,28558,1,8,0:0:0:0:
309,224,28644,2,0,P|275:212|177:283,1,150.000005722046,8|0,0:0|0:0,0:0:0:0:
434,353,28902,5,0,0:0:0:0:
453,309,28989,2,0,P|465:275|394:177,1,150.000005722046,2|0,0:0|0:0,0:0:0:0:
311,116,29247,1,0,0:0:0:0:
301,149,29333,2,0,L|309:224,1,75.0000028610231,8|0,0:0|0:0,0:0:0:0:
174,338,29505,2,0,L|182:263,1,75.0000028610231,8|0,0:0|0:0,0:0:0:0:
92,165,29678,6,0,P|164:173|218:124,1,150.000005722046,2|0,0:0|0:0,0:0:0:0:
130,71,29937,1,0,0:0:0:0:
96,61,30023,2,0,L|21:69,1,75.0000028610231,8|0,0:0|0:0,0:0:0:0:
181,263,30196,2,0,L|256:271,1,75.0000028610231,0|0,0:0|0:0,0:0:0:0:
427,108,30368,6,0,P|354:99|300:148,1,150.000005722046,2|0,0:0|0:0,0:0:0:0:
383,298,30627,1,0,0:0:0:0:
393,265,30713,2,0,P|397:228|385:190,1,75.0000028610231,8|0,0:0|0:0,0:0:0:0:
102,177,30885,5,8,0:0:0:0:
89,250,30971,1,8,0:0:0:0:
129,311,31058,2,0,P|163:323|261:252,1,150.000005722046,2|0,0:0|0:0,0:0:0:0:
302,39,31316,1,8,0:0:0:0:
292,73,31402,2,0,L|300:148,1,75.0000028610231,2|0,0:0|0:0,0:0:0:0:
476,259,31575,2,0,L|468:184,1,75.0000028610231,0|0,0:0|0:0,0:0:0:0:
139,112,31747,6,0,P|127:146|198:244,1,150.000005722046,2|0,0:0|0:0,0:0:0:0:
333,157,32006,1,0,0:0:0:0:
299,147,32092,2,0,L|224:155,1,75.0000028610231,8|0,0:0|0:0,0:0:0:0:
102,19,32265,2,0,L|177:27,1,75.0000028610231,8|0,0:0|0:0,0:0:0:0:
419,199,32437,6,0,P|431:165|360:67,1,150.000005722046,2|0,0:0|0:0,0:0:0:0:
358,283,32696,1,0,0:0:0:0:
391,293,32782,2,0,P|428:297|466:285,1,75.0000028610231,8|0,0:0|0:0,0:0:0:0:
215,127,32954,5,8,0:0:0:0:
201,160,33040,1,8,0:0:0:0:
206,197,33127,2,0,P|240:209|338:138,1,150.000005722046,2|0,0:0|0:0,0:0:0:0:
156,27,33385,5,2,0:0:0:0:
134,105,33471,2,0,P|168:117|266:46,1,150.000005722046,8|2,0:0|0:0,0:0:0:0:
17,0,33730,5,8,0:0:0:0:
0,97,33816,2,0,P|0:133|13:168,1,75.0000028610231,2|0,0:0|0:0,0:0:0:0:
421,313,33989,5,8,0:0:0:0:
456,249,34075,1,8,0:0:0:0:
440,178,34161,1,12,0:0:0:0:
421,313,34506,5,2,3:0:0:0:
292,331,34851,1,8,3:0:0:0:
305,222,35023,1,2,3:0:0:0:
305,222,35109,1,2,3:0:0:0:
305,222,35196,1,0,3:0:0:0:
369,376,35368,1,2,3:0:0:0:
188,347,35540,1,8,3:0:0:0:
375,288,35713,1,0,3:0:0:0:
137,215,35885,5,2,3:0:0:0:
260,135,36058,1,0,3:0:0:0:
260,135,36144,1,2,3:0:0:0:
260,135,36230,1,8,3:0:0:0:
240,273,36403,1,2,3:0:0:0:
60,128,36575,1,2,3:0:0:0:
67,117,36920,6,0,P|178:100|195:226,1,225.000008583069,8|0,3:0|3:0,3:0:0:0:
126,282,37265,6,0,P|113:230|136:168,1,100,6|0,3:0|3:0,3:0:0:0:
305,79,37609,1,8,3:0:0:0:
400,183,37782,1,2,3:0:0:0:
305,79,37954,2,0,L|404:70,1,100,2|0,3:0|3:0,3:0:0:0:
212,52,38299,1,8,3:0:0:0:
212,52,38385,1,8,3:0:0:0:
212,52,38471,1,10,3:0:0:0:
405,70,38644,5,2,3:0:0:0:
300,191,38816,1,0,3:0:0:0:
300,191,38903,1,2,3:0:0:0:
300,191,38989,1,8,3:0:0:0:
319,24,39161,1,2,3:0:0:0:
474,129,39334,1,2,3:0:0:0:
216,111,39506,1,8,3:0:0:0:
218,75,39592,1,8,3:0:0:0:
221,38,39678,1,12,3:0:0:0:
221,38,40023,6,0,L|115:47,1,100,2|0,3:0|3:0,3:0:0:0:
32,156,40368,1,8,3:0:0:0:
199,172,40540,1,2,3:0:0:0:
100,50,40713,1,2,3:0:0:0:
120,237,40885,1,0,3:0:0:0:
259,107,41058,1,8,3:0:0:0:
259,107,41144,1,0,3:0:0:0:
259,107,41230,1,2,3:0:0:0:
11,67,41403,6,0,L|110:58,1,100,2|0,3:0|3:0,3:0:0:0:
140,56,41661,1,2,3:0:0:0:
164,55,41747,1,8,3:0:0:0:
57,163,41920,1,2,3:0:0:0:
236,199,42092,1,2,3:0:0:0:
236,199,42178,1,0,3:0:0:0:
236,199,42264,1,0,3:0:0:0:
88,289,42437,6,0,P|83:327|96:372,1,75,8|0,3:0|3:0,3:0:0:0:
132,359,42782,6,0,P|144:294|130:184,1,119.999996337891,6|0,3:0|3:0,3:0:0:0:
110,122,43127,1,8,3:0:0:0:
54,258,43299,1,2,3:0:0:0:
9,119,43471,1,2,3:0:0:0:
189,193,43644,1,0,3:0:0:0:
189,193,43730,1,0,3:0:0:0:
189,193,43816,1,8,3:0:0:0:
238,52,43989,1,2,3:0:0:0:
461,151,44161,6,0,P|372:143|310:205,1,150.000005722046,6|0,3:0|3:0,3:0:0:0:
408,304,44420,2,0,P|415:251|402:204,1,75.0000028610231,6|8,3:0|3:0,3:0:0:0:
420,322,44678,2,0,P|427:269|414:222,1,75.0000028610231,6|0,3:0|3:0,3:0:0:0:
241,134,44851,2,0,P|234:187|247:234,1,75.0000028610231,6|0,3:0|3:0,3:0:0:0:
80,243,45023,1,8,3:0:0:0:
82,207,45109,1,8,3:0:0:0:
85,170,45195,1,12,3:0:0:0:
85,170,45540,6,0,L|100:37,1,119.999996337891,6|0,3:0|3:0,3:0:0:0:
220,27,45885,1,8,3:0:0:0:
266,139,46058,1,2,3:0:0:0:
425,58,46230,1,2,3:0:0:0:
361,195,46403,1,0,3:0:0:0:
322,42,46575,1,8,3:0:0:0:
322,42,46661,1,0,3:0:0:0:
322,42,46747,1,0,3:0:0:0:
446,185,46920,6,0,L|432:304,1,119.999996337891,2|0,3:0|3:0,3:0:0:0:
427,335,47178,1,2,3:0:0:0:
424,362,47265,1,8,3:0:0:0:
316,334,47437,1,2,3:0:0:0:
512,285,47609,1,2,3:0:0:0:
452,142,47782,1,0,3:0:0:0:
348,197,47954,6,0,P|336:243|340:280,1,75,8|0,3:0|3:0,3:0:0:0:
367,306,48299,6,0,P|382:241|358:113,1,150.000005722046,6|0,3:0|3:0,3:0:0:0:
286,65,48644,1,8,3:0:0:0:
275,201,48816,1,2,3:0:0:0:
385,127,48989,1,2,3:0:0:0:
198,140,49161,1,0,3:0:0:0:
261,295,49334,1,8,3:0:0:0:
261,295,49420,1,8,3:0:0:0:
261,295,49506,1,8,3:0:0:0:
89,320,49678,6,0,L|220:302,1,119.999996337891,2|0,3:0|3:0,3:0:0:0:
237,300,49937,1,2,3:0:0:0:
261,295,50023,1,8,3:0:0:0:
193,170,50196,1,2,3:0:0:0:
55,230,50368,1,2,3:0:0:0:
262,99,50540,1,8,3:0:0:0:
260,63,50626,1,8,3:0:0:0:
257,26,50712,1,12,3:0:0:0:
257,26,51058,6,0,L|397:36,1,119.999996337891,2|0,3:0|3:0,3:0:0:0:
471,103,51403,1,8,3:0:0:0:
366,130,51575,1,2,3:0:0:0:
465,25,51747,1,2,3:0:0:0:
482,211,51920,1,0,3:0:0:0:
284,161,52092,1,8,3:0:0:0:
471,103,52265,1,2,3:0:0:0:
391,302,52437,6,0,L|373:171,1,119.999996337891,2|0,3:0|3:0,3:0:0:0:
371,154,52696,1,2,3:0:0:0:
366,130,52782,1,8,3:0:0:0:
182,176,52954,1,2,3:0:0:0:
298,360,53127,6,0,L|301:266,1,75,2|0,3:0|3:0,3:0:0:0:
271,225,53471,6,0,P|256:311|265:424,1,150.000005722046,8|0,3:0|3:0,3:0:0:0:
95,299,53816,6,0,L|85:159,1,119.999996337891,6|0,3:0|3:0,3:0:0:0:
179,133,54161,1,8,3:0:0:0:
46,88,54334,1,2,3:0:0:0:
229,48,54506,1,2,3:0:0:0:
170,216,54678,1,0,3:0:0:0:
135,42,54851,1,8,3:0:0:0:
135,42,54937,1,0,3:0:0:0:
135,42,55023,1,0,3:0:0:0:
449,65,55196,6,0,P|360:57|298:119,1,150.000005722046,6|0,3:0|3:0,3:0:0:0:
396,218,55455,2,0,P|403:165|390:118,1,75.0000028610231,6|8,3:0|3:0,3:0:0:0:
408,236,55713,2,0,P|415:183|402:136,1,75.0000028610231,6|0,3:0|3:0,3:0:0:0:
229,48,55886,2,0,P|222:101|235:148,1,75.0000028610231,6|0,3:0|3:0,3:0:0:0:
37,158,56058,1,8,3:0:0:0:
39,122,56144,1,8,3:0:0:0:
42,85,56230,1,12,3:0:0:0:
42,85,56575,5,2,3:0:0:0:
226,101,56747,1,8,3:0:0:0:
226,101,56834,1,8,3:0:0:0:
226,101,56920,1,8,3:0:0:0:
141,151,57092,2,0,P|131:111|139:56,1,75.0000028610231,2|0,3:2|3:0,3:0:0:0:
330,43,57437,1,8,3:0:0:0:
330,43,57523,1,8,3:0:0:0:
330,43,57609,2,0,B|320:137,1,85.0000016212464,2|0,3:2|3:0,3:0:0:0:
299,254,57954,5,0,3:0:0:0:
441,139,58127,1,8,3:0:0:0:
441,139,58213,1,8,3:0:0:0:
441,139,58299,2,0,L|427:265,1,94.9999974632264,2|0,3:2|3:0,3:0:0:0:
419,358,58644,1,0,3:0:0:0:
157,266,58816,1,8,3:0:0:0:
157,266,58903,1,8,3:0:0:0:
157,266,58989,6,0,B|211:259|211:259|242:269|242:269|300:257|300:257|234:306,1,225.000008583069,4|0,3:2|3:0,3:0:0:0:
97,333,59334,6,0,B|109:293|109:293|97:214,1,100,2|0,3:2|3:0,3:0:0:0:
96,204,59592,1,8,3:0:0:0:
90,178,59678,1,8,3:0:0:0:
225,74,59851,2,0,P|242:138|223:221,1,110.000003356934,2|0,3:2|3:0,3:0:0:0:
35,45,60196,1,8,3:0:0:0:
35,45,60282,1,8,3:0:0:0:
35,45,60368,2,0,B|76:30|76:30|183:46,1,119.999996337891,2|0,3:2|3:0,3:0:0:0:
319,95,60713,5,0,3:0:0:0:
241,305,60885,1,8,3:0:0:0:
241,305,60971,1,8,3:0:0:0:
241,305,61058,2,0,P|223:234|242:172,1,129.999994049073,2|0,3:2|3:0,3:0:0:0:
493,214,61403,1,0,3:0:0:0:
237,180,61575,1,0,3:0:0:0:
422,30,61747,6,0,B|401:94|401:94|418:83|418:83|385:185,1,150.000005722046,4|0,3:2|3:0,3:0:0:0:
363,349,62092,6,0,B|375:309|375:309|363:230,1,100,2|0,0:0|0:0,0:0:0:0:
226,49,62437,2,0,B|214:89|214:89|226:168,1,100,2|0,0:0|0:0,0:0:0:0:
188,285,62782,1,8,0:0:0:0:
119,119,62954,1,0,0:0:0:0:
313,193,63127,1,2,0:0:0:0:
89,241,63299,1,0,0:0:0:0:
131,22,63471,5,2,0:0:0:0:
390,248,63644,1,0,0:0:0:0:
390,248,63730,1,0,0:0:0:0:
390,248,63816,2,0,P|406:183|347:98,1,119.999996337891,2|0,0:0|0:0,0:0:0:0:
119,119,64161,2,0,P|103:184|162:269,1,119.999996337891,10|0,0:0|0:0,0:0:0:0:
330,294,64506,6,0,P|395:310|480:244,1,150.000005722046,6|0,0:0|0:0,0:0:0:0:
381,139,64851,6,0,L|390:250,1,75.0000028610231,2|0,0:0|0:0,0:0:0:0:
131,245,65023,2,0,L|122:134,1,75.0000028610231,2|0,0:0|0:0,0:0:0:0:
391,125,65196,6,0,L|400:236,1,75.0000028610231,2|0,0:0|0:0,0:0:0:0:
141,231,65368,2,0,L|132:120,1,75.0000028610231,2|0,0:0|0:0,0:0:0:0:
309,317,65540,6,0,L|198:326,1,75.0000028610231,10|0,0:0|0:0,0:0:0:0:
203,67,65713,2,0,L|314:58,1,75.0000028610231,2|0,0:0|0:0,0:0:0:0:
323,327,65885,6,0,L|212:336,1,75.0000028610231,2|0,0:0|0:0,0:0:0:0:
217,77,66057,2,0,L|328:68,1,75.0000028610231,2|0,0:0|0:0,0:0:0:0:
464,120,66230,5,2,0:0:0:0:
488,172,66316,1,2,0:0:0:0:
452,231,66402,1,2,0:0:0:0:
501,295,66488,1,2,0:0:0:0:
440,343,66574,5,2,0:0:0:0:
291,70,66747,1,8,0:0:0:0:
248,333,66920,1,2,0:0:0:0:
360,164,67092,5,8,0:0:0:0:
289,185,67178,1,8,0:0:0:0:
220,159,67265,1,12,0:0:0:0:
210,145,67609,6,0,L|206:244,1,75.0000028610231
136,326,67954,1,0,0:0:0:0:
46,230,68127,2,0,L|107:221,1,37.5000014305115
135,180,68299,2,0,L|47:183,1,75.0000028610231
36,36,68644,1,0,0:0:0:0:
140,62,68816,2,0,L|195:56,1,37.5000014305115,2|0,0:0|0:0,0:0:0:0:
240,30,68989,6,0,L|118:26,1,100,2|0,0:0|0:0,0:0:0:0:
191,71,69247,2,0,L|343:79,1,150.000005722046,2|0,0:0|0:0,0:0:0:0:
466,44,69506,2,0,L|384:53,1,50,2|0,0:0|0:0,0:0:0:0:
329,176,69678,2,0,L|393:171,1,64.9999970245363,2|0,0:0|0:0,0:0:0:0:
493,288,69851,2,0,L|389:297,1,75.0000028610231
307,325,70023,2,0,B|368:321|368:321|396:337|396:337|496:329,1,150.000005722046,4|0,0:0|0:0,0:0:0:0:
213,194,70368,6,0,B|196:270|196:270|204:341,1,150.000005722046,6|0,3:0|3:0,3:0:0:0:
79,303,70713,1,8,3:0:0:0:
58,166,70885,1,2,3:0:0:0:
17,345,71058,2,0,B|88:337|88:337|181:357,1,150.000005722046,6|0,3:0|3:0,3:0:0:0:
307,325,71403,1,8,3:0:0:0:
307,325,71489,1,8,3:0:0:0:
307,325,71575,5,8,3:0:0:0:
357,210,71747,2,0,B|280:193|280:193|209:201,1,150.000005722046,6|0,3:0|3:0,3:0:0:0:
179,212,72006,1,2,3:0:0:0:
154,221,72092,1,8,3:0:0:0:
395,302,72265,1,2,3:0:0:0:
256,48,72437,2,0,L|256:224,1,170.000003242493,2|8,3:0|3:0,3:0:0:0:
256,256,72696,1,8,3:0:0:0:
257,301,72782,1,12,3:0:0:0:
257,301,73127,6,0,B|295:307|295:307|344:296,1,75.0000028610231,6|0,3:0|3:0,3:0:0:0:
358,292,73385,1,8,3:0:0:0:
380,285,73471,1,2,3:0:0:0:
465,221,73644,2,0,L|427:216,1,37.5000014305115,8|0,3:0|3:0,3:0:0:0:
371,142,73816,2,0,P|410:132|459:139,1,75.0000028610231,2|8,3:0|3:0,3:0:0:0:
471,142,74075,1,8,3:0:0:0:
490,151,74161,1,2,3:0:0:0:
386,45,74334,2,0,L|333:52,1,37.5000014305115,8|0,3:0|3:0,3:0:0:0:
285,115,74506,6,0,P|257:59|277:-6,1,100,6|0,3:0|3:0,3:0:0:0:
157,64,74765,2,0,B|165:133|165:133|145:211,1,129.999994049073,6|0,3:0|3:0,3:0:0:0:
54,108,75023,2,0,L|47:29,1,75.0000028610231,6|0,3:0|3:0,3:0:0:0:
256,192,75196,2,0,L|263:271,1,75.0000028610231,6|0,3:0|3:0,3:0:0:0:
344,70,75540,6,0,P|404:29|473:50,1,150,8|0,3:0|3:0,3:0:0:0:
403,260,75885,6,0,B|426:213|426:213|418:115,1,150.000005722046,2|0,3:0|3:0,3:0:0:0:
258,244,76230,1,8,3:0:0:0:
325,351,76403,1,2,3:0:0:0:
403,260,76575,2,0,B|356:237|356:237|246:245,1,150.000005722046,2|0,3:0|3:0,3:0:0:0:
197,359,76920,1,8,3:0:0:0:
130,252,77093,1,2,3:0:0:0:
58,362,77265,6,0,B|27:281|27:281|36:203,1,150.000005722046,6|0,3:0|3:0,3:0:0:0:
43,184,77523,1,2,3:0:0:0:
52,154,77609,1,8,3:0:0:0:
256,202,77782,1,2,3:0:0:0:
256,32,77954,2,0,B|256:208,1,170.000003242493,2|8,3:0|3:0,3:0:0:0:
256,240,78213,1,8,3:0:0:0:
256,288,78299,1,12,3:0:0:0:
379,97,78644,6,0,P|363:150|387:219,1,129.999994049073,8|0,0:0|0:0,0:0:0:0:
161,68,78989,2,0,P|214:84|288:57,1,129.999994049073,8|0,0:0|0:0,0:0:0:0:
132,286,79334,2,0,P|148:233|117:164,1,129.999994049073,8|0,0:0|0:0,0:0:0:0:
350,315,79678,2,0,P|297:299|232:331,1,129.999994049073,8|0,0:0|0:0,0:0:0:0:
386,217,80023,6,0,P|450:225|501:184,1,129.999994049073,8|0,0:0|0:0,0:0:0:0:
126,167,80368,2,0,P|62:159|11:200,1,129.999994049073,8|0,0:0|0:0,0:0:0:0:
84,316,80713,6,0,L|96:225,1,64.9999970245363,8|0,0:0|0:0,0:0:0:0:
215,107,80885,2,0,L|227:198,1,64.9999970245363,8|0,0:0|0:0,0:0:0:0:
283,345,81058,6,0,B|266:310|266:310|291:219,1,112.500004291535,4|0,0:0|0:0,0:0:0:0:
380,80,81403,6,0,L|388:222,1,129.999994049073,8|0,0:0|0:0,0:0:0:0:
131,303,81747,2,0,L|124:162,1,129.999994049073,8|0,0:0|0:0,0:0:0:0:
367,316,82092,2,0,L|226:324,1,129.999994049073,8|0,0:0|0:0,0:0:0:0:
144,67,82436,2,0,L|286:60,1,129.999994049073,8|0,0:0|0:0,0:0:0:0:
128,177,82782,6,0,B|62:191|62:191|-1:172,1,129.999994049073,8|0,0:0|0:0,0:0:0:0:
384,207,83127,2,0,B|450:193|450:193|513:212,1,129.999994049073,8|0,0:0|0:0,0:0:0:0:
412,294,83471,6,0,L|301:288,1,64.9999970245363,8|0,0:0|0:0,0:0:0:0:
251,165,83644,2,0,P|295:152|361:166,1,64.9999970245363,8|0,0:0|0:0,0:0:0:0:
438,59,83816,6,0,P|374:46|321:63,1,112.500004291535,4|0,0:0|0:0,0:0:0:0:
95,58,84161,6,0,L|185:64,1,75.0000028610231,8|0,0:0|0:0,0:0:0:0:
113,185,84334,2,0,L|23:191,1,75.0000028610231,8|0,0:0|0:0,0:0:0:0:
20,53,84506,2,0,L|110:59,1,75.0000028610231,8|0,0:0|0:0,0:0:0:0:
187,180,84678,2,0,L|97:186,1,75.0000028610231,8|0,0:0|0:0,0:0:0:0:
457,107,84851,6,0,L|449:224,1,75.0000028610231,8|0,0:0|0:0,0:0:0:0:
292,174,85024,2,0,L|284:57,1,75.0000028610231,8|0,0:0|0:0,0:0:0:0:
462,32,85196,2,0,L|454:149,1,75.0000028610231,8|0,0:0|0:0,0:0:0:0:
297,249,85369,2,0,L|289:132,1,75.0000028610231,8|0,0:0|0:0,0:0:0:0:
428,343,85540,6,0,L|424:339|302:332,1,75.0000028610231,8|0,0:0|0:0,0:0:0:0:
110,274,85713,2,0,L|232:267,1,75.0000028610231,8|0,0:0|0:0,0:0:0:0:
354,335,85885,2,0,L|232:328,1,75.0000028610231,8|0,0:0|0:0,0:0:0:0:
35,278,86058,2,0,L|109:273,1,75.0000028610231,8|0,0:0|0:0,0:0:0:0:
348,160,86230,6,0,L|344:242,1,75.0000028610231,8|0,0:0|0:0,0:0:0:0:
166,143,86403,2,0,L|162:61,1,75.0000028610231,8|0,0:0|0:0,0:0:0:0:
351,85,86575,2,0,L|347:167,1,75.0000028610231,8|0,0:0|0:0,0:0:0:0:
169,217,86748,2,0,L|165:135,1,75.0000028610231,8|0,0:0|0:0,0:0:0:0:
293,31,86920,5,8,0:0:0:0:
323,10,87006,1,8,0:0:0:0:
360,5,87092,1,8,0:0:0:0:
395,18,87178,1,8,0:0:0:0:
420,45,87265,5,8,0:0:0:0:
427,118,87351,1,8,0:0:0:0:
375,168,87437,1,8,0:0:0:0:
303,159,87523,1,8,0:0:0:0:
265,97,87609,5,8,0:0:0:0:
192,42,87695,1,8,0:0:0:0:
105,65,87781,1,8,0:0:0:0:
69,148,87867,1,8,0:0:0:0:
112,228,87954,2,0,L|220:219,1,75.0000028610231,8|8,0:0|0:0,0:0:0:0:
351,85,88127,2,0,L|243:75,1,75.0000028610231,8|8,0:0|0:0,0:0:0:0:
172,141,88299,5,8,0:0:0:0:
429,169,88471,1,8,0:0:0:0:
429,169,88558,1,8,0:0:0:0:
429,169,88644,1,8,0:0:0:0:
283,334,88816,1,8,0:0:0:0:
87,92,88989,2,0,P|73:158|106:217,1,112.500004291535,8|0,0:0|0:0,0:0:0:0:
266,173,89334,6,0,B|276:133|276:133|239:82|239:82|181:111|181:111|170:145,1,200,12|0,0:0|0:0,0:0:0:0:
388,277,89678,6,0,B|371:200|371:200|390:107,1,150.000005722046,2|0,0:0|0:0,0:0:0:0:
483,64,89937,1,0,0:0:0:0:
499,101,90023,2,0,L|485:202,1,75.0000028610231,8|0,0:0|0:0,0:0:0:0:
264,215,90196,2,0,L|274:289,1,75.0000028610231,8|0,0:0|0:0,0:0:0:0:
296,124,90368,6,0,P|248:118|167:185,1,150.000005722046,2|0,0:0|0:0,0:0:0:0:
95,275,90627,1,0,0:0:0:0:
69,244,90713,2,0,P|54:208|64:159,1,75.0000028610231,8|0,0:0|0:0,0:0:0:0:
162,34,90885,2,0,L|175:121,1,75.0000028610231
229,317,91058,5,2,0:0:0:0:
300,222,91230,1,0,0:0:0:0:
300,222,91316,1,0,0:0:0:0:
300,222,91403,2,0,P|229:198|159:221,1,150.000005722046,8|8,0:0|0:0,0:0:0:0:
342,357,91747,2,0,B|322:285|322:285|342:191,1,150.000005722046,2|0,0:0|0:0,0:0:0:0:
467,241,92006,1,0,0:0:0:0:
442,270,92092,2,0,P|395:288|332:271,1,75.0000028610231,8|0,0:0|0:0,0:0:0:0:
292,127,92265,2,0,L|399:135,1,75.0000028610231
491,34,92437,5,2,0:0:0:0:
336,51,92609,1,0,0:0:0:0:
336,51,92696,1,0,0:0:0:0:
336,51,92782,1,8,0:0:0:0:
483,142,92954,1,8,0:0:0:0:
203,241,93127,2,0,B|180:171|180:171|195:76,1,150.000005722046,2|0,0:0|0:0,0:0:0:0:
204,58,93385,1,0,0:0:0:0:
217,18,93471,1,8,0:0:0:0:
424,57,93644,1,0,0:0:0:0:
398,206,93816,6,0,P|369:134|450:49,1,179.999994506836,6|0,0:0|0:0,0:0:0:0:
483,142,94075,1,2,0:0:0:0:
492,178,94161,2,0,P|497:228|443:299,1,100,8|0,0:0|0:0,0:0:0:0:
303,360,94334,2,0,L|291:246,1,75.0000028610231,2|0,0:0|0:0,0:0:0:0:
281,148,94506,2,0,P|221:186|127:93,1,200,2|0,0:0|0:0,0:0:0:0:
213,93,94765,5,8,0:0:0:0:
234,140,94851,2,0,L|210:187,1,37.5000014305115,8|8,0:0|0:0,0:0:0:0:
192,175,94937,2,0,L|203:230,1,37.5000014305115,8|8,0:0|0:0,0:0:0:0:
204,227,95023,1,8,0:0:0:0:
239,275,95109,1,8,0:0:0:0:
198,317,95196,6,0,B|251:292|251:292|350:318,1,150.000005722046,6|0,0:0|0:0,0:0:0:0:
427,248,95454,1,0,0:0:0:0:
448,287,95540,2,0,P|451:339|439:373,1,75.0000028610231,8|0,0:0|0:0,0:0:0:0:
280,206,95713,2,0,L|289:120,1,75.0000028610231,8|0,0:0|0:0,0:0:0:0:
463,50,95885,6,0,P|398:78|315:42,1,150.000005722046,2|0,0:0|0:0,0:0:0:0:
194,15,96144,1,0,0:0:0:0:
206,61,96230,2,0,P|211:103|189:163,1,75.0000028610231,8|0,0:0|0:0,0:0:0:0:
22,206,96403,2,0,L|39:104,1,75.0000028610231
60,21,96575,5,2,0:0:0:0:
135,216,96747,1,0,0:0:0:0:
135,216,96834,1,0,0:0:0:0:
135,216,96920,2,0,P|200:233|315:150,1,150.000005722046,8|8,0:0|0:0,0:0:0:0:
112,118,97265,2,0,B|94:199|94:199|118:313,1,150.000005722046,2|0,0:0|0:0,0:0:0:0:
188,344,97523,1,0,0:0:0:0:
210,318,97609,2,0,P|224:279|212:219,1,75.0000028610231,8|0,0:0|0:0,0:0:0:0:
198,58,97782,2,0,P|212:97|200:157,1,75.0000028610231
107,264,97954,5,2,0:0:0:0:
37,123,98127,2,0,L|127:116,1,75.0000028610231
337,106,98299,2,0,L|294:189,1,85.0000016212464,8|0,0:0|0:0,0:0:0:0:
188,344,98471,2,0,L|128:257,1,100,8|0,0:0|0:0,0:0:0:0:
241,83,98644,2,0,B|310:87|310:87|341:65|341:65|366:88|366:88|424:91,1,200,2|0,0:0|0:0,0:0:0:0:
464,93,98903,1,0,0:0:0:0:
504,95,98989,1,8,0:0:0:0:
469,249,99161,1,0,0:0:0:0:
315,268,99334,6,0,P|395:219|494:299,1,179.999994506836,6|0,0:0|0:0,0:0:0:0:
401,324,99592,1,2,0:0:0:0:
355,360,99678,2,0,P|288:369|246:344,1,100,8|0,0:0|0:0,0:0:0:0:
51,254,99851,2,0,L|168:262,1,75.0000028610231,2|0,0:0|0:0,0:0:0:0:
256,205,100023,2,0,B|175:197|175:197|147:217|147:217|37:208,1,200,8|0,0:0|0:0,0:0:0:0:
368,57,100368,6,0,B|445:43|445:43|458:143|458:143|372:162,1,250,4|0,0:0|0:0,0:0:0:0:
177,222,100713,6,0,P|147:287|195:368,1,150.000005722046,2|0,0:0|0:0,0:0:0:0:
250,289,100972,1,0,0:0:0:0:
268,257,101058,2,0,P|277:232|278:182,1,75.0000028610231,8|0,0:0|0:0,0:0:0:0:
92,56,101231,2,0,L|102:130,1,75.0000028610231,8|0,0:0|0:0,0:0:0:0:
334,128,101403,6,0,P|406:139|481:63,1,150.000005722046,2|0,0:0|0:0,0:0:0:0:
401,21,101662,1,0,0:0:0:0:
389,60,101748,2,4,P|385:96|400:131,1,75.0000028610231,8|0,0:0|0:0,0:0:0:0:
476,271,101920,2,4,P|490:236|487:199,1,75.0000028610231,0|0,0:0|0:0,0:0:0:0:
278,183,102093,1,2,0:0:0:0:
359,354,102265,6,4,L|468:340,1,75.0000028610231,4|0,0:0|0:0,0:0:0:0:
399,222,102437,1,8,0:0:0:0:
297,279,102609,6,0,L|198:266,1,100,12|0,0:0|0:0,0:0:0:0:
236,120,102782,1,0,0:0:0:0:
40,187,102954,6,0,L|185:169,1,125,4|8,0:0|0:0,0:0:0:0:
135,22,103127,1,8,0:0:0:0:
201,347,103299,6,0,L|44:330,1,150.000005722046,4|0,0:0|0:0,0:0:0:0:
89,96,103471,1,2,0:0:0:0:
141,261,103644,5,0,0:0:0:0:
141,261,103730,1,0,0:0:0:0:
141,261,103816,1,8,0:0:0:0:
251,32,103989,1,8,0:0:0:0:
308,107,104161,6,0,P|243:123|172:79,1,150.000005722046,2|0,0:0|0:0,0:0:0:0:
161,48,104420,1,0,0:0:0:0:
154,21,104506,1,8,0:0:0:0:
405,42,104678,1,0,0:0:0:0:
280,166,104851,6,0,P|268:105|336:26,1,170.000003242493,6|0,0:0|0:0,0:0:0:0:
377,123,105109,1,2,0:0:0:0:
398,166,105196,2,0,P|403:211|368:263,1,100,8|0,0:0|0:0,0:0:0:0:
174,207,105368,2,0,P|169:162|200:113,1,75.0000028610231,2|0,0:0|0:0,0:0:0:0:
265,247,105540,2,0,B|191:240|191:240|171:257|171:257|152:237|152:237|48:226,1,200,2|0,0:0|0:0,0:0:0:0:
60,129,105799,5,8,0:0:0:0:
103,106,105885,2,0,L|165:85,1,37.5000014305115,8|8,0:0|0:0,0:0:0:0:
149,136,105971,2,0,L|204:155,1,37.5000014305115,8|8,0:0|0:0,0:0:0:0:
200,116,106057,1,8,0:0:0:0:
241,157,106143,1,8,0:0:0:0:
284,146,106230,6,0,B|263:236|263:236|290:324,1,150.000005722046,6|0,0:0|0:0,0:0:0:0:
353,370,106489,1,0,0:0:0:0:
378,351,106575,2,0,P|398:308|388:256,1,75.0000028610231,8|0,0:0|0:0,0:0:0:0:
478,126,106747,2,0,L|467:200,1,75.0000028610231,8|0,0:0|0:0,0:0:0:0:
357,105,106920,6,0,P|418:124|487:54,1,150.000005722046,2|0,0:0|0:0,0:0:0:0:
406,38,107179,1,0,0:0:0:0:
381,17,107265,2,0,P|331:16|278:51,1,75.0000028610231,8|0,0:0|0:0,0:0:0:0:
273,184,107437,2,0,P|235:187|200:176,1,75.0000028610231
58,24,107610,1,2,0:0:0:0:
133,144,107782,6,0,L|266:131,1,75.0000028610231,4|0,0:0|0:0,0:0:0:0:
286,35,107954,1,8,0:0:0:0:
372,196,108127,6,0,L|239:209,1,100,12|0,0:0|0:0,0:0:0:0:
190,35,108299,1,2,0:0:0:0:
141,298,108471,6,0,L|327:280,1,125,4|8,0:0|0:0,0:0:0:0:
382,35,108643,1,8,0:0:0:0:
395,355,108816,6,0,L|166:377,1,150.000005722046,4|0,0:0|0:0,0:0:0:0:
94,35,108989,1,2,0:0:0:0:
280,88,109161,6,0,L|187:103,1,75.0000028610231
332,271,109334,2,0,L|365:183,1,85.0000016212464,8|0,0:0|0:0,0:0:0:0:
149,224,109506,2,0,L|215:299,1,100,8|0,0:0|0:0,0:0:0:0:
481,129,109678,6,0,B|435:103|435:103|459:178|459:178|439:278,1,200,2|0,0:0|0:0,0:0:0:0:
438,288,109937,1,0,0:0:0:0:
429,327,110023,1,8,0:0:0:0:
215,300,110196,1,0,0:0:0:0:
247,158,110368,6,0,P|269:232|169:306,1,170.000003242493,6|0,0:0|0:0,0:0:0:0:
167,219,110627,1,2,0:0:0:0:
138,173,110713,2,0,P|140:122|181:82,1,100,8|0,0:0|0:0,0:0:0:0:
381,195,110885,2,0,L|361:309,1,75.0000028610231,2|0,0:0|0:0,0:0:0:0:
328,116,111058,2,0,P|409:102|471:189,1,200,8|0,0:0|0:0,0:0:0:0:
364,366,111403,6,0,B|318:254|381:192|381:192|384:245|438:278,1,250,4|0,0:0|0:0,0:0:0:0:
439,349,111747,6,0,B|361:365|361:365|271:348,1,150.000005722046,2|0,0:0|0:0,0:0:0:0:
167,237,112006,2,0,L|146:348,1,100,2|0,0:0|0:0,0:0:0:0:
106,159,112265,1,2,0:0:0:0:
106,159,112351,1,0,0:0:0:0:
106,159,112437,2,0,P|187:138|254:198,1,150.000005722046,8|0,0:0|0:0,0:0:0:0:
26,121,112696,2,0,L|15:19,1,100,2|0,0:0|0:0,0:0:0:0:
26,7,112954,2,0,L|37:107,1,100,2|0,0:0|0:0,0:0:0:0:
98,304,113127,6,0,B|84:228|84:228|115:129,1,150.000005722046,6|0,0:0|0:0,0:0:0:0:
221,71,113385,1,0,0:0:0:0:
230,99,113471,2,0,L|256:219,1,100,8|0,0:0|0:0,0:0:0:0:
290,322,113644,2,0,L|176:346,1,75.0000028610231,8|0,0:0|0:0,0:0:0:0:
69,322,113816,6,0,B|54:239|54:239|85:136,1,179.999994506836,2|0,0:0|0:0,0:0:0:0:
245,42,114075,1,0,0:0:0:0:
254,70,114161,2,0,L|280:190,1,100,8|0,0:0|0:0,0:0:0:0:
216,337,114334,2,0,L|195:245,1,75.0000028610231
356,193,114506,6,0,P|411:204|512:126,1,150.000005722046,2|0,0:0|0:0,0:0:0:0:
388,31,114765,2,0,L|279:48,1,100,2|0,0:0|0:0,0:0:0:0:
254,70,115023,2,0,L|352:54,1,100,2|0,0:0|0:0,0:0:0:0:
481,6,115196,6,0,B|485:54|459:83|459:83|480:124|470:184,1,150.000005722046,8|0,0:0|0:0,0:0:0:0:
496,278,115454,2,0,P|443:280|387:226,1,100,2|0,0:0|0:0,0:0:0:0:
393,279,115713,2,0,P|435:305|485:302,1,100,2|0,0:0|0:0,0:0:0:0:
382,141,115885,5,6,0:0:0:0:
311,351,116058,1,0,0:0:0:0:
311,351,116144,1,2,0:0:0:0:
311,351,116230,2,0,L|436:337,1,100,8|0,0:0|0:0,0:0:0:0:
456,149,116403,2,0,L|334:135,1,75.0000028610231,2|0,0:0|0:0,0:0:0:0:
211,131,116575,2,0,L|246:254,1,100,2|0,0:0|0:0,0:0:0:0:
334,61,116747,5,0,0:0:0:0:
286,35,116833,1,8,0:0:0:0:
254,62,116920,2,0,L|197:91,1,50,8|8,0:0|0:0,0:0:0:0:
207,32,117006,2,0,L|157:15,1,50,8|8,0:0|0:0,0:0:0:0:
167,71,117091,1,8,0:0:0:0:
126,53,117178,1,8,0:0:0:0:
84,77,117265,6,0,B|106:144|106:144|84:238,1,150,4|2,0:0|0:0,0:0:0:0:
18,160,117609,6,0,L|186:146,1,150.000005722046,8|8,0:0|0:0,0:0:0:0:
489,247,117954,2,0,L|309:233,1,179.999994506836,2|0,0:0|0:0,0:0:0:0:
136,278,118299,1,8,0:0:0:0:
401,240,118471,1,0,0:0:0:0:
330,55,118644,5,2,0:0:0:0:
276,328,118816,1,0,0:0:0:0:
276,328,118903,1,0,0:0:0:0:
276,328,118989,1,8,0:0:0:0:
121,298,119161,1,8,0:0:0:0:
401,240,119334,5,2,0:0:0:0:
68,166,119506,1,0,0:0:0:0:
68,166,119592,1,8,0:0:0:0:
68,166,119678,1,8,0:0:0:0:
105,321,119851,1,0,0:0:0:0:
203,152,120023,6,0,P|249:132|298:138,2,100.000003814697,2|0|0,0:0|0:0|0:0,0:0:0:0:
124,85,120368,2,0,P|73:65|1:88,2,100.000003814697,8|0|0,0:0|0:0|0:0,0:0:0:0:
264,227,120713,5,2,0:0:0:0:
214,31,120885,1,0,0:0:0:0:
148,300,121058,1,8,0:0:0:0:
428,181,121230,1,0,0:0:0:0:
66,157,121403,5,8,0:0:0:0:
258,367,121575,1,8,0:0:0:0:
258,367,121661,1,8,0:0:0:0:
258,367,121747,1,8,0:0:0:0:
480,286,121920,1,8,0:0:0:0:
192,197,122092,2,0,B|226:265|226:265|258:199|258:199|220:143|220:143|238:47,1,300.000011444092,8|4,0:0|0:0,0:0:0:0:
361,79,122782,6,0,P|387:162|351:244,1,150.000005722046,2|2,1:0|1:0,3:0:0:0:
207,288,123299,1,0,3:0:0:0:
472,246,123471,2,0,P|436:311|362:331,1,150.000005722046,2|2,1:0|1:0,3:0:0:0:
207,288,123989,1,0,3:0:0:0:
287,154,124161,6,0,L|294:253,1,75.0000028610231,2|0,1:0|3:0,3:0:0:0:
293,260,124420,1,0,3:0:0:0:
296,285,124506,1,2,1:0:0:0:
119,312,124678,1,0,3:0:0:0:
82,200,124851,2,0,P|135:192|193:216,1,112.500004291535,2|0,1:0|3:0,3:0:0:0:
27,282,125196,6,0,P|-11:240|29:128,1,150.000005722046,12|0,1:0|3:0,3:0:0:0:
215,96,125540,6,0,P|157:118|95:74,1,100,2|0,3:0|3:0,3:0:0:0:
35,40,125885,1,8,3:0:0:0:
166,30,126058,1,2,3:0:0:0:
73,211,126230,2,0,L|217:201,1,119.999996337891,2|0,3:0|3:0,3:0:0:0:
259,344,126575,1,8,3:0:0:0:
259,344,126661,1,8,3:0:0:0:
259,344,126747,2,0,L|177:332,1,59.9999981689454,2|0,3:0|3:0,3:0:0:0:
284,253,126920,6,0,B|353:266|353:266|442:250,1,139.999995727539,2|0,3:0|3:0,3:0:0:0:
470,349,127178,2,0,L|339:373,1,75.0000028610231,0|8,3:0|3:0,3:0:0:0:
257,152,127437,2,0,L|388:176,1,75.0000028610231,2|0,3:0|3:0,3:0:0:0:
493,53,127609,2,0,B|425:59|425:59|408:49|408:49|314:58,1,150.000005722046,2|8,3:0|3:0,3:0:0:0:
314,59,127868,1,8,3:0:0:0:
278,65,127954,1,12,3:0:0:0:
173,41,128299,6,0,P|168:87|199:139,1,100,2|0,3:0|3:0,3:0:0:0:
75,175,128644,1,8,3:0:0:0:
19,87,128816,2,0,L|87:94,1,50,2|0,3:0|3:0,3:0:0:0:
136,182,128989,2,0,L|86:187,1,50,2|0,3:0|3:0,3:0:0:0:
34,276,129161,1,0,3:0:0:0:
235,314,129334,1,8,3:0:0:0:
235,314,129420,1,8,3:0:0:0:
235,314,129506,2,0,L|245:257,1,50,2|0,3:0|3:0,3:0:0:0:
256,196,129678,6,0,L|277:354,1,119.999996337891,2|0,3:0|3:0,3:0:0:0:
373,364,129937,2,0,L|363:287,1,75.0000028610231,2|8,3:0|3:0,3:0:0:0:
375,260,130196,2,0,L|384:338,1,64.9999970245363,2|0,3:0|3:0,3:0:0:0:
488,238,130368,2,0,P|456:171|471:99,1,150.000005722046,2|0,3:0|3:0,3:0:0:0:
308,14,130713,2,0,B|321:89|321:89|293:187,1,150.000005722046,8|0,3:0|3:0,3:0:0:0:
243,260,131058,5,2,3:0:0:0:
204,81,131230,1,2,3:0:0:0:
356,160,131403,1,8,3:0:0:0:
102,181,131575,1,2,3:0:0:0:
209,49,131747,5,2,3:0:0:0:
239,289,131920,1,2,3:0:0:0:
78,162,132092,2,0,L|179:150,1,75.0000028610231,8|8,3:0|3:0,3:0:0:0:
377,138,132265,1,10,3:0:0:0:
387,173,132351,1,10,3:0:0:0:
374,208,132437,5,2,3:0:0:0:
346,275,132523,1,2,3:0:0:0:
374,342,132609,1,2,3:0:0:0:
443,367,132695,1,2,3:0:0:0:
508,335,132781,5,10,3:0:0:0:
257,320,132954,1,2,3:0:0:0:
442,277,133127,1,2,3:0:0:0:
175,245,133299,1,8,3:0:0:0:
172,282,133385,1,8,3:0:0:0:
169,319,133471,1,12,3:0:0:0:
451,262,133816,5,0,3:0:0:0:
465,246,134334,1,0,3:0:0:0:
354,264,134506,1,0,3:0:0:0:
408,166,134678,1,0,3:0:0:0:
427,333,134851,1,0,3:0:0:0:
264,307,135023,1,0,3:0:0:0:
480,232,135196,5,8,3:0:0:0:
201,197,135368,1,8,3:0:0:0:
201,197,135454,1,8,3:0:0:0:
201,197,135540,1,8,3:0:0:0:
345,227,135713,1,8,3:0:0:0:
133,268,135885,1,8,3:0:0:0:
212,108,136058,1,8,3:0:0:0:
256,336,136230,1,12,3:0:0:0:
267,319,136575,5,8,0:3:0:0:
278,302,136920,1,8,0:3:0:0:
112,321,137092,1,0,0:3:0:0:
171,165,137265,1,8,0:3:0:0:
368,203,137437,1,8,0:3:0:0:
368,203,137523,1,8,0:3:0:0:
368,203,137609,1,8,0:3:0:0:
65,234,137782,1,0,0:3:0:0:
115,41,137954,5,8,0:3:0:0:
365,85,138127,1,8,0:3:0:0:
365,85,138213,1,8,0:3:0:0:
365,85,138299,1,8,0:3:0:0:
43,137,138471,1,0,0:3:0:0:
251,30,138644,1,8,0:3:0:0:
288,315,138816,1,8,0:3:0:0:
47,274,138989,1,12,0:3:0:0:
47,274,139334,5,10,3:2:0:0:
60,260,139420,1,0,3:2:0:0:
70,245,139506,1,8,3:2:0:0:
76,227,139592,1,0,3:2:0:0:
78,208,139678,1,10,3:2:0:0:
76,190,139765,1,0,3:2:0:0:
70,172,139851,1,8,3:2:0:0:
61,156,139937,1,0,3:2:0:0:
48,145,140023,5,10,3:2:0:0:
34,124,140109,1,0,3:2:0:0:
30,99,140195,1,8,3:2:0:0:
35,75,140281,1,0,3:2:0:0:
49,55,140367,1,10,3:2:0:0:
70,41,140454,1,0,3:2:0:0:
94,37,140540,1,8,3:2:0:0:
119,42,140626,1,0,3:2:0:0:
139,58,140713,5,10,3:2:0:0:
165,84,140799,1,0,3:2:0:0:
196,104,140885,1,8,3:2:0:0:
232,116,140971,1,0,3:2:0:0:
269,118,141057,1,10,3:2:0:0:
306,112,141144,1,0,3:2:0:0:
340,97,141230,1,8,3:2:0:0:
370,75,141316,1,0,3:2:0:0:
394,46,141403,5,10,3:2:0:0:
353,30,141489,1,0,3:2:0:0:
310,30,141575,1,8,3:2:0:0:
269,46,141661,1,0,3:2:0:0:
238,76,141747,1,10,3:2:0:0:
220,116,141834,1,0,3:2:0:0:
218,159,141920,1,8,3:2:0:0:
233,200,142006,1,0,3:2:0:0:
261,233,142092,5,10,3:2:0:0:
280,291,142178,1,8,3:2:0:0:
253,346,142264,1,10,3:2:0:0:
196,368,142350,1,8,3:2:0:0:
140,345,142437,1,10,3:2:0:0:
109,291,142523,1,8,3:2:0:0:
121,231,142609,1,10,3:2:0:0:
169,193,142695,1,8,3:2:0:0:
233,200,142782,5,10,3:2:0:0:
303,224,142868,1,8,3:2:0:0:
372,199,142954,1,10,3:2:0:0:
410,136,143040,1,8,3:2:0:0:
401,63,143127,1,10,3:2:0:0:
315,19,143213,1,8,3:2:0:0:
231,65,143299,1,10,3:2:0:0:
221,161,143385,1,8,3:2:0:0:
315,119,144506,6,0,L|390:121,1,50,12|0,0:0|0:0,0:0:0:0:
457,90,144851,6,0,L|311:86,1,100,6|0,0:0|0:0,0:0:0:0:
238,34,145109,1,2,0:0:0:0:
225,48,145196,2,0,P|220:99|238:143,1,75.0000028610231,2|0,0:0|0:0,0:0:0:0:
289,204,145368,2,0,B|376:215|376:215|407:197|407:197|503:208,1,200,2|8,0:0|0:0,0:0:0:0:
357,325,145713,6,0,L|233:310,1,75.0000028610231,2|0,0:0|0:0,0:0:0:0:
90,212,145885,2,0,L|165:113,1,75.0000028610231,2|0,0:0|0:0,0:0:0:0:
320,38,146058,2,0,L|369:152,1,75.0000028610231
282,315,146230,2,0,B|260:255|288:204|288:204|332:206|365:241,1,200,2|0,0:0|0:0,0:0:0:0:
450,339,146489,1,2,0:0:0:0:
436,326,146575,2,0,P|385:321|341:339,1,75.0000028610231,2|0,0:0|0:0,0:0:0:0:
181,364,146747,2,0,B|149:294|175:202|175:202|193:243|193:323,1,200,2|8,0:0|0:0,0:0:0:0:
76,148,147006,5,0,0:0:0:0:
66,168,147093,2,0,L|75:273,1,75.0000028610231,2|0,0:0|0:0,0:0:0:0:
249,112,147265,2,0,L|255:37,1,75.0000028610231,2|0,0:0|0:0,0:0:0:0:
59,93,147437,2,0,L|65:167,1,75.0000028610231
238,236,147609,2,0,L|256:19,1,200,2|0,0:0|0:0,0:0:0:0:
389,24,147868,5,2,0:0:0:0:
373,38,147954,2,0,P|364:81|394:163,1,75.0000028610231,2|0,0:0|0:0,0:0:0:0:
503,120,148127,2,0,B|442:103|366:111|366:111|461:171,1,200,2|8,0:0|0:0,0:0:0:0:
483,224,148471,6,0,L|475:110,1,75.0000028610231,2|0,0:0|0:0,0:0:0:0:
318,297,148644,2,0,L|312:371,1,75.0000028610231,2|0,0:0|0:0,0:0:0:0:
438,126,148816,2,0,L|443:200,1,75.0000028610231
272,48,148989,2,0,P|283:126|326:58,1,200,2|0,0:0|0:0,0:0:0:0:
166,16,149247,1,2,0:0:0:0:
84,58,149334,2,0,P|126:62|172:40,1,75.0000028610231,2|0,0:0|0:0,0:0:0:0:
355,140,149506,2,0,L|267:122,1,75.0000028610231,2|0,0:0|0:0,0:0:0:0:
252,293,149678,5,8,0:0:0:0:
318,297,149764,1,8,0:0:0:0:
386,302,149850,1,8,0:0:0:0:
453,307,149936,1,8,0:0:0:0:
492,236,150023,5,8,0:0:0:0:
417,231,150109,1,8,0:0:0:0:
343,226,150195,1,8,0:0:0:0:
268,220,150282,1,8,0:0:0:0:
310,150,150368,6,0,L|523:163,1,200,6|0,0:0|0:0,0:0:0:0:
475,31,150627,1,2,0:0:0:0:
453,39,150713,2,0,P|436:105|456:156,1,100,2|0,0:0|0:0,0:0:0:0:
331,293,150885,2,0,B|269:200|340:88|340:88|335:127|373:236,1,250,2|8,0:0|0:0,0:0:0:0:
458,271,151230,6,0,L|426:423,1,100,2|0,0:0|0:0,0:0:0:0:
216,328,151403,2,0,P|197:273|195:230,1,100,2|0,0:0|0:0,0:0:0:0:
476,246,151575,2,0,L|444:398,1,100
208,357,151747,2,0,P|167:237|245:92,1,250,2|0,0:0|0:0,0:0:0:0:
134,28,152006,1,2,0:0:0:0:
219,42,152092,2,0,P|155:53|101:30,1,100,2|0,0:0|0:0,0:0:0:0:
52,245,152265,2,0,B|108:261|108:261|139:197|139:197|108:141|108:141|52:149,1,250,2|8,0:0|0:0,0:0:0:0:
216,114,152609,6,0,L|248:-38,1,100,2|0,0:0|0:0,0:0:0:0:
458,57,152782,2,0,P|477:112|479:155,1,100,2|0,0:0|0:0,0:0:0:0:
198,139,152954,2,0,L|230:-13,1,100
466,28,153127,2,0,P|507:148|429:293,1,250,2|0,0:0|0:0,0:0:0:0:
188,331,153385,1,2,0:0:0:0:
241,341,153471,2,0,L|373:361,1,100,2|0,0:0|0:0,0:0:0:0:
491,323,153644,2,0,B|457:270|457:270|242:238,1,250,2|8,0:0|0:0,0:0:0:0:
147,179,153989,6,0,L|122:275,1,100,2|0,0:0|0:0,0:0:0:0:
321,104,154161,2,0,L|248:34,1,100,2|0,0:0|0:0,0:0:0:0:
299,292,154334,2,0,L|395:264,1,100
256,191,154506,5,8,3:0:0:0:
30,222,154678,1,0,3:0:0:0:
30,222,154765,1,0,3:0:0:0:
30,222,154851,1,8,3:0:0:0:
127,90,155023,1,0,3:0:0:0:
145,307,155196,1,8,3:0:0:0:
34,63,155368,5,0,0:0:0:0:
63,42,155454,1,0,0:0:0:0:
167,57,155540,1,0,0:0:0:0:
203,33,155626,1,0,0:0:0:0:
300,52,155712,1,0,0:0:0:0:
364,21,155799,1,0,0:0:0:0:
433,47,155885,6,0,B|446:84|446:84|428:144,1,75.0000028610231,6|0,0:0|0:0,0:0:0:0:
363,201,156144,1,0,0:0:0:0:
363,201,156230,2,0,L|458:207,1,50
347,107,156403,2,0,L|185:119,1,129.999994049073,2|8,0:0|0:0,0:0:0:0:
79,152,156747,2,0,L|84:221,1,50
129,325,156920,2,0,P|149:237|63:243,1,194.999991073609,2|0,0:0|0:0,0:0:0:0:
35,341,157265,6,0,L|189:353,1,129.999994049073
271,313,157523,1,0,0:0:0:0:
271,313,157609,2,0,L|354:321,1,50,2|0,0:0|0:0,0:0:0:0:
207,205,157782,2,0,L|290:213,1,50
386,144,157954,2,0,B|327:117|327:117|360:274,1,194.999991073609,8|0,0:0|0:0,0:0:0:0:
433,357,158299,2,0,L|455:197,1,150.000005722046,6|0,0:0|0:0,0:0:0:0:
480,57,158644,6,0,P|434:69|387:47,1,75.0000028610231,2|0,0:0|0:0,0:0:0:0:
246,23,158903,1,0,0:0:0:0:
246,23,158989,2,0,L|257:106,1,50
320,160,159161,2,0,B|265:181|265:181|140:163,1,129.999994049073,2|8,0:0|0:0,0:0:0:0:
25,103,159506,2,0,L|114:94,1,50
141,262,159678,2,0,B|73:275|73:275|86:181|86:181|122:209,1,194.999991073609,2|0,0:0|0:0,0:0:0:0:
242,250,160023,6,0,L|205:420,1,129.999994049073
73,353,160282,1,0,0:0:0:0:
73,353,160368,2,0,L|62:260,1,50,2|0,0:0|0:0,0:0:0:0:
152,183,160540,2,0,L|146:232,1,50
33,170,160713,5,8,0:0:0:0:
31,104,160799,1,8,0:0:0:0:
73,55,160885,1,8,0:0:0:0:
138,45,160971,1,8,0:0:0:0:
216,61,161058,5,8,0:0:0:0:
219,144,161144,1,8,0:0:0:0:
222,227,161230,1,8,0:0:0:0:
225,310,161316,1,8,0:0:0:0:
225,310,161403,6,0,B|342:371|296:253|450:334,1,194.999991073609,6|0,0:0|0:0,0:0:0:0:
457,154,161747,2,0,P|394:174|472:181,1,194.999991073609,2|0,0:0|0:0,0:0:0:0:
403,38,162092,6,0,B|346:73|274:56|274:56|320:81|336:138,1,200,8|0,0:0|0:0,0:0:0:0:
219,144,162351,2,0,B|211:174|245:214|245:214|256:169|241:144,1,150.000005722046,2|0,0:0|0:0,0:0:0:0:
63,214,162609,2,0,L|128:223,1,64.9999970245363,2|0,0:0|0:0,0:0:0:0:
69,52,162782,6,0,B|40:121|40:121|124:132|124:132|121:98,1,194.999991073609,2|0,0:0|0:0,0:0:0:0:
296,24,163127,2,0,B|357:50|357:50|306:76|231:54,1,194.999991073609,2|0,0:0|0:0,0:0:0:0:
258,153,163471,6,0,B|232:198|232:198|379:181,1,200,8|0,0:0|0:0,0:0:0:0:
466,91,163730,2,0,P|490:157|461:248,1,150.000005722046,2|0,0:0|0:0,0:0:0:0:
359,340,163989,2,0,L|367:261,1,64.9999970245363,2|0,0:0|0:0,0:0:0:0:
258,153,164161,6,0,L|265:227,1,75.0000028610231,2|0,0:0|0:0,0:0:0:0:
167,326,164334,2,0,L|174:252,1,75.0000028610231,2|0,0:0|0:0,0:0:0:0:
154,51,164506,2,0,L|161:125,1,75.0000028610231,2|0,0:0|0:0,0:0:0:0:
25,275,164679,2,0,L|32:201,1,75.0000028610231,2|2,0:0|0:0,0:0:0:0:
63,84,164851,5,10,0:0:0:0:
104,57,164937,1,2,0:0:0:0:
154,51,165023,1,2,0:0:0:0:
200,67,165109,1,2,0:0:0:0:
256,119,165196,5,2,0:0:0:0:
324,144,165282,1,2,0:0:0:0:
395,123,165368,1,2,0:0:0:0:
438,64,165454,1,2,0:0:0:0:
438,64,165540,5,2,0:0:0:0:
320,44,165713,1,0,0:0:0:0:
320,44,165799,1,0,0:0:0:0:
320,44,165885,1,0,0:0:0:0:
369,238,166058,1,0,0:0:0:0:
491,191,166230,1,0,0:0:0:0:
283,165,166403,1,0,0:0:0:0:
315,311,166575,1,0,0:0:0:0:
379,229,166747,1,0,0:0:0:0:
416,156,172437,6,0,L|517:172,1,75.0000028610231,2|0,3:0|3:0,3:0:0:0:
426,58,172782,2,0,L|351:69,1,75.0000028610231,8|0,3:0|3:0,3:0:0:0:
327,75,173040,1,2,3:0:0:0:
306,79,173127,1,0,3:0:0:0:
272,211,173299,1,2,3:0:0:0:
205,32,173471,2,0,P|192:77|207:132,1,100,8|0,3:0|3:0,3:0:0:0:
342,227,173816,6,0,P|303:209|251:219,1,75.0000028610231,2|0,3:0|3:0,3:0:0:0:
333,319,174161,2,0,P|370:319|403:302,1,75.0000028610231,8|0,3:0|3:0,3:0:0:0:
426,286,174420,1,2,3:0:0:0:
441,269,174506,1,0,3:0:0:0:
241,300,174678,1,2,3:0:0:0:
485,347,174851,1,8,3:0:0:0:
453,175,175023,1,0,3:0:0:0:
292,201,175196,5,2,3:0:0:0:
392,276,175368,1,0,3:0:0:0:
430,65,175540,1,8,3:0:0:0:
208,99,175713,1,0,3:0:0:0:
208,99,175799,1,2,3:0:0:0:
208,99,175885,1,0,3:0:0:0:
335,138,176058,1,2,3:0:0:0:
95,109,176230,1,8,3:0:0:0:
152,322,176403,1,0,3:0:0:0:
183,222,176575,6,0,P|124:216|87:240,1,75.0000028610231,2|0,3:0|3:0,3:0:0:0:
274,252,176920,2,0,P|282:215|273:179,1,75.0000028610231,8|0,3:0|3:0,3:0:0:0:
265,163,177178,1,2,3:0:0:0:
253,148,177265,1,0,3:0:0:0:
110,221,177437,1,2,3:0:0:0:
301,275,177609,2,0,L|309:181,1,75.0000028610231,8|0,3:0|3:0,3:0:0:0:
373,64,177954,6,0,B|356:50|356:50|364:163,1,100,8|0,3:0|3:0,3:0:0:0:
462,264,178299,2,0,L|477:121,1,129.999994049073,8|0,3:0|3:0,3:0:0:0:
301,211,178644,2,0,P|366:231|446:173,1,150.000005722046,8|0,3:0|3:0,3:0:0:0:
198,172,178989,2,0,B|185:257|185:257|204:254|204:254|188:360,1,179.999994506836,8|2,3:0|3:0,3:0:0:0:
297,345,179334,5,2,3:0:0:0:
97,302,179506,2,0,L|107:374,1,50,12|0,3:0|3:0,3:0:0:0:
307,329,179678,5,2,3:0:0:0:
80,283,179851,2,0,L|93:385,1,64.9999970245363,12|0,3:0|3:0,3:0:0:0:
316,315,180023,5,2,3:0:0:0:
61,264,180196,2,0,L|72:371,1,75.0000028610231,12|0,3:0|3:0,3:0:0:0:
327,300,180368,5,8,3:0:0:0:
44,242,180540,2,0,L|54:368,1,89.9999972534181,8|8,3:0|3:0,3:0:0:0:
341,278,180713,6,0,L|335:98,1,129.999994049073,8|0,3:0|3:0,3:0:0:0:
335,117,180971,1,0,3:0:0:0:
334,88,181058,1,8,3:0:0:0:
155,108,181230,1,0,3:0:0:0:
395,57,181403,2,0,P|333:40|262:82,1,129.999994049073,8|0,3:0|3:0,3:0:0:0:
243,167,181747,1,8,3:0:0:0:
422,203,181920,1,2,3:0:0:0:
224,148,182092,6,0,B|204:207|204:207|219:313,1,129.999994049073,8|0,3:0|3:0,3:0:0:0:
223,310,182351,1,0,3:0:0:0:
229,342,182437,1,8,3:0:0:0:
384,326,182609,1,2,3:0:0:0:
122,278,182782,1,8,3:0:0:0:
310,372,182954,1,8,3:0:0:0:
354,146,183127,6,0,B|343:189|343:189|384:219|384:219|432:192|432:192|419:139,1,200,12|0,3:0|3:0,3:0:0:0:
370,48,183471,5,8,0:0:0:0:
240,64,183644,1,8,0:0:0:0:
193,200,183816,1,8,0:0:0:0:
243,365,183989,1,8,0:0:0:0:
466,334,184161,5,8,0:0:0:0:
420,143,184334,1,8,0:0:0:0:
187,172,184506,1,8,0:0:0:0:
338,268,184678,1,8,0:0:0:0:
299,34,184851,1,8,0:0:0:0:
58,62,185023,5,8,0:0:0:0:
58,62,185109,1,8,0:0:0:0:
58,62,185196,1,8,0:0:0:0:
97,296,185368,5,8,0:0:0:0:
97,296,185454,1,8,0:0:0:0:
97,296,185540,1,8,0:0:0:0:
338,268,185713,5,8,0:0:0:0:
338,268,185799,1,8,0:0:0:0:
338,268,185885,1,8,0:0:0:0:
1,275,186058,5,8,0:0:0:0:
1,275,186144,1,8,0:0:0:0:
1,275,186230,5,8,0:0:0:0:
6,221,186316,1,8,0:0:0:0:
12,168,186402,1,8,0:0:0:0:
17,114,186488,1,8,0:0:0:0:
54,52,186575,5,8,0:0:0:0:
115,15,186661,1,8,0:0:0:0:
184,33,186747,1,8,0:0:0:0:
225,91,186833,1,8,0:0:0:0:
248,160,186920,5,8,0:0:0:0:
241,232,187006,1,8,0:0:0:0:
234,305,187092,1,8,0:0:0:0:
228,380,187178,1,8,0:0:0:0:
151,346,187265,5,8,0:0:0:0:
104,278,187351,1,8,0:0:0:0:
98,197,187437,1,8,0:0:0:0:
137,128,187523,1,8,0:0:0:0:
88,122,188644,6,0,B|126:74|214:75|244:159|210:208|210:208|237:178|280:192|280:192|304:235|357:223,1,375,12|0,0:0|0:0,0:0:0:0:
481,228,188989,6,0,P|456:208|405:206,1,69.9999978637696,2|0,0:0|0:0,0:0:0:0:
451,190,189678,2,0,P|419:185|374:208,1,69.9999978637696,2|0,0:0|0:0,0:0:0:0:
406,172,190196,2,0,P|376:183|348:226,1,69.9999978637696,2|0,0:0|0:0,0:0:0:0:
294,369,190540,6,0,B|305:347|305:347|288:284,1,69.9999978637696,2|0,0:0|0:0,0:0:0:0:
72,277,190885,2,0,B|61:255|61:255|78:192,1,69.9999978637696,2|0,0:0|0:0,0:0:0:0:
183,86,191058,2,0,B|217:64|217:64|196:242,1,150.000005722046,8|0,0:0|0:0,0:0:0:0:
198,211,191316,1,8,0:0:0:0:
194,238,191403,1,8,0:0:0:0:
431,283,191575,1,0,0:0:0:0:
431,264,191661,1,0,0:0:0:0:
427,245,191747,5,6,0:0:0:0:
278,287,191920,1,0,0:0:0:0:
278,287,192006,1,0,0:0:0:0:
278,287,192092,1,8,0:0:0:0:
471,350,192265,1,8,0:0:0:0:
385,118,192437,2,0,B|362:168|362:168|371:269,1,150.000005722046,2|0,0:0|0:0,0:0:0:0:
377,300,192696,1,0,0:0:0:0:
382,341,192782,5,8,0:0:0:0:
482,100,192954,2,0,B|446:31|446:31|372:19|372:19|280:73,1,225.000008583069,6|0,0:0|0:0,0:0:0:0:
230,151,193299,2,0,L|302:139,1,50,8|0,0:0|0:0,0:0:0:0:
147,57,193471,2,0,L|60:42,1,75.0000028610231,8|0,0:0|0:0,0:0:0:0:
12,215,193644,1,8,0:0:0:0:
12,215,193730,1,8,0:0:0:0:
12,215,193816,1,12,0:0:0:0:
48,40,193989,1,8,0:0:0:0:
95,118,194161,2,0,P|32:130|-21:92,1,100,8|0,0:0|0:0,0:0:0:0:
192,38,194506,6,0,B|210:115|210:115|191:190,1,150.000005722046,6|0,0:0|0:0,0:0:0:0:
71,288,194765,1,0,0:0:0:0:
110,267,194851,2,0,P|162:264|196:276,1,75.0000028610231,8|0,0:0|0:0,0:0:0:0:
252,377,195023,2,0,L|326:366,1,75.0000028610231,8|0,0:0|0:0,0:0:0:0:
467,120,195196,6,0,P|406:101|337:171,1,150.000005722046,2|0,0:0|0:0,0:0:0:0:
410,296,195455,1,0,0:0:0:0:
431,271,195541,2,0,P|432:221|397:168,1,75.0000028610231,8|0,0:0|0:0,0:0:0:0:
254,171,195713,2,0,P|253:121|288:68,1,75.0000028610231
388,32,195886,5,2,0:0:0:0:
347,284,196058,1,0,0:0:0:0:
347,284,196145,1,0,0:0:0:0:
346,284,196231,2,0,P|370:200|335:143,1,150.000005722046,8|8,0:0|0:0,0:0:0:0:
71,81,196576,2,0,B|53:162|53:162|77:276,1,150.000005722046,2|0,0:0|0:0,0:0:0:0:
159,342,196834,1,8,0:0:0:0:
181,316,196920,2,0,P|195:277|183:217,1,75.0000028610231,8|0,0:0|0:0,0:0:0:0:
341,148,197093,2,0,L|355:248,1,75.0000028610231
470,345,197265,5,2,0:0:0:0:
283,292,197437,2,0,P|314:312|351:316,1,75.0000028610231
155,168,197609,2,0,P|116:191|97:228,1,85.0000016212464,8|0,0:0|0:0,0:0:0:0:
327,117,197782,2,0,P|324:68|297:27,1,100,8|0,0:0|0:0,0:0:0:0:
247,358,197954,2,0,B|308:365|352:341|352:341|345:386|520:362,1,200,2|0,0:0|0:0,0:0:0:0:
458,363,198213,1,0,0:0:0:0:
494,343,198299,1,8,0:0:0:0:
254,148,198471,2,0,B|218:205|237:258|237:258|287:271|329:246,1,200,2|0,0:0|0:0,0:0:0:0:
497,92,198816,5,2,0:0:0:0:
445,39,198902,1,2,0:0:0:0:
372,30,198988,1,10,0:0:0:0:
309,68,199074,1,2,0:0:0:0:
361,121,199161,1,2,0:0:0:0:
434,130,199247,1,2,0:0:0:0:
497,92,199333,1,10,0:0:0:0:
144,152,199506,1,2,0:0:0:0:
409,247,199678,6,0,B|309:227|336:299|222:239|222:239|258:189|333:259,1,250,4|0,0:0|0:0,0:0:0:0:
472,178,200023,6,0,P|501:244|471:311,1,150.000005722046,2|0,0:0|0:0,0:0:0:0:
287,331,200282,1,0,0:0:0:0:
266,292,200368,2,0,P|263:240|275:206,1,75.0000028610231,8|0,0:0|0:0,0:0:0:0:
385,132,200540,2,0,L|374:58,1,75.0000028610231,8|0,0:0|0:0,0:0:0:0:
88,51,200713,6,0,P|69:112|139:181,1,150.000005722046,2|0,0:0|0:0,0:0:0:0:
264,108,200972,1,0,0:0:0:0:
239,87,201058,2,0,P|189:86|136:121,1,75.0000028610231,8|0,0:0|0:0,0:0:0:0:
139,264,201230,2,0,P|89:265|36:230,1,75.0000028610231
2,160,201403,5,2,0:0:0:0:
166,94,201575,6,0,L|175:186,1,75.0000028610231,4|0,0:0|0:0,0:0:0:0:
184,268,201747,1,8,0:0:0:0:
360,344,201920,6,0,L|348:239,1,100,12|0,0:0|0:0,0:0:0:0:
336,112,202092,1,2,0:0:0:0:
56,48,202265,6,0,L|71:175,1,125,4|8,0:0|0:0,0:0:0:0:
88,328,202437,1,2,0:0:0:0:
472,352,202609,6,0,L|454:197,1,150.000005722046,12|0,0:0|0:0,0:0:0:0:
432,32,202781,1,2,0:0:0:0:
173,168,202954,5,0,0:0:0:0:
173,168,203040,1,0,0:0:0:0:
173,168,203127,1,8,0:0:0:0:
417,220,203299,1,8,0:0:0:0:
368,308,203471,2,0,P|315:238|356:150,1,150.000005722046,2|0,0:0|0:0,0:0:0:0:
344,153,203730,1,0,0:0:0:0:
364,132,203816,1,8,0:0:0:0:
503,152,203988,1,0,0:0:0:0:
208,189,204161,6,0,B|169:111|209:46|209:46|216:88|212:109,1,170.000003242493,6|0,0:0|0:0,0:0:0:0:
343,47,204419,1,2,0:0:0:0:
300,68,204506,2,0,P|255:73|203:38,1,100,8|0,0:0|0:0,0:0:0:0:
58,11,204678,2,0,P|46:46|52:82,1,75.0000028610231,2|0,0:0|0:0,0:0:0:0:
114,200,204851,2,0,B|185:207|185:207|204:227|204:227|224:210|224:210|298:217,1,200,2|0,0:0|0:0,0:0:0:0:
444,342,205109,5,8,0:0:0:0:
400,358,205196,2,0,L|361:340,1,37.5000014305115,8|8,0:0|0:0,0:0:0:0:
363,320,205282,2,0,L|318:326,1,37.5000014305115,8|8,0:0|0:0,0:0:0:0:
311,338,205367,1,8,0:0:0:0:
269,308,205453,1,8,0:0:0:0:
219,320,205540,6,0,B|163:336|163:336|73:315,1,150.000005722046,6|0,0:0|0:0,0:0:0:0:
43,138,205799,1,0,0:0:0:0:
82,117,205885,2,0,P|134:114|168:126,1,75.0000028610231,8|0,0:0|0:0,0:0:0:0:
224,227,206057,2,0,L|298:216,1,75.0000028610231,8|0,0:0|0:0,0:0:0:0:
462,49,206230,6,0,P|401:30|332:100,1,150.000005722046,2|0,0:0|0:0,0:0:0:0:
407,222,206489,1,0,0:0:0:0:
428,197,206575,2,0,P|429:147|394:94,1,75.0000028610231,8|0,0:0|0:0,0:0:0:0:
224,227,206747,2,0,P|220:264|231:299,1,75.0000028610231
459,348,206920,5,2,0:0:0:0:
248,136,207092,6,0,L|173:142,1,75.0000028610231,4|0,0:0|0:0,0:0:0:0:
72,256,207264,1,8,0:0:0:0:
264,248,207437,6,0,L|368:240,1,100,12|0,0:0|0:0,0:0:0:0:
440,128,207609,1,2,0:0:0:0:
240,56,207782,6,0,L|83:68,1,125,4|8,0:0|0:0,0:0:0:0:
48,328,207953,1,8,0:0:0:0:
280,328,208127,6,0,L|482:314,1,150.000005722046,12|0,0:0|0:0,0:0:0:0:
464,56,208298,1,2,0:0:0:0:
273,149,208471,6,0,L|180:128,1,75.0000028610231
115,251,208644,2,0,L|211:228,1,85.0000016212464,8|0,0:0|0:0,0:0:0:0:
370,171,208816,2,0,L|263:147,1,100,8|0,0:0|0:0,0:0:0:0:
200,342,208989,2,0,B|285:326|285:326|305:355|305:355|384:342,1,200,2|0,0:0|0:0,0:0:0:0:
406,339,209247,1,0,0:0:0:0:
432,333,209334,1,8,0:0:0:0:
397,29,209506,6,0,B|362:80|366:125|366:125|348:138|348:138|361:152|361:152|347:187|387:246|387:246|463:197|471:109,1,400,6|0,0:0|0:0,0:0:0:0:
259,94,209937,1,0,0:0:0:0:
259,94,210023,2,0,P|243:140|259:187,1,100,8|0,0:0|0:0,0:0:0:0:
200,342,210196,2,0,P|167:324|147:292,1,75.0000028610231
93,34,210368,2,0,P|120:127|76:214,1,200,8|0,0:0|0:0,0:0:0:0:
43,357,210713,6,0,B|127:321|127:321|379:364,1,250,4|0,0:0|0:0,0:0:0:0:
467,333,211058,6,0,B|397:320|397:320|287:341,1,150,6|2,0:0|0:0,0:0:0:0:
284,348,211403,1,8,0:0:0:0:
297,155,211575,1,8,0:0:0:0:
334,242,211747,1,2,0:0:0:0:
70,290,211920,1,0,0:0:0:0:
70,290,212006,1,0,0:0:0:0:
70,290,212092,1,8,0:0:0:0:
116,102,212265,1,0,0:0:0:0:
166,186,212437,6,0,P|83:200|27:153,1,150,2|2,0:0|0:0,0:0:0:0:
22,122,212782,1,8,0:0:0:0:
232,99,212954,1,8,0:0:0:0:
181,287,213127,1,2,0:0:0:0:
164,29,213299,1,8,0:0:0:0:
164,29,213385,1,8,0:0:0:0:
164,29,213471,1,8,0:0:0:0:
389,62,213644,1,0,0:0:0:0:
353,154,213816,6,0,P|300:121|305:22,1,150,2|2,0:0|0:0,0:0:0:0:
317,11,214161,1,8,0:0:0:0:
494,33,214334,1,8,0:0:0:0:
419,242,214506,1,2,0:0:0:0:
397,71,214678,1,0,0:0:0:0:
397,71,214765,1,0,0:0:0:0:
397,71,214851,1,8,0:0:0:0:
495,120,215023,1,0,0:0:0:0:
249,156,215196,5,2,0:0:0:0:
273,47,215368,1,0,0:0:0:0:
273,47,215454,1,2,0:0:0:0:
273,47,215540,2,0,L|197:54,1,50,8|0,0:0|0:0,0:0:0:0:
152,206,215713,2,0,L|76:199,1,50,2|0,0:0|0:0,0:0:0:0:
25,14,215885,1,2,0:0:0:0:
31,26,216144,5,8,0:0:0:0:
15,51,216230,2,0,L|-5:44,1,12.5,8|8,0:0|0:0,0:0:0:0:
8,80,216316,1,8,0:0:0:0:
10,110,216402,1,8,0:0:0:0:
22,138,216488,1,8,0:0:0:0:
41,161,216575,5,6,0:0:0:0:
206,139,216834,1,2,0:0:0:0:
206,139,216920,1,8,0:0:0:0:
102,93,217092,1,2,0:0:0:0:
92,85,217437,1,2,0:0:0:0:
343,58,217609,1,8,0:0:0:0:
358,51,217954,5,2,0:0:0:0:
339,233,218213,1,2,0:0:0:0:
339,233,218299,1,8,0:0:0:0:
139,194,218471,1,8,0:0:0:0:
123,185,218816,1,2,0:0:0:0:
408,194,218989,1,8,0:0:0:0:
424,184,219334,5,2,0:0:0:0:
391,363,219592,1,2,0:0:0:0:
391,363,219678,1,8,0:0:0:0:
198,340,219851,1,8,0:0:0:0:
179,329,220196,1,2,0:0:0:0:
478,300,220368,1,8,0:0:0:0:
496,291,220713,5,8,0:0:0:0:
468,114,220971,1,8,0:0:0:0:
468,114,221058,1,8,0:0:0:0:
269,134,221230,1,8,0:0:0:0:
297,311,221403,5,12,0:0:0:0:
