osu file format v14

[General]
AudioFilename: audio.mp3
AudioLeadIn: 0
PreviewTime: 90088
Countdown: 0
SampleSet: Soft
StackLeniency: 0.3
Mode: 0
LetterboxInBreaks: 0
WidescreenStoryboard: 1

[Editor]
Bookmarks: 1813,12847,21123,23881,34916,45950,56985,62502,65261,68019,79054,84571,90088,92847,112157,123192,131123,134226,141123,141813,142502,142847,143192,143537,143881,145261,156295,167330,167675,168019,168364,168709,169054,169399,169744,170088,170433,170778,171123,171468,171813,172157,172502,172847,183881,189399,211468,222502
DistanceSpacing: 1.4
BeatDivisor: 4
GridSize: 32
TimelineZoom: 2.5

[Metadata]
Title:Hakuchu-mu
TitleUnicode:はくちゅーむ
Artist:BPM15Q
ArtistUnicode:BPM15Q
Creator:Venyera
Version:Chu's Hard
Source:
Tags:Yunomi livia BNY963 nicamoq CY8ER ichigorinahamu hakuchuumu melophobia arronchu1207 electronic japanese
BeatmapID:2877564
BeatmapSetID:1072748

[Difficulty]
HPDrainRate:4
CircleSize:3.8
OverallDifficulty:6.5
ApproachRate:8
SliderMultiplier:1.4
SliderTickRate:1

[Events]
//Background and Video events
0,0,"BG.jpg",0,0
//Break Periods
2,34706,36170
2,67809,69273
2,122982,124446
2,167120,171058
//Storyboard Layer 0 (Background)
//Storyboard Layer 1 (Fail)
//Storyboard Layer 2 (Pass)
//Storyboard Layer 3 (Foreground)
//Storyboard Layer 4 (Overlay)
//Storyboard Sound Samples

[TimingPoints]
1403,344.827586206897,4,2,1,70,1,0
1403,-125,4,2,1,70,0,0
6489,-125,4,2,1,5,0,0
6575,-125,4,2,1,70,0,0
6920,-105.263157894737,4,2,1,70,0,0
11058,-76.9230769230769,4,2,1,70,0,0
11575,-105.263157894737,4,2,1,70,0,0
12696,-105.263157894737,4,2,1,5,0,0
12782,-105.263157894737,4,2,1,70,0,0
14075,-105.263157894737,4,2,1,5,0,0
14161,-105.263157894737,4,2,1,70,0,0
15454,-105.263157894737,4,2,1,5,0,0
15540,-105.263157894737,4,2,1,70,0,0
23127,-76.9230769230769,4,2,1,70,0,0
23471,-105.263157894737,4,2,1,70,0,0
37006,-105.263157894737,4,2,1,5,0,0
37265,-105.263157894737,4,2,1,70,0,0
44161,-76.9230769230769,4,2,1,70,0,0
44678,-105.263157894737,4,2,1,70,0,0
55196,-76.9230769230769,4,2,1,70,0,0
55885,-105.263157894737,4,2,1,70,0,0
56403,-105.263157894737,4,2,1,50,0,0
56575,-125,4,2,1,50,0,0
62092,-105.263157894737,4,2,1,70,0,0
70109,-105.263157894737,4,2,1,5,0,0
70368,-105.263157894737,4,2,1,70,0,0
75454,-105.263157894737,4,2,1,5,0,0
75540,-105.263157894737,4,2,1,70,0,0
77265,-76.9230769230769,4,2,1,70,0,0
77954,-105.263157894737,4,2,1,70,0,0
89334,-76.9230769230769,4,2,1,70,0,0
89592,-76.9230769230769,4,2,1,5,0,0
89678,-95.2380952380952,4,2,1,70,0,1
100368,-76.9230769230769,4,2,1,70,0,1
100627,-76.9230769230769,4,2,1,5,0,1
100713,-95.2380952380952,4,2,1,70,0,1
111403,-76.9230769230769,4,2,1,70,0,1
111747,-95.2380952380952,4,2,1,70,0,1
122437,-76.9230769230769,4,2,1,70,0,1
122696,-95.2380952380952,4,2,1,5,0,1
122782,-105.263157894737,4,2,1,70,0,0
125282,-105.263157894737,4,2,1,5,0,0
125540,-105.263157894737,4,2,1,70,0,0
130627,-105.263157894737,4,2,1,5,0,0
130713,-105.263157894737,4,2,1,70,0,0
136316,-105.263157894737,4,2,1,5,0,0
136575,-105.263157894737,4,2,1,70,0,0
144506,-105.263157894737,4,2,5,70,0,0
144592,-105.263157894737,4,2,1,5,0,0
144851,-95.2380952380952,4,2,1,70,0,0
166575,-125,4,2,1,70,0,0
177954,-105.263157894737,4,2,1,70,0,0
188644,-76.9230769230769,4,2,1,70,0,0
188903,-76.9230769230769,4,2,1,5,0,0
188989,-95.2380952380952,4,2,1,70,0,0
191747,-95.2380952380952,4,2,1,70,0,1
211058,-105.263157894737,4,2,1,70,0,0
216230,-105.263157894737,4,2,1,70,0,0

[Colours]
Combo1 : 241,61,137
Combo2 : 143,104,236
Combo3 : 85,202,215
Combo4 : 220,72,247
Combo5 : 247,216,70

[HitObjects]
167,40,1403,6,0,P|200:71|280:64,1,112,6|2,1:0|1:0,0:0:0:0:
326,24,1920,1,0,1:0:0:0:
326,24,2092,2,0,L|309:149,1,112,2|2,1:0|1:0,0:0:0:0:
359,203,2609,1,0,1:0:0:0:
359,203,2782,6,0,B|396:220|396:220|446:209,2,84,2|2|2,1:0|1:0|1:0,0:0:0:0:
291,242,3471,2,0,L|300:314,1,56,2|2,1:0|1:0,0:0:0:0:
200,380,3816,1,12,1:0:0:0:
200,380,4161,6,0,L|78:366,1,112,2|2,1:0|1:0,0:0:0:0:
48,305,4678,1,0,1:0:0:0:
48,305,4851,2,0,P|37:259|70:185,1,112,2|2,1:0|1:0,0:0:0:0:
128,161,5368,1,0,1:0:0:0:
128,161,5540,6,0,B|140:116|140:116|125:73,1,84,2|2,1:0|1:0,0:0:0:0:
124,72,5885,2,0,L|135:6,1,56,2|2,1:0|1:0,0:0:0:0:
216,56,6230,2,0,P|268:59|301:93,1,84,2|0,1:0|1:0,0:0:0:0:
299,94,6575,1,12,1:0:0:0:
299,94,6920,6,0,L|283:229,1,132.999996448517,6|8,3:0|3:0,0:0:0:0:
348,306,7437,1,8,3:0:0:0:
348,306,7523,1,8,3:0:0:0:
348,306,7609,2,0,L|417:299,1,66.4999982242585,8|8,3:0|3:0,0:0:0:0:
479,233,7954,2,0,L|513:239,2,33.2499991121292,8|8|8,3:0|3:0|3:0,0:0:0:0:
412,166,8299,5,8,3:0:0:0:
480,103,8471,1,8,3:0:0:0:
480,103,8558,1,8,3:0:0:0:
480,103,8644,2,0,P|491:61|479:30,1,66.4999982242585,8|8,3:0|3:0,0:0:0:0:
399,1,8989,2,0,L|360:8,2,33.2499991121292,8|0|0,3:0|3:0|3:0,0:0:0:0:
313,84,9334,1,12,3:0:0:0:
313,84,9678,6,0,B|252:101|252:101|183:66,1,132.999996448517,6|8,3:0|3:0,0:0:0:0:
116,28,10196,1,8,3:0:0:0:
116,28,10282,1,8,3:0:0:0:
116,28,10368,2,0,B|84:90|84:90|101:151,1,132.999996448517,6|8,3:0|3:0,0:0:0:0:
165,218,10885,1,8,3:0:0:0:
118,297,11058,6,0,B|52:306|52:306|39:231,2,136.499993751526,6|6|6,3:0|3:0|3:0,0:0:0:0:
165,218,11747,1,6,3:0:0:0:
247,262,11920,1,0,3:0:0:0:
191,378,12092,1,4,3:0:0:0:
191,378,12437,6,0,P|236:363|298:371,1,99.7499973363877,8|0,0:0|0:0,0:0:0:0:
298,373,12782,2,0,P|305:333|317:310,1,66.4999982242585,8|0,0:0|0:0,0:0:0:0:
306,217,13127,2,0,P|344:203|370:201,1,66.4999982242585,8|0,0:0|0:0,0:0:0:0:
445,145,13471,2,0,P|476:171|490:192,1,66.4999982242585,8|0,0:0|0:0,0:0:0:0:
369,201,13816,6,0,P|352:154|365:97,1,99.7499973363877,8|0,0:0|0:0,0:0:0:0:
366,95,14161,2,0,L|297:101,1,66.4999982242585,8|0,0:0|0:0,0:0:0:0:
216,0,14506,2,0,L|285:6,1,66.4999982242585,8|0,0:0|0:0,0:0:0:0:
178,111,14851,1,4,0:0:0:0:
178,111,15196,6,0,B|134:126|134:126|83:104,1,99.7499973363877,8|0,0:0|0:0,0:0:0:0:
75,100,15540,2,0,P|81:140|83:178,1,66.4999982242585,8|0,0:0|0:0,0:0:0:0:
22,237,15885,2,0,P|16:277|14:315,1,66.4999982242585,8|0,0:0|0:0,0:0:0:0:
74,374,16230,2,0,P|114:380|152:382,1,66.4999982242585,8|0,0:0|0:0,0:0:0:0:
223,340,16575,6,0,P|235:303|232:273,1,66.4999982242585,8|0,0:0|0:0,0:0:0:0:
229,182,16920,2,0,P|190:190|166:207,1,66.4999982242585,8|0,0:0|0:0,0:0:0:0:
143,295,17265,1,8,0:0:0:0:
223,340,17437,1,8,0:0:0:0:
223,340,17609,2,0,L|297:332,1,66.4999982242585,4|0,0:0|0:0,0:0:0:0:
375,368,17954,5,8,0:0:0:0:
375,368,18127,1,8,0:0:0:0:
452,316,18299,2,0,B|463:282|463:282|447:239,1,66.4999982242585,8|8,0:0|0:0,0:0:0:0:
371,217,18644,5,8,0:0:0:0:
371,217,18817,1,8,0:0:0:0:
448,165,18989,2,0,B|459:131|459:131|443:88,1,66.4999982242585,8|8,0:0|0:0,0:0:0:0:
404,25,19334,5,8,0:0:0:0:
404,25,19506,1,8,0:0:0:0:
334,87,19678,2,0,L|262:79,1,66.4999982242585,8|8,0:0|0:0,0:0:0:0:
195,137,20023,5,8,0:0:0:0:
195,137,20195,1,8,0:0:0:0:
265,199,20367,2,0,L|337:191,1,66.4999982242585,8|8,0:0|0:0,0:0:0:0:
363,279,20713,6,0,L|357:319,3,33.2499991121292,8|8|8|8,0:0|0:0|0:0|0:0,0:0:0:0:
316,289,21058,2,0,L|310:329,3,33.2499991121292,8|8|8|8,0:0|0:0|0:0|0:0,0:0:0:0:
269,299,21403,2,0,L|263:339,3,33.2499991121292,8|8|8|8,0:0|0:0|0:0|0:0,0:0:0:0:
222,309,21747,2,0,L|216:349,3,33.2499991121292,8|8|8|8,0:0|0:0|0:0|0:0,0:0:0:0:
181,372,22092,5,8,0:0:0:0:
0,283,22351,2,0,P|-4:263|3:254,1,33.2499991121292,8|8,1:0|1:0,0:0:0:0:
91,281,22609,1,8,1:0:0:0:
91,281,22782,1,8,1:0:0:0:
91,281,23127,6,0,L|111:136,1,136.499993751526,12|0,0:0|0:0,0:0:0:0:
132,105,23471,6,0,P|75:109|26:68,2,99.7499973363877,2|2|2,0:0|0:0|0:0,0:0:0:0:
229,27,24161,2,0,P|286:23|335:64,2,99.7499973363877,2|2|2,0:0|0:0|0:0,0:0:0:0:
245,147,24851,2,0,L|233:250,1,99.7499973363877,2|2,0:0|0:0,0:0:0:0:
364,371,25368,1,2,0:0:0:0:
368,364,25454,1,0,0:0:0:0:
372,357,25540,6,0,L|362:277,1,66.4999982242585,8|0,0:0|0:0,0:0:0:0:
434,181,25885,2,0,L|441:135,3,33.2499991121292,8|8|8|8,0:0|0:0|0:0|0:0,0:0:0:0:
413,105,26230,6,0,P|374:88|313:107,1,99.7499973363877,2|0,0:0|0:0,0:0:0:0:
313,110,26575,2,0,L|304:32,1,66.4999982242585,2|0,0:0|0:0,0:0:0:0:
213,26,26920,2,0,L|226:131,1,99.7499973363877,8|0,0:0|0:0,0:0:0:0:
219,133,27265,2,0,L|212:202,1,66.4999982242585,2|0,0:0|0:0,0:0:0:0:
193,290,27609,6,0,P|241:279|298:305,1,99.7499973363877,2|2,0:0|0:0,0:0:0:0:
296,302,27954,1,2,0:0:0:0:
374,351,28127,2,0,L|369:394,2,33.2499991121292,2|0|8,0:0|0:0|0:0,0:0:0:0:
450,298,28471,1,8,0:0:0:0:
450,298,28558,1,8,0:0:0:0:
450,298,28644,2,0,L|439:220,1,66.4999982242585,4|0,0:0|0:0,0:0:0:0:
427,139,28989,6,0,L|316:152,1,99.7499973363877,2|0,0:0|0:0,0:0:0:0:
323,157,29334,2,0,P|329:119|316:82,1,66.4999982242585,8|8,0:0|0:0,0:0:0:0:
253,29,29678,2,0,B|197:22|197:22|148:48,1,99.7499973363877,2|0,0:0|0:0,0:0:0:0:
152,47,30023,2,0,L|148:116,1,66.4999982242585,8|0,0:0|0:0,0:0:0:0:
80,178,30368,6,0,P|69:234|90:286,1,99.7499973363877,2|0,0:0|0:0,0:0:0:0:
87,282,30713,1,8,0:0:0:0:
161,337,30885,2,0,L|152:380,2,33.2499991121292,8|0|2,0:2|0:0|0:0,0:0:0:0:
236,281,31230,1,0,0:0:0:0:
236,281,31316,1,0,0:0:0:0:
236,281,31403,2,0,L|231:234,2,33.2499991121292,8|0|0,0:0|0:0|0:0,0:0:0:0:
310,335,31747,6,0,L|414:320,1,99.7499973363877,2|0,0:0|0:0,0:0:0:0:
418,325,32092,2,0,P|409:286|420:252,1,66.4999982242585,8|8,0:0|0:0,0:0:0:0:
478,191,32437,2,0,P|493:146|477:84,1,99.7499973363877,2|0,0:0|0:0,0:0:0:0:
478,86,32782,1,8,0:0:0:0:
406,27,32954,1,8,0:0:0:0:
397,25,33040,1,0,0:0:0:0:
388,23,33127,5,2,0:0:0:0:
298,48,33299,1,0,0:0:0:0:
290,53,33385,1,2,0:0:0:0:
283,57,33471,2,0,L|237:49,2,33.2499991121292,8|0|2,0:0|0:0|0:0,0:0:0:0:
332,136,33816,2,0,P|341:177|328:213,1,66.4999982242585,2|8,0:0|0:0,0:0:0:0:
305,236,34075,2,0,L|268:232,1,33.2499991121292,8|12,0:0|0:0,0:0:0:0:
98,166,34506,5,2,3:0:0:0:
151,176,36920,6,0,L|159:139,1,33.2499991121292,8|0,3:0|0:0,0:0:0:0:
151,176,37265,6,0,L|81:182,2,66.4999982242585,6|0|8,3:0|3:0|3:0,0:0:0:0:
238,207,37782,1,2,3:0:0:0:
169,269,37954,2,0,L|99:275,2,66.4999982242585,2|0|8,3:0|3:0|3:0,0:0:0:0:
238,207,38471,1,10,3:0:0:0:
294,281,38644,6,0,P|299:315|288:350,1,66.4999982242585,2|0,3:0|3:0,0:0:0:0:
284,353,38903,1,2,3:0:0:0:
277,357,38989,2,0,L|352:367,1,66.4999982242585,8|2,3:0|3:0,0:0:0:0:
433,341,39334,1,2,3:0:0:0:
408,251,39506,2,0,L|412:207,2,33.2499991121292,8|8|12,3:0|3:0|3:0,0:0:0:0:
408,251,40023,6,0,L|274:264,1,132.999996448517,2|8,3:0|3:0,0:0:0:0:
188,230,40540,1,2,3:0:0:0:
224,144,40713,2,0,L|358:157,1,132.999996448517,2|8,3:0|3:0,0:0:0:0:
444,123,41230,1,2,3:0:0:0:
415,34,41403,6,0,P|379:20|320:36,1,99.7499973363877,2|2,3:0|3:0,0:0:0:0:
314,40,41747,2,0,L|248:34,1,66.4999982242585,8|2,3:0|3:0,0:0:0:0:
158,61,42092,2,0,P|153:32|158:22,2,33.2499991121292,2|0|0,3:0|3:0|3:0,0:0:0:0:
227,122,42437,1,8,3:0:0:0:
227,122,42782,6,0,P|239:186|207:257,1,132.999996448517,6|8,3:0|3:0,0:0:0:0:
142,307,43299,1,2,3:0:0:0:
200,379,43471,2,0,L|277:366,1,66.4999982242585,2|0,3:0|3:0,0:0:0:0:
334,304,43816,2,0,L|411:317,1,66.4999982242585,8|2,3:0|3:0,0:0:0:0:
463,384,44161,6,0,B|507:349|507:349|487:262,2,136.499993751526,6|6|6,3:0|3:0|3:0,0:0:0:0:
399,315,44851,1,6,3:0:0:0:
330,377,45023,1,8,3:0:0:0:
330,377,45109,1,8,3:0:0:0:
330,377,45196,1,12,3:0:0:0:
211,233,45540,6,0,P|202:202|207:163,1,66.4999982242585,6|0,3:0|3:0,0:0:0:0:
289,126,45885,2,0,P|298:95|293:56,1,66.4999982242585,8|2,3:0|3:0,0:0:0:0:
219,5,46230,2,0,L|81:18,1,132.999996448517,2|8,3:0|3:0,0:0:0:0:
21,84,46747,1,0,3:0:0:0:
86,150,46920,6,0,P|94:190|82:227,1,66.4999982242585,2|0,3:0|3:0,0:0:0:0:
61,252,47178,1,2,3:0:0:0:
61,252,47265,2,0,P|53:292|65:329,1,66.4999982242585,8|2,3:0|3:0,0:0:0:0:
131,374,47609,2,0,B|201:382|190:328|271:340,1,132.999996448517,2|8,3:0|3:0,0:0:0:0:
255,338,48299,6,0,P|232:289|263:209,1,132.999996448517,6|8,3:0|3:0,0:0:0:0:
325,278,48816,1,2,3:0:0:0:
255,338,48989,2,0,P|194:361|133:337,1,132.999996448517,2|8,3:0|3:0,0:0:0:0:
64,275,49506,1,8,3:0:0:0:
129,208,49678,6,0,L|135:142,1,66.4999982242585,2|0,3:0|3:0,0:0:0:0:
168,109,49937,1,2,3:0:0:0:
168,109,50023,2,0,L|161:33,1,66.4999982242585,8|2,3:0|3:0,0:0:0:0:
246,3,50368,1,2,3:0:0:0:
281,88,50540,2,0,L|273:135,2,33.2499991121292,8|8|12,3:0|3:0|3:0,0:0:0:0:
281,88,51058,6,0,L|419:77,1,132.999996448517,2|8,3:0|3:0,0:0:0:0:
494,124,51575,1,2,3:0:0:0:
453,207,51747,2,0,L|315:196,1,132.999996448517,2|8,3:0|3:0,0:0:0:0:
226,187,52265,1,2,3:0:0:0:
180,267,52437,6,0,L|187:345,1,66.4999982242585,2|0,3:0|3:0,0:0:0:0:
155,368,52696,1,2,3:0:0:0:
155,368,52782,2,0,B|120:375|120:375|86:363,1,66.4999982242585,8|2,3:0|3:0,0:0:0:0:
17,306,53127,2,0,L|32:164,1,132.999996448517,2|8,3:0|3:0,0:0:0:0:
30,173,53816,6,0,P|74:188|150:157,1,132.999996448517,6|8,3:0|3:0,0:0:0:0:
194,73,54334,1,2,3:0:0:0:
126,8,54506,2,0,L|56:15,2,66.4999982242585,2|0|8,3:0|3:0|3:0,0:0:0:0:
194,73,55023,1,0,3:0:0:0:
263,7,55196,6,0,P|321:5|377:58,2,136.499993751526,6|6|6,3:0|3:0|3:0,0:0:0:0:
290,100,55885,2,0,L|281:171,1,66.4999982242585,6|8,3:0|3:0,0:0:0:0:
250,200,56144,1,8,3:0:0:0:
250,200,56230,1,12,3:0:0:0:
162,166,56403,2,0,P|158:142|160:129,1,33.2499991121292,0|0,0:0|0:0,0:0:0:0:
172,96,56575,6,0,L|61:110,1,112,2|8,3:0|3:0,0:0:0:0:
0,158,57092,1,2,3:2:0:0:
48,219,57265,2,0,L|40:279,2,56,0|8|2,3:0|3:0|3:2,0:0:0:0:
120,189,57782,1,0,3:0:0:0:
165,252,57954,6,0,P|218:286|276:275,1,112,0|2,3:0|3:2,0:0:0:0:
333,243,58471,1,0,3:0:0:0:
294,174,58644,2,0,P|241:140|183:151,1,112,0|4,3:0|3:2,0:0:0:0:
194,145,59334,6,0,L|179:267,1,112,2|8,3:2|3:0,0:0:0:0:
239,308,59851,1,2,3:2:0:0:
308,273,60023,2,0,P|316:233|305:206,2,56,0|8|2,3:0|3:0|3:2,0:0:0:0:
365,326,60540,1,0,3:0:0:0:
434,289,60713,6,0,L|422:166,1,112,0|2,3:0|3:2,0:0:0:0:
479,122,61230,1,0,3:0:0:0:
426,63,61403,2,0,L|356:72,1,56,0|0,3:0|3:0,0:0:0:0:
293,81,61747,1,4,3:2:0:0:
293,81,62092,6,0,P|282:131|283:162,1,66.4999982242585,2|0,0:0|0:0,0:0:0:0:
224,219,62437,2,0,P|235:269|234:300,1,66.4999982242585,2|0,0:0|0:0,0:0:0:0:
184,362,62782,2,0,L|115:355,1,66.4999982242585,8|0,0:0|0:0,0:0:0:0:
56,285,63127,2,0,L|63:216,1,66.4999982242585,2|0,0:0|0:0,0:0:0:0:
3,147,63471,6,0,P|36:128|130:156,1,132.999996448517,2|2,0:0|0:0,0:0:0:0:
194,210,63989,1,0,0:0:0:0:
267,153,64161,2,0,L|257:16,1,132.999996448517,10|6,0:0|0:0,0:0:0:0:
452,18,64851,6,0,P|478:44|486:79,1,66.4999982242585,2|2,0:0|0:0,0:0:0:0:
396,97,65196,2,0,P|386:133|397:168,1,66.4999982242585,2|2,0:0|0:0,0:0:0:0:
471,230,65540,1,10,0:0:0:0:
471,230,65712,1,2,0:0:0:0:
410,301,65885,1,2,0:0:0:0:
410,301,66057,1,2,0:0:0:0:
480,378,66230,5,2,0:0:0:0:
480,378,66316,1,2,0:0:0:0:
480,378,66403,2,0,L|514:372,2,33.2499991121292,2|0|0,0:0|0:0|0:0,0:0:0:0:
410,301,66747,1,8,0:0:0:0:
336,359,66920,1,2,0:0:0:0:
269,294,67092,2,0,L|273:252,1,33.2499991121292,8|8,0:0|0:0,0:0:0:0:
278,214,67265,1,12,0:0:0:0:
165,66,67609,5,0,0:0:0:0:
165,66,70023,6,0,L|176:20,1,33.2499991121292,4|0,0:0|0:0,0:0:0:0:
165,66,70368,6,0,L|95:60,2,66.4999982242585,6|0|8,3:0|3:0|3:0,0:0:0:0:
252,97,70885,1,2,3:0:0:0:
183,159,71058,2,0,L|113:165,2,66.4999982242585,6|0|8,3:0|3:0|3:0,0:0:0:0:
252,97,71574,1,8,3:0:0:0:
311,169,71747,6,0,P|316:203|305:238,1,66.4999982242585,6|0,3:0|3:0,0:0:0:0:
301,241,72006,1,2,3:0:0:0:
294,245,72092,2,0,L|369:255,1,66.4999982242585,8|2,3:0|3:0,0:0:0:0:
450,229,72437,1,2,3:0:0:0:
425,139,72609,2,0,L|429:95,2,33.2499991121292,8|8|12,3:0|3:0|3:0,0:0:0:0:
425,139,73126,6,0,L|291:126,1,132.999996448517,6|2,3:0|3:0,0:0:0:0:
205,160,73643,1,8,3:0:0:0:
241,246,73816,2,0,L|375:233,1,132.999996448517,2|2,3:0|3:0,0:0:0:0:
461,267,74333,1,8,3:0:0:0:
415,350,74506,6,0,P|379:364|320:348,2,99.7499973363877,6|6|6,3:0|3:0|3:0,0:0:0:0:
461,267,75196,2,0,L|450:162,1,99.7499973363877,6|0,3:0|3:0,0:0:0:0:
448,145,75540,1,8,3:0:0:0:
448,145,75885,6,0,P|384:157|313:125,1,132.999996448517,2|8,3:0|3:0,0:0:0:0:
263,60,76402,1,2,3:0:0:0:
191,118,76574,2,0,L|204:195,1,66.4999982242585,2|0,3:0|3:0,0:0:0:0:
266,252,76919,2,0,L|253:329,1,66.4999982242585,8|2,3:0|3:0,0:0:0:0:
174,370,77265,6,0,B|127:377|127:377|90:352|90:352|43:362,2,136.499993751526,6|2|2,3:0|3:0|3:0,0:0:0:0:
254,317,77954,1,2,3:0:0:0:
172,282,78127,1,8,3:0:0:0:
172,282,78213,1,8,3:0:0:0:
172,282,78299,1,12,3:0:0:0:
172,282,78644,6,0,L|182:138,1,132.999996448517,8|8,0:0|0:0,0:0:0:0:
243,79,79161,1,0,0:0:0:0:
314,139,79334,2,0,P|353:153|387:148,1,66.4999982242585,8|0,0:0|0:0,0:0:0:0:
448,210,79678,2,0,P|487:196|521:201,1,66.4999982242585,8|0,0:0|0:0,0:0:0:0:
496,290,80023,6,0,L|488:363,1,66.4999982242585,8|0,0:0|0:0,0:0:0:0:
398,381,80368,2,0,L|390:314,1,66.4999982242585,8|0,0:0|0:0,0:0:0:0:
302,283,80713,2,0,L|294:349,1,66.4999982242585,8|8,0:0|0:0,0:0:0:0:
211,307,81058,1,4,0:0:0:0:
211,307,81403,6,0,B|196:242|196:242|228:174,1,132.999996448517,8|8,0:0|0:0,0:0:0:0:
307,139,81920,1,0,0:0:0:0:
270,53,82092,2,0,L|195:61,1,66.4999982242585,8|0,0:0|0:0,0:0:0:0:
123,11,82437,2,0,L|48:3,1,66.4999982242585,8|0,0:0|0:0,0:0:0:0:
7,83,82782,6,0,P|5:128|17:160,1,66.4999982242585,8|0,0:0|0:0,0:0:0:0:
92,194,83127,2,0,P|94:239|82:271,1,66.4999982242585,8|0,0:0|0:0,0:0:0:0:
22,324,83471,1,8,0:0:0:0:
98,384,83644,1,8,0:0:0:0:
98,384,83816,1,4,0:0:0:0:
98,384,84161,6,0,P|135:374|174:375,1,66.4999982242585,8|8,0:0|0:0,0:0:0:0:
168,280,84506,2,0,P|205:289|238:310,1,66.4999982242585,8|8,0:0|0:0,0:0:0:0:
280,224,84851,2,0,P|307:251|325:285,1,66.4999982242585,8|8,0:0|0:0,0:0:0:0:
404,231,85196,2,0,P|414:268|413:307,1,66.4999982242585,8|8,0:0|0:0,0:0:0:0:
350,363,85540,6,0,L|275:371,1,66.4999982242585,8|8,0:0|0:0,0:0:0:0:
321,275,85885,2,0,L|255:268,1,66.4999982242585,8|8,0:0|0:0,0:0:0:0:
186,205,86230,1,8,0:0:0:0:
186,205,86403,1,8,0:0:0:0:
248,136,86575,1,8,0:0:0:0:
248,136,86747,1,8,0:0:0:0:
179,72,86920,6,0,L|134:77,3,33.2499991121292,8|8|8|8,0:0|0:0|0:0|0:0,0:0:0:0:
99,67,87265,2,0,L|104:112,3,33.2499991121292,8|8|8|8,0:0|0:0|0:0|0:0,0:0:0:0:
81,141,87609,2,0,L|76:186,3,33.2499991121292,8|8|8|8,0:0|0:0|0:0|0:0,0:0:0:0:
99,215,87954,2,0,L|104:260,3,33.2499991121292,8|8|8|8,0:0|0:0|0:0|0:0,0:0:0:0:
81,290,88299,6,0,P|123:288|170:322,1,99.7499973363877,8|8,0:0|0:0,0:0:0:0:
173,331,88644,2,0,L|249:326,1,66.4999982242585,8|8,0:0|0:0,0:0:0:0:
332,321,88989,1,8,0:0:0:0:
332,321,89334,6,0,B|343:269|343:269|326:236|326:236|337:186,1,136.499993751526,12|0,0:0|0:0,0:0:0:0:
341,177,89678,6,0,P|303:178|269:162,1,73.4999977569581,2|0,0:0|0:0,0:0:0:0:
174,128,90023,2,0,P|192:94|222:73,1,73.4999977569581,8|8,0:0|0:0,0:0:0:0:
299,7,90368,2,0,P|318:39|322:76,1,73.4999977569581,2|0,0:0|0:0,0:0:0:0:
220,74,90713,2,0,P|182:75|148:59,1,73.4999977569581,8|0,0:0|0:0,0:0:0:0:
55,19,91058,6,0,L|65:135,1,110.249996635437,2|0,0:0|0:0,0:0:0:0:
70,140,91403,2,0,L|61:225,1,73.4999977569581,8|8,0:0|0:0,0:0:0:0:
107,305,91747,1,2,0:0:0:0:
198,257,91920,1,0,0:0:0:0:
198,257,92006,1,0,0:0:0:0:
198,257,92092,2,0,P|231:257|269:278,1,73.4999977569581,8|0,0:0|0:0,0:0:0:0:
318,364,92437,6,0,L|434:351,1,110.249996635437,2|0,0:0|0:0,0:0:0:0:
437,358,92782,2,0,P|422:320|432:286,1,73.4999977569581,8|8,0:0|0:0,0:0:0:0:
489,205,93127,2,0,B|501:149|501:149|475:58,1,146.999995513916,2|8,0:0|0:0,0:0:0:0:
392,1,93644,1,0,0:0:0:0:
318,72,93816,6,0,P|309:120|329:184,1,110.249996635437,6|2,0:0|0:0,0:0:0:0:
334,186,94161,2,0,L|255:179,1,73.4999977569581,8|2,0:0|0:0,0:0:0:0:
158,168,94506,1,2,0:0:0:0:
158,168,94851,2,0,L|154:214,3,36.749998878479,8|8|8|8,0:0|0:0|0:0|0:0,0:0:0:0:
117,241,95196,6,0,L|124:317,1,73.4999977569581,6|0,0:0|0:0,0:0:0:0:
212,366,95540,2,0,L|218:292,1,73.4999977569581,8|8,0:0|0:0,0:0:0:0:
307,241,95885,2,0,L|313:314,1,73.4999977569581,2|0,0:0|0:0,0:0:0:0:
402,366,96230,2,0,L|408:292,1,73.4999977569581,8|0,0:0|0:0,0:0:0:0:
497,240,96575,6,0,L|482:107,1,110.249996635437,2|0,0:0|0:0,0:0:0:0:
491,120,96920,2,0,P|456:137|419:125,1,73.4999977569581,8|8,0:0|0:0,0:0:0:0:
362,45,97265,1,2,0:0:0:0:
282,109,97437,1,0,0:0:0:0:
282,109,97523,1,0,0:0:0:0:
282,109,97609,2,0,P|290:149|295:186,1,73.4999977569581,8|0,0:0|0:0,0:0:0:0:
211,242,97954,6,0,P|170:255|106:228,1,110.249996635437,2|0,0:0|0:0,0:0:0:0:
102,225,98299,2,0,L|108:303,1,73.4999977569581,8|8,0:0|0:0,0:0:0:0:
187,364,98644,1,2,0:0:0:0:
273,309,98816,1,0,0:0:0:0:
356,369,98989,2,0,P|392:375|439:355,1,73.4999977569581,8|0,0:0|0:0,0:0:0:0:
504,296,99334,6,0,L|492:171,1,110.249996635437,6|2,0:0|0:0,0:0:0:0:
488,177,99678,2,0,L|495:95,1,73.4999977569581,8|2,0:0|0:0,0:0:0:0:
428,24,100023,1,8,0:0:0:0:
428,24,100368,6,0,B|395:8|355:15|355:15|349:43|312:68,1,136.499993751526,4|0,0:0|0:0,0:0:0:0:
308,67,100713,6,0,P|318:115|316:147,1,73.4999977569581,2|0,0:0|0:0,0:0:0:0:
232,197,101058,2,0,P|222:245|224:277,1,73.4999977569581,8|8,0:0|0:0,0:0:0:0:
255,367,101403,2,0,L|180:361,1,73.4999977569581,2|0,0:0|0:0,0:0:0:0:
115,282,101747,2,0,L|40:288,1,73.4999977569581,8|0,0:0|0:0,0:0:0:0:
0,193,102092,6,0,P|14:151|83:124,1,110.249996635437,2|0,0:0|0:0,0:0:0:0:
82,127,102437,2,0,B|95:87|95:87|83:49,1,73.4999977569581,8|12,0:0|0:0,0:0:0:0:
174,4,102782,1,0,0:0:0:0:
237,97,102954,1,4,0:0:0:0:
237,97,103040,1,8,0:0:0:0:
237,97,103127,2,0,P|274:101|315:83,1,73.4999977569581,8|4,0:0|0:0,0:0:0:0:
389,27,103471,6,0,P|440:26|491:78,1,110.249996635437,2|0,0:0|0:0,0:0:0:0:
486,71,103816,2,0,L|480:145,1,73.4999977569581,8|8,0:0|0:0,0:0:0:0:
392,198,104161,2,0,L|403:345,1,146.999995513916,2|8,0:0|0:0,0:0:0:0:
305,378,104678,1,0,0:0:0:0:
260,284,104851,6,0,P|221:258|155:261,1,110.249996635437,6|2,0:0|0:0,0:0:0:0:
151,266,105196,2,0,L|147:191,1,73.4999977569581,8|2,0:0|0:0,0:0:0:0:
140,90,105540,1,2,0:0:0:0:
140,90,105885,2,0,L|183:96,3,36.749998878479,8|8|8|8,0:0|0:0|0:0|0:0,0:0:0:0:
219,66,106230,6,0,L|293:57,1,73.4999977569581,6|0,0:0|0:0,0:0:0:0:
394,46,106575,2,0,L|403:120,1,73.4999977569581,8|8,0:0|0:0,0:0:0:0:
335,197,106920,2,0,L|261:188,1,73.4999977569581,2|0,0:0|0:0,0:0:0:0:
160,177,107265,2,0,L|151:251,1,73.4999977569581,8|0,0:0|0:0,0:0:0:0:
55,288,107609,6,0,L|44:169,1,110.249996635437,2|0,0:0|0:0,0:0:0:0:
38,171,107954,2,0,L|46:97,1,73.4999977569581,8|12,0:0|0:0,0:0:0:0:
96,7,108299,1,2,0:0:0:0:
191,68,108471,1,4,0:0:0:0:
191,68,108558,1,8,0:0:0:0:
191,68,108644,2,0,P|227:79|270:67,1,73.4999977569581,8|4,0:0|0:0,0:0:0:0:
347,14,108989,6,0,L|461:29,1,110.249996635437,2|0,0:0|0:0,0:0:0:0:
469,26,109334,2,0,B|454:62|454:62|462:99,1,73.4999977569581,8|8,0:0|0:0,0:0:0:0:
509,186,109678,1,2,0:0:0:0:
438,261,109851,1,0,0:0:0:0:
357,196,110023,2,0,P|319:189|283:210,1,73.4999977569581,8|0,0:0|0:0,0:0:0:0:
229,288,110368,6,0,L|105:275,1,110.249996635437,6|2,0:0|0:0,0:0:0:0:
112,284,110713,2,0,L|107:206,1,73.4999977569581,8|2,0:0|0:0,0:0:0:0:
96,107,111058,1,8,0:0:0:0:
96,107,111403,6,0,P|134:78|218:93,1,136.499993751526,4|0,0:0|0:0,0:0:0:0:
228,102,111747,6,0,B|282:117|282:117|340:90,1,110.249996635437,2|2,0:0|0:0,0:0:0:0:
455,186,112265,2,0,L|447:235,1,36.749998878479,2|0,0:0|0:0,0:0:0:0:
481,262,112437,2,0,B|431:239|431:239|377:254,2,110.249996635437,8|2|2,0:0|0:0|0:0,0:0:0:0:
424,348,113127,5,6,0:0:0:0:
377,254,113299,2,0,L|382:172,2,73.4999977569581,0|8|8,0:0|0:0|0:0,0:0:0:0:
287,304,113816,2,0,P|251:309|205:289,1,73.4999977569581,2|0,0:0|0:0,0:0:0:0:
184,261,114075,1,0,0:0:0:0:
184,261,114161,2,0,P|150:250|114:254,1,73.4999977569581,8|0,0:0|0:0,0:0:0:0:
30,194,114506,6,0,B|17:124|17:124|29:79,2,110.249996635437,2|2|2,0:0|0:0|0:0,0:0:0:0:
114,254,115196,2,0,B|104:323|104:323|80:336|73:363,2,110.249996635437,8|2|2,0:0|0:0|0:0,0:0:0:0:
182,182,115885,6,0,L|172:102,1,73.4999977569581,6|0,0:0|0:0,0:0:0:0:
196,63,116144,1,2,0:0:0:0:
196,63,116230,2,0,B|231:51|231:51|270:60,1,73.4999977569581,8|2,0:0|0:0,0:0:0:0:
341,130,116575,1,2,0:0:0:0:
425,69,116747,1,0,0:0:0:0:
425,69,116834,1,8,0:0:0:0:
425,69,116920,2,0,P|444:113|439:151,1,73.4999977569581,8|0,0:0|0:0,0:0:0:0:
391,227,117265,5,4,0:0:0:0:
391,227,117609,2,0,L|314:217,1,73.4999977569581,8|8,0:0|0:0,0:0:0:0:
254,136,117954,2,0,P|221:182|232:275,1,146.999995513916,2|8,0:0|0:0,0:0:0:0:
288,352,118471,1,0,0:0:0:0:
188,381,118644,6,0,P|152:368|100:357,1,73.4999977569581,2|0,0:0|0:0,0:0:0:0:
54,278,118989,2,0,P|90:265|142:254,1,73.4999977569581,8|8,0:0|0:0,0:0:0:0:
221,222,119334,2,0,P|234:175|219:143,1,73.4999977569581,2|0,0:0|0:0,0:0:0:0:
204,112,119592,1,8,0:0:0:0:
204,112,119678,2,0,P|191:65|206:33,1,73.4999977569581,8|0,0:0|0:0,0:0:0:0:
293,2,120023,6,0,L|345:10,2,48.9999985046387,2|0|0,0:0|0:0|0:0,0:0:0:0:
349,28,120368,2,0,L|401:36,2,48.9999985046387,8|0|0,0:0|0:0|0:0,0:0:0:0:
410,52,120713,6,0,L|399:126,1,73.4999977569581,2|0,0:0|0:0,0:0:0:0:
315,185,121058,2,0,L|326:259,1,73.4999977569581,8|0,0:0|0:0,0:0:0:0:
251,329,121403,6,0,P|203:347|133:324,1,110.249996635437,8|8,0:0|0:0,0:0:0:0:
138,326,121747,1,8,0:0:0:0:
119,224,121920,1,8,0:0:0:0:
100,122,122092,1,8,0:0:0:0:
100,122,122437,2,0,B|134:94|169:100|169:100|189:125|230:119,1,136.499993751526,4|0,0:0|0:0,0:0:0:0:
244,111,122782,5,2,1:0:0:0:
430,106,125196,6,0,L|419:68,1,33.2499991121292,12|0,1:0|0:0,0:0:0:0:
430,106,125540,6,0,L|351:97,2,66.4999982242585,2|0|8,3:0|3:0|3:0,0:0:0:0:
499,169,126058,1,2,3:0:0:0:
411,201,126230,2,0,L|332:192,2,66.4999982242585,2|0|8,3:0|3:0|3:0,0:0:0:0:
469,274,126747,1,2,3:0:0:0:
405,342,126920,6,0,P|359:346|336:332,1,66.4999982242585,2|0,3:0|3:0,0:0:0:0:
303,311,127178,1,0,3:0:0:0:
303,311,127265,2,0,P|257:307|234:321,1,66.4999982242585,8|2,3:0|3:0,0:0:0:0:
167,373,127609,1,2,3:0:0:0:
155,280,127782,2,0,L|150:232,2,33.2499991121292,8|8|12,3:0|3:0|3:0,0:0:0:0:
155,280,128299,6,0,P|114:297|32:251,1,132.999996448517,2|8,3:0|3:0,0:0:0:0:
9,172,128816,1,2,3:0:0:0:
61,94,128989,2,0,P|102:77|184:123,1,132.999996448517,2|8,3:0|3:0,0:0:0:0:
221,195,129506,1,2,3:0:0:0:
293,137,129678,6,0,L|287:60,1,66.4999982242585,2|0,3:0|3:0,0:0:0:0:
287,27,129937,1,2,3:0:0:0:
287,27,130023,2,0,B|317:33|317:33|364:15,1,66.4999982242585,8|2,3:0|3:0,0:0:0:0:
443,10,130368,2,0,L|432:114,1,99.7499973363877,2|0,3:0|0:0,0:0:0:0:
431,125,130713,5,8,3:0:0:0:
431,125,131058,2,0,L|500:116,1,66.4999982242585,2|2,3:0|3:0,0:0:0:0:
510,208,131403,2,0,L|444:216,1,66.4999982242585,8|2,3:0|3:0,0:0:0:0:
388,292,131747,2,0,L|396:357,2,66.4999982242585,2|2|8,3:0|3:0|3:0,0:0:0:0:
312,235,132265,1,10,3:0:0:0:
312,235,132351,1,10,3:0:0:0:
312,235,132437,6,0,L|318:189,3,33.2499991121292,2|2|2|2,3:0|3:0|3:0|3:0,0:0:0:0:
296,159,132782,2,0,L|287:93,1,66.4999982242585,10|2,3:0|3:0,0:0:0:0:
220,28,133127,1,2,3:0:0:0:
154,93,133299,2,0,P|128:95|108:88,2,33.2499991121292,8|8|12,3:0|3:0|3:0,0:0:0:0:
240,137,135196,5,8,3:0:0:0:
161,187,135368,2,0,L|165:234,2,33.2499991121292,8|8|8,3:0|3:0|3:0,0:0:0:0:
154,93,135713,1,8,3:0:0:0:
154,93,135885,1,8,3:0:0:0:
154,93,136230,6,0,L|160:46,1,33.2499991121292,12|0,3:0|0:0,0:0:0:0:
154,93,136575,6,0,B|208:100|208:100|232:86|232:86|286:91,1,132.999996448517,8|8,0:3|0:3,0:0:0:0:
400,192,137265,2,0,B|346:199|346:199|322:185|322:185|268:190,1,132.999996448517,8|8,0:3|0:3,0:0:0:0:
154,291,137954,2,0,B|208:298|208:298|232:284|232:284|286:289,2,132.999996448517,8|8|8,0:3|0:3|0:3,0:0:0:0:
89,223,138816,1,8,0:3:0:0:
15,280,138989,1,12,0:3:0:0:
15,280,139334,6,0,L|22:358,1,66.4999982242585,10|8,3:2|3:2,0:0:0:0:
110,369,139678,2,0,L|115:302,1,66.4999982242585,10|8,3:2|3:2,0:0:0:0:
187,242,140023,2,0,P|221:238|252:254,1,66.4999982242585,10|8,3:2|3:2,0:0:0:0:
318,189,140368,2,0,P|338:216|340:251,1,66.4999982242585,10|8,3:2|3:2,0:0:0:0:
302,332,140713,5,10,3:2:0:0:
302,332,140885,1,8,3:2:0:0:
385,373,141058,1,10,3:2:0:0:
385,373,141230,1,8,3:2:0:0:
448,304,141403,2,0,P|450:265|458:231,1,66.4999982242585,10|8,3:2|3:2,0:0:0:0:
496,154,141747,2,0,P|494:115|486:81,1,66.4999982242585,10|8,3:2|3:2,0:0:0:0:
415,30,142092,6,0,L|372:37,3,33.2499991121292,10|8|10|8,3:2|3:2|3:2|3:2,0:0:0:0:
347,67,142437,2,0,L|304:74,3,33.2499991121292,10|8|10|8,3:2|3:2|3:2|3:2,0:0:0:0:
279,104,142782,2,0,L|236:111,3,33.2499991121292,10|8|10|8,3:2|3:2|3:2|3:2,0:0:0:0:
211,141,143127,2,0,L|168:148,3,33.2499991121292,10|8|10|8,3:2|3:2|3:2|3:2,0:0:0:0:
363,262,144506,6,0,L|357:226,1,33.2499991121292,12|0,0:0|0:0,0:0:0:0:
363,262,144851,6,0,P|313:256|252:287,1,110.249996635437,6|2,0:0|0:0,0:0:0:0:
255,291,145196,2,0,B|261:324|261:324|258:366,1,73.4999977569581,2|2,0:0|0:0,0:0:0:0:
155,376,145540,1,8,0:0:0:0:
92,293,145713,2,0,L|11:300,2,73.4999977569581,2|2|0,0:0|0:0|0:0,0:0:0:0:
159,215,146230,6,0,P|171:174|148:106,1,110.249996635437,2|2,0:0|0:0,0:0:0:0:
146,103,146575,2,0,L|221:107,1,73.4999977569581,2|2,0:0|0:0,0:0:0:0:
293,178,146920,1,8,0:0:0:0:
373,114,147092,1,2,0:0:0:0:
448,184,147265,2,0,P|457:223|445:256,1,73.4999977569581,2|0,0:0|0:0,0:0:0:0:
377,329,147609,6,0,B|327:335|327:335|317:327|317:327|261:333,1,110.249996635437,2|2,0:0|0:0,0:0:0:0:
262,341,147954,2,0,B|250:308|250:308|256:256,1,73.4999977569581,2|2,0:0|0:0,0:0:0:0:
329,199,148299,1,8,0:0:0:0:
241,144,148471,2,0,P|201:146|172:166,2,73.4999977569581,2|2|0,0:0|0:0|0:0,0:0:0:0:
334,98,148989,5,2,0:0:0:0:
264,22,149161,1,0,0:0:0:0:
264,22,149247,1,2,0:0:0:0:
264,22,149334,2,0,L|179:32,1,73.4999977569581,2|2,0:0|0:0,0:0:0:0:
116,101,149678,1,8,0:0:0:0:
38,49,149851,1,8,0:0:0:0:
38,49,149937,1,8,0:0:0:0:
38,49,150023,2,0,L|47:3,3,36.749998878479,8|8|8|8,0:0|0:0|0:0|0:0,0:0:0:0:
19,63,150368,6,0,P|26:119|29:183,1,110.249996635437,6|2,0:0|0:0,0:0:0:0:
26,186,150713,2,0,P|63:169|101:176,1,73.4999977569581,2|2,0:0|0:0,0:0:0:0:
160,252,151058,1,8,0:0:0:0:
231,178,151230,2,0,L|223:100,2,73.4999977569581,2|2|0,0:0|0:0|0:0,0:0:0:0:
309,244,151747,6,0,B|301:337|301:337|322:324,1,110.249996635437,2|2,0:0|0:0,0:0:0:0:
327,321,152092,2,0,P|364:324|394:347,1,73.4999977569581,2|2,0:0|0:0,0:0:0:0:
488,382,152437,1,8,0:0:0:0:
488,382,152609,1,2,0:0:0:0:
510,281,152782,2,0,P|507:228|496:191,1,73.4999977569581,2|0,0:0|0:0,0:0:0:0:
447,120,153127,6,0,P|412:154|332:146,1,110.249996635437,2|2,0:0|0:0,0:0:0:0:
345,151,153471,2,0,B|332:122|332:122|336:77,1,73.4999977569581,2|2,0:0|0:0,0:0:0:0:
253,18,153816,1,8,0:0:0:0:
178,89,153989,2,0,P|140:93|107:67,2,73.4999977569581,2|2|0,0:0|0:0|0:0,0:0:0:0:
238,172,154506,5,8,3:0:0:0:
238,172,154851,1,8,3:0:0:0:
238,172,155196,1,8,3:0:0:0:
163,243,155368,1,0,0:0:0:0:
163,243,155454,1,0,0:0:0:0:
163,243,155540,2,0,L|154:288,3,36.749998878479,0|0|0|0,0:0|0:0|0:0|0:0,0:0:0:0:
117,314,155885,6,0,B|208:302|170:355|263:344,1,146.999995513916,6|0,0:0|0:0,0:0:0:0:
298,249,156403,1,2,0:0:0:0:
392,289,156575,2,0,P|402:240|392:211,1,73.4999977569581,8|0,0:0|0:0,0:0:0:0:
323,144,156920,2,0,P|313:95|323:66,1,73.4999977569581,2|0,0:0|0:0,0:0:0:0:
400,10,157265,5,0,0:0:0:0:
495,71,157437,1,0,0:0:0:0:
495,71,157523,1,0,0:0:0:0:
495,71,157609,2,0,L|488:154,1,73.4999977569581,2|0,0:0|0:0,0:0:0:0:
477,246,157954,2,0,B|410:222|410:222|335:247,1,146.999995513916,8|6,0:0|0:0,0:0:0:0:
338,245,158644,6,0,P|312:206|319:100,1,146.999995513916,2|0,0:0|0:0,0:0:0:0:
371,23,159161,1,2,0:0:0:0:
268,13,159334,2,0,L|194:28,1,73.4999977569581,8|0,0:0|0:0,0:0:0:0:
136,111,159678,2,0,B|126:146|126:146|140:190,1,73.4999977569581,2|0,0:0|0:0,0:0:0:0:
217,246,160023,5,0,0:0:0:0:
151,325,160196,1,0,0:0:0:0:
151,325,160282,1,0,0:0:0:0:
151,325,160368,2,0,L|66:318,1,73.4999977569581,2|0,0:0|0:0,0:0:0:0:
3,246,160713,1,8,0:0:0:0:
83,182,160885,1,8,0:0:0:0:
83,182,160971,1,8,0:0:0:0:
83,182,161058,2,0,L|79:131,3,36.749998878479,8|8|8|8,0:0|0:0|0:0|0:0,0:0:0:0:
61,96,161403,6,0,B|123:117|123:117|225:86,1,146.999995513916,6|2,0:0|0:0,0:0:0:0:
297,56,161920,1,0,0:0:0:0:
329,153,162092,2,0,L|317:268,1,110.249996635437,8|2,0:0|0:0,0:0:0:0:
316,275,162437,2,0,P|351:268|388:281,1,73.4999977569581,0|2,0:0|0:0,0:0:0:0:
456,354,162782,5,2,0:0:0:0:
509,278,162954,1,0,0:0:0:0:
509,278,163040,1,0,0:0:0:0:
509,278,163127,2,0,L|501:203,1,73.4999977569581,2|0,0:0|0:0,0:0:0:0:
449,116,163471,2,0,P|406:128|348:103,1,110.249996635437,8|2,0:0|0:0,0:0:0:0:
344,94,163816,2,0,B|302:90|302:90|266:102,1,73.4999977569581,0|2,0:0|0:0,0:0:0:0:
191,164,164161,6,0,L|108:156,2,73.4999977569581,2|2|2,0:0|0:0|0:0,0:0:0:0:
273,242,164678,1,2,0:0:0:0:
273,242,164765,1,2,0:0:0:0:
273,242,164851,2,0,L|320:236,3,36.749998878479,10|2|2|2,0:0|0:0|0:0|0:0,0:0:0:0:
251,258,165196,2,0,L|204:252,3,36.749998878479,2|2|2|2,0:0|0:0|0:0|0:0,0:0:0:0:
265,282,165540,5,2,0:0:0:0:
347,344,165713,2,0,P|348:373|344:381,2,36.749998878479,0|0|0,0:0|0:0|0:0,0:0:0:0:
417,268,166058,1,0,0:0:0:0:
337,203,166230,6,0,P|331:162|343:124,1,73.4999977569581,0|0,0:0|0:0,0:0:0:0:
416,64,166575,2,0,P|420:24|410:-15,1,56,0|0,0:0|0:0,0:0:0:0:
324,31,166920,1,0,0:0:0:0:
161,89,172437,5,2,3:0:0:0:
161,89,172782,2,0,P|168:128|171:165,1,56,8|0,3:0|3:0,0:0:0:0:
109,195,173127,2,0,P|164:185|218:219,1,112,0|8,3:0|3:0,0:0:0:0:
234,286,173644,1,0,3:0:0:0:
185,347,173816,5,2,3:0:0:0:
185,347,174161,2,0,L|72:340,1,112,8|0,3:0|3:0,0:0:0:0:
23,278,174678,1,2,3:0:0:0:
76,220,174851,2,0,P|85:188|78:155,1,56,8|0,3:0|3:0,0:0:0:0:
31,105,175196,6,0,L|167:115,1,112,2|8,3:0|3:0,0:0:0:0:
276,31,175885,2,0,L|337:24,1,56,0|2,3:0|3:0,0:0:0:0:
342,102,176230,2,0,L|286:108,1,56,8|0,3:0|3:0,0:0:0:0:
237,170,176575,2,0,P|223:211|240:285,1,112,2|8,3:0|3:0,0:0:0:0:
300,320,177092,1,0,3:0:0:0:
363,274,177265,2,0,P|386:274|418:292,2,56,0|2|8,3:0|3:0|3:0,0:0:0:0:
363,274,177954,6,0,P|328:301|236:301,2,132.999996448517,8|8|8,3:0|3:0|3:0,0:0:0:0:
264,115,178989,2,0,L|188:125,1,66.4999982242585,8|2,3:0|3:0,0:0:0:0:
134,192,179334,5,2,3:0:0:0:
66,128,179506,2,0,B|59:95|59:95|76:55,1,66.4999982242585,12|2,3:0|3:0,0:0:0:0:
134,192,179851,2,0,B|141:225|141:225|124:265,1,66.4999982242585,12|2,3:0|3:0,0:0:0:0:
65,382,180196,2,0,B|53:352|53:352|60:319,1,66.4999982242585,12|8,3:0|3:0,0:0:0:0:
157,350,180540,1,8,3:0:0:0:
157,350,180627,1,8,3:0:0:0:
157,350,180713,5,8,3:0:0:0:
217,279,180885,2,0,B|265:285|265:285|289:308|289:308|355:316,1,132.999996448517,0|0,3:0|3:0,0:0:0:0:
424,272,181403,2,0,P|449:227|429:148,1,132.999996448517,8|8,3:0|3:0,0:0:0:0:
352,100,181920,1,2,3:0:0:0:
276,154,182092,6,0,P|284:197|285:223,1,66.4999982242585,8|0,3:0|3:0,0:0:0:0:
210,275,182437,2,0,P|202:318|201:344,1,66.4999982242585,8|2,3:0|3:0,0:0:0:0:
117,383,182782,2,0,L|48:372,1,66.4999982242585,8|8,3:0|3:0,0:0:0:0:
7,290,183127,1,12,3:0:0:0:
7,290,183471,6,0,B|2:257|2:257|21:226,1,66.4999982242585,8|8,0:0|0:0,0:0:0:0:
100,182,183816,2,0,B|105:149|105:149|86:118,1,66.4999982242585,8|8,0:0|0:0,0:0:0:0:
133,39,184161,2,0,L|208:49,1,66.4999982242585,8|8,0:0|0:0,0:0:0:0:
258,120,184506,1,8,0:0:0:0:
333,65,184678,1,8,0:0:0:0:
389,139,184851,5,8,0:0:0:0:
463,84,185023,2,0,L|473:38,2,33.2499991121292,8|8|8,0:0|0:0|0:0,0:0:0:0:
389,139,185368,2,0,L|396:171,2,33.2499991121292,8|8|8,0:0|0:0|0:0,0:0:0:0:
498,183,185713,2,0,L|490:215,1,33.2499991121292,8|8,0:0|0:0,0:0:0:0:
483,247,185885,1,8,0:0:0:0:
398,286,186058,1,8,0:0:0:0:
398,286,186144,1,8,0:0:0:0:
398,286,186230,6,0,L|405:328,3,33.2499991121292,8|8|8|8,0:0|0:0|0:0|0:0,0:0:0:0:
372,354,186575,2,0,L|330:361,3,33.2499991121292,8|8|8|8,0:0|0:0|0:0|0:0,0:0:0:0:
304,328,186920,2,0,L|297:286,3,33.2499991121292,8|8|8|8,0:0|0:0|0:0|0:0,0:0:0:0:
330,260,187265,2,0,L|372:253,3,33.2499991121292,8|8|8|8,0:0|0:0|0:0|0:0,0:0:0:0:
362,254,188644,6,0,B|297:275|297:275|223:232,1,136.499993751526,12|0,0:0|0:0,0:0:0:0:
221,231,188989,5,2,0:0:0:0:
26,308,189678,1,2,0:0:0:0:
89,167,190196,5,2,0:0:0:0:
89,167,190540,2,0,B|147:177|147:177|181:165|181:165|239:175,1,146.999995513916,2|2,0:0|0:0,0:0:0:0:
329,136,191058,2,0,P|338:96|316:31,1,110.249996635437,8|8,0:0|0:0,0:0:0:0:
307,23,191403,1,8,0:0:0:0:
218,65,191575,1,0,0:0:0:0:
218,65,191661,1,0,0:0:0:0:
218,65,191747,6,0,L|99:54,1,110.249996635437,6|0,0:0|0:0,0:0:0:0:
99,63,192092,2,0,B|85:93|85:93|96:142,1,73.4999977569581,8|8,0:0|0:0,0:0:0:0:
166,205,192437,2,0,P|179:247|143:343,1,146.999995513916,2|8,0:0|0:0,0:0:0:0:
48,375,192954,1,6,0:0:0:0:
48,375,193299,2,0,L|38:323,1,36.749998878479,8|0,0:0|0:0,0:0:0:0:
6,300,193471,6,0,L|17:226,1,73.4999977569581,8|8,0:0|0:0,0:0:0:0:
93,157,193816,1,12,0:0:0:0:
93,157,193989,1,8,0:0:0:0:
174,219,194161,1,8,0:0:0:0:
174,219,194334,1,0,0:0:0:0:
247,147,194506,6,0,P|288:127|353:147,1,110.249996635437,6|0,0:0|0:0,0:0:0:0:
357,150,194851,2,0,B|372:182|372:182|367:233,1,73.4999977569581,8|8,0:0|0:0,0:0:0:0:
279,272,195196,2,0,B|264:304|264:304|269:355,1,73.4999977569581,2|0,0:0|0:0,0:0:0:0:
363,378,195540,2,0,L|443:370,1,73.4999977569581,8|0,0:0|0:0,0:0:0:0:
498,287,195886,6,0,L|488:171,1,110.249996635437,2|0,0:0|0:0,0:0:0:0:
494,165,196231,2,0,L|503:80,1,73.4999977569581,8|8,0:0|0:0,0:0:0:0:
426,21,196575,1,2,0:0:0:0:
371,111,196748,1,0,0:0:0:0:
371,111,196834,1,8,0:0:0:0:
371,111,196920,2,0,P|338:111|300:90,1,73.4999977569581,8|0,0:0|0:0,0:0:0:0:
243,176,197265,6,0,L|256:292,1,110.249996635437,2|0,0:0|0:0,0:0:0:0:
257,297,197610,2,0,P|219:312|185:302,1,73.4999977569581,8|8,0:0|0:0,0:0:0:0:
107,240,197955,2,0,B|95:184|95:184|121:93,1,146.999995513916,2|8,0:0|0:0,0:0:0:0:
204,38,198472,1,2,0:0:0:0:
204,38,198816,6,0,L|255:44,1,36.749998878479,2|2,0:0|0:0,0:0:0:0:
282,73,198989,2,0,L|318:69,3,36.749998878479,10|0|2|2,0:0|0:0|0:0|0:0,0:0:0:0:
364,93,199334,2,0,P|375:134|357:175,1,73.4999977569581,10|2,0:0|0:0,0:0:0:0:
293,235,199678,1,4,0:0:0:0:
293,235,200023,6,0,B|278:273|278:273|290:349,1,110.249996635437,2|0,0:0|0:0,0:0:0:0:
291,356,200368,2,0,L|217:344,1,73.4999977569581,8|8,0:0|0:0,0:0:0:0:
151,265,200713,2,0,L|77:277,1,73.4999977569581,2|0,0:0|0:0,0:0:0:0:
12,197,201058,2,0,B|3:162|3:162|15:120,1,73.4999977569581,8|0,0:0|0:0,0:0:0:0:
70,40,201403,6,0,L|203:55,1,110.249996635437,2|0,0:0|0:0,0:0:0:0:
190,46,201748,2,0,P|173:81|185:118,1,73.4999977569581,8|12,0:0|0:0,0:0:0:0:
261,178,202093,1,2,0:0:0:0:
325,98,202265,1,4,0:0:0:0:
325,98,202351,1,8,0:0:0:0:
325,98,202437,2,0,P|365:106|402:111,1,73.4999977569581,2|12,0:0|0:0,0:0:0:0:
453,197,202782,6,0,P|466:238|439:302,1,110.249996635437,2|0,0:0|0:0,0:0:0:0:
436,306,203127,2,0,B|399:313|399:313|352:295,1,73.4999977569581,8|8,0:0|0:0,0:0:0:0:
279,243,203471,2,0,P|229:231|150:288,1,146.999995513916,2|8,0:0|0:0,0:0:0:0:
90,363,203989,1,0,0:0:0:0:
9,297,204162,6,0,L|21:172,1,110.249996635437,6|0,0:0|0:0,0:0:0:0:
23,177,204506,2,0,L|16:95,1,73.4999977569581,8|2,0:0|0:0,0:0:0:0:
83,24,204851,1,2,0:0:0:0:
83,24,205196,2,0,L|135:30,3,36.749998878479,8|8|0|0,0:0|0:0|0:0|0:0,0:0:0:0:
170,39,205541,6,0,P|160:87|162:119,1,73.4999977569581,6|0,0:0|0:0,0:0:0:0:
243,172,205886,2,0,P|253:220|251:252,1,73.4999977569581,8|0,0:0|0:0,0:0:0:0:
236,346,206231,2,0,L|311:340,1,73.4999977569581,2|0,0:0|0:0,0:0:0:0:
391,279,206575,2,0,L|466:285,1,73.4999977569581,8|0,0:0|0:0,0:0:0:0:
511,193,206920,6,0,P|497:151|428:124,1,110.249996635437,2|0,0:0|0:0,0:0:0:0:
429,127,207265,2,0,B|416:87|416:87|428:49,1,73.4999977569581,8|12,0:0|0:0,0:0:0:0:
337,4,207610,1,2,0:0:0:0:
274,97,207782,1,4,0:0:0:0:
274,97,207868,1,8,0:0:0:0:
274,97,207955,2,0,P|237:101|196:83,1,73.4999977569581,0|12,0:0|0:0,0:0:0:0:
122,27,208299,6,0,P|71:26|20:78,1,110.249996635437,2|0,0:0|0:0,0:0:0:0:
25,71,208644,2,0,L|31:145,1,73.4999977569581,8|8,0:0|0:0,0:0:0:0:
119,198,208989,2,0,L|108:345,1,146.999995513916,2|8,0:0|0:0,0:0:0:0:
210,356,209506,6,0,L|221:209,1,146.999995513916,6|0,0:0|0:0,0:0:0:0:
253,169,209937,1,0,0:0:0:0:
253,169,210023,2,0,P|288:160|327:175,1,73.4999977569581,8|0,0:0|0:0,0:0:0:0:
404,234,210368,2,0,P|455:230|483:131,1,146.999995513916,8|4,0:0|0:0,0:0:0:0:
491,150,211058,6,0,B|472:111|472:111|485:43,2,99.7499973363877,6|2|8,0:0|0:0|0:0,0:0:0:0:
425,215,211747,2,0,B|444:254|444:254|431:322,2,99.7499973363877,2|0|0,0:0|0:0|0:0,0:0:0:0:
355,152,212437,2,0,L|246:162,2,99.7499973363877,2|2|8,0:0|0:0|0:0,0:0:0:0:
397,69,213127,2,0,L|328:62,1,66.4999982242585,2|8,0:0|0:0,0:0:0:0:
298,37,213385,1,8,0:0:0:0:
298,37,213471,2,0,L|229:44,1,66.4999982242585,8|0,0:0|0:0,0:0:0:0:
154,96,213816,6,0,P|111:92|68:47,2,99.7499973363877,2|2|8,0:0|0:0|0:0,0:0:0:0:
192,181,214506,2,0,P|167:216|106:230,2,99.7499973363877,2|0|0,0:0|0:0|0:0,0:0:0:0:
284,190,215196,2,0,P|302:229|284:288,2,99.7499973363877,2|2|2,0:0|0:0|0:0,0:0:0:0:
337,114,215885,2,0,L|439:126,1,99.7499973363877,2|8,0:0|0:0,0:0:0:0:
471,156,216230,2,0,L|467:202,3,33.2499991121292,8|8|8|8,0:0|0:0|0:0|0:0,0:0:0:0:
482,233,216575,6,0,P|441:216|377:234,1,99.7499973363877,6|2,0:0|0:0,0:0:0:0:
377,235,216920,2,0,L|384:306,1,66.4999982242585,8|2,0:0|0:0,0:0:0:0:
235,362,217437,1,2,0:0:0:0:
235,362,217609,2,0,L|241:295,1,66.4999982242585,8|0,0:0|0:0,0:0:0:0:
211,207,217954,6,0,B|186:181|186:181|121:192,1,99.7499973363877,2|2,0:0|0:0,0:0:0:0:
114,198,218299,2,0,P|118:162|105:133,1,66.4999982242585,8|8,0:0|0:0,0:0:0:0:
211,22,218816,1,2,0:0:0:0:
211,22,218903,1,0,0:0:0:0:
211,22,218989,2,0,P|198:52|203:85,1,66.4999982242585,8|0,0:0|0:0,0:0:0:0:
273,147,219334,6,0,L|377:138,1,99.7499973363877,2|2,0:0|0:0,0:0:0:0:
381,133,219678,2,0,B|390:162|390:162|384:206,1,66.4999982242585,8|8,0:0|0:0,0:0:0:0:
264,310,220196,1,2,0:0:0:0:
264,310,220368,2,0,B|255:281|255:281|261:237,1,66.4999982242585,8|0,0:0|0:0,0:0:0:0:
347,276,220713,6,0,L|453:282,1,99.7499973363877,8|8,0:0|0:0,0:0:0:0:
457,292,221058,1,8,0:0:0:0:
506,213,221230,1,8,0:0:0:0:
465,128,221403,1,12,0:0:0:0:
