osu file format v14

[General]
AudioFilename: audio.mp3
AudioLeadIn: 0
PreviewTime: 91114
Countdown: 0
SampleSet: Normal
StackLeniency: 0.7
Mode: 1
LetterboxInBreaks: 0
WidescreenStoryboard: 1

[Editor]
Bookmarks: 24950,69088,124260,135295,179433
DistanceSpacing: 2.6
BeatDivisor: 4
GridSize: 32
TimelineZoom: 1

[Metadata]
Title:GOOD LUCK
TitleUnicode:GOOD LUCK
Artist:BPM15Q
ArtistUnicode:BPM15Q
Creator:[R]
Version:FUTSUU
Source:
Tags:nicamoq にかもきゅ yunomi CY8ER Ichigo Rinahamu 苺りなはむ 横山利奈 Yokoyama Rina ヨコヤマリナ all song edm future dnb d'n'b d&b drum and bass 'n' & electronic japanese
BeatmapID:3301910
BeatmapSetID:1617141

[Difficulty]
HPDrainRate:6.5
CircleSize:5
OverallDifficulty:4
ApproachRate:5
SliderMultiplier:1.4
SliderTickRate:1

[Events]
//Background and Video events
0,0,"koucha.jpg",0,0
//Break Periods
//Storyboard Layer 0 (Background)
//Storyboard Layer 1 (Fail)
//Storyboard Layer 2 (Pass)
//Storyboard Layer 3 (Foreground)
//Storyboard Layer 4 (Overlay)
//Storyboard Sound Samples

[TimingPoints]
13912,344.827586206897,4,1,0,70,1,0
24946,-100,4,1,0,90,0,1
47015,-100,4,1,0,90,0,0
47101,-100,4,1,0,80,0,0
68998,-100,4,1,0,70,0,0
79687,-100,4,1,0,80,0,0
80118,-100,4,1,0,90,0,1
102187,-100,4,1,0,90,0,0
102274,-100,4,1,0,80,0,0
124170,-100,4,1,0,70,0,0
135205,-100,4,1,0,80,0,0
149084,-100,4,1,0,90,0,1
168394,-100,4,1,0,90,0,0
168480,-100,4,1,0,80,0,0
179343,-100,4,1,0,70,0,0

[HitObjects]
256,192,13912,5,0,0:0:0:0:
256,192,15291,1,0,0:0:0:0:
256,192,16670,1,8,0:0:0:0:
256,192,18049,1,8,0:0:0:0:
256,192,18739,1,8,0:0:0:0:
256,192,19429,1,0,0:0:0:0:
256,192,20808,1,0,0:0:0:0:
256,192,22187,1,8,0:0:0:0:
256,192,23567,1,0,0:0:0:0:
256,192,24256,1,8,0:0:0:0:
256,192,24601,1,8,0:0:0:0:
256,192,24946,1,4,0:0:0:0:
256,192,25291,1,8,0:0:0:0:
256,192,25636,1,8,0:0:0:0:
256,192,25808,1,0,0:0:0:0:
256,192,25980,1,8,0:0:0:0:
256,192,26325,1,0,0:0:0:0:
256,192,26670,1,8,0:0:0:0:
256,192,27015,1,0,0:0:0:0:
256,192,27187,1,0,0:0:0:0:
256,192,27360,1,8,0:0:0:0:
256,192,27532,1,8,0:0:0:0:
256,192,27705,1,0,0:0:0:0:
256,192,28049,1,8,0:0:0:0:
256,192,28394,1,8,0:0:0:0:
256,192,28567,1,0,0:0:0:0:
256,192,28739,1,8,0:0:0:0:
256,192,29084,1,0,0:0:0:0:
256,192,29429,1,8,0:0:0:0:
256,192,30118,1,8,0:0:0:0:
256,192,30463,1,0,0:0:0:0:
256,192,30808,1,8,0:0:0:0:
256,192,31153,1,8,0:0:0:0:
256,192,31325,1,0,0:0:0:0:
256,192,31498,1,8,0:0:0:0:
256,192,31843,1,0,0:0:0:0:
256,192,32187,1,8,0:0:0:0:
256,192,32360,1,8,0:0:0:0:
256,192,32532,1,0,0:0:0:0:
256,192,32705,1,0,0:0:0:0:
256,192,32877,1,8,0:0:0:0:
256,192,33222,1,0,0:0:0:0:
256,192,33567,1,8,0:0:0:0:
256,192,34084,1,0,0:0:0:0:
256,192,34256,1,8,0:0:0:0:
256,192,34601,1,8,0:0:0:0:
256,192,34774,1,0,0:0:0:0:
256,192,34946,1,8,0:0:0:0:
256,192,35636,1,8,0:0:0:0:
256,192,35980,1,4,0:0:0:0:
256,192,36325,1,8,0:0:0:0:
256,192,36670,1,8,0:0:0:0:
256,192,36843,1,0,0:0:0:0:
256,192,37015,1,8,0:0:0:0:
256,192,37360,1,0,0:0:0:0:
256,192,37705,1,8,0:0:0:0:
256,192,38049,1,0,0:0:0:0:
256,192,38222,1,0,0:0:0:0:
256,192,38394,1,8,0:0:0:0:
256,192,38567,1,8,0:0:0:0:
256,192,38739,1,0,0:0:0:0:
256,192,39084,1,8,0:0:0:0:
256,192,39429,1,8,0:0:0:0:
256,192,39601,1,0,0:0:0:0:
256,192,39774,1,8,0:0:0:0:
256,192,40118,1,0,0:0:0:0:
256,192,40463,1,8,0:0:0:0:
256,192,41153,1,8,0:0:0:0:
256,192,41498,1,0,0:0:0:0:
256,192,41843,1,8,0:0:0:0:
256,192,42187,1,8,0:0:0:0:
256,192,42360,1,0,0:0:0:0:
256,192,42532,1,8,0:0:0:0:
256,192,42877,1,0,0:0:0:0:
256,192,43222,1,8,0:0:0:0:
256,192,43394,1,8,0:0:0:0:
256,192,43567,1,0,0:0:0:0:
256,192,43739,1,0,0:0:0:0:
256,192,43912,1,8,0:0:0:0:
256,192,44256,1,0,0:0:0:0:
256,192,44601,1,8,0:0:0:0:
256,192,45291,1,8,0:0:0:0:
256,192,45636,1,0,0:0:0:0:
256,192,45980,1,8,0:0:0:0:
256,192,46325,1,0,0:0:0:0:
256,192,46498,1,0,0:0:0:0:
256,192,46670,1,8,0:0:0:0:
256,192,47015,1,4,0:0:0:0:
256,192,47360,1,8,0:0:0:0:
256,192,47705,1,8,0:0:0:0:
256,192,48049,1,8,0:0:0:0:
256,192,48394,1,0,0:0:0:0:
256,192,48739,1,8,0:0:0:0:
256,192,49429,1,8,0:0:0:0:
256,192,49774,1,0,0:0:0:0:
256,192,50118,1,8,0:0:0:0:
256,192,50463,1,8,0:0:0:0:
256,192,50808,1,0,0:0:0:0:
256,192,51153,1,0,0:0:0:0:
256,192,51498,1,8,0:0:0:0:
256,192,52187,1,8,0:0:0:0:
256,192,52532,1,0,0:0:0:0:
256,192,52877,1,8,0:0:0:0:
256,192,53222,1,8,0:0:0:0:
256,192,53567,1,8,0:0:0:0:
256,192,53912,1,0,0:0:0:0:
256,192,54256,1,8,0:0:0:0:
256,192,54946,1,8,0:0:0:0:
256,192,55291,1,0,0:0:0:0:
256,192,55636,1,8,0:0:0:0:
256,192,56325,1,8,0:0:0:0:
256,192,56670,1,0,0:0:0:0:
256,192,57532,1,0,0:0:0:0:
256,192,57705,1,8,0:0:0:0:
256,192,58049,1,4,0:0:0:0:
256,192,58394,1,8,0:0:0:0:
256,192,58739,1,8,0:0:0:0:
256,192,59084,1,8,0:0:0:0:
256,192,59429,1,0,0:0:0:0:
256,192,59774,1,8,0:0:0:0:
256,192,60463,1,8,0:0:0:0:
256,192,60808,1,0,0:0:0:0:
256,192,61153,1,8,0:0:0:0:
256,192,61498,1,8,0:0:0:0:
256,192,61843,1,0,0:0:0:0:
256,192,62187,1,0,0:0:0:0:
256,192,62532,1,8,0:0:0:0:
256,192,63222,1,8,0:0:0:0:
256,192,63567,1,0,0:0:0:0:
256,192,63912,1,8,0:0:0:0:
256,192,64256,1,8,0:0:0:0:
256,192,64601,1,8,0:0:0:0:
256,192,64946,1,0,0:0:0:0:
256,192,65291,1,8,0:0:0:0:
256,192,65980,1,8,0:0:0:0:
256,192,66325,1,0,0:0:0:0:
256,192,66670,1,8,0:0:0:0:
256,192,67360,1,8,0:0:0:0:
256,192,67705,1,0,0:0:0:0:
256,192,68394,1,8,0:0:0:0:
256,192,68567,1,8,0:0:0:0:
256,192,68739,1,0,0:0:0:0:
256,192,69084,1,12,0:0:0:0:
256,192,69774,1,8,0:0:0:0:
256,192,70463,1,0,0:0:0:0:
256,192,70808,1,0,0:0:0:0:
256,192,71153,1,8,0:0:0:0:
256,192,71843,1,8,0:0:0:0:
256,192,72532,1,0,0:0:0:0:
256,192,73222,1,8,0:0:0:0:
256,192,73567,1,8,0:0:0:0:
256,192,73912,1,0,0:0:0:0:
256,192,74601,1,0,0:0:0:0:
256,192,75291,1,8,0:0:0:0:
256,192,75980,1,0,0:0:0:0:
256,192,76325,1,0,0:0:0:0:
256,192,76670,1,8,0:0:0:0:
256,192,77360,1,8,0:0:0:0:
256,192,78049,1,8,0:0:0:0:
256,192,78739,1,0,0:0:0:0:
256,192,79774,1,8,0:0:0:0:
256,192,80118,1,4,0:0:0:0:
256,192,80463,1,8,0:0:0:0:
256,192,80808,1,8,0:0:0:0:
256,192,80980,1,0,0:0:0:0:
256,192,81153,1,8,0:0:0:0:
256,192,81498,1,0,0:0:0:0:
256,192,81843,1,8,0:0:0:0:
256,192,82187,1,0,0:0:0:0:
256,192,82360,1,0,0:0:0:0:
256,192,82532,1,8,0:0:0:0:
256,192,82705,1,8,0:0:0:0:
256,192,82877,1,0,0:0:0:0:
256,192,83222,1,8,0:0:0:0:
256,192,83567,1,8,0:0:0:0:
256,192,83739,1,0,0:0:0:0:
256,192,83912,1,8,0:0:0:0:
256,192,84256,1,0,0:0:0:0:
256,192,84601,1,8,0:0:0:0:
256,192,85291,1,8,0:0:0:0:
256,192,85636,1,0,0:0:0:0:
256,192,85980,1,8,0:0:0:0:
256,192,86325,1,8,0:0:0:0:
256,192,86498,1,0,0:0:0:0:
256,192,86670,1,8,0:0:0:0:
256,192,87015,1,0,0:0:0:0:
256,192,87360,1,8,0:0:0:0:
256,192,87532,1,8,0:0:0:0:
256,192,87705,1,0,0:0:0:0:
256,192,87877,1,0,0:0:0:0:
256,192,88049,1,8,0:0:0:0:
256,192,88394,1,0,0:0:0:0:
256,192,88739,1,8,0:0:0:0:
256,192,89256,1,0,0:0:0:0:
256,192,89429,1,8,0:0:0:0:
256,192,89774,1,8,0:0:0:0:
256,192,89946,1,0,0:0:0:0:
256,192,90118,1,8,0:0:0:0:
256,192,90808,1,8,0:0:0:0:
256,192,91153,1,4,0:0:0:0:
256,192,91498,1,8,0:0:0:0:
256,192,91843,1,8,0:0:0:0:
256,192,92015,1,0,0:0:0:0:
256,192,92187,1,8,0:0:0:0:
256,192,92532,1,0,0:0:0:0:
256,192,92877,1,8,0:0:0:0:
256,192,93222,1,0,0:0:0:0:
256,192,93394,1,0,0:0:0:0:
256,192,93567,1,8,0:0:0:0:
256,192,93739,1,8,0:0:0:0:
256,192,93912,1,0,0:0:0:0:
256,192,94256,1,8,0:0:0:0:
256,192,94601,1,8,0:0:0:0:
256,192,94774,1,0,0:0:0:0:
256,192,94946,1,8,0:0:0:0:
256,192,95291,1,0,0:0:0:0:
256,192,95636,1,8,0:0:0:0:
256,192,96325,1,8,0:0:0:0:
256,192,96670,1,0,0:0:0:0:
256,192,97015,1,8,0:0:0:0:
256,192,97360,1,8,0:0:0:0:
256,192,97532,1,0,0:0:0:0:
256,192,97705,1,8,0:0:0:0:
256,192,98049,1,0,0:0:0:0:
256,192,98394,1,8,0:0:0:0:
256,192,98567,1,8,0:0:0:0:
256,192,98739,1,0,0:0:0:0:
256,192,98912,1,0,0:0:0:0:
256,192,99084,1,8,0:0:0:0:
256,192,99429,1,0,0:0:0:0:
256,192,99774,1,8,0:0:0:0:
256,192,100463,1,8,0:0:0:0:
256,192,100808,1,0,0:0:0:0:
256,192,101153,1,8,0:0:0:0:
256,192,101498,1,0,0:0:0:0:
256,192,101670,1,0,0:0:0:0:
256,192,101843,1,8,0:0:0:0:
256,192,102187,1,4,0:0:0:0:
256,192,102532,1,8,0:0:0:0:
256,192,102877,1,8,0:0:0:0:
256,192,103222,1,8,0:0:0:0:
256,192,103567,1,0,0:0:0:0:
256,192,103912,1,8,0:0:0:0:
256,192,104601,1,8,0:0:0:0:
256,192,104946,1,0,0:0:0:0:
256,192,105291,1,8,0:0:0:0:
256,192,105636,1,8,0:0:0:0:
256,192,105980,1,0,0:0:0:0:
256,192,106325,1,0,0:0:0:0:
256,192,106670,1,8,0:0:0:0:
256,192,107360,1,8,0:0:0:0:
256,192,107705,1,0,0:0:0:0:
256,192,108049,1,8,0:0:0:0:
256,192,108394,1,8,0:0:0:0:
256,192,108739,1,8,0:0:0:0:
256,192,109084,1,0,0:0:0:0:
256,192,109429,1,8,0:0:0:0:
256,192,110118,1,8,0:0:0:0:
256,192,110463,1,0,0:0:0:0:
256,192,110808,1,8,0:0:0:0:
256,192,111498,1,8,0:0:0:0:
256,192,111843,1,0,0:0:0:0:
256,192,112705,1,0,0:0:0:0:
256,192,112877,1,8,0:0:0:0:
256,192,113222,1,4,0:0:0:0:
256,192,113567,1,8,0:0:0:0:
256,192,113912,1,8,0:0:0:0:
256,192,114601,1,0,0:0:0:0:
256,192,114946,1,8,0:0:0:0:
256,192,115118,1,0,0:0:0:0:
256,192,115291,1,8,0:0:0:0:
256,192,115636,1,8,0:0:0:0:
256,192,115980,1,0,0:0:0:0:
256,192,116325,1,8,0:0:0:0:
256,192,116670,1,8,0:0:0:0:
256,192,117360,1,0,0:0:0:0:
256,192,117705,1,8,0:0:0:0:
256,192,118049,1,0,0:0:0:0:
256,192,118222,1,0,0:0:0:0:
256,192,118394,1,8,0:0:0:0:
256,192,118739,1,0,0:0:0:0:
256,192,119084,1,8,0:0:0:0:
256,192,119429,1,8,0:0:0:0:
256,192,120118,1,0,0:0:0:0:
256,192,120463,1,8,0:0:0:0:
256,192,120636,1,0,0:0:0:0:
256,192,120808,1,8,0:0:0:0:
256,192,121153,1,8,0:0:0:0:
256,192,121498,1,0,0:0:0:0:
256,192,121843,1,8,0:0:0:0:
256,192,122532,1,8,0:0:0:0:
256,192,122877,1,0,0:0:0:0:
256,192,123222,1,8,0:0:0:0:
256,192,123567,1,8,0:0:0:0:
256,192,123739,1,8,0:0:0:0:
256,192,123912,1,0,0:0:0:0:
256,192,124256,1,12,0:0:0:0:
256,192,124601,1,0,0:0:0:0:
256,192,124946,1,8,0:0:0:0:
256,192,125636,1,0,0:0:0:0:
256,192,125980,1,0,0:0:0:0:
256,192,126325,1,8,0:0:0:0:
256,192,127015,1,8,0:0:0:0:
256,192,127360,1,8,0:0:0:0:
256,192,127705,1,0,0:0:0:0:
256,192,128394,1,0,0:0:0:0:
256,192,128739,1,8,0:0:0:0:
256,192,129084,1,0,0:0:0:0:
256,192,129774,1,8,0:0:0:0:
256,192,130118,1,0,0:0:0:0:
256,192,130463,1,8,0:0:0:0:
256,192,131153,1,8,0:0:0:0:
256,192,131498,1,8,0:0:0:0:
256,192,131843,1,0,0:0:0:0:
256,192,132187,1,0,0:0:0:0:
256,192,132532,1,8,0:0:0:0:
256,192,133222,1,8,0:0:0:0:
256,192,133912,1,0,0:0:0:0:
256,192,134601,1,8,0:0:0:0:
256,192,134946,1,8,0:0:0:0:
256,192,135291,1,4,0:0:0:0:
256,192,135636,1,0,0:0:0:0:
256,192,135980,1,8,0:0:0:0:
256,192,136325,1,8,0:0:0:0:
256,192,136670,1,0,0:0:0:0:
256,192,137015,1,8,0:0:0:0:
256,192,137360,1,0,0:0:0:0:
256,192,138049,1,8,0:0:0:0:
256,192,138394,1,8,0:0:0:0:
256,192,138739,1,0,0:0:0:0:
256,192,139084,1,0,0:0:0:0:
256,192,139429,1,8,0:0:0:0:
256,192,139774,1,0,0:0:0:0:
256,192,140118,1,8,0:0:0:0:
256,192,140808,1,0,0:0:0:0:
256,192,141153,1,8,0:0:0:0:
256,192,141498,1,0,0:0:0:0:
256,192,141843,1,0,0:0:0:0:
256,192,142187,1,8,0:0:0:0:
256,192,142532,1,8,0:0:0:0:
256,192,142877,1,0,0:0:0:0:
256,192,143222,1,8,0:0:0:0:
256,192,143567,1,0,0:0:0:0:
256,192,144946,1,8,0:0:0:0:
256,192,145980,1,8,0:0:0:0:
256,192,146325,1,4,0:0:0:0:
256,192,147015,1,8,0:0:0:0:
256,192,147187,1,0,0:0:0:0:
256,192,147705,1,4,0:0:0:0:
256,192,148222,1,8,0:0:0:0:
256,192,148394,1,8,0:0:0:0:
256,192,148739,1,8,0:0:0:0:
256,192,149084,1,4,0:0:0:0:
256,192,149429,1,8,0:0:0:0:
256,192,149774,1,8,0:0:0:0:
256,192,149946,1,0,0:0:0:0:
256,192,150118,1,8,0:0:0:0:
256,192,150463,1,0,0:0:0:0:
256,192,150808,1,8,0:0:0:0:
256,192,151498,1,8,0:0:0:0:
256,192,151843,1,0,0:0:0:0:
256,192,152187,1,8,0:0:0:0:
256,192,152532,1,8,0:0:0:0:
256,192,152705,1,0,0:0:0:0:
256,192,152877,1,8,0:0:0:0:
256,192,153222,1,0,0:0:0:0:
256,192,153567,1,8,0:0:0:0:
256,192,153739,1,8,0:0:0:0:
256,192,153912,1,0,0:0:0:0:
256,192,154084,1,0,0:0:0:0:
256,192,154256,1,8,0:0:0:0:
256,192,154601,1,0,0:0:0:0:
256,192,154946,1,8,0:0:0:0:
256,192,155463,1,0,0:0:0:0:
256,192,155636,1,8,0:0:0:0:
256,192,155980,1,8,0:0:0:0:
256,192,156153,1,0,0:0:0:0:
256,192,156325,1,8,0:0:0:0:
256,192,157015,1,8,0:0:0:0:
256,192,157360,1,4,0:0:0:0:
256,192,157705,1,8,0:0:0:0:
256,192,158049,1,8,0:0:0:0:
256,192,158222,1,0,0:0:0:0:
256,192,158394,1,8,0:0:0:0:
256,192,158739,1,0,0:0:0:0:
256,192,159084,1,8,0:0:0:0:
256,192,159429,1,0,0:0:0:0:
256,192,159601,1,0,0:0:0:0:
256,192,159774,1,8,0:0:0:0:
256,192,159946,1,8,0:0:0:0:
256,192,160118,1,0,0:0:0:0:
256,192,160463,1,8,0:0:0:0:
256,192,160808,1,8,0:0:0:0:
256,192,160980,1,0,0:0:0:0:
256,192,161153,1,8,0:0:0:0:
256,192,161498,1,0,0:0:0:0:
256,192,161843,1,8,0:0:0:0:
256,192,162532,1,8,0:0:0:0:
256,192,162877,1,0,0:0:0:0:
256,192,163222,1,8,0:0:0:0:
256,192,163567,1,8,0:0:0:0:
256,192,163739,1,0,0:0:0:0:
256,192,163912,1,8,0:0:0:0:
256,192,164256,1,0,0:0:0:0:
256,192,164601,1,8,0:0:0:0:
256,192,164774,1,8,0:0:0:0:
256,192,164946,1,0,0:0:0:0:
256,192,165118,1,0,0:0:0:0:
256,192,165291,1,8,0:0:0:0:
256,192,165636,1,0,0:0:0:0:
256,192,165980,1,8,0:0:0:0:
256,192,166670,1,8,0:0:0:0:
256,192,167015,1,0,0:0:0:0:
256,192,167360,1,8,0:0:0:0:
256,192,167705,1,0,0:0:0:0:
256,192,167877,1,0,0:0:0:0:
256,192,168049,1,8,0:0:0:0:
256,192,168394,1,4,0:0:0:0:
256,192,168739,1,8,0:0:0:0:
256,192,169084,1,8,0:0:0:0:
256,192,169256,1,0,0:0:0:0:
256,192,169429,1,8,0:0:0:0:
256,192,169774,1,0,0:0:0:0:
256,192,170118,1,8,0:0:0:0:
256,192,170808,1,8,0:0:0:0:
256,192,171153,1,0,0:0:0:0:
256,192,171498,1,8,0:0:0:0:
256,192,171843,1,8,0:0:0:0:
256,192,172015,1,8,0:0:0:0:
256,192,172187,1,0,0:0:0:0:
256,192,172532,1,0,0:0:0:0:
256,192,172877,1,8,0:0:0:0:
256,192,173567,1,8,0:0:0:0:
256,192,173912,1,0,0:0:0:0:
256,192,174256,1,8,0:0:0:0:
256,192,174601,1,8,0:0:0:0:
256,192,174774,1,0,0:0:0:0:
256,192,174946,1,8,0:0:0:0:
256,192,175291,1,0,0:0:0:0:
256,192,175636,1,8,0:0:0:0:
256,192,176325,1,8,0:0:0:0:
256,192,176670,1,0,0:0:0:0:
256,192,177015,1,8,0:0:0:0:
256,192,177360,1,8,0:0:0:0:
256,192,177532,1,8,0:0:0:0:
256,192,177705,1,0,0:0:0:0:
256,192,178049,1,12,0:0:0:0:
256,192,178912,1,0,0:0:0:0:
256,192,179084,1,8,0:0:0:0:
256,192,179429,1,0,0:0:0:0:
256,192,180291,1,8,0:0:0:0:
256,192,180808,1,0,0:0:0:0:
256,192,181670,1,0,0:0:0:0:
256,192,182187,1,8,0:0:0:0:
256,192,183049,1,8,0:0:0:0:
256,192,183567,1,8,0:0:0:0:
256,192,184429,1,0,0:0:0:0:
256,192,184946,1,0,0:0:0:0:
256,192,185808,1,8,0:0:0:0:
256,192,186325,1,0,0:0:0:0:
256,192,187187,1,0,0:0:0:0:
256,192,187705,1,8,0:0:0:0:
256,192,188567,1,8,0:0:0:0:
256,192,189084,1,8,0:0:0:0:
