osu file format v14

[General]
AudioFilename: audio.mp3
AudioLeadIn: 0
PreviewTime: 177400
Countdown: 0
SampleSet: Normal
StackLeniency: 0.7
Mode: 0
LetterboxInBreaks: 0
WidescreenStoryboard: 0

[Editor]
Bookmarks: 7554,37092,66630,96169,118323,155246,177400,206938,229092,258630,288169,310323,332477
DistanceSpacing: 1.2
BeatDivisor: 4
GridSize: 4
TimelineZoom: 2.3

[Metadata]
Title:July
TitleUnicode:July
Artist:BOY
ArtistUnicode:BOY
Creator:__Phantomhive__
Version:Life
Source:
Tags:mutual friends slow sad
BeatmapID:1250173
BeatmapSetID:590719

[Difficulty]
HPDrainRate:4
CircleSize:4
OverallDifficulty:4
ApproachRate:5
SliderMultiplier:0.800000005960464
SliderTickRate:1

[Events]
//Background and Video events
0,0,"4036843383_d9744579df_o.jpg",0,0
//Break Periods
//Storyboard Layer 0 (Background)
//Storyboard Layer 1 (Fail)
//Storyboard Layer 2 (Pass)
//Storyboard Layer 3 (Foreground)
//Storyboard Sound Samples

[TimingPoints]
7554,461.538461538462,4,1,0,30,1,0
7554,-125,4,1,0,30,0,0
66630,-111.111111111111,4,1,0,50,0,1
96169,-100,4,1,0,30,0,0
177400,-100,4,1,0,60,0,1
229092,-100,4,1,0,30,0,0
288169,-100,4,1,0,60,0,1
310323,-100,4,1,0,20,0,0

[Colours]
Combo1 : 68,136,130
Combo2 : 152,254,188
Combo3 : 114,201,145

[HitObjects]
68,112,7554,6,0,L|196:88,1,128.000000953674
320,176,9400,6,0,P|324:212|312:244,1,64.0000004768371
248,200,10323,1,0,0:0:0:0:
264,124,10784,2,0,P|324:100|380:128,1,128.000000953674
288,296,12861,6,0,L|248:304,2,32.0000002384186
324,284,13554,2,0,P|344:228|332:188,1,96.0000007152557
304,172,14477,2,0,P|272:164|240:168,1,64.0000004768371
116,264,15861,1,0,0:0:0:0:
104,256,16784,6,0,P|92:224|96:184,1,64.0000004768371
148,140,17707,1,0,0:0:0:0:
168,216,18169,2,0,P|112:252|52:236,1,128.000000953674
28,168,19554,2,0,L|48:68,1,96.0000007152557
68,40,20477,2,0,P|99:31|131:34,1,64.0000004768371
164,52,21169,2,0,P|180:60|260:60,1,96.0000007152557
332,44,22323,6,0,L|320:180,1,128.000000953674
192,256,24169,6,0,P|156:260|122:241,1,64.0000004768371
96,180,25092,1,0,0:0:0:0:
172,188,25554,2,0,P|164:272|128:312,1,128.000000953674
40,140,27630,5,0,0:0:0:0:
36,100,27861,2,0,L|52:60,1,32.0000002384186
76,44,28323,2,0,P|124:40|172:64,1,96.0000007152557
196,84,29246,2,0,L|272:72,1,64.0000004768371
400,140,30630,1,0,0:0:0:0:
408,156,31554,6,0,P|412:188|400:224,2,64.0000004768371
336,180,32938,2,0,P|336:256|384:292,1,128.000000953674
404,216,34323,1,0,0:0:0:0:
424,64,35246,2,0,L|448:28,2,32.0000002384186
396,92,35938,2,0,P|360:96|328:84,1,64.0000004768371
296,92,36630,2,0,L|232:88,1,64.0000004768371
92,156,38015,1,0,0:0:0:0:
84,168,38477,6,0,L|88:208,1,32.0000002384186
80,236,38938,2,0,P|48:236|16:224,2,64.0000004768371
152,212,40323,2,0,L|284:236,1,128.000000953674
348,208,41707,1,0,0:0:0:0:
232,108,42630,6,0,L|156:120,1,64.0000004768371
132,132,43323,2,0,P|132:176|148:204,1,64.0000004768371
160,224,44015,2,0,P|170:253|168:285,1,64.0000004768371
56,180,45400,1,0,0:0:0:0:
40,188,45861,6,0,L|8:192,2,32.0000002384186
96,136,46784,1,0,0:0:0:0:
148,80,47246,2,0,P|184:76|216:84,2,64.0000004768371
176,152,48630,6,0,P|208:192|204:248,2,96.0000007152557
124,256,50707,2,0,L|232:264,1,96.0000007152557
284,220,51861,5,0,0:0:0:0:
236,160,52323,1,0,0:0:0:0:
192,96,52784,2,0,P|180:64|184:32,1,64.0000004768371
256,56,53707,2,0,P|268:88|264:120,1,64.0000004768371
200,160,54630,2,0,L|132:156,1,64.0000004768371
108,228,55554,6,0,L|171:231,1,64.0000004768371
248,216,56477,1,0,0:0:0:0:
304,268,56938,1,0,0:0:0:0:
256,328,57400,2,0,P|220:340|192:336,1,64.0000004768371
136,288,58323,2,0,L|128:224,1,64.0000004768371
132,148,59246,5,0,0:0:0:0:
180,88,59707,1,0,0:0:0:0:
256,76,60169,1,0,0:0:0:0:
320,120,60630,1,0,0:0:0:0:
368,180,61092,2,0,L|360:244,1,64.0000004768371
284,264,62015,2,0,L|280:199,1,64.0000004768371
256,192,62938,12,0,66169,0:0:0:0:
192,96,66630,5,0,0:0:0:0:
132,160,67092,2,0,P|124:192|140:236,1,71.9999983391762
204,280,68015,1,0,0:0:0:0:
200,192,68477,2,0,P|100:188|64:224,1,143.999996678352
44,296,69861,2,0,P|88:300|120:284,1,71.9999983391762
176,232,70784,2,0,P|181:196|169:163,2,71.9999983391762
224,304,72169,6,0,P|272:312|348:264,1,125.999997093558
352,264,73092,2,0,P|308:220|312:148,1,125.999997093558
320,140,74015,2,0,L|400:120,2,71.9999983391762
236,120,75400,2,0,P|164:136|128:208,1,143.999996678352
216,208,76784,2,0,L|144:76,1,143.999996678352
72,40,78169,1,0,0:0:0:0:
16,108,78630,2,0,P|12:148|28:188,2,71.9999983391762
100,136,80015,2,0,L|116:216,1,71.9999983391762
224,280,81169,5,0,0:0:0:0:
252,248,81400,2,0,P|292:248|328:264,2,71.9999983391762
276,332,82784,1,0,0:0:0:0:
364,340,83246,2,0,P|408:272|392:208,1,143.999996678352
320,176,84630,2,0,L|240:188,2,71.9999983391762
392,128,86015,1,0,0:0:0:0:
340,60,86477,5,0,0:0:0:0:
268,104,86938,2,0,B|229:112|195:89|195:89|161:66|118:74,1,143.999996678352
64,232,88784,2,0,P|60:272|76:308,2,71.9999983391762
136,184,90169,2,0,L|292:204,1,143.999996678352
348,252,91554,2,0,P|296:288|216:264,1,143.999996678352
164,204,92938,1,0,0:0:0:0:
84,240,93400,2,0,P|68:272|68:316,2,71.9999983391762
152,296,94784,1,0,0:0:0:0:
228,252,95246,1,0,0:0:0:0:
