osu file format v14

[General]
AudioFilename: audio.mp3
AudioLeadIn: 0
PreviewTime: 178222
Countdown: 0
SampleSet: Soft
StackLeniency: 0.4
Mode: 0
LetterboxInBreaks: 0
WidescreenStoryboard: 1

[Editor]
DistanceSpacing: 1.4
BeatDivisor: 4
GridSize: 4
TimelineZoom: 2.400001

[Metadata]
Title:Teardrop
TitleUnicode:ティアドロップ
Artist:BOWL
ArtistUnicode:BOWL
Creator:ChaoticRed
Version:Onlybiscuit's Insane
Source:遊☆戯☆王デュエル モンスターズGX
Tags:Yu-Gi-Oh! yu gi oh yugioh duel monsters dueru monsutaazu GenX GX yuki judai jaden celektus rolniczy onlybiscuit
BeatmapID:1776350
BeatmapSetID:831032

[Difficulty]
HPDrainRate:5
CircleSize:3.8
OverallDifficulty:8
ApproachRate:9
SliderMultiplier:1.73
SliderTickRate:1

[Events]
//Background and Video events
0,0,"cf238a7c-e661-45b0-b6ff-d9d9785fc0bd.jpg",0,0
//Break Periods
2,82096,84108
//Storyboard Layer 0 (Background)
//Storyboard Layer 1 (Fail)
//Storyboard Layer 2 (Pass)
//Storyboard Layer 3 (Foreground)
//Storyboard Sound Samples

[TimingPoints]
1475,357.142857142857,4,2,1,20,1,0
1475,-175.438596491229,4,2,1,20,0,0
1832,340.909090909091,4,2,1,20,1,0
2343,-175.438596491229,4,2,1,20,0,0
2684,-175.438596491229,4,2,1,20,0,0
2854,340.909090909091,4,2,1,20,1,0
2854,-175.438596491229,4,2,1,20,0,0
3876,370.37037037037,4,2,1,20,1,0
4246,344.827586206897,4,2,1,20,1,0
4246,-175.438596491229,4,2,1,20,0,0
6142,348.837209302326,4,2,1,20,1,0
6142,-175.438596491229,4,2,1,20,0,0
7014,355.029585798817,4,2,1,20,1,0
7014,-175.438596491229,4,2,1,20,0,0
7724,346.820809248555,4,2,1,20,1,0
7724,-175.438596491229,4,2,1,20,0,0
9111,355.029585798817,4,2,1,20,1,0
9111,-100,4,2,1,40,0,0
9821,344.827586206897,4,2,1,60,1,0
9821,-100,4,2,1,60,0,0
11027,337.078651685393,4,2,1,60,1,0
11279,-100,4,2,1,5,0,0
11364,-100,4,2,1,60,0,0
11869,344.827586206897,4,2,1,60,1,0
12558,340.909090909091,4,2,1,60,1,0
13580,324.324324324324,4,2,1,60,1,0
13742,350.877192982456,4,2,1,60,1,0
14005,-100,4,2,1,5,0,0
14092,-100,4,2,1,60,0,0
14268,346.820809248555,4,2,1,60,1,0
14614,348.837209302326,4,2,1,60,1,0
15311,346.820809248555,4,2,1,60,1,0
16784,-100,4,2,1,5,0,0
16871,-100,4,2,1,60,0,0
18085,342.857142857143,4,2,1,60,1,0
18085,-100,4,2,1,60,0,0
18256,368.098159509202,4,2,1,60,1,0
18440,347.826086956522,4,2,1,60,1,0
18787,344.827586206897,4,2,1,60,1,0
19476,344.827586206897,4,2,1,60,1,0
19562,-100,4,2,1,5,0,0
19648,-100,4,2,1,60,0,0
20079,-100,4,2,1,5,0,0
20165,-100,4,2,1,60,0,0
20855,348.837209302326,4,2,1,60,1,0
22337,-100,4,2,1,5,0,0
22424,-100,4,2,1,60,0,0
22599,344.827586206897,4,2,1,60,1,0
23633,348.837209302326,4,2,1,60,1,0
24330,346.820809248555,4,2,1,60,1,0
25023,348.837209302326,4,2,1,60,1,0
25110,-100,4,2,1,5,0,0
25197,-100,4,2,1,60,0,0
26418,352.941176470588,4,2,1,60,1,0
27653,-99.009900990099,4,2,1,60,0,0
27829,340.909090909091,4,2,1,60,1,0
27914,-100,4,2,1,5,0,0
27999,-100,4,2,1,60,0,0
28510,352.941176470588,4,2,1,60,1,0
29568,340.909090909091,4,2,1,60,1,0
30249,346.820809248555,4,2,1,60,1,0
30667,-100,4,2,1,5,0,0
30754,-100,4,2,1,60,0,0
30942,338.983050847458,4,2,1,60,1,0
31958,348.837209302326,4,2,1,60,1,0
31958,-142.857142857143,4,2,1,40,0,0
33962,-142.857142857143,4,2,1,5,0,0
34051,342.857142857143,4,2,1,40,1,0
34051,-142.857142857143,4,2,1,40,0,0
34736,350.877192982456,4,2,1,40,1,0
34736,-142.857142857143,4,2,1,40,0,0
37192,338.983050847458,4,2,1,40,1,0
37192,-142.857142857143,4,2,1,40,0,0
37530,346.820809248555,4,2,1,40,1,0
37530,-142.857142857143,4,2,1,40,0,0
39511,-142.857142857143,4,2,1,5,0,0
39598,-142.857142857143,4,2,1,40,0,0
42286,-142.857142857143,4,2,1,5,0,0
42373,-142.857142857143,4,2,1,40,0,0
43079,348.837209302326,4,2,1,40,1,0
43079,-121.951219512195,4,2,1,40,0,0
45060,-100,4,2,1,5,0,0
45172,342.857142857143,4,2,1,40,1,0
45172,-121.951219512195,4,2,1,40,0,0
45857,346.820809248555,4,2,1,40,1,0
45857,-121.951219512195,4,2,1,40,0,0
47330,-121.951219512195,4,2,1,5,0,0
47417,-121.951219512195,4,2,1,40,0,0
47601,-121.951219512195,4,2,1,60,0,0
47835,-100,4,2,1,5,0,0
47922,-121.951219512195,4,2,1,40,0,0
48631,342.857142857143,4,2,1,40,1,0
48631,-121.951219512195,4,2,1,40,0,0
48875,-121.951219512195,4,2,1,5,0,0
48963,-100,4,2,1,40,0,0
49222,-100,4,2,1,5,0,0
49310,-121.951219512195,4,2,1,40,0,0
49659,338.983050847458,4,2,1,40,1,0
49828,-121.951219512195,4,2,1,40,0,0
50082,-100,4,2,1,5,0,0
50167,-100,4,2,1,40,0,0
50675,350.877192982456,4,2,1,40,1,0
50675,-121.951219512195,4,2,1,40,0,0
51376,348.837209302326,4,2,1,40,1,0
51376,-111.111111111111,4,2,1,40,0,0
53817,344.827586206897,4,2,1,40,1,0
53817,-111.111111111111,4,2,1,40,0,0
54161,355.029585798817,4,2,1,40,1,0
54161,-111.111111111111,4,2,1,40,0,0
54516,342.857142857143,4,2,1,40,1,0
54516,-111.111111111111,4,2,1,40,0,0
55544,355.029585798817,4,2,1,40,1,0
55544,-111.111111111111,4,2,1,40,0,0
56254,346.820809248555,4,2,1,40,1,0
56600,-111.111111111111,4,2,1,40,0,0
56947,348.837209302326,4,2,1,40,1,0
56947,-111.111111111111,4,2,1,40,0,0
59040,338.983050847458,4,2,1,40,1,0
59040,-111.111111111111,4,2,1,40,0,0
59717,345.821325648415,4,2,1,40,1,0
60062,-111.111111111111,4,2,1,40,0,0
61100,324.324324324324,4,2,1,40,1,0
61102,-142.857142857143,4,2,1,50,0,0
61424,335.195530726257,4,2,1,40,1,0
61424,-111.111111111111,4,2,1,40,0,0
62094,348.837209302326,4,2,1,40,1,0
62094,-111.111111111111,4,2,1,40,0,0
62442,352.941176470588,4,2,1,60,1,1
62442,-83.3333333333333,4,2,1,60,0,1
62706,-83.3333333333333,4,2,1,5,0,1
62789,-83.3333333333333,4,2,1,60,0,1
63853,-83.3333333333333,4,2,1,60,0,0
64118,-83.3333333333333,4,2,1,5,0,0
64206,-83.3333333333333,4,2,1,60,0,0
64471,-83.3333333333333,4,2,1,5,0,0
64559,346.820809248555,4,2,1,60,1,0
64559,-83.3333333333333,4,2,1,60,0,0
65252,363.636363636364,4,2,1,60,1,0
65252,-83.3333333333333,4,2,1,40,0,0
65527,-83.3333333333333,4,2,1,5,0,0
65614,-83.3333333333333,4,2,1,60,0,0
65615,348.837209302326,4,2,1,60,1,0
65615,-83.3333333333333,4,2,1,60,0,0
65876,-83.3333333333333,4,2,1,5,0,0
65961,-83.3333333333333,4,2,1,60,0,0
66661,349.854227405248,4,2,1,60,1,0
66661,-83.3333333333333,4,2,1,40,0,0
66915,-83.3333333333333,4,2,1,5,0,0
67001,-83.3333333333333,4,2,1,60,0,0
67262,-83.3333333333333,4,2,1,5,0,0
67348,-83.3333333333333,4,2,1,60,0,0
68060,348.837209302326,4,2,1,60,1,0
68060,-83.3333333333333,4,2,1,40,0,0
68302,-83.3333333333333,4,2,1,5,0,0
68408,-83.3333333333333,4,2,1,60,0,0
68670,-83.3333333333333,4,2,1,5,0,0
68757,-83.3333333333333,4,2,1,60,0,0
69455,-83.3333333333333,4,2,1,60,0,0
70501,338.983050847458,4,2,1,60,1,0
70501,-83.3333333333333,4,2,1,60,0,0
70839,348.837209302326,4,2,1,60,1,0
70839,-83.3333333333333,4,2,1,60,0,0
71102,-83.3333333333333,4,2,1,5,0,0
71188,-83.3333333333333,4,2,1,60,0,0
72234,346.820809248555,4,2,1,60,1,0
72580,-83.3333333333333,4,2,1,60,0,0
73274,333.333333333333,4,2,1,60,1,0
73274,-83.3333333333333,4,2,1,60,0,0
73607,361.44578313253,4,2,1,60,1,0
73607,-83.3333333333333,4,2,1,60,0,1
73968,347.826086956522,4,2,1,60,1,1
73968,-83.3333333333333,4,2,1,60,0,1
74663,335.195530726257,4,2,1,60,1,1
74663,-83.3333333333333,4,2,1,60,0,1
74998,355.029585798817,4,2,1,60,1,0
74998,-83.3333333333333,4,2,1,60,0,0
75264,-83.3333333333333,4,2,1,5,0,0
75353,-83.3333333333333,4,2,1,60,0,0
75623,-83.3333333333333,4,2,1,5,0,0
75708,337.078651685393,4,2,1,60,1,0
75708,-83.3333333333333,4,2,1,60,0,0
76382,355.029585798817,4,2,1,60,1,0
76382,-83.3333333333333,4,2,1,60,0,0
76648,-83.3333333333333,4,2,1,5,0,0
76737,-83.3333333333333,4,2,1,60,0,0
77003,-83.3333333333333,4,2,1,5,0,0
77092,333.333333333333,4,2,1,60,1,0
77092,-83.3333333333333,4,2,1,60,0,0
77758,347.826086956522,4,2,1,60,1,0
78105,-83.3333333333333,4,2,1,60,0,0
78801,333.333333333333,4,2,1,60,1,0
78801,-83.3333333333333,4,2,1,60,0,0
79134,350.877192982456,4,2,1,60,1,0
79134,-83.3333333333333,4,2,1,60,0,0
79395,-83.3333333333333,4,2,1,5,0,0
79481,-83.3333333333333,4,2,1,60,0,0
79741,-83.3333333333333,4,2,1,5,0,0
79827,-83.3333333333333,4,2,1,60,0,0
80186,327.868852459016,4,2,1,60,1,0
80186,-83.3333333333333,4,2,1,60,0,0
80513,345.821325648415,4,2,1,60,1,0
81896,355.029585798817,4,2,1,60,1,0
82961,346.820809248555,4,2,1,60,1,0
84001,357.142857142857,4,2,1,60,1,0
84358,350.877192982456,4,2,1,60,1,0
84708,355.029585798817,4,2,1,60,1,0
84708,-83.3333333333333,4,2,1,60,0,0
85418,346.820809248555,4,2,1,60,1,0
85418,-83.3333333333333,4,2,1,60,0,0
86458,326.086956521739,4,2,1,60,1,0
87110,350.877192982456,4,2,1,60,1,0
87110,-125,4,2,1,60,0,0
87460,350.877192982456,4,2,1,60,1,0
87460,-125,4,2,1,50,0,0
88863,341.880341880342,4,2,1,60,1,0
89204,-125,4,2,1,50,0,0
89461,-125,4,2,1,5,0,0
89549,-125,4,2,1,60,0,0
90738,-125,4,2,1,60,0,0
91598,348.837209302326,4,2,1,60,1,0
91598,-125,4,2,1,60,0,0
92295,-107.52688172043,4,2,1,60,0,0
92557,-107.52688172043,4,2,1,5,0,0
92644,-107.52688172043,4,2,1,60,0,0
92993,379.746835443038,4,2,1,60,1,0
92993,-107.52688172043,4,2,1,60,0,0
93267,-107.52688172043,4,2,1,5,0,0
93372,335.195530726257,4,2,1,60,1,0
93372,-107.52688172043,4,2,1,60,0,0
93707,363.636363636364,4,2,1,60,1,0
94070,340.909090909091,4,2,1,60,1,0
94070,-111.111111111111,4,2,1,60,0,0
94410,344.827586206897,4,2,1,60,1,0
94410,-107.52688172043,4,2,1,60,0,0
94668,-107.52688172043,4,2,1,5,0,0
94754,-107.52688172043,4,2,1,60,0,0
95789,348.837209302326,4,2,1,60,1,0
95789,-107.52688172043,4,2,1,50,0,0
97439,-107.52688172043,4,2,1,5,0,0
97525,-107.52688172043,4,2,1,60,0,0
98230,340.909090909091,4,2,1,60,1,0
98230,-111.111111111111,4,2,1,60,0,0
98570,348.837209302326,4,2,1,60,1,0
98570,-95.2380952380952,4,2,1,60,0,0
99965,342.857142857143,4,2,1,60,1,0
99965,-95.2380952380952,4,2,1,60,0,0
102707,340.909090909091,4,2,1,60,1,0
104070,377.358490566038,4,2,1,60,1,0
104070,-80,4,2,1,60,0,1
104343,-80,4,2,1,5,0,1
104447,348.837209302326,4,2,1,60,1,1
104447,-80,4,2,1,60,0,1
105493,350.877192982456,4,2,1,60,1,0
105493,-80,4,2,1,60,0,0
105756,-80,4,2,1,5,0,0
105845,-80,4,2,1,60,0,0
106105,-80,4,2,1,5,0,0
106191,-80,4,2,1,60,0,0
106896,348.837209302326,4,2,1,60,1,0
106896,-80,4,2,1,60,0,0
107146,-80,4,2,1,5,0,0
107232,-80,4,2,1,60,0,0
107493,-80,4,2,1,5,0,0
107579,-80,4,2,1,60,0,0
108291,-80,4,2,1,60,0,0
108552,-80,4,2,1,5,0,0
108640,-80,4,2,1,60,0,0
108901,-80,4,2,1,5,0,0
108989,-80,4,2,1,60,0,0
109686,342.857142857143,4,2,1,60,1,0
109686,-80,4,2,1,60,0,0
109943,-80,4,2,1,5,0,0
110028,-80,4,2,1,60,0,0
110286,-80,4,2,1,5,0,0
110371,-80,4,2,1,60,0,0
110714,329.67032967033,4,2,1,60,1,0
110714,-80,4,2,1,60,0,0
111043,355.029585798817,4,2,1,60,1,0
111043,-80,4,2,1,60,0,0
111398,338.983050847458,4,2,1,60,1,0
111398,-80,4,2,1,60,0,0
111736,352.941176470588,4,2,1,60,1,0
111736,-80,4,2,1,60,0,0
112088,-80,4,2,1,60,0,0
112706,-80,4,2,1,5,0,0
112794,300,4,2,1,60,1,0
112794,-80,4,2,1,60,0,0
113094,377.358490566038,4,2,1,60,1,0
113094,-80,4,2,1,60,0,0
113282,392.156862745098,4,2,1,60,1,0
113282,-80,4,2,1,60,0,0
113478,342.857142857143,4,2,1,60,1,0
113478,-80,4,2,1,60,0,0
114163,348.837209302326,4,2,1,60,1,0
114163,-80,4,2,1,60,0,0
114860,340.909090909091,4,2,1,60,1,0
114860,-80,4,2,1,60,0,0
115200,348.837209302326,4,2,1,60,1,1
115200,-80,4,2,1,60,0,1
115544,-80,4,2,1,60,0,1
116595,-80,4,2,1,60,0,0
116845,-80,4,2,1,5,0,0
116931,-80,4,2,1,60,0,0
117192,-80,4,2,1,5,0,0
117278,-80,4,2,1,60,0,0
117641,342.857142857143,4,2,1,60,1,0
117641,-80,4,2,1,60,0,0
117983,348.837209302326,4,2,1,60,1,0
117983,-80,4,2,1,60,0,0
118232,-80,4,2,1,5,0,0
118318,-80,4,2,1,60,0,0
118579,-80,4,2,1,5,0,0
118665,-80,4,2,1,60,0,0
119378,346.820809248555,4,2,1,60,1,0
119724,-80,4,2,1,60,0,0
120418,342.857142857143,4,2,1,60,1,0
120760,346.820809248555,4,2,1,60,1,0
120760,-80,4,2,1,60,0,0
121007,-80,4,2,1,5,0,0
121106,-80,4,2,1,60,0,0
122147,340.909090909091,4,2,1,60,1,0
122406,-80,4,2,1,60,0,0
123510,350.877192982456,4,2,1,60,1,0
123510,-100,4,2,1,60,0,0
124738,405.405405405405,4,2,1,60,1,0
124940,338.983050847458,4,2,1,60,1,0
125617,352.941176470588,4,2,1,60,1,0
126322,348.837209302326,4,2,1,60,1,0
127521,-100,4,2,1,60,0,0
127717,338.983050847458,4,2,1,60,1,0
128055,348.837209302326,4,2,1,60,1,0
129101,348.837209302326,4,2,1,60,1,0
130321,387.096774193548,4,2,1,60,1,0
130514,327.868852459016,4,2,1,60,1,0
130841,344.827586206897,4,2,1,60,1,0
131875,346.820809248555,4,2,1,60,1,0
133262,338.983050847458,4,2,1,60,1,0
133939,346.820809248555,4,2,1,60,1,0
133939,-294.117647058824,4,2,1,60,0,0
134632,359.281437125748,4,2,1,60,1,0
134632,-133.333333333333,4,2,1,40,0,0
135350,342.857142857143,4,2,1,40,1,0
135350,-133.333333333333,4,2,1,40,0,0
136035,-133.333333333333,4,2,1,40,0,0
137407,352.941176470588,4,2,1,40,1,0
137407,-133.333333333333,4,2,1,40,0,0
138112,344.827586206897,4,2,1,40,1,0
138112,-133.333333333333,4,2,1,40,0,0
138801,338.983050847458,4,2,1,40,1,0
138801,-133.333333333333,4,2,1,40,0,0
139817,363.636363636364,4,2,1,40,1,0
140180,346.820809248555,4,2,1,40,1,0
140180,-133.333333333333,4,2,1,40,0,0
142261,-133.333333333333,4,2,1,40,0,0
142954,-133.333333333333,4,2,1,40,0,0
143995,337.078651685393,4,2,1,40,1,0
144163,-133.333333333333,4,2,1,40,0,0
144669,355.029585798817,4,2,1,40,1,0
145379,326.086956521739,4,2,1,40,1,0
145705,352.941176470588,4,2,1,40,1,0
145705,-133.333333333333,4,2,1,40,0,0
147469,344.827586206897,4,2,1,40,1,0
147469,-133.333333333333,4,2,1,40,0,0
147723,-133.333333333333,4,2,1,5,0,0
147809,-133.333333333333,4,2,1,40,0,0
148070,-133.333333333333,4,2,1,5,0,0
148156,-133.333333333333,4,2,1,40,0,0
148503,359.281437125748,4,2,1,40,1,0
148503,-133.333333333333,4,2,1,40,0,0
149580,340.909090909091,4,2,1,40,1,0
149580,-133.333333333333,4,2,1,40,0,0
149920,-133.333333333333,4,2,1,40,0,0
150602,363.636363636364,4,2,1,40,1,0
150965,326.086956521739,4,2,1,40,1,0
151291,346.820809248555,4,2,1,40,1,0
151291,-133.333333333333,4,2,1,40,0,0
152678,337.078651685393,4,2,1,40,1,0
152678,-133.333333333333,4,2,1,40,0,0
154026,357.142857142857,4,2,1,40,1,0
154026,-133.333333333333,4,2,1,40,0,0
155097,344.827586206897,4,2,1,40,1,0
155441,-133.333333333333,4,2,1,40,0,0
156131,337.078651685393,4,2,1,40,1,0
156131,-133.333333333333,4,2,1,40,0,0
156805,365.853658536585,4,2,1,40,1,0
156805,-133.333333333333,4,2,1,40,0,0
157536,331.491712707182,4,2,1,40,1,0
158033,400,4,2,1,40,1,0
158233,340.909090909091,4,2,1,40,1,0
158573,348.837209302326,4,2,1,40,1,0
158921,-133.333333333333,4,2,1,40,0,0
159532,-133.333333333333,4,2,1,5,0,0
159619,346.820809248555,4,2,1,40,1,0
159619,-133.333333333333,4,2,1,40,0,0
159654,-133.333333333333,4,2,1,40,0,0
159740,-133.333333333333,4,2,1,5,0,0
160312,342.857142857143,4,2,1,40,1,0
160312,-133.333333333333,4,2,1,40,0,0
161683,350.877192982456,4,2,1,40,1,0
161683,-142.857142857143,4,2,1,40,0,0
162384,348.837209302326,4,2,1,40,1,0
162384,-142.857142857143,4,2,1,40,0,0
162481,-133.333333333333,4,2,1,5,0,0
163001,-142.857142857143,4,2,1,40,0,0
165174,340.909090909091,4,2,1,40,1,0
165174,-142.857142857143,4,2,1,40,0,0
165255,-133.333333333333,4,2,1,5,0,0
165776,-142.857142857143,4,2,1,40,0,0
166364,-142.857142857143,4,2,1,40,0,0
166537,344.827586206897,4,2,1,40,1,0
167571,359.281437125748,4,2,1,40,1,0
167571,-142.857142857143,4,2,1,40,0,0
167930,350.877192982456,4,2,1,40,1,0
167930,-142.857142857143,4,2,1,40,0,0
169333,322.58064516129,4,2,1,40,1,0
169333,-142.857142857143,4,2,1,40,0,0
169655,355.029585798817,4,2,1,40,1,0
170010,352.941176470588,4,2,1,40,1,0
170010,-142.857142857143,4,2,1,40,0,0
170092,-133.333333333333,4,2,1,5,0,0
170439,-142.857142857143,4,2,1,40,0,0
170715,346.820809248555,4,2,1,40,1,0
170715,-142.857142857143,4,2,1,40,0,0
173142,329.67032967033,4,2,1,40,1,0
173471,350.877192982456,4,2,1,60,1,0
175927,342.857142857143,4,2,1,60,1,0
176269,342.857142857143,4,2,1,60,1,0
177640,359.281437125748,4,2,1,60,1,0
177999,342.857142857143,4,2,1,60,1,0
179027,363.636363636364,4,2,1,60,1,0
179027,-76.9230769230769,4,2,1,60,0,1
179287,-76.9230769230769,4,2,1,5,0,1
179390,350.877192982456,4,2,1,60,1,1
179390,-76.9230769230769,4,2,1,60,0,1
180442,346.820809248555,4,2,1,60,1,0
180442,-76.9230769230769,4,2,1,60,0,0
180702,-76.9230769230769,4,2,1,5,0,0
180788,-76.9230769230769,4,2,1,60,0,0
181048,-76.9230769230769,4,2,1,5,0,0
181135,-76.9230769230769,4,2,1,60,0,0
182089,-76.9230769230769,4,2,1,5,0,0
182176,-76.9230769230769,4,2,1,60,0,0
182436,-76.9230769230769,4,2,1,5,0,0
182522,337.078651685393,4,2,1,60,1,0
182522,-76.9230769230769,4,2,1,60,0,0
183196,348.837209302326,4,2,1,60,1,0
183196,-76.9230769230769,4,2,1,60,0,0
183457,-76.9230769230769,4,2,1,5,0,0
183544,-76.9230769230769,4,2,1,60,0,0
183806,-76.9230769230769,4,2,1,5,0,0
183893,342.857142857143,4,2,1,60,1,0
183901,-76.9230769230769,4,2,1,60,0,0
184578,346.820809248555,4,2,1,60,1,0
184578,-76.9230769230769,4,2,1,60,0,0
184838,-76.9230769230769,4,2,1,5,0,0
184924,-76.9230769230769,4,2,1,60,0,0
185184,-76.9230769230769,4,2,1,5,0,0
185271,-76.9230769230769,4,2,1,60,0,0
187612,-76.9230769230769,4,2,1,5,0,0
187699,-76.9230769230769,4,2,1,60,0,0
187959,-76.9230769230769,4,2,1,5,0,0
188046,-76.9230769230769,4,2,1,60,0,0
189780,338.983050847458,4,2,1,60,1,0
189780,-76.9230769230769,4,2,1,60,0,0
190118,344.827586206897,4,2,1,60,1,1
190118,-76.9230769230769,4,2,1,60,0,1
190462,-76.9230769230769,4,2,1,60,0,1
191497,350.877192982456,4,2,1,60,1,0
191497,-76.9230769230769,4,2,1,60,0,0
191760,-76.9230769230769,4,2,1,5,0,0
191847,-76.9230769230769,4,2,1,60,0,0
192111,-76.9230769230769,4,2,1,5,0,0
192198,-76.9230769230769,4,2,1,60,0,0
192900,355.029585798817,4,2,1,60,1,0
192900,-76.9230769230769,4,2,1,60,0,0
193166,-76.9230769230769,4,2,1,5,0,0
193255,-76.9230769230769,4,2,1,60,0,0
193521,-76.9230769230769,4,2,1,5,0,0
193610,-76.9230769230769,4,2,1,60,0,0
193965,344.827586206897,4,2,1,60,1,0
193965,-76.9230769230769,4,2,1,60,0,0
194309,344.827586206897,4,2,1,60,1,0
194309,-76.9230769230769,4,2,1,60,0,0
195343,335.195530726257,4,2,1,60,1,0
195678,346.820809248555,4,2,1,60,1,0
195678,-76.9230769230769,4,2,1,60,0,0
195938,-76.9230769230769,4,2,1,5,0,0
196024,-76.9230769230769,4,2,1,60,0,0
196284,-76.9230769230769,4,2,1,5,0,0
196371,-76.9230769230769,4,2,1,60,0,0
197325,-76.9230769230769,4,2,1,5,0,0
197412,-76.9230769230769,4,2,1,60,0,0
197672,-76.9230769230769,4,2,1,5,0,0
197758,-76.9230769230769,4,2,1,60,0,0
198452,348.837209302326,4,2,1,60,1,0
198452,-76.9230769230769,4,2,1,60,0,0
201242,346.820809248555,4,2,1,60,1,1
201242,-76.9230769230769,4,2,1,60,0,1
202629,340.909090909091,4,2,1,60,1,1
202969,-76.9230769230769,4,2,1,60,0,1
203226,-76.9230769230769,4,2,1,5,0,1
203312,-76.9230769230769,4,2,1,60,0,1
203992,350.877192982456,4,2,1,60,1,0
203992,-90.9090909090909,4,2,1,60,0,0
205220,-90.0900900900901,4,2,1,60,0,0
205395,342.857142857143,4,2,1,60,1,0
205480,-90.9090909090909,4,2,1,5,0,0
205566,-90.9090909090909,4,2,1,60,0,0
206766,348.837209302326,4,2,1,60,1,0
206766,-90.9090909090909,4,2,1,60,0,0
208248,-90.9090909090909,4,2,1,5,0,0
208335,-90.9090909090909,4,2,1,60,0,0
209556,348.837209302326,4,2,1,60,1,0
209556,-90.9090909090909,4,2,1,60,0,0
210951,344.827586206897,4,2,1,60,1,0
210951,-90.9090909090909,4,2,1,60,0,0
213106,-90.9090909090909,4,2,1,5,0,0
213192,355.029585798817,4,2,1,60,1,0
213192,-90.9090909090909,4,2,1,60,0,0
213804,-90.9090909090909,4,2,1,5,0,0
213890,-90.9090909090909,4,2,1,60,0,0
214079,355.029585798817,4,2,1,60,1,0
214079,-90.9090909090909,4,2,1,60,0,0
214434,327.868852459016,4,2,1,60,1,0
215089,357.142857142857,4,2,1,60,1,0
215089,-142.857142857143,4,2,1,20,0,0
215803,342.857142857143,4,2,1,60,1,0
215803,-142.857142857143,4,2,1,20,0,0
216660,348.837209302326,4,2,1,20,1,0
217008,-142.857142857143,4,2,1,20,0,0
217706,389.61038961039,4,2,1,20,1,0
217900,347.826086956522,4,2,1,60,1,0
217900,-142.857142857143,4,2,1,20,0,0
219120,-141.843971631206,4,2,1,20,0,0
220155,-149.253731343284,4,2,1,20,0,0
220508,379.746835443038,4,2,1,20,1,0
220697,338.983050847458,4,2,1,20,1,0
220697,-142.857142857143,4,2,1,20,0,0
221544,-142.857142857143,4,2,1,20,0,0
221883,355.029585798817,4,2,1,20,1,0
221883,-142.857142857143,4,2,1,20,0,0
222238,-142.857142857143,4,2,1,20,0,0
222415,359.281437125748,4,2,1,20,1,0
222415,-142.857142857143,4,2,1,20,0,0
223492,346.820809248555,4,2,1,20,1,0

[Colours]
Combo1 : 161,194,136
Combo2 : 82,106,168
Combo3 : 168,66,77
SliderBorder : 173,173,173
SliderTrackOverride : 42,42,42

[HitObjects]
419,49,1475,6,0,L|429:149,1,98.6099987962647,2|2,0:2|0:2,0:0:0:0:
345,298,2172,1,2,0:2:0:0:
345,298,2343,2,0,P|348:268|364:239,1,49.3049993981323,2|0,0:2|0:0,0:0:0:0:
216,163,2684,2,0,P|238:193|264:261,2,98.6099987962647,2|2|2,0:2|0:2|0:2,0:0:0:0:
99,265,3706,2,0,P|124:264|148:253,1,49.3049993981323,2|0,0:2|0:0,0:0:0:0:
216,163,4061,1,2,0:2:0:0:
32,87,4246,6,0,B|91:85|73:117|145:115,1,98.6099987962647,2|2,0:2|0:2,0:0:0:0:
262,42,4935,1,2,0:2:0:0:
262,42,5108,2,0,P|230:32|198:27,1,49.3049993981323,2|0,0:2|0:0,0:0:0:0:
320,135,5452,2,0,P|338:118|354:100,1,49.3049993981323,2|0,0:2|0:0,0:0:0:0:
409,0,5797,6,0,P|425:18|443:34,1,49.3049993981323,2|0,0:2|0:0,0:0:0:0:
486,156,6142,2,0,P|458:140|420:133,1,49.3049993981323,2|0,0:2|0:0,0:0:0:0:
346,238,6490,2,0,P|374:222|413:216,1,49.3049993981323,2|0,0:2|0:0,0:0:0:0:
512,288,6839,1,2,0:2:0:0:
512,288,7014,6,0,L|404:303,1,98.6099987962647,2|2,0:2|0:2,0:0:0:0:
250,249,7724,1,2,0:2:0:0:
250,249,7897,2,0,P|258:271|265:295,1,49.3049993981323,2|0,0:2|0:0,0:0:0:0:
144,341,8244,6,0,P|93:319|32:314,2,98.6099987962647,2|0|0,0:2|0:0|0:0,0:0:0:0:
178,191,9111,1,2,0:3:0:0:
13,174,9288,2,0,L|58:148,1,43.25
182,49,9466,1,4,1:3:0:0:
182,49,9821,6,0,P|225:37|278:35,1,86.5,4|0,3:2|3:2,0:0:0:0:
348,162,10165,2,0,P|304:159|263:147,1,86.5,2|0,1:2|0:0,0:0:0:0:
429,109,10510,2,0,L|439:205,1,86.5,2|0,1:2|0:0,0:0:0:0:
386,283,10855,1,0,3:2:0:0:
263,147,11027,2,0,L|251:295,1,129.75,2|0,1:2|0:0,0:0:0:0:
229,313,11364,5,0,3:2:0:0:
102,213,11532,2,0,P|56:204|13:205,1,86.5,2|0,1:2|0:0,0:0:0:0:
131,118,11869,1,0,3:2:0:0:
131,118,12041,1,0,3:2:0:0:
16,204,12213,2,0,P|10:254|11:306,1,86.5,2|0,1:2|0:0,0:0:0:0:
89,368,12558,1,0,3:2:0:0:
89,368,12728,1,0,3:2:0:0:
171,246,12898,6,0,P|221:233|259:233,1,86.5,2|0,1:2|0:0,0:0:0:0:
131,118,13239,2,0,P|81:105|43:105,1,86.5,2|0,1:2|0:0,0:0:0:0:
197,45,13580,1,0,3:2:0:0:
255,232,13742,2,0,L|267:102,1,129.75,2|0,1:2|0:0,0:0:0:0:
296,61,14092,1,0,3:2:0:0:
393,215,14268,6,0,L|382:103,1,86.5,2|0,1:2|0:0,0:0:0:0:
255,232,14614,1,0,3:2:0:0:
255,232,14788,1,0,3:2:0:0:
379,334,14962,2,0,P|418:317|469:308,1,86.5,2|0,1:2|0:0,0:0:0:0:
247,318,15311,6,0,L|257:206,1,86.5,4|0,3:2|3:2,0:0:0:0:
94,187,15657,2,0,P|109:221|147:254,1,86.5,2|0,1:2|0:0,0:0:0:0:
265,138,16004,2,0,P|222:143|186:166,1,86.5,2|0,1:2|0:0,0:0:0:0:
145,252,16351,1,0,3:2:0:0:
45,107,16524,6,0,P|14:151|11:244,1,129.75,2|0,1:2|0:0,0:0:0:0:
41,268,16871,1,0,3:2:0:0:
186,166,17045,2,0,L|175:76,1,86.5,2|0,1:2|0:0,0:0:0:0:
75,28,17391,1,0,3:2:0:0:
75,28,17565,1,0,3:2:0:0:
220,5,17738,2,0,B|327:-2,1,86.5,2|0,1:2|0:0,0:0:0:0:
427,86,18085,6,0,P|446:130|449:168,1,86.5,0|0,3:2|3:2,0:0:0:0:
280,189,18440,2,0,P|331:165|371:161,1,86.5,2|0,1:2|0:0,0:0:0:0:
460,277,18787,2,0,P|417:269|379:248,1,86.5,2|0,1:2|0:0,0:0:0:0:
360,160,19131,1,0,3:2:0:0:
204,235,19304,2,0,B|192:379,1,129.75,2|0,1:2|0:0,0:0:0:0:
227,381,19648,5,0,3:2:0:0:
120,234,19820,2,0,B|125:164|84:191|92:110,1,129.75,2|0,1:2|0:0,0:0:0:0:
39,30,20165,1,0,3:2:0:0:
39,30,20338,1,0,3:2:0:0:
158,163,20510,2,0,P|109:134|83:88,1,86.5,2|0,1:2|0:0,0:0:0:0:
153,0,20855,6,0,P|169:39|173:82,1,86.5,4|0,3:2|3:2,0:0:0:0:
234,227,21203,2,0,P|251:185|253:139,1,86.5,2|0,1:2|0:0,0:0:0:0:
303,10,21552,2,0,P|306:52|322:92,1,86.5,2|0,1:2|0:0,0:0:0:0:
398,29,21901,1,0,3:2:0:0:
455,207,22075,6,0,P|400:177|324:177,1,129.75,2|0,1:2|0:0,0:0:0:0:
316,210,22424,1,0,3:2:0:0:
387,364,22599,2,0,L|367:280,1,86.5,2|0,1:2|0:0,0:0:0:0:
234,227,22943,1,0,3:2:0:0:
234,227,23116,1,0,3:2:0:0:
136,365,23288,2,0,L|155:274,1,86.5,2|0,1:2|0:0,0:0:0:0:
30,250,23633,5,0,3:2:0:0:
30,250,23807,1,0,3:2:0:0:
180,119,23981,2,0,P|224:107|274:110,1,86.5,2|0,1:2|0:0,0:0:0:0:
87,86,24330,2,0,P|43:74|-7:77,1,86.5,2|0,1:2|0:0,0:0:0:0:
33,168,24676,1,0,3:2:0:0:
143,0,24850,6,0,P|176:52|172:142,1,129.75,2|0,1:2|0:0,0:0:0:0:
160,164,25197,1,0,3:2:0:0:
272,22,25371,2,0,P|260:60|262:126,1,86.5,2|0,1:2|0:0,0:0:0:0:
333,211,25720,1,0,3:2:0:0:
333,211,25895,1,0,3:2:0:0:
439,87,26069,2,0,L|354:77,1,86.5,2|0,1:2|0:0,0:0:0:0:
247,221,26418,6,0,L|332:210,1,86.5,4|0,3:2|3:2,0:0:0:0:
206,138,26770,2,0,P|168:169|152:213,1,86.5,2|0,1:2|0:0,0:0:0:0:
299,285,27123,2,0,P|280:246|246:220,1,86.5,2|0,1:2|0:0,0:0:0:0:
195,317,27476,1,0,3:2:0:0:
67,219,27653,6,0,L|46:84,1,129.75,2|0,1:2|0:0,0:0:0:0:
83,55,27999,1,0,3:2:0:0:
225,153,28169,2,0,L|213:238,1,86.5,2|0,1:2|0:0,0:0:0:0:
237,351,28510,1,0,3:2:0:0:
237,351,28686,1,0,3:2:0:0:
340,228,28862,2,0,P|399:210|438:212,1,86.5,2|0,1:2|0:0,0:0:0:0:
509,352,29215,6,0,P|450:334|411:336,1,86.5,0|0,3:2|3:2,0:0:0:0:
273,299,29568,2,0,P|250:257|246:209,1,86.5,2|0,1:2|0:0,0:0:0:0:
366,147,29908,2,0,P|360:190|339:227,1,86.5,2|0,1:2|0:0,0:0:0:0:
245,219,30249,1,0,3:2:0:0:
161,83,30422,6,0,B|122:58|122:58|18:58,1,129.75,2|0,1:2|0:0,0:0:0:0:
5,88,30769,1,0,3:2:0:0:
86,235,30942,2,0,L|94:136,1,86.5,2|0,1:2|0:0,0:0:0:0:
4,336,31280,1,2,1:2:0:0:
187,225,31450,1,2,1:2:0:0:
0,161,31619,1,2,1:2:0:0:
106,345,31789,1,2,1:2:0:0:
187,225,31958,6,0,B|255:220|226:268|308:264,2,121.099996304321,6|0|2,3:2|1:2|3:2,0:0:0:0:
92,148,32830,1,2,3:2:0:0:
209,23,33004,1,0,1:2:0:0:
271,145,33178,2,0,P|286:201|298:284,1,121.099996304321,2|2,3:2|3:2,0:0:0:0:
402,143,33702,2,0,P|419:85|441:47,1,90.8249972282411,0|0,1:2|0:0,0:0:0:0:
469,21,34051,1,0,3:2:0:0:
337,52,34222,1,2,3:2:0:0:
475,182,34393,2,0,L|487:266,1,60.5499981521607,0|0,1:2|0:0,0:0:0:0:
296,263,34736,6,0,B|221:257|253:310|164:300,2,121.099996304321,2|0|2,3:2|1:2|3:2,0:0:0:0:
363,180,35613,1,2,3:2:0:0:
192,124,35788,1,0,1:2:0:0:
303,63,35964,2,0,P|350:37|427:39,1,121.099996304321,2|2,3:2|3:2,0:0:0:0:
416,174,36490,2,0,P|393:155|380:128,1,60.5499981521607,0|0,1:2|0:0,0:0:0:0:
484,96,36841,1,0,3:2:0:0:
512,238,37016,1,0,3:2:0:0:
380,127,37192,2,0,P|340:120|317:122,1,60.5499981521607,0|0,1:2|0:0,0:0:0:0:
241,230,37530,6,0,P|244:285|258:358,2,121.099996304321,2|0|2,3:2|1:2|3:2,0:0:0:0:
320,121,38397,1,2,3:2:0:0:
143,57,38570,1,0,1:2:0:0:
281,34,38743,2,0,P|313:26|364:32,1,60.5499981521607,2|0,3:2|0:0,0:0:0:0:
402,87,39090,1,2,3:2:0:0:
229,146,39264,2,0,L|116:135,1,90.8249972282411,0|0,1:2|0:0,0:0:0:0:
87,124,39610,1,0,3:2:0:0:
175,221,39784,1,2,3:2:0:0:
62,313,39957,2,0,L|47:247,1,60.5499981521607,0|0,1:2|0:0,0:0:0:0:
185,328,40304,6,0,B|262:324|230:365|307:364,2,121.099996304321,2|2|2,3:2|1:2|3:2,0:0:0:0:
62,313,41171,1,0,3:2:0:0:
200,222,41345,1,2,1:2:0:0:
79,180,41518,2,0,L|65:117,1,60.5499981521607,2|0,3:2|0:0,0:0:0:0:
114,44,41865,1,2,3:2:0:0:
249,148,42038,2,0,L|350:135,1,90.8249972282411,0|0,1:2|0:0,0:0:0:0:
370,102,42385,1,0,3:2:0:0:
425,236,42558,1,0,3:2:0:0:
249,148,42732,2,0,L|239:222,1,60.5499981521607,0|0,1:2|0:0,0:0:0:0:
372,318,43079,6,0,P|445:334|510:285,2,141.860002164612,6|0|2,3:2|1:2|3:2,0:0:0:0:
327,213,43951,1,2,3:2:0:0:
235,362,44125,1,0,1:2:0:0:
167,244,44299,2,0,L|152:172,1,70.9300010823059,2|0,3:2|0:0,0:0:0:0:
74,97,44648,1,2,3:2:0:0:
0,276,44823,2,0,B|63:276|32:316|115:318,1,106.395001623459,0|0,1:2|0:0,0:0:0:0:
137,330,45172,1,0,3:2:0:0:
255,283,45343,1,2,3:2:0:0:
152,174,45514,2,0,P|189:156|228:148,1,70.9300010823059,0|0,1:2|0:0,0:0:0:0:
361,39,45857,6,0,P|422:35|491:106,2,141.860002164612,2|0|2,3:2|1:2|3:2,0:0:0:0:
268,47,46724,1,2,3:2:0:0:
312,215,46897,1,0,1:2:0:0:
403,125,47070,2,0,L|418:197,1,70.9300010823059,2|0,3:2|0:0,0:0:0:0:
354,307,47417,1,0,0:0:0:0:
229,198,47591,2,0,P|182:180|146:178,1,70.9300010823059,0|0,1:2|0:0,0:0:0:0:
66,245,47937,1,0,3:2:0:0:
179,304,48111,1,2,3:2:0:0:
87,148,48284,2,0,L|69:70,1,70.9300010823059,0|0,1:2|0:0,0:0:0:0:
244,128,48631,6,0,L|228:197,1,70.9300010823059,2|0,3:2|0:0,0:0:0:0:
85,329,48973,2,0,L|63:236,1,86.5,0|0,1:2|0:0,0:0:0:0:
87,148,49316,1,2,3:2:0:0:
151,253,49488,1,2,3:2:0:0:
244,128,49659,1,0,1:2:0:0:
322,280,49828,2,0,P|390:264|453:264,1,106.395001623459,2|0,3:2|0:0,0:0:0:0:
468,238,50167,1,2,3:2:0:0:
325,108,50336,1,0,1:2:0:0:
441,62,50506,1,2,3:2:0:0:
312,202,50675,2,0,L|232:186,1,70.9300010823059,2|0,1:3|0:0,0:0:0:0:
44,188,51025,2,0,L|152:166,1,106.395001623459,4|0,0:3|0:0,0:0:0:0:
44,188,51376,6,0,P|-4:107|7:28,2,155.699995248413,6|0|0,3:2|1:0|3:2,0:0:0:0:
156,228,52248,1,0,3:2:0:0:
39,356,52422,2,0,L|14:274,1,77.8499976242066,0|0,1:0|0:0,0:0:0:0:
156,228,52771,2,0,L|133:302,1,77.8499976242066,0|0,3:2|0:0,0:0:0:0:
322,351,53120,2,0,L|299:276,1,77.8499976242066,0|0,1:0|0:0,0:0:0:0:
255,187,53469,1,2,3:2:0:0:
212,300,53642,1,0,3:2:0:0:
375,212,53817,2,0,L|464:197,1,77.8499976242066,0|0,1:0|0:0,0:0:0:0:
251,96,54161,6,0,B|160:101|205:164|114:154,1,155.699995248413,6|0,3:2|1:0,0:0:0:0:
375,212,54858,5,2,3:2:0:0:
342,45,55030,1,0,3:2:0:0:
255,187,55201,2,0,L|242:273,1,77.8499976242066,0|0,1:0|0:0,0:0:0:0:
400,346,55544,2,0,P|438:339|464:279,1,77.8499976242066,2|0,3:2|0:0,0:0:0:0:
243,263,55899,2,0,P|267:291|305:297,1,77.8499976242066,0|0,1:0|0:0,0:0:0:0:
375,187,56254,1,2,3:2:0:0:
462,311,56427,1,0,3:2:0:0:
375,187,56600,2,0,L|393:262,1,77.8499976242066,4|0,1:0|0:0,0:0:0:0:
295,139,56947,6,0,P|325:106|369:95,1,77.8499976242066,2|0,3:2|3:2,0:0:0:0:
213,83,57295,2,0,P|183:50|139:39,1,77.8499976242066,2|0,1:2|0:0,0:0:0:0:
31,68,57644,1,2,3:2:0:0:
129,144,57819,1,0,3:2:0:0:
29,241,57993,2,0,L|8:68,1,155.699995248413,2|2,1:2|3:2,0:0:0:0:
129,144,58516,1,0,3:2:0:0:
29,241,58691,2,0,L|41:339,1,77.8499976242066,2|0,1:2|0:0,0:0:0:0:
210,247,59040,1,2,3:2:0:0:
129,144,59209,1,0,3:2:0:0:
125,311,59378,6,0,P|167:349|261:341,1,155.699995248413,2|2,1:2|3:2,0:0:0:0:
324,244,59889,1,0,3:2:0:0:
452,377,60062,2,0,L|461:293,1,77.8499976242066,2|0,1:2|0:0,0:0:0:0:
385,146,60407,1,2,3:2:0:0:
324,244,60581,1,0,3:2:0:0:
470,188,60754,2,0,L|489:100,1,77.8499976242066,2|0,1:2|0:0,0:0:0:0:
374,37,61100,5,2,1:2:0:0:
333,24,61181,1,0,1:0:0:0:
291,31,61262,1,0,1:0:0:0:
258,58,61343,1,0,1:0:0:0:
243,98,61424,2,0,L|230:156,1,38.9249988121033,0|0,1:0|1:0,0:0:0:0:
156,205,61591,2,0,L|148:165,1,38.9249988121033,0|0,1:0|1:0,0:0:0:0:
64,72,61759,2,0,L|53:117,1,38.9249988121033,8|8,1:3|1:3,0:0:0:0:
14,245,61926,2,0,L|25:201,1,38.9249988121033,8|8,1:3|1:3,0:0:0:0:
156,205,62094,2,0,L|175:329,1,116.77499643631,4|0,1:3|0:0,0:0:0:0:
184,339,62442,6,0,P|259:285|346:263,1,155.699995248413,6|0,3:2|0:0,0:0:0:0:
367,340,62794,2,0,P|353:252|354:114,1,207.599993664551,0|0,1:2|0:0,0:0:0:0:
422,57,63324,1,0,3:2:0:0:
230,21,63500,2,0,L|125:31,1,103.799996832275,0|2,1:2|0:2,0:0:0:0:
0,148,63853,2,0,B|122:137|74:210|211:198,1,207.599993664551,2|0,3:2|1:2,0:0:0:0:
162,101,64383,1,0,0:0:0:0:
36,233,64559,2,0,L|10:340,1,103.799996832275,2|0,0:2|3:2,0:0:0:0:
219,299,64905,2,0,L|194:198,1,103.799996832275,2|0,1:2|0:0,0:0:0:0:
93,384,65252,6,0,B|125:381|142:351|142:351|209:415|282:367,1,207.599993664551,2|0,3:2|1:2,0:0:0:0:
342,338,65789,1,0,0:0:0:0:
243,198,65963,2,0,L|218:299,1,103.799996832275,2|0,0:2|3:2,0:0:0:0:
392,242,66312,2,0,L|367:141,1,103.799996832275,0|2,1:2|0:2,0:0:0:0:
342,338,66661,2,0,P|417:348|496:249,2,207.599993664551,2|0|2,3:2|1:2|0:2,0:0:0:0:
218,298,67535,1,0,3:2:0:0:
392,242,67710,1,2,1:2:0:0:
243,198,67885,1,0,0:0:0:0:
384,148,68060,6,0,B|304:148|333:214|223:195,1,155.699995248413,6|0,3:2|0:0,0:0:0:0:
155,233,68408,2,0,P|146:173|132:118,1,103.799996832275,0|0,1:2|0:0,0:0:0:0:
19,33,68757,2,0,P|7:83|0:134,1,103.799996832275,2|0,0:2|3:2,0:0:0:0:
208,70,69106,2,0,P|170:43|105:43,1,103.799996832275,2|0,1:2|0:0,0:0:0:0:
20,235,69455,2,0,B|144:230|85:301|226:291,1,207.599993664551,2|2,3:2|1:2,0:0:0:0:
319,368,69978,1,0,0:0:0:0:
184,213,70153,2,0,L|204:111,1,103.799996832275,2|0,0:2|3:2,0:0:0:0:
0,134,70501,2,0,L|20:235,1,103.799996832275,2|0,1:2|0:0,0:0:0:0:
163,330,70839,6,0,P|254:314|299:214,2,207.599993664551,2|0|0,3:2|1:2|0:0,0:0:0:0:
184,213,71711,1,0,3:2:0:0:
319,368,71885,2,0,L|424:355,1,103.799996832275,0|0,1:2|0:0,0:0:0:0:
512,269,72234,1,2,3:2:0:0:
399,203,72407,1,0,3:2:0:0:
500,103,72580,2,0,L|514:-10,1,103.799996832275,0|2,1:2|0:2,0:0:0:0:
398,84,72927,2,0,P|445:99|518:101,1,103.799996832275,0|2,0:0|3:2,0:0:0:0:
330,15,73274,2,0,P|305:67|312:133,1,103.799996832275,2|0,1:2|0:0,0:0:0:0:
216,368,73607,6,0,P|260:343|284:297,1,103.799996832275,6|0,3:2|0:2,0:0:0:0:
0,227,73968,2,0,B|113:222|56:288|201:286,1,207.599993664551,0|0,1:0|0:0,0:0:0:0:
15,314,74489,1,0,3:2:0:0:
161,184,74663,2,0,P|219:184|270:197,1,103.799996832275,0|2,1:2|0:2,0:0:0:0:
91,257,74998,2,0,P|32:168|73:67,2,207.599993664551,2|0|2,3:2|1:2|0:2,0:0:0:0:
140,153,75876,1,0,3:2:0:0:
252,297,76045,2,0,L|232:187,1,103.799996832275,2|0,1:2|0:0,0:0:0:0:
308,50,76382,6,0,B|347:44|368:23|368:23|435:85|503:38,2,207.599993664551,2|0|2,3:2|1:2|0:2,0:0:0:0:
212,52,77258,1,0,3:2:0:0:
340,163,77425,2,0,L|356:270,1,103.799996832275,0|2,1:2|0:2,0:0:0:0:
233,194,77758,1,2,3:2:0:0:
356,135,77931,1,0,3:2:0:0:
212,52,78105,2,0,P|144:29|103:27,1,103.799996832275,0|0,1:2|0:0,0:0:0:0:
15,124,78453,2,0,P|29:184|34:251,1,103.799996832275,2|0,0:2|3:2,0:0:0:0:
111,353,78801,1,2,1:2:0:0:
179,260,78967,1,0,0:0:0:0:
317,322,79134,6,0,B|437:316|388:390|518:375,2,207.599993664551,6|0|2,3:2|1:2|0:2,0:0:0:0:
238,249,80011,1,0,3:2:0:0:
430,191,80186,2,0,P|465:252|478:314,1,103.799996832275,2|0,1:2|0:0,0:0:0:0:
329,202,80513,1,2,3:2:0:0:
472,111,80685,1,0,1:3:0:0:
280,64,80858,1,0,1:3:0:0:
495,0,81031,1,0,1:3:0:0:
350,123,81204,1,8,0:3:0:0:
280,64,81377,1,8,0:3:0:0:
224,146,81550,1,4,0:3:0:0:
153,91,81723,1,4,0:3:0:0:
0,207,81896,5,6,3:2:0:0:
234,163,84708,6,0,P|173:162|114:193,1,103.799996832275,6|0,3:2|0:0,0:0:0:0:
78,300,85063,2,0,P|139:301|198:270,1,103.799996832275,2|0,3:2|0:0,0:0:0:0:
135,178,85418,2,0,L|151:45,1,103.799996832275,2|0,3:2|0:0,0:0:0:0:
271,33,85764,2,0,L|258:145,1,103.799996832275,0|0,3:2|0:0,0:0:0:0:
387,251,86111,6,0,P|335:238|271:234,1,103.799996832275,0|0,3:2|0:0,0:0:0:0:
376,155,86458,1,2,0:2:0:0:
258,144,86621,1,0,0:0:0:0:
384,136,86784,1,2,0:2:0:0:
271,33,86947,1,8,0:3:0:0:
152,157,87110,2,0,P|136:107|116:59,1,103.8,4|0,0:3|0:0,0:0:0:0:
27,19,87460,6,0,B|113:18|77:75|167:70,1,138.4,6|2,3:2|0:3,0:0:0:0:
228,0,87986,1,0,0:0:0:0:
266,213,88161,2,0,P|209:160|133:162,1,138.4,2|2,1:3|0:3,0:0:0:0:
173,257,88688,1,0,3:2:0:0:
302,140,88863,5,2,3:3:0:0:
354,244,89033,1,0,3:2:0:0:
464,122,89204,2,0,P|458:172|461:243,1,103.8,2|0,0:3|0:0,0:0:0:0:
446,320,89546,2,0,B|370:305|395:359|317:362,2,138.4,2|2|2,1:3|0:3|3:3,0:0:0:0:
349,207,90401,2,0,P|329:248|322:283,1,69.2
221,162,90743,1,0,3:2:0:0:
229,296,90914,6,0,B|219:249|219:249|246:206|217:154,1,138.4,2|2,1:3|0:3,0:0:0:0:
72,185,91427,2,0,P|103:200|138:203,1,69.2,0|2,3:2|3:3,0:0:0:0:
221,162,91772,1,0,3:2:0:0:
81,96,91946,2,0,P|46:98|15:113,1,69.2,2|0,0:3|0:0,0:0:0:0:
196,48,92295,2,0,B|269:44|238:89|324:88,1,120.667503774542,2|0,1:3|0:0,0:0:0:0:
389,50,92644,2,0,P|362:15|311:-4,1,80.4450025163613,8|0,0:3|0:0,0:0:0:0:
393,140,92993,6,0,P|435:133|463:96,1,80.4450025163613,6|0,3:2|0:0,0:0:0:0:
301,0,93372,2,0,L|317:165,1,160.890005032723,0|0,1:0|3:0,0:0:0:0:
403,52,93888,1,0,3:2:0:0:
491,200,94070,2,0,L|482:293,1,77.8499976242066,0|0,1:0|0:0,0:0:0:0:
293,310,94410,2,0,P|326:239|402:226,2,160.890005032723,0|0|2,3:2|1:0|3:2,0:0:0:0:
382,317,95272,1,0,3:2:0:0:
237,217,95444,2,0,L|152:210,1,80.4450025163613,0|0,1:0|0:0,0:0:0:0:
16,283,95789,6,0,B|100:271|77:336|171:325,2,160.890005032723,6|0|2,3:2|1:0|3:2,0:0:0:0:
0,186,96661,1,0,3:2:0:0:
156,210,96835,2,0,L|173:111,1,80.4450025163613,0|0,1:0|0:0,0:0:0:0:
125,18,97184,2,0,P|74:27|-6:121,2,160.890005032723,2|0|2,3:2|1:0|3:2,0:0:0:0:
244,43,98056,1,0,3:2:0:0:
95,115,98230,2,0,L|77:218,1,77.8499976242066,4|0,1:0|0:0,0:0:0:0:
251,253,98570,6,0,L|230:133,1,90.8249972282411,2|0,3:2|3:2,0:0:0:0:
156,303,98918,2,0,P|192:346|317:334,1,181.649994456482,2|2,1:2|3:2,0:0:0:0:
251,253,99442,1,0,3:2:0:0:
431,352,99616,2,0,L|453:263,1,90.8249972282411,2|0,1:2|0:0,0:0:0:0:
310,177,99965,1,2,3:2:0:0:
365,270,100136,1,0,3:2:0:0:
479,162,100307,2,0,P|417:164|387:181,1,90.8249972282411,2|0,1:2|0:0,0:0:0:0:
285,89,100650,1,2,3:2:0:0:
388,37,100822,1,0,3:2:0:0:
310,177,100993,2,0,L|282:78,1,90.8249972282411,2|0,1:2|0:0,0:0:0:0:
175,9,101336,5,2,3:2:0:0:
128,120,101507,1,0,3:2:0:0:
19,0,101679,2,0,L|29:94,1,90.8249972282411,2|0,1:2|0:0,0:0:0:0:
118,210,102022,2,0,L|128:105,1,90.8249972282411,2|0,3:2|3:2,0:0:0:0:
20,252,102365,2,0,P|56:298|102:309,1,90.8249972282411,2|0,1:2|0:0,0:0:0:0:
215,209,102707,5,2,1:2:0:0:
256,189,102792,1,0,1:0:0:0:
301,182,102877,1,0,1:0:0:0:
344,192,102962,1,0,1:0:0:0:
380,218,103047,2,0,L|397:282,1,43.25,0|0,1:0|1:0,0:0:0:0:
277,339,103218,2,0,L|288:295,1,43.25,0|0,1:0|1:0,0:0:0:0:
203,165,103388,2,0,L|220:229,1,43.25,8|8,1:3|1:3,0:0:0:0:
86,310,103559,2,0,L|97:266,1,43.25,8|8,1:3|1:3,0:0:0:0:
84,34,103729,2,0,P|71:74|78:136,1,86.5,4|0,1:3|0:0,0:0:0:0:
148,87,104070,6,0,P|221:83|312:108,1,162.1875,6|0,3:2|0:0,0:0:0:0:
388,123,104447,2,0,B|263:115|324:187|183:166,1,216.25,0|0,1:2|0:0,0:0:0:0:
148,87,104970,1,0,3:2:0:0:
20,177,105144,2,0,L|7:289,1,108.125,0|2,1:2|0:2,0:0:0:0:
173,342,105493,2,0,B|215:340|244:304|244:304|285:367|362:348,2,216.25,2|0|2,3:2|1:2|0:2,0:0:0:0:
165,248,106370,1,0,3:2:0:0:
327,255,106545,2,0,P|379:257|443:296,1,108.125,2|0,1:2|0:0,0:0:0:0:
243,305,106896,6,0,P|244:210|347:149,2,216.25,2|0|2,3:2|1:2|0:2,0:0:0:0:
327,255,107768,1,0,3:2:0:0:
159,176,107942,2,0,P|110:156|49:153,1,108.125,0|2,1:2|0:2,0:0:0:0:
312,157,108291,2,0,B|433:155|378:232|522:224,2,216.25,2|0|2,3:2|1:2|0:2,0:0:0:0:
200,98,109163,1,0,3:2:0:0:
327,255,109337,1,2,1:2:0:0:
312,157,109512,1,0,0:0:0:0:
172,327,109686,6,0,P|95:341|9:229,2,216.25,6|0|2,3:2|1:2|0:2,0:0:0:0:
112,241,110543,1,0,3:2:0:0:
291,357,110714,2,0,L|327:253,1,108.125,2|0,1:2|0:0,0:0:0:0:
200,98,111043,2,0,L|217:204,1,108.125,2|0,3:2|0:0,0:0:0:0:
405,205,111398,2,0,P|357:165|303:161,1,108.125,2|0,1:2|0:0,0:0:0:0:
108,143,111736,2,0,P|156:103|210:99,1,108.125,2|0,0:2|3:2,0:0:0:0:
398,51,112088,1,2,1:2:0:0:
313,159,112265,1,0,0:0:0:0:
156,20,112441,6,0,P|96:43|55:79,1,108.125,2|0,3:2|0:2,0:0:0:0:
11,253,112794,2,0,P|81:242|133:99,1,216.25,2|0,1:2|0:0,0:0:0:0:
259,12,113282,1,0,3:2:0:0:
248,228,113478,2,0,L|220:110,1,108.125,0|2,1:2|0:2,0:0:0:0:
305,153,113820,1,2,3:2:0:0:
153,240,113992,1,0,3:2:0:0:
350,321,114163,2,0,P|403:313|459:313,1,108.125,0|2,1:2|0:2,0:0:0:0:
308,238,114511,2,0,P|262:290|258:335,1,108.125,0|2,0:0|3:2,0:0:0:0:
413,232,114860,2,0,P|400:180|362:143,1,108.125,2|0,1:2|0:0,0:0:0:0:
199,14,115200,6,0,B|75:17|147:96|-23:80,2,216.25,6|0|0,3:2|1:2|0:0,0:0:0:0:
312,51,116072,1,0,3:2:0:0:
210,217,116246,2,0,L|184:98,1,108.125,0|2,1:2|0:2,0:0:0:0:
322,237,116595,2,0,P|273:308|148:311,2,216.25,2|0|2,3:2|1:2|0:2,0:0:0:0:
210,217,117467,1,0,3:2:0:0:
353,89,117641,1,2,1:2:0:0:
226,42,117812,1,0,0:0:0:0:
408,210,117983,6,0,P|452:173|454:9,2,216.25,2|0|2,3:2|1:2|0:2,0:0:0:0:
353,89,118855,1,0,3:2:0:0:
210,217,119029,2,0,L|187:105,1,108.125,0|2,1:2|0:2,0:0:0:0:
90,50,119378,1,2,3:2:0:0:
43,172,119551,1,0,3:2:0:0:
184,26,119724,2,0,P|237:6|301:9,1,108.125,0|0,1:2|0:0,0:0:0:0:
390,108,120071,2,0,P|420:155|426:216,1,108.125,2|0,0:2|3:2,0:0:0:0:
314,292,120418,1,2,1:2:0:0:
328,186,120589,1,0,0:0:0:0:
476,315,120760,6,0,B|353:318|414:398|273:376,1,216.25,6|0,3:2|1:2,0:0:0:0:
222,249,121280,1,0,0:0:0:0:
96,359,121453,2,0,P|146:346|203:341,1,108.125,2|0,0:2|0:0,0:0:0:0:
106,248,121800,2,0,P|56:235|-1:230,1,108.125,2|0,1:2|0:0,0:0:0:0:
187,152,122147,2,0,P|241:131|301:129,1,86.5,2|0,3:2|0:0,0:0:0:0:
311,146,122402,1,0,1:3:0:0:
311,146,122487,2,0,L|336:216,2,54.0625,0|0|8,1:3|0:0|0:3,0:0:0:0:
219,284,122828,2,0,L|234:214,1,54.0625,0|0,0:0|1:3,0:0:0:0:
343,322,122999,2,0,L|347:379,1,54.0625,0|0,1:3|1:3,0:0:0:0:
437,241,123169,2,0,L|448:188,1,54.0625,0|4,1:3|0:3,0:0:0:0:
331,53,123340,1,0,1:3:0:0:
331,53,123425,1,0,1:3:0:0:
331,53,123510,6,0,P|287:38|229:40,1,86.5,4|0,3:2|3:2,0:0:0:0:
200,177,123860,2,0,P|247:151|272:121,1,86.5,0|0,1:2|0:0,0:0:0:0:
155,9,124211,2,0,L|145:100,1,86.5,0|0,1:2|1:2,0:0:0:0:
118,133,124474,1,0,1:2:0:0:
118,133,124562,1,0,3:2:0:0:
282,230,124738,1,0,1:2:0:0:
135,312,124940,6,0,P|82:289|20:283,1,86.5,0|0,0:0|3:2,0:0:0:0:
18,256,125194,1,0,0:0:0:0:
18,256,125278,2,0,L|11:166,1,86.5,0|0,1:2|0:0,0:0:0:0:
52,86,125533,1,0,0:0:0:0:
52,86,125617,2,0,P|93:112|150:105,1,86.5,0|0,3:2|3:2,0:0:0:0:
225,3,125969,1,0,1:2:0:0:
321,136,126146,1,0,1:2:0:0:
321,136,126234,1,0,1:2:0:0:
321,136,126322,6,0,P|311:87|294:35,1,86.5,0|0,3:2|3:2,0:0:0:0:
457,0,126670,2,0,P|444:41|436:83,1,86.5,0|0,1:2|0:0,0:0:0:0:
499,160,126932,1,0,0:0:0:0:
499,160,127019,2,0,P|440:169|395:192,1,86.5,0|0,1:2|1:2,0:0:0:0:
381,204,127281,1,0,1:2:0:0:
381,204,127368,1,0,3:2:0:0:
512,325,127542,1,0,1:2:0:0:
352,347,127717,2,0,P|288:316|224:304,1,129.75,0|0,0:0|1:2,0:0:0:0:
192,367,128055,6,0,L|178:274,1,86.5,0|0,1:2|0:0,0:0:0:0:
42,169,128403,1,0,3:2:0:0:
176,83,128578,1,0,3:2:0:0:
214,65,128665,1,0,0:0:0:0:
257,61,128752,1,0,1:2:0:0:
298,75,128839,1,0,0:0:0:0:
327,106,128927,2,0,L|339:163,1,43.25,0|0,1:2|1:2,0:0:0:0:
406,302,129101,6,0,P|345:238|254:238,1,173,0|0,0:0|1:2,0:0:0:0:
223,362,129624,1,0,0:0:0:0:
223,362,129711,1,0,0:0:0:0:
223,362,129798,2,0,P|266:360|304:340,1,86.5,0|0,1:2|0:0,0:0:0:0:
177,230,130147,1,0,3:2:0:0:
335,148,130321,1,0,1:2:0:0:
195,78,130514,6,0,P|153:66|92:59,1,86.5,0|0,3:2|3:2,0:0:0:0:
36,103,130759,1,0,1:2:0:0:
36,103,130841,2,0,P|50:150|58:206,1,86.5,0|0,1:2|1:2,0:0:0:0:
32,292,131099,1,0,0:0:0:0:
32,292,131185,2,0,P|103:264|139:260,1,86.5,0|0,3:2|1:2,0:0:0:0:
213,154,131530,1,0,1:2:0:0:
317,315,131703,1,0,1:2:0:0:
317,315,131789,1,0,1:2:0:0:
317,315,131875,6,0,P|352:295|425:293,1,86.5,0|0,3:2|3:2,0:0:0:0:
293,180,132221,2,0,P|258:160|185:158,1,86.5,0|0,1:2|0:0,0:0:0:0:
358,79,132568,2,0,P|393:59|466:57,1,86.5,0|0,1:2|0:0,0:0:0:0:
388,174,132915,1,0,3:2:0:0:
265,24,133088,1,0,1:2:0:0:
212,153,133262,5,0,1:2:0:0:
205,195,133346,1,0,0:0:0:0:
216,236,133431,1,0,3:2:0:0:
246,266,133516,1,0,1:2:0:0:
288,274,133600,2,0,P|329:259|379:255,1,86.5,0|0,1:2|0:0,0:0:0:0:
187,326,133939,6,0,B|131:324|146:360|88:351,1,102.935000628265
9,316,134632,2,0,L|-2:243,1,64.8750024747849,6|0,3:2|0:0,0:0:0:0:
103,203,134991,2,0,L|93:267,1,64.8750024747849,0|0,3:2|0:0,0:0:0:0:
34,138,135350,2,0,P|77:112|175:141,1,129.75000494957,0|0,1:2|0:0,0:0:0:0:
215,204,135864,1,0,3:2:0:0:
294,124,136035,2,0,P|317:168|321:192,1,64.8750024747849
379,284,136378,2,0,P|390:225|427:148,2,129.75000494957,0|0|0,3:2|1:2|0:0,0:0:0:0:
306,353,137235,1,0,0:0:0:0:
213,245,137407,6,0,P|184:238|137:234,1,64.8750024747849,2|0,3:2|0:0,0:0:0:0:
61,262,137671,1,2,0:2:0:0:
61,262,137759,2,0,P|54:219|41:185,1,64.8750024747849,0|2,0:0|0:2,0:0:0:0:
124,56,138112,2,0,P|114:86|110:119,1,64.8750024747849,2|0,1:2|0:0,0:0:0:0:
188,163,138370,1,2,0:2:0:0:
188,163,138456,2,0,P|236:136|273:134,1,64.8750024747849,0|2,0:0|3:2,0:0:0:0:
351,180,138801,1,0,0:2:0:0:
244,134,138970,1,0,0:0:0:0:
263,255,139139,2,0,B|260:322|311:308|304:385,2,129.75000494957,0|0|0,3:2|1:2|0:0,0:0:0:0:
244,134,139998,1,0,0:0:0:0:
356,203,140180,6,0,P|397:209|425:219,1,64.8750024747849,6|0,3:2|0:0,0:0:0:0:
488,112,140526,2,0,P|447:118|419:128,1,64.8750024747849,0|0,3:2|0:0,0:0:0:0:
278,7,140873,2,0,P|319:56|342:138,1,129.75000494957,0|2,1:2|0:2,0:0:0:0:
281,212,141393,1,0,3:2:0:0:
223,89,141567,2,0,P|196:129|185:164,1,64.8750024747849
115,231,141914,2,0,P|101:201|82:175,1,64.8750024747849,0|0,3:2|0:0,0:0:0:0:
12,312,142260,2,0,B|90:302|64:362|152:350,1,129.75000494957,0|0,1:2|0:0,0:0:0:0:
192,268,142781,1,0,0:0:0:0:
290,375,142954,2,0,P|296:337|301:312,1,64.8750024747849,2|0,3:2|0:0,0:0:0:0:
373,221,143301,2,0,P|368:188|361:157,1,64.8750024747849,0|0,3:2|0:0,0:0:0:0:
254,27,143648,6,0,P|247:63|242:100,1,64.8750024747849,0|0,1:2|0:0,0:0:0:0:
203,207,143995,2,0,P|189:172|161:131,1,86.5,2|0,0:2|3:2,0:0:0:0:
29,162,144332,1,0,0:0:0:0:
136,64,144500,1,0,1:2:0:0:
107,218,144669,2,0,L|94:309,1,86.5,0|0,3:2|0:0,0:0:0:0:
248,373,145024,5,10,0:3:0:0:
332,230,145201,1,8,0:3:0:0:
386,353,145379,1,4,0:3:0:0:
444,263,145542,1,4,0:3:0:0:
300,173,145705,2,0,P|321:202|334:235,1,64.8750024747849,6|0,3:2|0:0,0:0:0:0:
280,317,146057,2,0,P|259:346|246:379,1,64.8750024747849,0|0,3:2|0:0,0:0:0:0:
121,267,146410,6,0,B|51:266|79:311|-12:299,1,129.75000494957,0|0,1:2|0:0,0:0:0:0:
98,185,146940,1,0,3:2:0:0:
10,139,147116,2,0,L|-3:62,1,64.8750024747849
126,23,147469,2,0,L|115:86,1,64.8750024747849,0|0,3:2|0:0,0:0:0:0:
178,206,147813,2,0,P|213:172|250:163,1,64.8750024747849,0|0,1:2|0:0,0:0:0:0:
370,82,148158,2,0,P|323:77|285:87,1,64.8750024747849
261,260,148503,2,0,P|303:238|337:148,1,129.75000494957,2|0,3:2|3:2,0:0:0:0:
227,166,149041,1,0,0:0:0:0:
165,319,149221,2,0,L|148:413,1,64.8750024747849,0|0,1:2|0:0,0:0:0:0:
275,345,149580,2,0,L|259:255,1,64.8750024747849,2|0,3:2|0:0,0:0:0:0:
152,124,149920,6,0,P|101:140|54:222,1,129.75000494957,6|2,1:2|0:2,0:0:0:0:
160,232,150432,1,0,3:2:0:0:
246,95,150602,1,2,1:2:0:0:
328,183,150783,1,0,3:2:0:0:
410,108,150965,1,10,0:3:0:0:
474,177,151128,1,4,0:3:0:0:
367,40,151291,6,0,P|342:62|329:95,1,64.8750024747849,6|2,3:2|0:2,0:0:0:0:
228,91,151637,2,0,P|215:61|190:40,1,64.8750024747849,2|0,3:2|0:0,0:0:0:0:
10,93,151984,2,0,B|88:81|57:127|151:125,1,129.75000494957,2|2,1:2|0:2,0:0:0:0:
190,40,152504,1,0,3:2:0:0:
248,178,152678,2,0,L|259:248,1,64.8750024747849,2|2,0:2|0:2,0:0:0:0:
172,292,153015,2,0,L|161:362,1,64.8750024747849,2|0,3:2|0:0,0:0:0:0:
45,256,153352,1,2,1:2:0:0:
153,174,153520,1,2,0:2:0:0:
43,115,153689,2,0,L|27:44,1,64.8750024747849,2|0,0:2|0:0,0:0:0:0:
192,44,154026,6,0,P|239:27|315:55,1,129.75000494957,2|0,3:2|3:2,0:0:0:0:
318,227,154740,2,0,P|266:191|246:131,1,129.75000494957,0|2,1:2|3:2,0:0:0:0:
353,126,155269,1,0,0:0:0:0:
443,287,155441,2,0,B|372:280|405:338|309:329,1,129.75000494957,4|8,1:2|0:3,0:0:0:0:
233,272,155959,1,8,0:3:0:0:
112,355,156131,1,8,0:3:0:0:
1,266,156299,1,0,0:0:0:0:
125,194,156468,2,0,L|147:117,1,64.8750024747849,4|0,0:3|0:0,0:0:0:0:
19,0,156805,6,0,L|43:217,1,194.625007424355,6|0,3:2|0:0,0:0:0:0:
124,42,157536,2,0,B|203:33|250:93|250:93|288:50|363:54,1,259.5,0|2,1:2|3:2,0:0:0:0:
415,110,158233,1,2,3:2:0:0:
219,184,158573,1,2,3:2:0:0:
413,223,158921,6,0,B|352:227|378:276|298:270,1,129.75000494957,2|0,1:2|0:0,0:0:0:0:
104,284,159619,2,0,P|140:186|231:191,1,194.625007424355,2|0,3:2|0:0,0:0:0:0:
258,366,160312,2,0,P|206:324|188:259,1,129.75000494957,0|0,1:2|0:0,0:0:0:0:
299,189,160826,1,2,3:2:0:0:
142,110,160997,1,2,3:2:0:0:
289,26,161340,1,2,3:2:0:0:
94,9,161683,6,0,P|107:52|118:138,1,121.099996304321,2|2,1:2|0:2,0:0:0:0:
0,235,162209,1,0,0:0:0:0:
0,235,162297,1,0,0:0:0:0:
0,235,162384,2,0,B|42:233|64:202|64:202|124:245|173:200,1,181.649994456482,2|0,3:2|0:0,0:0:0:0:
330,145,163081,2,0,P|269:117|211:122,1,121.099996304321,0|0,1:2|0:0,0:0:0:0:
162,208,163604,1,2,3:2:0:0:
310,284,163779,1,2,3:2:0:0:
150,349,164128,1,2,3:2:0:0:
371,228,164477,6,0,B|446:227|413:273|497:271,1,121.099996304321,2|0,1:2|0:0,0:0:0:0:
216,120,165174,2,0,P|128:124|66:202,1,181.649994456482,2|0,3:2|0:0,0:0:0:0:
151,338,165855,2,0,P|174:283|171:223,1,121.099996304321,0|0,1:2|0:0,0:0:0:0:
264,351,166367,1,2,3:2:0:0:
324,208,166537,1,2,3:2:0:0:
446,348,166881,1,2,3:2:0:0:
256,265,167226,1,2,1:2:0:0:
348,189,167399,1,0,3:2:0:0:
219,86,167571,6,0,P|186:89|143:102,1,60.5499981521607,0|0,3:2|0:0,0:0:0:0:
169,238,167930,2,0,P|185:206|189:167,1,60.5499981521607,6|0,3:2|0:0,0:0:0:0:
72,119,168280,2,0,P|78:148|92:175,1,60.5499981521607,2|0,0:2|0:0,0:0:0:0:
219,86,168631,2,0,B|286:77|259:120|347:120,1,121.099996304321,0|0,1:2|0:0,0:0:0:0:
416,41,169158,1,2,3:2:0:0:
505,163,169333,1,2,3:2:0:0:
332,31,169655,1,2,3:2:0:0:
251,187,170010,6,0,P|254:261|358:330,1,181.649994456482,2|0,1:2|0:0,0:0:0:0:
494,217,170715,2,0,P|426:192|358:215,1,121.099996304321,2|0,3:2|0:0,0:0:0:0:
195,324,171408,2,0,P|262:349|331:326,1,121.099996304321,0|0,1:2|0:0,0:0:0:0:
358,214,171928,1,2,3:2:0:0:
439,320,172102,1,2,3:2:0:0:
252,188,172449,6,0,L|260:253,1,60.5499981521607,2|0,3:3|0:0,0:0:0:0:
139,129,172795,1,2,1:2:0:0:
343,94,172969,1,0,1:2:0:0:
259,260,173142,1,0,1:2:0:0:
188,48,173306,1,0,1:2:0:0:
114,220,173471,5,6,3:2:0:0:
19,126,173646,1,0,3:2:0:0:
20,307,173821,2,0,L|1:223,1,86.5,2|0,1:2|0:0,0:0:0:0:
33,99,174172,1,2,3:2:0:0:
114,220,174348,1,0,3:2:0:0:
188,48,174523,2,0,P|241:40|291:36,1,86.5,2|0,1:2|0:0,0:0:0:0:
394,86,174874,5,2,3:2:0:0:
240,139,175049,1,0,3:2:0:0:
389,232,175225,2,0,L|403:318,1,86.5,2|0,1:2|0:0,0:0:0:0:
274,371,175576,1,2,3:2:0:0:
297,231,175751,1,0,3:2:0:0:
149,309,175927,2,0,P|109:287|63:278,1,86.5,2|0,1:2|0:0,0:0:0:0:
201,217,176269,5,2,3:2:0:0:
79,117,176440,1,0,3:2:0:0:
282,146,176611,2,0,P|294:192|296:240,1,86.5,2|0,1:2|0:0,0:0:0:0:
173,120,176954,1,2,3:2:0:0:
297,13,177126,1,0,3:2:0:0:
124,37,177297,2,0,P|68:30|29:40,1,86.5,2|0,1:2|0:0,0:0:0:0:
186,233,177640,5,2,1:2:0:0:
206,13,177819,1,0,1:0:0:0:
68,226,177999,1,0,1:0:0:0:
209,103,178170,1,0,1:0:0:0:
294,206,178341,2,0,B|343:200|331:234|391:226,1,86.5
444,189,178684,2,0,L|463:282,1,86.5
416,357,179027,6,0,P|323:319|247:361,1,168.674992278672,6|0,3:2|0:0,0:0:0:0:
186,367,179390,2,0,L|172:248,1,112.449994852448,0|0,1:2|0:0,0:0:0:0:
235,156,179740,1,0,0:0:0:0:
376,239,179916,1,0,3:2:0:0:
190,352,180091,2,0,L|176:233,1,112.449994852448,0|2,1:2|0:2,0:0:0:0:
299,82,180442,2,0,B|415:70|365:151|494:140,1,168.674992278672,2|0,3:2|0:0,0:0:0:0:
508,207,180788,2,0,P|506:137|513:87,1,112.449994852448,0|0,1:2|0:0,0:0:0:0:
416,218,181135,1,2,0:2:0:0:
299,82,181309,1,0,3:2:0:0:
178,242,181482,2,0,P|116:233|57:240,1,112.449994852448,2|0,1:2|0:0,0:0:0:0:
252,342,181829,6,0,P|283:293|284:168,1,168.674992278672,2|0,3:2|0:0,0:0:0:0:
217,145,182176,2,0,P|273:147|333:121,1,112.449994852448,0|0,1:2|0:0,0:0:0:0:
428,85,182522,1,2,0:2:0:0:
290,185,182690,1,0,3:2:0:0:
471,293,182859,1,0,1:2:0:0:
390,186,183027,1,2,0:2:0:0:
253,291,183196,2,0,B|153:285|199:346|80:316,1,168.674992278672,2|0,3:2|0:0,0:0:0:0:
9,291,183544,2,0,P|64:287|109:255,1,112.449994852448,0|0,1:2|0:0,0:0:0:0:
153,154,183893,1,2,0:2:0:0:
262,262,184064,1,0,3:2:0:0:
336,118,184235,2,0,P|355:59|339:6,1,112.449994852448,2|0,1:2|0:0,0:0:0:0:
318,216,184578,6,0,P|372:209|415:173,1,112.449994852448,6|0,3:2|0:0,0:0:0:0:
179,128,184924,2,0,P|153:178|158:233,1,112.449994852448,0|0,1:2|0:0,0:0:0:0:
232,326,185271,1,2,0:2:0:0:
318,216,185445,1,0,3:2:0:0:
439,356,185618,2,0,P|435:300|450:246,1,112.449994852448,2|0,1:2|0:0,0:0:0:0:
503,74,185965,2,0,B|368:63|439:140|285:117,1,224.899989704895,2|2,3:2|1:2,0:0:0:0:
229,206,186485,1,0,0:0:0:0:
162,24,186658,2,0,P|104:3|40:1,1,112.449994852448,2|0,0:2|3:2,0:0:0:0:
164,136,187005,2,0,P|226:112|264:59,1,112.449994852448,2|0,1:2|0:0,0:0:0:0:
39,110,187352,6,0,P|48:181|167:267,2,224.899989704895,2|0|0,3:2|1:2|0:0,0:0:0:0:
164,136,188219,1,0,3:2:0:0:
42,250,188393,2,0,L|25:368,1,112.449994852448,0|2,1:2|0:2,0:0:0:0:
164,266,188739,1,2,3:2:0:0:
247,371,188913,1,0,3:2:0:0:
350,238,189086,2,0,P|404:222|470:224,1,112.449994852448,0|2,1:2|0:2,0:0:0:0:
238,190,189433,1,0,0:0:0:0:
389,104,189606,1,2,3:2:0:0:
409,327,189780,2,0,P|363:282|350:220,1,112.449994852448,2|0,1:2|0:0,0:0:0:0:
250,100,190118,6,0,B|139:93|196:163|80:142,1,168.674992278672,6|0,3:2|0:0,0:0:0:0:
53,213,190462,2,0,P|46:155|22:89,1,112.449994852448,0|0,1:2|0:0,0:0:0:0:
55,0,190807,1,0,0:0:0:0:
94,144,190980,1,0,3:2:0:0:
202,13,191152,2,0,P|258:17|313:28,1,112.449994852448,0|2,1:2|0:2,0:0:0:0:
461,102,191497,2,0,P|470:185|489:296,1,168.674992278672,2|0,3:2|0:0,0:0:0:0:
474,339,191847,2,0,P|433:290|371:272,1,112.449994852448,0|0,1:2|0:0,0:0:0:0:
300,337,192198,1,2,0:2:0:0:
179,195,192374,1,0,3:2:0:0:
31,370,192549,2,0,P|75:354|153:356,1,112.449994852448,2|0,1:2|0:0,0:0:0:0:
294,238,192900,6,0,B|212:235|244:303|129:275,1,168.674992278672,2|0,3:2|0:0,0:0:0:0:
89,264,193255,2,0,L|73:153,1,112.449994852448,0|0,1:2|0:0,0:0:0:0:
118,55,193610,1,2,0:2:0:0:
221,192,193787,1,0,3:2:0:0:
313,65,193965,2,0,P|366:33|417:28,1,112.449994852448,0|2,1:2|0:2,0:0:0:0:
361,144,194309,1,2,3:2:0:0:
257,6,194481,1,0,3:2:0:0:
221,192,194653,2,0,P|214:136|198:82,1,112.449994852448,0|0,1:2|0:0,0:0:0:0:
43,160,194998,2,0,P|48:105|64:51,1,112.449994852448,2|0,0:2|3:2,0:0:0:0:
140,252,195343,1,2,1:2:0:0:
43,161,195510,1,0,0:0:0:0:
198,82,195678,6,0,B|315:66|267:143|391:129,1,168.674992278672,6|0,3:2|0:0,0:0:0:0:
380,111,196024,2,0,L|353:-11,1,112.449994852448,0|0,1:2|0:0,0:0:0:0:
198,82,196371,1,2,0:2:0:0:
353,130,196545,1,0,3:2:0:0:
222,283,196718,2,0,L|206:157,1,112.449994852448,2|0,1:2|0:0,0:0:0:0:
430,175,197065,6,0,L|405:369,1,168.674992278672,2|0,3:2|0:0,0:0:0:0:
375,372,197412,2,0,P|322:363|260:365,1,112.449994852448,2|0,1:2|0:0,0:0:0:0:
121,303,197758,1,2,0:2:0:0:
271,264,197932,1,0,3:2:0:0:
141,145,198105,2,0,P|193:114|250:104,1,112.449994852448,2|0,1:2|0:0,0:0:0:0:
43,224,198452,6,0,P|20:120|94:30,2,224.899989704895,2|0|0,3:2|1:2|0:0,0:0:0:0:
141,145,199324,1,0,3:2:0:0:
244,289,199498,1,0,1:2:0:0:
231,145,199672,1,2,0:2:0:0:
144,282,199847,5,6,1:2:0:0:
316,201,200021,1,0,3:2:0:0:
141,145,200196,5,0,1:2:0:0:
244,289,200370,1,0,3:2:0:0:
294,122,200545,6,0,P|358:108|419:109,1,112.449994852448,2|0,1:2|3:2,0:0:0:0:
196,28,200893,2,0,P|132:14|71:15,1,112.449994852448,2|0,1:2|3:2,0:0:0:0:
291,133,201242,5,6,1:2:0:0:
88,35,201415,1,0,3:2:0:0:
316,40,201588,5,0,1:2:0:0:
151,137,201762,1,0,3:2:0:0:
369,155,201935,5,2,1:2:0:0:
246,5,202109,1,0,3:2:0:0:
249,223,202282,5,2,1:2:0:0:
324,74,202455,1,0,3:2:0:0:
355,290,202629,5,2,1:2:0:0:
286,145,202799,1,0,3:2:0:0:
210,297,202969,6,0,B|112:289|155:349|34:338,1,168.674992278672,6|0,1:2|0:0,0:0:0:0:
20,306,203310,1,2,3:2:0:0:
147,193,203481,1,2,1:2:0:0:
7,115,203651,1,0,1:2:0:0:
99,44,203822,1,2,0:2:0:0:
147,193,203992,5,4,3:2:0:0:
104,70,204167,1,0,3:2:0:0:
30,207,204342,2,0,L|4:107,1,95.1500029037476,2|0,1:2|0:0,0:0:0:0:
147,193,204693,2,0,L|123:285,1,95.1500029037476,2|0,1:2|0:0,0:0:0:0:
56,355,205044,1,0,3:2:0:0:
205,280,205220,6,0,P|262:267|306:269,1,96.0150023441163,2|0,1:2|0:0,0:0:0:0:
377,202,205566,1,0,3:2:0:0:
253,130,205737,2,0,P|196:117|152:119,1,95.1500029037476,2|0,1:2|0:0,0:0:0:0:
55,41,206080,1,0,3:2:0:0:
55,41,206252,1,0,3:2:0:0:
215,43,206423,2,0,P|241:87|254:140,1,95.1500029037476,2|0,1:2|0:0,0:0:0:0:
298,267,206766,5,0,3:2:0:0:
381,141,206940,1,0,3:2:0:0:
498,294,207114,2,0,L|403:265,1,95.1500029037476,2|0,1:2|0:0,0:0:0:0:
241,377,207463,2,0,L|336:348,1,95.1500029037476,2|0,1:2|0:0,0:0:0:0:
406,266,207812,1,0,3:2:0:0:
239,195,207986,6,0,P|209:254|207:291,1,95.1500029037476,2|0,1:2|0:0,0:0:0:0:
137,360,208335,1,0,3:2:0:0:
53,224,208510,2,0,P|45:177|20:136,1,95.1500029037476,2|0,1:2|0:0,0:0:0:0:
106,21,208859,1,0,3:2:0:0:
174,122,209033,1,0,3:2:0:0:
266,10,209207,2,0,P|317:6|383:17,1,95.1500029037476,2|0,1:2|0:0,0:0:0:0:
457,74,209556,5,4,3:2:0:0:
326,128,209730,1,0,3:2:0:0:
467,256,209904,2,0,L|487:159,1,95.1500029037476,2|0,1:2|0:0,0:0:0:0:
326,128,210253,2,0,L|345:221,1,95.1500029037476,2|0,1:2|0:0,0:0:0:0:
284,316,210602,1,0,3:2:0:0:
203,206,210776,1,0,0:0:0:0:
113,341,210951,6,0,P|67:324|3:317,1,95.1500029037476,4|0,1:2|3:2,0:0:0:0:
180,223,211295,1,2,1:2:0:0:
70,164,211468,1,0,3:2:0:0:
220,81,211640,1,8,1:3:0:0:
93,37,211813,1,8,1:3:0:0:
253,165,211985,1,4,1:3:0:0:
169,11,212157,1,4,1:3:0:0:
37,163,212330,6,0,P|31:116|14:62,1,95.1500029037476,4|2,1:2|1:2,0:0:0:0:
138,244,212675,1,2,1:2:0:0:
242,94,212847,2,0,P|247:47|265:-7,1,95.1500029037476,2|0,3:3|0:0,0:0:0:0:
440,209,213192,1,8,1:3:0:0:
333,48,213369,1,4,1:3:0:0:
213,231,213547,6,0,P|265:179|401:165,1,190.300005807495,4|0,1:2|3:2,0:0:0:0:
407,331,214079,2,0,P|362:316|334:280,1,95.1500029037476,2|0,1:2|0:0,0:0:0:0:
505,153,214434,1,4,1:3:0:0:
315,60,214597,1,4,1:3:0:0:
501,2,214761,1,4,1:3:0:0:
319,206,214925,1,4,1:3:0:0:
211,99,215089,6,0,B|143:98|174:145|91:136,1,121.099996304321,2|2,0:2|0:2,0:0:0:0:
17,284,215803,1,2,0:2:0:0:
17,284,215974,2,0,P|49:257|86:238,1,60.5499981521607,2|0,0:2|0:0,0:0:0:0:
169,311,216317,2,0,P|224:311|297:303,1,121.099996304321,2|2,0:2|0:2,0:0:0:0:
439,212,217008,2,0,P|378:205|318:205,1,121.099996304321,2|2,0:2|0:2,0:0:0:0:
155,80,217706,1,2,0:2:0:0:
155,80,217900,6,0,P|171:130|185:222,1,121.099996304321,2|2,0:2|0:2,0:0:0:0:
287,50,218595,1,2,0:2:0:0:
287,50,218769,2,0,P|265:94|258:124,1,60.5499981521607,2|0,0:2|0:0,0:0:0:0:
318,205,219117,2,0,P|333:231|343:259,1,60.5499981521607,2|0,0:2|0:0,0:0:0:0:
270,351,219465,2,0,P|225:351|200:342,1,60.9824968827612,2|0,0:2|0:0,0:0:0:0:
130,296,219813,2,0,P|120:257|109:234,1,60.9824968827612,2|0,0:2|0:0,0:0:0:0:
226,182,220160,2,0,P|214:209|207:239,1,57.9549972585985,2|0,0:2|0:0,0:0:0:0:
210,346,220508,1,2,0:2:0:0:
111,238,220697,6,0,P|94:177|90:115,1,121.099996304321,2|2,0:2|0:2,0:0:0:0:
250,51,221374,1,2,0:2:0:0:
250,51,221544,2,0,P|202:35|173:37,1,60.5499981521607,2|0,0:2|0:0,0:0:0:0:
319,145,221883,2,0,P|363:100|365:33,1,121.099996304321,2|2,0:2|0:2,0:0:0:0:
192,158,222594,2,0,L|171:237,1,60.5499981521607,2|0,0:2|0:0,0:0:0:0:
294,276,222953,2,0,L|278:217,1,60.5499981521607,2|0,0:2|0:0,0:0:0:0:
201,300,223313,1,2,0:2:0:0:
323,362,223492,1,2,0:2:0:0:
