osu file format v14

[General]
AudioFilename: The Maze of Mayonnaise - BOSSFIGHT.mp3
AudioLeadIn: 0
PreviewTime: 34777
Countdown: 0
SampleSet: None
StackLeniency: 0.5
Mode: 0
LetterboxInBreaks: 0
CountdownOffset: 2
WidescreenStoryboard: 0

[Editor]
Bookmarks: 11592,50482,57260,166260
DistanceSpacing: 1
BeatDivisor: 4
GridSize: 8
TimelineZoom: 1.3

[Metadata]
Title:The Maze of Mayonnaise
TitleUnicode:The Maze of Mayonnaise
Artist:BOSSFIGHT
ArtistUnicode:BOSSFIGHT
Creator:mops
Version:Insane
Source:Open Hexagon
Tags:indie game electronica bitpop second dimension chiptune
BeatmapID:263643
BeatmapSetID:83726

[Difficulty]
HPDrainRate:6
CircleSize:4
OverallDifficulty:8
ApproachRate:9
SliderMultiplier:2.50000000596047
SliderTickRate:2

[Events]
//Background and Video events
0,0,"openhexagon.jpg",0,0
//Break Periods
2,78459,91732
2,121126,127065
//Storyboard Layer 0 (Background)
//Storyboard Layer 1 (Fail)
//Storyboard Layer 2 (Pass)
//Storyboard Layer 3 (Foreground)
//Storyboard Sound Samples

[TimingPoints]
38,444.444444444444,4,3,0,80,1,0
32036,-66.6666666666667,4,3,0,80,0,0
35593,-100,4,3,0,90,0,1
49815,-100,4,3,0,80,0,0
51593,-100,4,3,0,90,0,1
62260,-100,4,3,0,90,0,0
78260,-100,4,3,0,80,0,0
150704,-66.6666666666667,4,3,0,100,0,1
165371,-100,4,3,0,90,0,0
167148,-66.6666666666667,4,3,0,90,0,0

[Colours]
Combo1 : 71,119,207
Combo2 : 197,181,219
Combo3 : 75,16,141
Combo4 : 255,255,255

[HitObjects]
48,144,11593,5,0,0:0:0:0:
200,336,12037,1,2,0:0:0:0:
272,232,12260,2,0,P|368:288|408:328,2,125.000000298023
344,128,12926,1,2,0:0:0:0:
432,224,13149,1,0,0:0:0:0:
432,224,13371,2,0,P|424:120|384:80,1,125.000000298023
368,72,13704,2,0,P|296:56|240:104,1,125.000000298023,2|0,0:0|0:0,0:0:0:0:
280,152,14037,1,0,0:0:0:0:
208,160,14149,1,0,0:0:0:0:
168,96,14260,2,0,P|112:112|56:200,1,125.000000298023
168,232,14704,1,2,0:0:0:0:
296,32,14926,5,0,0:0:0:0:
344,48,15037,1,0,0:0:0:0:
392,72,15149,2,0,P|432:120|448:184,1,125.000000298023,0|2,0:0|0:0,0:0:0:0:
328,144,15593,1,2,0:0:0:0:
136,80,15815,2,0,P|64:104|32:160,1,125.000000298023
136,80,16260,1,0,0:0:0:0:
144,208,16482,1,2,0:0:0:0:
184,240,16593,1,0,0:0:0:0:
232,256,16704,2,0,P|336:272|408:256,1,125.000000298023
248,112,17149,1,0,0:0:0:0:
432,96,17371,2,0,P|416:192|360:248,1,125.000000298023,2|0,0:0|0:0,0:0:0:0:
152,304,17815,5,6,0:0:0:0:
376,256,18037,1,2,0:0:0:0:
296,48,18260,2,0,P|240:40|208:72,1,62.5000001490117,4|6,0:0|0:0,0:0:0:0:
192,224,18704,2,0,P|104:144|80:80,2,187.500000447035,6|2|2,0:0|0:0|0:0,0:0:0:0:
296,344,19593,5,4,0:0:0:0:
352,296,19815,1,0,0:0:0:0:
384,232,20037,1,2,0:0:0:0:
408,160,20260,1,0,0:0:0:0:
336,184,20482,2,0,P|264:280|224:304,1,125.000000298023,4|0,0:0|0:0,0:0:0:0:
261,282,20815,2,0,P|194:192|178:176,1,125.000000298023,2|0,0:0|0:0,0:0:0:0:
128,136,21149,1,0,0:0:0:0:
200,104,21260,1,0,0:0:0:0:
168,40,21371,2,0,P|72:56|24:112,1,125.000000298023,4|4,0:0|0:0,0:0:0:0:
80,192,21815,1,2,0:0:0:0:
280,40,22037,5,4,0:0:0:0:
304,80,22149,1,0,0:0:0:0:
320,120,22260,2,4,P|328:160|280:256,1,125.000000298023,4|2,0:0|0:0,0:0:0:0:
424,248,22704,1,2,0:0:0:0:
256,64,22926,2,0,P|168:72|128:96,1,125.000000298023,0|0,0:0|0:0,0:0:0:0:
40,168,23371,1,0,0:0:0:0:
176,168,23593,1,2,0:0:0:0:
256,64,23815,1,0,0:0:0:0:
320,312,24260,1,0,0:0:0:0:
272,200,24482,6,0,B|192:200|192:200|128:288|128:288|56:288,1,250.000000596047,6|2,0:0|0:0,0:0:0:0:
56,160,25149,1,4,0:0:0:0:
184,160,25371,2,0,P|256:176|288:192,1,62.5000001490117,0|4,0:0|0:0,0:0:0:0:
400,72,25815,2,0,P|304:40|192:40,1,187.500000447035,4|4,0:0|0:0,0:0:0:0:
256,208,26482,1,4,0:0:0:0:
256,208,26704,5,4,0:0:0:0:
368,144,26926,1,0,0:0:0:0:
256,208,27149,1,2,0:0:0:0:
144,264,27371,1,0,0:0:0:0:
256,208,27593,2,0,P|352:240|376:264,1,125.000000298023,4|0,0:0|0:0,0:0:0:0:
312,280,27926,2,0,P|362:315|423:326,1,125.000000298023,2|2,0:0|0:0,0:0:0:0:
440,256,28260,1,0,0:0:0:0:
416,184,28371,1,0,0:0:0:0:
368,128,28482,2,0,P|280:80|224:72,1,125.000000298023,4|0,0:0|0:0,0:0:0:0:
480,56,28926,1,2,0:0:0:0:
240,168,29149,2,0,P|280:184|304:208,2,62.5000001490117
96,128,29593,1,2,0:0:0:0:
136,272,29815,1,2,0:0:0:0:
240,168,30037,1,8,0:0:0:0:
360,72,30260,6,0,P|392:136|408:248,1,125.000000298023,4|0,0:0|0:0,0:0:0:0:
328,320,30704,1,2,0:0:0:0:
448,360,30926,1,4,0:0:0:0:
294,189,31149,2,0,P|234:203|184:240,1,125.000000298023,4|0,0:0|0:0,0:0:0:0:
256,48,31593,1,2,0:0:0:0:
56,192,31815,1,0,0:0:0:0:
256,336,32037,6,4,L|432:240,1,187.500007599593,4|0,0:0|0:0,0:0:0:0:
192,96,32482,2,8,L|104:152,1,93.7500037997964,10|0,0:0|0:0,0:0:0:0:
496,48,32926,1,4,0:0:0:0:
120,168,33260,2,4,L|32:224,1,93.7500037997964,8|2,0:0|0:0,0:0:0:0:
240,304,33593,1,4,0:0:0:0:
216,120,33815,6,4,P|352:120|448:328,2,375.000015199186,4|4|4,0:0|0:0|0:0,0:0:0:0:
216,120,34926,1,4,0:0:0:0:
160,280,35149,1,4,0:0:0:0:
200,280,35260,1,0,0:0:0:0:
240,272,35371,1,4,0:0:0:0:
272,256,35482,1,0,0:0:0:0:
304,232,35593,6,0,P|344:184|368:112,1,125.000000298023,4|0,0:0|0:0,0:0:0:0:
192,128,36037,2,0,P|112:168|88:216,1,125.000000298023,2|0,0:0|0:0,0:0:0:0:
320,208,36482,2,0,L|504:208,1,125.000000298023,4|0,0:0|0:0,0:0:0:0:
232,80,36926,2,0,L|80:80,1,125.000000298023,2|0,0:0|0:0,0:0:0:0:
224,304,37371,2,0,L|376:304,1,125.000000298023,4|0,0:0|0:0,0:0:0:0:
368,152,37815,1,2,0:0:0:0:
248,56,38037,5,0,0:0:0:0:
184,56,38149,1,0,0:0:0:0:
136,96,38260,1,4,0:0:0:0:
304,152,38482,1,0,0:0:0:0:
272,328,38704,1,2,0:0:0:0:
96,304,38926,1,0,0:0:0:0:
272,328,39149,6,0,P|352:256|360:192,1,125.000000298023,4|0,0:0|0:0,0:0:0:0:
112,192,39593,2,0,P|136:232|216:264,1,125.000000298023,2|0,0:0|0:0,0:0:0:0:
80,48,40037,1,4,0:0:0:0:
184,112,40260,1,0,0:0:0:0:
352,296,40482,1,2,0:0:0:0:
240,352,40704,1,0,0:0:0:0:
344,128,40926,2,0,P|416:184|424:232,1,125.000000298023,4|0,0:0|0:0,0:0:0:0:
472,96,41371,1,2,0:0:0:0:
96,64,41815,5,4,0:0:0:0:
200,288,42037,1,0,0:0:0:0:
256,48,42260,1,2,0:0:0:0:
72,216,42482,1,0,0:0:0:0:
320,184,42704,6,0,P|304:280|248:304,1,125.000000298023,4|0,0:0|0:0,0:0:0:0:
400,248,43149,2,0,P|400:176|344:112,1,125.000000298023,2|0,0:0|0:0,0:0:0:0:
184,160,43593,2,0,P|192:80|232:40,1,125.000000298023,4|0,0:0|0:0,0:0:0:0:
216,232,44037,2,0,P|200:288|136:344,1,125.000000298023,2|0,0:0|0:0,0:0:0:0:
256,168,44482,2,0,P|312:120|408:96,1,125.000000298023,4|0,0:0|0:0,0:0:0:0:
416,80,44815,2,0,P|480:72|496:72,1,62.5000001490117,0|2,0:0|0:0,0:0:0:0:
432,200,45149,5,0,0:0:0:0:
376,224,45260,1,0,0:0:0:0:
320,248,45371,2,0,P|224:208|200:144,2,125.000000298023,4|0|2,0:0|0:0|0:0,0:0:0:0:
248,352,46037,1,0,0:0:0:0:
56,192,46260,6,0,P|80:144|144:96,1,125.000000298023,4|0,0:0|0:0,0:0:0:0:
240,176,46704,1,2,0:0:0:0:
256,48,46926,1,0,0:0:0:0:
504,80,47149,1,4,0:0:0:0:
56,304,47593,1,2,0:0:0:0:
368,96,48037,2,0,P|320:64|200:64,1,125.000000298023,4|0,0:0|0:0,0:0:0:0:
128,120,48482,1,2,0:0:0:0:
360,344,48926,5,4,0:0:0:0:
192,264,49149,1,4,0:0:0:0:
360,184,49371,1,2,0:0:0:0:
192,104,49593,1,0,0:0:0:0:
360,24,49815,1,4,0:0:0:0:
240,168,50260,1,2,0:0:0:0:
128,312,50704,2,0,P|80:272|64:224,1,62.5000001490117,4|2,0:0|0:0,0:0:0:0:
240,168,51037,1,4,0:0:0:0:
288,120,51149,1,2,0:0:0:0:
192,216,51371,1,6,0:0:0:0:
224,80,51593,6,0,P|336:64|312:192,1,250.000000596047,4|2,0:0|0:0,0:0:0:0:
88,304,52482,2,0,P|112:184|88:56,1,250.000000596047,4|2,0:0|0:0,0:0:0:0:
422,59,53371,2,0,P|399:182|408:256,1,187.500000447035,4|0,0:0|0:0,0:0:0:0:
423,303,53815,1,2,0:0:0:0:
256,184,54037,1,0,0:0:0:0:
144,120,54260,2,0,P|72:160|0:232,2,125.000000298023,4|0|2,0:0|0:0|0:0,0:0:0:0:
264,80,54926,1,0,0:0:0:0:
392,80,55149,6,0,P|448:168|456:240,1,125.000000298023,4|0,0:0|0:0,0:0:0:0:
240,56,55593,2,0,P|152:72|80:120,1,125.000000298023,2|0,0:0|0:0,0:0:0:0:
328,232,56037,2,0,P|392:304|416:368,1,125.000000298023,4|0,0:0|0:0,0:0:0:0:
152,320,56482,1,2,0:0:0:0:
232,136,56704,1,0,0:0:0:0:
64,56,56926,2,0,P|104:152|264:248,1,250.000000596047,4|2,0:0|0:0,0:0:0:0:
344,224,57593,1,2,0:0:0:0:
336,96,57815,1,4,0:0:0:0:
280,64,57926,1,2,0:0:0:0:
352,168,58149,2,0,P|344:216|312:248,1,62.5000001490117,4|2,0:0|0:0,0:0:0:0:
232,296,58482,1,6,0:0:0:0:
112,280,58704,6,0,P|48:168|96:56,1,250.000000596047,4|2,0:0|0:0,0:0:0:0:
216,48,59371,1,0,0:0:0:0:
408,56,59593,2,0,B|472:72|480:136|480:136|480:200,1,125.000000298023,4|0,0:0|0:0,0:0:0:0:
296,160,60037,2,0,P|240:112|192:72,1,125.000000298023,2|0,0:0|0:0,0:0:0:0:
80,224,60482,2,0,P|48:288|48:352,2,125.000000298023,4|0|2,0:0|0:0|0:0,0:0:0:0:
200,248,61149,1,0,0:0:0:0:
232,160,61371,5,4,0:0:0:0:
120,120,61593,1,0,0:0:0:0:
232,72,61815,2,0,P|336:104|400:144,1,125.000000298023,2|0,0:0|0:0,0:0:0:0:
176,192,62260,6,0,L|120:216,1,31.2500000745059,8|0,0:0|0:0,0:0:0:0:
352,152,62482,2,0,L|408:128,1,31.2500000745059,8|0,0:0|0:0,0:0:0:0:
256,272,62704,2,0,L|280:328,1,31.2500000745059,8|0,0:0|0:0,0:0:0:0:
272,72,62926,2,0,L|248:16,1,31.2500000745059,8|0,0:0|0:0,0:0:0:0:
264,184,63149,1,8,0:0:0:0:
264,184,63371,1,0,0:0:0:0:
264,184,63482,1,0,0:0:0:0:
264,184,63593,1,8,0:0:0:0:
136,192,63815,6,0,P|192:112|264:96,1,125.000000298023,8|4,0:0|0:0,0:0:0:0:
248,224,64260,1,0,0:0:0:0:
160,312,64482,1,2,0:0:0:0:
136,192,64704,1,0,0:0:0:0:
304,80,64926,2,0,P|400:120|416:152,1,125.000000298023,4|0,0:0|0:0,0:0:0:0:
200,280,65371,2,0,P|128:256|88:208,1,125.000000298023,2|0,0:0|0:0,0:0:0:0:
344,264,65815,2,0,P|400:176|400:120,1,125.000000298023,4|0,0:0|0:0,0:0:0:0:
400,96,66149,2,0,P|384:56|360:32,1,62.5000001490117,0|2,0:0|0:0,0:0:0:0:
272,200,66482,6,0,P|232:160|224:128,2,62.5000001490117,0|0|4,0:0|0:0|0:0,0:0:0:0:
392,288,66926,1,2,0:0:0:0:
248,344,67149,1,2,0:0:0:0:
272,200,67371,1,2,0:0:0:0:
104,104,67593,6,0,P|80:152|88:224,1,125.000000298023,4|0,0:0|0:0,0:0:0:0:
208,240,68037,1,2,0:0:0:0:
112,328,68260,1,0,0:0:0:0:
200,120,68482,2,0,P|296:80|368:88,1,125.000000298023,4|0,0:0|0:0,0:0:0:0:
160,240,68926,2,0,P|89:267|36:289,1,125.000000298023,2|0,0:0|0:0,0:0:0:0:
280,280,69371,2,0,P|378:222|398:193,1,125.000000298023,4|0,0:3|0:3,0:3:0:0:
424,296,69815,1,2,0:0:0:0:
400,152,70037,5,0,0:0:0:0:
384,112,70149,1,0,0:0:0:0:
352,88,70260,1,4,0:0:0:0:
208,208,70482,1,2,0:0:0:0:
264,32,70704,1,2,0:0:0:0:
328,208,70926,1,2,0:0:0:0:
168,112,71149,6,0,P|144:152|120:232,1,125.000000298023,4|0,0:0|0:0,0:0:0:0:
248,240,71593,1,2,0:0:0:0:
200,320,71815,1,0,0:0:0:0:
152,176,72037,2,0,P|256:152|304:176,1,125.000000298023,4|0,0:0|0:0,0:0:0:0:
456,168,72482,2,0,P|376:152|312:176,1,125.000000298023,2|0,0:0|0:0,0:0:0:0:
184,272,72926,2,0,P|288:320|344:312,1,125.000000298023,4|2,0:0|0:0,0:0:0:0:
360,312,73260,2,0,P|432:280|448:264,1,62.5000001490117,0|2,0:0|0:0,0:0:0:0:
368,144,73593,5,0,0:0:0:0:
328,128,73704,1,0,0:0:0:0:
280,152,73815,2,0,P|232:232|192:264,1,125.000000298023,4|2,0:0|0:0,0:0:0:0:
248,64,74260,2,0,P|320:40|392:56,1,125.000000298023,2|2,0:0|0:0,0:0:0:0:
136,136,74704,6,0,P|88:208|80:264,1,125.000000298023,4|0,0:0|0:0,0:0:0:0:
224,208,75149,1,2,0:0:0:0:
168,344,75371,1,0,0:0:0:0:
56,120,75593,2,0,P|120:64|208:48,1,125.000000298023,4|0,0:0|0:0,0:0:0:0:
200,296,76037,1,2,0:0:0:0:
96,224,76260,1,0,0:0:0:0:
336,288,76482,2,0,P|400:208|416:152,1,125.000000298023,4|0,0:0|0:0,0:0:0:0:
408,64,76926,1,2,0:0:0:0:
408,192,77149,6,0,L|464:248,2,62.5000001490117,0|0|4,0:0|0:0|0:0,0:0:0:0:
256,80,77593,2,0,B|192:80|192:80|144:128,1,125.000000298023,2|2,0:0|0:0,0:0:0:0:
256,304,78037,2,0,B|320:304|320:304|368:256,1,125.000000298023,2|4,0:0|0:0,0:0:0:0:
176,144,92482,5,4,0:0:0:0:
168,272,92704,1,0,0:0:0:0:
72,200,92926,1,2,0:0:0:0:
96,80,93149,2,0,P|112:64|224:40,1,125.000000298023,0|4,0:0|0:0,0:0:0:0:
328,72,93593,1,0,0:0:0:0:
440,176,93815,1,2,0:0:0:0:
472,352,94037,2,4,P|392:352|224:264,1,250.000000596047,4|0,0:0|0:0,0:0:0:0:
256,216,94593,2,0,P|184:248|168:272,1,62.5000001490117,2|2,0:0|0:0,0:0:0:0:
168,288,94815,2,0,P|136:248|192:80,1,187.500000447035,0|4,0:0|0:0,0:0:0:0:
272,136,95371,1,0,0:0:0:0:
304,256,95593,2,0,P|385:195|382:144,1,125.000000298023,2|0,0:0|0:0,0:0:0:0:
72,160,96037,5,8,0:0:0:0:
256,200,96260,1,8,0:0:0:0:
72,248,96482,1,6,0:0:0:0:
256,296,96704,2,4,B|384:296|384:296|496:384,1,250.000000596047,4|0,0:0|0:0,0:0:0:0:
280,128,97371,2,0,B|152:128|152:128|56:224,1,250.000000596047,2|8,0:0|0:0,0:0:0:0:
184,192,98037,1,8,0:0:0:0:
312,192,98260,1,10,0:0:0:0:
440,192,98482,1,8,0:0:0:0:
336,264,98704,1,4,0:0:0:0:
376,144,98926,1,8,0:0:0:0:
344,88,99037,2,0,P|275:35|168:24,1,187.500000447035,6|0,0:0|0:0,0:3:0:0:
184,256,99593,6,0,P|104:312|56:304,1,125.000000298023,4|0,0:0|0:0,0:0:0:0:
200,168,100037,2,0,P|264:152|320:168,1,125.000000298023,2|0,0:0|0:0,0:0:0:0:
128,200,100482,2,0,P|70:167|41:116,1,125.000000298023,2|0,0:0|0:0,0:0:0:0:
168,88,100926,1,0,0:0:0:0:
256,168,101149,1,4,0:0:0:0:
472,48,101593,1,4,0:0:0:0:
424,160,101815,1,2,0:0:0:0:
216,304,102260,2,8,L|144:184,1,125.000000298023,4|4,0:0|0:0,0:0:0:0:
216,88,102704,1,2,0:0:0:0:
256,192,103149,12,2,104482,0:0:0:0:
256,192,104926,12,2,106260,0:0:0:0:
248,72,106704,6,0,P|192:120|152:200,1,125.000000298023,0|0,0:0|0:0,0:0:0:0:
360,120,107149,2,0,P|336:216|304:272,1,125.000000298023,2|0,0:0|0:0,0:0:0:0:
256,344,107593,1,0,0:0:0:0:
144,288,107815,1,0,0:0:0:0:
240,208,108037,2,0,P|288:120|296:88,2,125.000000298023,2|0|0,0:0|0:0|0:0,0:0:0:0:
352,152,108704,6,0,P|408:104|464:80,1,125.000000298023,0|2,0:0|0:0,0:0:0:0:
416,200,109149,1,0,0:0:0:0:
256,232,109371,1,0,0:0:0:0:
360,336,109593,1,0,0:0:0:0:
256,232,109815,1,2,0:0:0:0:
240,88,110037,2,0,P|320:136|336:192,1,125.000000298023
152,224,110482,5,0,0:0:0:0:
336,232,110704,2,0,L|192:312,1,125.000000298023,2|0,0:0|0:0,0:0:0:0:
344,336,111149,1,0,0:0:0:0:
216,160,111371,1,0,0:0:0:0:
96,200,111593,1,2,0:0:0:0:
120,80,111815,1,0,0:0:0:0:
216,160,112037,1,0,0:0:0:0:
304,64,112260,5,0,0:0:0:0:
184,280,112482,1,2,0:0:0:0:
408,176,112704,1,0,0:0:0:0:
160,136,112926,1,0,0:0:0:0:
344,304,113149,2,0,P|376:240|352:168,1,125.000000298023,0|2,0:0|0:0,0:0:0:0:
280,72,113593,6,0,P|232:48|152:40,2,125.000000298023
376,184,114260,1,2,0:0:0:0:
376,184,114482,1,0,0:0:0:0:
296,312,114704,2,0,P|224:344|144:344,1,125.000000298023
152,200,115149,1,2,0:0:0:0:
152,200,115371,1,0,0:0:0:0:
248,88,115593,2,0,P|368:96|400:120,1,125.000000298023
144,208,116037,2,0,P|72:232|56:240,1,62.5000001490117,2|2,0:0|0:0,0:0:0:0:
328,344,116482,6,0,P|448:208|464:128,1,250.000000596047,0|2,0:0|0:0,0:0:0:0:
280,176,117149,1,0,0:0:0:0:
184,40,117371,2,0,P|128:80|88:128,1,125.000000298023
184,40,117815,1,2,0:0:0:0:
272,176,118037,1,0,0:0:0:0:
192,272,118260,2,0,P|120:192|80:184,1,125.000000298023
200,272,118704,1,2,0:0:0:0:
232,152,118926,1,0,0:0:0:0:
328,72,119149,6,0,P|384:144|416:232,1,125.000000298023
240,328,119593,2,0,P|176:248|160:192,1,125.000000298023,2|0,0:0|0:0,0:0:0:0:
328,272,120037,2,0,P|416:248|496:272,1,125.000000298023
384,144,120482,1,2,0:0:0:0:
288,72,120704,2,0,P|216:48|160:48,1,125.000000298023
56,192,127815,5,4,0:0:0:0:
72,72,128037,2,0,P|176:104|248:208,1,187.500000447035,8|0,0:0|0:0,0:0:0:0:
256,216,128482,1,2,0:0:0:0:
120,152,128704,1,4,0:0:0:0:
224,40,128926,2,0,P|320:128|344:184,1,187.500000447035,8|0,0:0|0:0,0:0:0:0:
360,240,129371,1,2,0:0:0:0:
232,128,129593,1,4,0:0:0:0:
392,64,129815,2,0,P|456:160|472:264,3,187.500000447035,8|8|8|8,0:0|0:0|0:0|0:0,0:0:0:0:
208,296,131149,6,0,B|192:272|192:272|184:296|184:296|168:272|168:272|160:296|160:296|144:272|144:272|136:296|136:296|120:272|120:272|112:296|112:296|96:272|96:272|88:296|88:296|72:272|72:272,1,250.000000596047,4|8,0:0|0:0,0:0:0:0:
224,144,131926,1,0,0:0:0:0:
288,152,132037,1,10,0:0:0:0:
312,272,132260,1,4,0:0:0:0:
184,264,132482,2,8,P|104:184|72:104,1,187.500000447035,8|8,0:0|0:0,0:0:0:0:
56,64,132926,1,2,0:0:0:0:
184,64,133149,1,8,0:0:0:0:
312,72,133371,6,4,B|400:160|400:160|400:256,1,187.500000447035,8|2,0:0|0:0,0:0:0:0:
232,136,134037,1,10,0:0:0:0:
144,72,134260,2,4,B|144:200|144:200|216:272,1,187.500000447035,4|2,0:0|0:0,0:0:0:0:
136,280,134704,1,0,0:0:0:0:
272,312,134926,1,2,0:0:0:0:
405,344,135149,2,0,P|333:264|285:240,1,125.000000298023,8|0,0:0|0:0,0:0:0:0:
192,88,135593,2,0,P|216:152|280:208,1,125.000000298023,2|0,0:0|0:0,0:0:0:0:
408,88,136037,1,4,0:0:0:0:
320,256,136260,1,4,0:0:0:0:
136,272,136482,2,0,P|64:224|40:160,1,125.000000298023,2|0,0:0|0:0,0:0:0:0:
80,72,136926,6,0,P|256:96|352:168,1,250.000000596047,4|2,0:0|0:0,0:0:0:0:
408,224,137593,1,0,0:0:0:0:
312,304,137815,2,0,P|248:336|160:336,1,125.000000298023,4|0,0:0|0:0,0:0:0:0:
264,144,138260,2,0,B|336:96|416:88,1,125.000000298023,2|0,0:0|0:0,0:0:0:0:
232,224,138704,1,4,0:0:0:0:
120,288,138926,1,0,0:0:0:0:
120,160,139149,1,2,0:0:0:0:
232,224,139371,1,0,0:0:0:0:
376,120,139593,1,4,0:0:0:0:
272,48,139815,1,0,0:0:0:0:
280,176,140037,6,0,P|184:160|144:104,1,125.000000298023,2|0,0:0|0:0,0:0:0:0:
376,120,140482,2,0,P|448:192|392:320,1,250.000000596047,4|2,0:0|0:0,0:0:0:0:
256,104,141371,2,0,L|256:248,1,125.000000298023,4|0,0:0|0:0,0:0:0:0:
176,328,141815,2,0,P|104:280|80:240,2,125.000000298023,2|0|4,0:0|0:0|0:0,0:0:0:0:
304,336,142482,1,0,0:0:0:0:
360,304,142593,2,0,P|392:232|392:208,1,62.5000001490117
352,128,142926,1,0,0:0:0:0:
256,208,143149,1,0,0:0:0:0:
352,128,143371,1,0,0:0:0:0:
256,208,143593,1,2,0:0:0:0:
160,128,143815,1,0,0:0:0:0:
160,256,144037,6,0,P|216:288|416:264,1,250.000000596047,8|2,0:0|0:0,0:0:0:0:
280,232,144704,1,0,0:0:0:0:
136,184,144926,2,0,P|48:224|40:288,1,125.000000298023,8|0,0:0|0:0,0:0:0:0:
208,200,145371,2,0,P|273:113|332:92,1,125.000000298023,2|0,0:0|0:0,0:0:0:0:
232,296,145815,2,0,P|144:280|112:256,2,125.000000298023,8|0|2,0:0|0:0|0:0,0:0:0:0:
224,168,146482,1,0,0:0:0:0:
296,64,146704,1,8,0:0:0:0:
408,120,146926,1,0,0:0:0:0:
416,232,147149,2,0,P|344:288|264:312,1,125.000000298023
120,176,147593,5,4,0:0:0:0:
368,80,147815,1,4,0:0:0:0:
240,312,148037,1,4,0:0:0:0:
208,48,148260,1,4,0:0:0:0:
400,224,148482,1,4,0:0:0:0:
32,144,149149,2,0,P|112:96|168:88,1,125.000000298023,4|4,0:0|0:0,0:0:0:0:
248,320,149815,1,4,0:0:0:0:
400,208,150037,1,0,0:0:0:0:
384,152,150149,1,0,0:0:0:0:
336,120,150260,1,4,0:0:0:0:
248,320,150482,1,4,0:0:0:0:
160,152,150704,6,0,P|104:256|104:360,1,187.500007599593,4|0,0:0|0:0,0:0:0:0:
160,152,151149,2,0,P|264:96|367:95,1,187.500007599593,4|4,0:0|0:0,0:0:0:0:
160,24,151593,1,2,0:0:0:0:
16,104,151815,1,0,0:0:0:0:
272,216,152037,2,0,P|377:234|496:224,1,187.500007599593,4|4,0:0|0:0,0:0:0:0:
184,160,152482,1,2,0:0:0:0:
232,344,152704,1,0,0:0:0:0:
392,112,152926,2,4,P|336:48|208:72,1,187.500007599593
320,224,153371,1,2,0:0:0:0:
160,128,153593,5,0,0:0:0:0:
112,120,153704,1,0,0:0:0:0:
72,136,153815,1,4,0:0:0:0:
264,336,154037,1,0,0:0:0:0:
288,56,154260,1,2,0:0:0:0:
104,272,154482,1,0,0:0:0:0:
384,232,154704,6,4,P|296:160|216:136,1,187.500007599593
200,320,155149,1,2,0:0:0:0:
16,328,155371,1,0,0:0:0:0:
224,136,155593,2,0,P|416:107|479:120,1,187.500007599593,4|4,0:0|0:0,0:0:0:0:
128,56,156037,1,2,0:0:0:0:
160,240,156260,1,0,0:0:0:0:
407,106,156482,2,0,P|463:250|455:298,1,187.500007599593,4|4,0:0|0:0,0:0:0:0:
280,344,156926,1,0,0:0:0:0:
288,152,157149,5,0,0:0:0:0:
256,120,157260,1,0,0:0:0:0:
216,88,157371,2,0,P|176:80|88:184,1,187.500007599593,4|0,0:0|0:0,0:0:0:0:
200,328,157815,1,2,0:0:0:0:
352,216,158037,1,0,0:0:0:0:
200,328,158260,6,0,P|107:243|75:169,1,187.500007599593,4|4,0:0|0:0,0:0:0:0:
200,328,158704,1,2,0:0:0:0:
24,256,158926,1,0,0:0:0:0:
216,48,159149,2,0,P|368:88|400:128,1,187.500007599593,4|4,0:0|0:0,0:0:0:0:
200,128,159593,1,2,0:0:0:0:
336,256,159815,1,0,0:0:0:0:
168,192,160037,2,0,P|104:128|56:40,1,187.500007599593,4|4,0:0|0:0,0:0:0:0:
56,232,160482,1,2,0:0:0:0:
208,120,160704,6,0,P|264:88|312:72,2,93.7500037997964,0|0|4,0:0|0:0|0:0,0:0:0:0:
152,296,161149,1,0,0:0:0:0:
304,184,161371,1,2,0:0:0:0:
120,192,161593,1,0,0:0:0:0:
280,296,161815,6,0,P|376:216|424:104,1,187.500007599593,4|4,0:0|0:0,0:0:0:0:
224,208,162260,2,0,P|120:272|72:328,1,187.500007599593,2|0,0:0|0:0,0:0:0:0:
384,232,162704,1,4,0:0:0:0:
288,288,162926,1,4,0:0:0:0:
80,104,163149,1,2,0:0:0:0:
152,192,163371,1,0,0:0:0:0:
400,328,163593,1,4,0:0:0:0:
448,224,163815,1,4,0:0:0:0:
400,120,164037,1,2,0:0:0:0:
152,200,164260,6,0,P|128:216|88:288,2,93.7500037997964,0|0|4,0:0|0:0|0:0,0:0:0:0:
296,80,164704,1,0,0:0:0:0:
384,248,164926,1,2,0:0:0:0:
208,328,165149,1,0,0:0:0:0:
128,232,165371,6,0,P|149:122|251:60,1,187.500000447035,8|0,0:0|0:0,0:0:0:0:
256,48,165815,1,2,0:0:0:0:
256,48,166037,1,0,0:0:0:0:
384,232,166260,6,0,P|362:122|260:60,1,187.500000447035,4|0,0:0|0:0,0:0:0:0:
256,48,166704,1,2,0:0:0:0:
256,48,166926,1,0,0:0:0:0:
64,56,167149,5,8,0:0:0:0:
80,240,167371,1,0,0:0:0:0:
248,328,167593,1,2,0:0:0:0:
416,248,167815,1,0,0:0:0:0:
400,64,168037,2,0,P|368:160|304:224,1,187.500007599593,4|0,0:0|0:0,0:0:0:0:
368,112,168482,2,0,P|296:192|208:232,1,187.500007599593,2|0,0:0|0:0,0:0:0:0:
120,72,168926,5,8,0:0:0:0:
280,296,169260,2,0,P|392:312|416:304,1,93.7500037997964,0|2,0:0|0:0,0:0:0:0:
416,136,169593,1,0,0:0:0:0:
240,200,169815,1,4,0:0:0:0:
64,256,170037,1,0,0:0:0:0:
120,64,170260,2,0,B|272:64|272:64|352:144,1,187.500007599593,2|0,0:0|0:0,0:0:0:0:
472,152,170704,2,0,B|328:152|328:152|280:208,1,187.500007599593,8|0,0:0|0:0,0:0:0:0:
160,304,171149,2,0,P|240:336|360:312,1,187.500007599593,2|0,0:0|0:0,0:0:0:0:
392,288,171482,1,0,0:0:0:0:
432,240,171593,5,4,0:0:0:0:
328,80,171815,1,0,0:0:0:0:
304,264,172037,1,2,0:0:0:0:
440,128,172260,1,0,0:0:0:0:
304,256,172482,2,0,P|232:296|128:128,1,281.250011399389,8|0,0:0|0:0,0:0:0:0:
128,120,172926,5,2,0:0:0:0:
128,120,173149,1,0,0:0:0:0:
392,104,173371,2,0,P|472:208|400:320,1,281.250011399389,4|0,0:0|0:0,0:0:0:0:
344,312,173815,1,2,0:0:0:0:
344,312,174037,1,0,0:0:0:0:
336,152,174260,5,8,0:0:0:0:
184,40,174482,1,0,0:0:0:0:
72,192,174704,1,2,0:0:0:0:
224,304,174926,1,0,0:0:0:0:
336,152,175149,2,0,P|424:72|536:32,1,187.500007599593,4|0,0:0|0:0,0:0:0:0:
256,128,175593,2,0,P|192:184|176:320,1,187.500007599593,2|0,0:0|0:0,0:0:0:0:
304,80,176037,6,0,P|152:48|70:140,1,281.250011399389,8|0,0:0|0:0,0:0:0:0:
64,176,176482,2,0,P|88:272|192:320,2,187.500007599593,2|0|4,0:0|0:0|0:0,0:0:0:0:
248,224,177149,1,0,0:0:0:0:
432,272,177371,1,2,0:0:0:0:
368,96,177593,1,0,0:0:0:0:
256,192,177815,12,4,179593,0:0:0:0:
