osu file format v14

[General]
AudioFilename: audio.mp3
AudioLeadIn: 0
PreviewTime: 80048
Countdown: 0
SampleSet: None
StackLeniency: 0.7
Mode: 3
LetterboxInBreaks: 0
SpecialStyle: 0
WidescreenStoryboard: 1

[Editor]
DistanceSpacing: 1.4
BeatDivisor: 8
GridSize: 8
TimelineZoom: 2.600001

[Metadata]
Title:Milky Ways
TitleUnicode:Milky Ways
Artist:BOSSFIGHT
ArtistUnicode:BOSSFIGHT
Creator:Modren
Version:BOSSFIGHT (NSV)
Source:
Tags:
BeatmapID:1210981
BeatmapSetID:571410

[Difficulty]
HPDrainRate:8.5
CircleSize:9
OverallDifficulty:9
ApproachRate:5
SliderMultiplier:1.4
SliderTickRate:1

[Events]
//Background and Video events
0,0,"maxresdefault.jpg",0,0
//Break Periods
//Storyboard Layer 0 (Background)
//Storyboard Layer 1 (Fail)
//Storyboard Layer 2 (Pass)
//Storyboard Layer 3 (Foreground)
//Storyboard Sound Samples

[TimingPoints]
20,327.868852459016,4,2,0,5,1,0
15757,-100,4,2,0,5,0,1
36741,-100,4,2,0,5,0,0
57743,327.868852459016,4,2,0,5,1,0
80048,327.868852459016,4,2,0,5,1,0
80048,-100,4,2,0,5,0,1
101031,-100,4,2,0,5,0,0
158736,-100,4,2,0,5,0,1
179720,-100,4,2,0,5,0,0

[HitObjects]
28,192,20,5,0,0:0:0:0:
199,192,183,1,0,0:0:0:0:
483,192,347,1,0,0:0:0:0:
142,192,511,1,0,0:0:0:0:
426,192,675,1,0,0:0:0:0:
85,192,839,1,0,0:0:0:0:
369,192,1003,1,0,0:0:0:0:
28,192,1167,1,0,0:0:0:0:
312,192,1331,1,0,0:0:0:0:
85,192,1495,1,0,0:0:0:0:
256,192,1659,1,0,0:0:0:0:
426,192,1823,1,0,0:0:0:0:
199,192,1987,1,0,0:0:0:0:
369,192,2151,1,0,0:0:0:0:
142,192,2315,1,0,0:0:0:0:
312,192,2479,1,0,0:0:0:0:
85,192,2642,1,0,0:0:0:0:
256,192,2806,1,0,0:0:0:0:
483,192,2970,1,0,0:0:0:0:
142,192,3134,1,0,0:0:0:0:
369,192,3298,1,0,0:0:0:0:
28,192,3462,1,0,0:0:0:0:
426,192,3626,1,0,0:0:0:0:
199,192,3790,1,0,0:0:0:0:
312,192,3954,1,0,0:0:0:0:
85,192,4118,1,0,0:0:0:0:
256,192,4282,1,0,0:0:0:0:
426,192,4446,1,0,0:0:0:0:
142,192,4610,1,0,0:0:0:0:
369,192,4774,1,0,0:0:0:0:
199,192,4938,1,0,0:0:0:0:
312,192,5101,1,0,0:0:0:0:
85,192,5101,1,0,0:0:0:0:
28,192,5265,5,0,0:0:0:0:
369,192,5265,1,0,0:0:0:0:
199,192,5429,1,0,0:0:0:0:
483,192,5593,1,0,0:0:0:0:
312,192,5593,1,0,0:0:0:0:
142,192,5757,1,0,0:0:0:0:
426,192,5921,1,0,0:0:0:0:
256,192,5921,1,0,0:0:0:0:
85,192,6085,1,0,0:0:0:0:
369,192,6249,1,0,0:0:0:0:
199,192,6249,1,0,0:0:0:0:
28,192,6413,1,0,0:0:0:0:
312,192,6577,1,0,0:0:0:0:
142,192,6577,1,0,0:0:0:0:
85,192,6741,1,0,0:0:0:0:
256,192,6905,1,0,0:0:0:0:
369,192,6905,1,0,0:0:0:0:
426,192,7069,1,0,0:0:0:0:
199,192,7233,1,0,0:0:0:0:
312,192,7233,1,0,0:0:0:0:
369,192,7397,1,0,0:0:0:0:
142,192,7560,1,0,0:0:0:0:
256,192,7560,1,0,0:0:0:0:
312,192,7724,1,0,0:0:0:0:
85,192,7888,1,0,0:0:0:0:
199,192,7888,1,0,0:0:0:0:
256,192,8052,1,0,0:0:0:0:
483,192,8216,1,0,0:0:0:0:
28,192,8216,1,0,0:0:0:0:
142,192,8380,1,0,0:0:0:0:
369,192,8544,1,0,0:0:0:0:
199,192,8544,1,0,0:0:0:0:
28,192,8708,1,0,0:0:0:0:
426,192,8872,1,0,0:0:0:0:
312,192,8872,1,0,0:0:0:0:
199,192,9036,1,0,0:0:0:0:
312,192,9200,1,0,0:0:0:0:
483,192,9200,1,0,0:0:0:0:
85,192,9364,1,0,0:0:0:0:
369,192,9528,1,0,0:0:0:0:
199,192,9528,1,0,0:0:0:0:
426,192,9692,1,0,0:0:0:0:
256,192,9856,1,0,0:0:0:0:
85,192,9856,1,0,0:0:0:0:
483,192,10019,1,0,0:0:0:0:
199,192,10183,1,0,0:0:0:0:
28,192,10183,1,0,0:0:0:0:
426,192,10347,1,0,0:0:0:0:
28,192,10511,5,0,0:0:0:0:
256,192,10511,1,0,0:0:0:0:
199,192,10675,1,0,0:0:0:0:
483,192,10839,1,0,0:0:0:0:
256,192,10839,1,0,0:0:0:0:
142,192,11003,1,0,0:0:0:0:
426,192,11167,1,0,0:0:0:0:
256,192,11167,1,0,0:0:0:0:
85,192,11331,1,0,0:0:0:0:
369,192,11495,1,0,0:0:0:0:
256,192,11495,1,0,0:0:0:0:
28,192,11659,1,0,0:0:0:0:
312,192,11823,1,0,0:0:0:0:
483,192,11823,1,0,0:0:0:0:
85,192,11987,1,0,0:0:0:0:
256,192,12151,1,0,0:0:0:0:
28,192,12151,1,0,0:0:0:0:
426,192,12315,1,0,0:0:0:0:
199,192,12479,1,0,0:0:0:0:
483,192,12479,1,0,0:0:0:0:
369,192,12642,1,0,0:0:0:0:
142,192,12806,1,0,0:0:0:0:
28,192,12806,1,0,0:0:0:0:
312,192,12970,1,0,0:0:0:0:
85,192,13134,1,0,0:0:0:0:
199,192,13134,1,0,0:0:0:0:
256,192,13298,1,0,0:0:0:0:
483,192,13462,1,0,0:0:0:0:
312,192,13462,1,0,0:0:0:0:
142,192,13626,1,0,0:0:0:0:
369,192,13790,1,0,0:0:0:0:
199,192,13790,1,0,0:0:0:0:
28,192,13954,1,0,0:0:0:0:
426,192,14118,1,0,0:0:0:0:
312,192,14118,1,0,0:0:0:0:
199,192,14282,1,0,0:0:0:0:
142,192,14446,1,0,0:0:0:0:
369,192,14446,1,0,0:0:0:0:
256,192,14610,1,0,0:0:0:0:
28,192,14774,1,0,0:0:0:0:
142,192,14774,1,0,0:0:0:0:
369,192,14774,1,0,0:0:0:0:
483,192,14774,1,0,0:0:0:0:
256,192,14938,1,0,0:0:0:0:
199,192,15101,1,0,0:0:0:0:
312,192,15101,1,0,0:0:0:0:
85,192,15101,1,0,0:0:0:0:
426,192,15101,1,0,0:0:0:0:
199,192,15265,1,0,0:0:0:0:
312,192,15265,1,0,0:0:0:0:
142,192,15265,1,0,0:0:0:0:
369,192,15265,1,0,0:0:0:0:
199,192,15429,1,0,0:0:0:0:
312,192,15429,1,0,0:0:0:0:
85,192,15429,1,0,0:0:0:0:
426,192,15429,1,0,0:0:0:0:
199,192,15593,1,0,0:0:0:0:
312,192,15593,1,0,0:0:0:0:
142,192,15593,1,0,0:0:0:0:
369,192,15593,1,0,0:0:0:0:
256,192,15757,1,0,0:0:0:0:
28,192,15757,1,0,0:0:0:0:
483,192,15757,1,0,0:0:0:0:
369,192,15921,1,0,0:0:0:0:
312,192,15948,1,0,0:0:0:0:
142,192,16085,128,0,16249:0:0:0:0:
483,192,16085,1,0,0:0:0:0:
426,192,16085,1,0,0:0:0:0:
199,192,16249,1,0,0:0:0:0:
256,192,16276,1,0,0:0:0:0:
142,192,16413,128,0,17069:0:0:0:0:
85,192,16413,1,0,0:0:0:0:
426,192,16577,1,0,0:0:0:0:
483,192,16604,1,0,0:0:0:0:
312,192,16741,1,0,0:0:0:0:
199,192,16741,1,0,0:0:0:0:
426,192,16905,1,0,0:0:0:0:
369,192,16932,1,0,0:0:0:0:
256,192,17069,1,0,0:0:0:0:
85,192,17233,1,0,0:0:0:0:
312,192,17233,128,0,17315:0:0:0:0:
28,192,17260,1,0,0:0:0:0:
426,192,17397,128,0,17560:0:0:0:0:
199,192,17397,1,0,0:0:0:0:
369,192,17397,1,0,0:0:0:0:
142,192,17560,1,0,0:0:0:0:
85,192,17588,1,0,0:0:0:0:
426,192,17724,128,0,18380:0:0:0:0:
28,192,17724,1,0,0:0:0:0:
256,192,17888,1,0,0:0:0:0:
312,192,17916,1,0,0:0:0:0:
369,192,18052,1,0,0:0:0:0:
85,192,18052,1,0,0:0:0:0:
199,192,18216,1,0,0:0:0:0:
142,192,18216,1,0,0:0:0:0:
256,192,18244,1,0,0:0:0:0:
85,192,18298,1,0,0:0:0:0:
28,192,18380,1,0,0:0:0:0:
85,192,18544,128,0,18626:0:0:0:0:
312,192,18544,1,0,0:0:0:0:
369,192,18571,1,0,0:0:0:0:
199,192,18708,128,0,18872:0:0:0:0:
426,192,18708,1,0,0:0:0:0:
483,192,18708,1,0,0:0:0:0:
312,192,18872,128,0,18954:0:0:0:0:
85,192,18872,1,0,0:0:0:0:
28,192,18899,1,0,0:0:0:0:
199,192,19036,128,0,19200:0:0:0:0:
256,192,19036,1,0,0:0:0:0:
426,192,19200,1,0,0:0:0:0:
483,192,19227,1,0,0:0:0:0:
199,192,19364,128,0,19528:0:0:0:0:
28,192,19364,1,0,0:0:0:0:
369,192,19364,1,0,0:0:0:0:
312,192,19528,128,0,19692:0:0:0:0:
142,192,19528,1,0,0:0:0:0:
85,192,19555,1,0,0:0:0:0:
199,192,19692,128,0,19856:0:0:0:0:
256,192,19692,1,0,0:0:0:0:
426,192,19856,1,0,0:0:0:0:
369,192,19883,1,0,0:0:0:0:
312,192,19938,128,0,20101:0:0:0:0:
85,192,20019,1,0,0:0:0:0:
28,192,20019,1,0,0:0:0:0:
142,192,20183,128,0,20347:0:0:0:0:
256,192,20183,1,0,0:0:0:0:
199,192,20211,1,0,0:0:0:0:
28,192,20347,128,0,21167:0:0:0:0:
426,192,20347,1,0,0:0:0:0:
312,192,20511,1,0,0:0:0:0:
85,192,20511,1,0,0:0:0:0:
369,192,20539,1,0,0:0:0:0:
199,192,20593,1,0,0:0:0:0:
256,192,20675,1,0,0:0:0:0:
483,192,20675,1,0,0:0:0:0:
142,192,20839,1,0,0:0:0:0:
369,192,20839,1,0,0:0:0:0:
199,192,20866,1,0,0:0:0:0:
312,192,20921,1,0,0:0:0:0:
256,192,21003,1,0,0:0:0:0:
426,192,21167,1,0,0:0:0:0:
369,192,21194,1,0,0:0:0:0:
85,192,21331,128,0,21495:0:0:0:0:
142,192,21331,128,0,21495:0:0:0:0:
199,192,21331,1,0,0:0:0:0:
483,192,21331,1,0,0:0:0:0:
312,192,21495,1,0,0:0:0:0:
256,192,21522,1,0,0:0:0:0:
85,192,21659,128,0,21823:0:0:0:0:
142,192,21659,128,0,21823:0:0:0:0:
426,192,21659,1,0,0:0:0:0:
199,192,21823,1,0,0:0:0:0:
256,192,21850,1,0,0:0:0:0:
369,192,21987,128,0,22151:0:0:0:0:
426,192,21987,128,0,22151:0:0:0:0:
312,192,21987,1,0,0:0:0:0:
28,192,21987,1,0,0:0:0:0:
85,192,22151,1,0,0:0:0:0:
142,192,22178,1,0,0:0:0:0:
369,192,22315,128,0,22642:0:0:0:0:
426,192,22315,128,0,22642:0:0:0:0:
256,192,22315,1,0,0:0:0:0:
142,192,22479,1,0,0:0:0:0:
85,192,22506,1,0,0:0:0:0:
199,192,22642,1,0,0:0:0:0:
312,192,22642,1,0,0:0:0:0:
256,192,22806,128,0,22970:0:0:0:0:
369,192,22806,1,0,0:0:0:0:
426,192,22834,1,0,0:0:0:0:
28,192,22970,128,0,23134:0:0:0:0:
142,192,22970,128,0,23134:0:0:0:0:
199,192,22970,1,0,0:0:0:0:
369,192,23134,1,0,0:0:0:0:
483,192,23162,1,0,0:0:0:0:
199,192,23216,128,0,23380:0:0:0:0:
312,192,23216,128,0,23380:0:0:0:0:
426,192,23298,1,0,0:0:0:0:
85,192,23298,1,0,0:0:0:0:
369,192,23462,128,0,23790:0:0:0:0:
483,192,23462,128,0,23790:0:0:0:0:
142,192,23462,1,0,0:0:0:0:
256,192,23462,1,0,0:0:0:0:
28,192,23489,1,0,0:0:0:0:
312,192,23544,1,0,0:0:0:0:
199,192,23626,1,0,0:0:0:0:
256,192,23790,128,0,23954:0:0:0:0:
28,192,23790,1,0,0:0:0:0:
85,192,23817,1,0,0:0:0:0:
312,192,23954,128,0,24118:0:0:0:0:
426,192,23954,128,0,24118:0:0:0:0:
142,192,23954,1,0,0:0:0:0:
199,192,23954,1,0,0:0:0:0:
85,192,24118,1,0,0:0:0:0:
28,192,24145,1,0,0:0:0:0:
426,192,24282,128,0,24446:0:0:0:0:
312,192,24282,128,0,24446:0:0:0:0:
256,192,24282,1,0,0:0:0:0:
85,192,24446,1,0,0:0:0:0:
142,192,24473,1,0,0:0:0:0:
199,192,24610,128,0,24774:0:0:0:0:
256,192,24610,128,0,24774:0:0:0:0:
369,192,24610,1,0,0:0:0:0:
426,192,24610,1,0,0:0:0:0:
142,192,24774,1,0,0:0:0:0:
312,192,24774,128,0,24938:0:0:0:0:
483,192,24774,128,0,24938:0:0:0:0:
85,192,24801,1,0,0:0:0:0:
199,192,24938,128,0,25101:0:0:0:0:
256,192,24938,128,0,25101:0:0:0:0:
28,192,24938,1,0,0:0:0:0:
312,192,25101,1,0,0:0:0:0:
369,192,25129,1,0,0:0:0:0:
426,192,25183,128,0,25347:0:0:0:0:
483,192,25183,128,0,25347:0:0:0:0:
142,192,25265,1,0,0:0:0:0:
199,192,25265,1,0,0:0:0:0:
85,192,25429,128,0,25593:0:0:0:0:
28,192,25429,128,0,25593:0:0:0:0:
256,192,25429,1,0,0:0:0:0:
369,192,25457,1,0,0:0:0:0:
199,192,25593,128,0,26577:0:0:0:0:
312,192,25593,128,0,26577:0:0:0:0:
483,192,25593,1,0,0:0:0:0:
369,192,25757,1,0,0:0:0:0:
142,192,25757,1,0,0:0:0:0:
426,192,25785,1,0,0:0:0:0:
85,192,25839,1,0,0:0:0:0:
483,192,25921,1,0,0:0:0:0:
28,192,25921,1,0,0:0:0:0:
142,192,26085,1,0,0:0:0:0:
369,192,26085,1,0,0:0:0:0:
85,192,26112,1,0,0:0:0:0:
426,192,26167,1,0,0:0:0:0:
28,192,26249,1,0,0:0:0:0:
256,192,26249,1,0,0:0:0:0:
483,192,26249,1,0,0:0:0:0:
426,192,26413,1,0,0:0:0:0:
369,192,26440,1,0,0:0:0:0:
85,192,26577,128,0,26741:0:0:0:0:
142,192,26577,1,0,0:0:0:0:
256,192,26577,1,0,0:0:0:0:
426,192,26741,1,0,0:0:0:0:
483,192,26768,1,0,0:0:0:0:
85,192,26905,128,0,27560:0:0:0:0:
312,192,26905,1,0,0:0:0:0:
256,192,27069,1,0,0:0:0:0:
199,192,27096,1,0,0:0:0:0:
312,192,27233,1,0,0:0:0:0:
483,192,27233,1,0,0:0:0:0:
199,192,27397,1,0,0:0:0:0:
142,192,27424,1,0,0:0:0:0:
369,192,27560,1,0,0:0:0:0:
28,192,27724,1,0,0:0:0:0:
312,192,27724,128,0,27806:0:0:0:0:
142,192,27752,1,0,0:0:0:0:
369,192,27888,128,0,28052:0:0:0:0:
256,192,27888,1,0,0:0:0:0:
85,192,27888,1,0,0:0:0:0:
312,192,28052,1,0,0:0:0:0:
199,192,28080,1,0,0:0:0:0:
369,192,28216,128,0,28872:0:0:0:0:
426,192,28216,1,0,0:0:0:0:
28,192,28380,1,0,0:0:0:0:
142,192,28407,1,0,0:0:0:0:
85,192,28544,1,0,0:0:0:0:
256,192,28544,1,0,0:0:0:0:
312,192,28708,1,0,0:0:0:0:
28,192,28708,1,0,0:0:0:0:
199,192,28735,1,0,0:0:0:0:
142,192,28790,1,0,0:0:0:0:
256,192,28872,1,0,0:0:0:0:
142,192,29036,128,0,29118:0:0:0:0:
369,192,29036,1,0,0:0:0:0:
426,192,29063,1,0,0:0:0:0:
199,192,29200,128,0,29364:0:0:0:0:
28,192,29200,1,0,0:0:0:0:
85,192,29200,1,0,0:0:0:0:
426,192,29336,1,0,0:0:0:0:
312,192,29364,128,0,29446:0:0:0:0:
483,192,29364,1,0,0:0:0:0:
199,192,29528,128,0,29692:0:0:0:0:
256,192,29528,1,0,0:0:0:0:
142,192,29692,1,0,0:0:0:0:
85,192,29719,1,0,0:0:0:0:
199,192,29856,128,0,30019:0:0:0:0:
426,192,29856,1,0,0:0:0:0:
483,192,29856,1,0,0:0:0:0:
312,192,30019,128,0,30183:0:0:0:0:
85,192,30019,1,0,0:0:0:0:
28,192,30047,1,0,0:0:0:0:
199,192,30183,128,0,30347:0:0:0:0:
256,192,30183,1,0,0:0:0:0:
28,192,30347,1,0,0:0:0:0:
142,192,30375,1,0,0:0:0:0:
312,192,30429,128,0,30593:0:0:0:0:
426,192,30511,1,0,0:0:0:0:
483,192,30511,1,0,0:0:0:0:
369,192,30675,128,0,30839:0:0:0:0:
199,192,30675,1,0,0:0:0:0:
85,192,30703,1,0,0:0:0:0:
483,192,30839,128,0,31659:0:0:0:0:
426,192,30839,128,0,31659:0:0:0:0:
142,192,30839,1,0,0:0:0:0:
369,192,31003,1,0,0:0:0:0:
312,192,31003,1,0,0:0:0:0:
256,192,31030,1,0,0:0:0:0:
142,192,31085,1,0,0:0:0:0:
28,192,31167,1,0,0:0:0:0:
85,192,31167,1,0,0:0:0:0:
256,192,31331,1,0,0:0:0:0:
142,192,31331,1,0,0:0:0:0:
199,192,31358,1,0,0:0:0:0:
312,192,31413,1,0,0:0:0:0:
369,192,31495,1,0,0:0:0:0:
256,192,31659,1,0,0:0:0:0:
312,192,31686,1,0,0:0:0:0:
28,192,31823,128,0,31987:0:0:0:0:
85,192,31823,128,0,31987:0:0:0:0:
142,192,31823,1,0,0:0:0:0:
199,192,31823,1,0,0:0:0:0:
426,192,31987,1,0,0:0:0:0:
369,192,32014,1,0,0:0:0:0:
28,192,32151,128,0,32356:0:0:0:0:
85,192,32151,128,0,32315:0:0:0:0:
483,192,32151,1,0,0:0:0:0:
312,192,32315,1,0,0:0:0:0:
256,192,32342,1,0,0:0:0:0:
142,192,32479,128,0,32642:0:0:0:0:
199,192,32479,128,0,32642:0:0:0:0:
426,192,32479,1,0,0:0:0:0:
483,192,32479,1,0,0:0:0:0:
312,192,32642,1,0,0:0:0:0:
369,192,32670,1,0,0:0:0:0:
142,192,32806,128,0,33011:0:0:0:0:
199,192,32806,128,0,32970:0:0:0:0:
28,192,32806,1,0,0:0:0:0:
369,192,32970,1,0,0:0:0:0:
312,192,32998,1,0,0:0:0:0:
426,192,33134,1,0,0:0:0:0:
85,192,33134,1,0,0:0:0:0:
142,192,33298,1,0,0:0:0:0:
199,192,33326,1,0,0:0:0:0:
28,192,33462,128,0,33626:0:0:0:0:
256,192,33462,128,0,33626:0:0:0:0:
312,192,33462,1,0,0:0:0:0:
426,192,33626,1,0,0:0:0:0:
483,192,33653,1,0,0:0:0:0:
142,192,33708,128,0,33872:0:0:0:0:
369,192,33708,128,0,33872:0:0:0:0:
312,192,33790,1,0,0:0:0:0:
199,192,33790,1,0,0:0:0:0:
256,192,33954,128,0,34282:0:0:0:0:
483,192,33954,128,0,34282:0:0:0:0:
85,192,33954,1,0,0:0:0:0:
426,192,33954,1,0,0:0:0:0:
28,192,33981,1,0,0:0:0:0:
312,192,34036,1,0,0:0:0:0:
199,192,34118,1,0,0:0:0:0:
142,192,34282,128,0,34446:0:0:0:0:
28,192,34282,128,0,34446:0:0:0:0:
369,192,34282,1,0,0:0:0:0:
426,192,34309,1,0,0:0:0:0:
199,192,34446,128,0,34610:0:0:0:0:
312,192,34446,128,0,34610:0:0:0:0:
85,192,34446,1,0,0:0:0:0:
256,192,34446,1,0,0:0:0:0:
426,192,34610,1,0,0:0:0:0:
483,192,34637,1,0,0:0:0:0:
199,192,34774,128,0,34938:0:0:0:0:
312,192,34774,128,0,34938:0:0:0:0:
28,192,34774,1,0,0:0:0:0:
142,192,34938,1,0,0:0:0:0:
85,192,34965,1,0,0:0:0:0:
199,192,35101,128,0,35265:0:0:0:0:
312,192,35101,128,0,35265:0:0:0:0:
256,192,35101,1,0,0:0:0:0:
483,192,35101,1,0,0:0:0:0:
142,192,35265,128,0,35429:0:0:0:0:
369,192,35265,128,0,35429:0:0:0:0:
85,192,35265,1,0,0:0:0:0:
426,192,35265,1,0,0:0:0:0:
28,192,35293,1,0,0:0:0:0:
199,192,35429,128,0,35593:0:0:0:0:
312,192,35429,128,0,35593:0:0:0:0:
256,192,35429,1,0,0:0:0:0:
85,192,35429,1,0,0:0:0:0:
426,192,35429,1,0,0:0:0:0:
142,192,35675,128,0,35839:0:0:0:0:
369,192,35675,128,0,35839:0:0:0:0:
256,192,35675,1,0,0:0:0:0:
28,192,35675,1,0,0:0:0:0:
483,192,35675,1,0,0:0:0:0:
85,192,35921,128,0,36085:0:0:0:0:
426,192,35921,128,0,36085:0:0:0:0:
199,192,35921,1,0,0:0:0:0:
256,192,35921,1,0,0:0:0:0:
312,192,35921,1,0,0:0:0:0:
28,192,36085,128,0,36741:0:0:0:0:
483,192,36085,128,0,36741:0:0:0:0:
142,192,36085,1,0,0:0:0:0:
256,192,36085,1,0,0:0:0:0:
199,192,36126,1,0,0:0:0:0:
369,192,36167,1,0,0:0:0:0:
312,192,36208,1,0,0:0:0:0:
142,192,36249,1,0,0:0:0:0:
199,192,36290,1,0,0:0:0:0:
369,192,36331,1,0,0:0:0:0:
312,192,36372,1,0,0:0:0:0:
142,192,36413,1,0,0:0:0:0:
199,192,36454,1,0,0:0:0:0:
369,192,36495,1,0,0:0:0:0:
312,192,36536,1,0,0:0:0:0:
142,192,36577,1,0,0:0:0:0:
199,192,36618,1,0,0:0:0:0:
369,192,36659,1,0,0:0:0:0:
312,192,36700,1,0,0:0:0:0:
85,192,36741,128,0,36823:0:0:0:0:
256,192,36741,1,0,0:0:0:0:
199,192,36905,128,0,36987:0:0:0:0:
426,192,37069,128,0,37151:0:0:0:0:
28,192,37069,1,0,0:0:0:0:
85,192,37069,1,0,0:0:0:0:
312,192,37233,128,0,37315:0:0:0:0:
256,192,37397,128,0,38052:0:0:0:0:
483,192,37397,128,0,37479:0:0:0:0:
199,192,37397,1,0,0:0:0:0:
28,192,37560,128,0,37642:0:0:0:0:
142,192,37724,128,0,37806:0:0:0:0:
483,192,37724,1,0,0:0:0:0:
426,192,37724,1,0,0:0:0:0:
369,192,37888,128,0,37970:0:0:0:0:
199,192,38052,128,0,38708:0:0:0:0:
85,192,38052,128,0,38134:0:0:0:0:
312,192,38052,1,0,0:0:0:0:
426,192,38216,128,0,38298:0:0:0:0:
312,192,38380,128,0,38462:0:0:0:0:
28,192,38380,1,0,0:0:0:0:
85,192,38380,1,0,0:0:0:0:
483,192,38544,128,0,38626:0:0:0:0:
256,192,38708,128,0,39200:0:0:0:0:
369,192,38708,128,0,38790:0:0:0:0:
142,192,38708,1,0,0:0:0:0:
28,192,38872,128,0,38954:0:0:0:0:
312,192,39036,128,0,39118:0:0:0:0:
426,192,39036,1,0,0:0:0:0:
483,192,39036,1,0,0:0:0:0:
142,192,39200,128,0,40019:0:0:0:0:
28,192,39200,128,0,39282:0:0:0:0:
199,192,39200,1,0,0:0:0:0:
312,192,39282,1,0,0:0:0:0:
483,192,39364,128,0,39446:0:0:0:0:
369,192,39364,1,0,0:0:0:0:
426,192,39528,128,0,39610:0:0:0:0:
369,192,39692,128,0,39774:0:0:0:0:
199,192,39692,1,0,0:0:0:0:
85,192,39692,1,0,0:0:0:0:
312,192,39856,128,0,39938:0:0:0:0:
256,192,40019,128,0,40675:0:0:0:0:
28,192,40019,128,0,40101:0:0:0:0:
199,192,40019,1,0,0:0:0:0:
142,192,40183,128,0,40265:0:0:0:0:
28,192,40347,128,0,40429:0:0:0:0:
369,192,40347,1,0,0:0:0:0:
483,192,40347,1,0,0:0:0:0:
142,192,40511,128,0,40593:0:0:0:0:
199,192,40675,128,0,41331:0:0:0:0:
312,192,40675,128,0,40757:0:0:0:0:
85,192,40675,1,0,0:0:0:0:
369,192,40839,128,0,40921:0:0:0:0:
483,192,41003,128,0,41085:0:0:0:0:
28,192,41003,1,0,0:0:0:0:
142,192,41003,1,0,0:0:0:0:
426,192,41167,128,0,41249:0:0:0:0:
256,192,41331,128,0,41495:0:0:0:0:
85,192,41331,128,0,41413:0:0:0:0:
312,192,41331,1,0,0:0:0:0:
142,192,41495,128,0,41577:0:0:0:0:
483,192,41495,1,0,0:0:0:0:
426,192,41577,1,0,0:0:0:0:
85,192,41659,128,0,41741:0:0:0:0:
369,192,41659,1,0,0:0:0:0:
199,192,41659,1,0,0:0:0:0:
256,192,41659,1,0,0:0:0:0:
256,192,41823,128,0,42560:0:0:0:0:
28,192,41823,128,0,41905:0:0:0:0:
312,192,41823,1,0,0:0:0:0:
369,192,41905,1,0,0:0:0:0:
142,192,41987,128,0,42069:0:0:0:0:
426,192,41987,1,0,0:0:0:0:
199,192,42151,128,0,42233:0:0:0:0:
369,192,42315,128,0,42397:0:0:0:0:
28,192,42315,1,0,0:0:0:0:
85,192,42315,1,0,0:0:0:0:
312,192,42479,128,0,42560:0:0:0:0:
256,192,42642,128,0,43298:0:0:0:0:
426,192,42642,128,0,42724:0:0:0:0:
142,192,42642,1,0,0:0:0:0:
85,192,42806,128,0,42888:0:0:0:0:
199,192,42970,128,0,43052:0:0:0:0:
369,192,42970,1,0,0:0:0:0:
483,192,42970,1,0,0:0:0:0:
312,192,43134,128,0,43216:0:0:0:0:
199,192,43298,128,0,43954:0:0:0:0:
28,192,43298,128,0,43380:0:0:0:0:
426,192,43298,1,0,0:0:0:0:
369,192,43462,128,0,43544:0:0:0:0:
142,192,43626,128,0,43708:0:0:0:0:
312,192,43626,1,0,0:0:0:0:
85,192,43626,1,0,0:0:0:0:
483,192,43790,128,0,43872:0:0:0:0:
256,192,43954,128,0,44446:0:0:0:0:
426,192,43954,128,0,44036:0:0:0:0:
142,192,43954,1,0,0:0:0:0:
85,192,44118,128,0,44200:0:0:0:0:
312,192,44118,1,0,0:0:0:0:
369,192,44200,1,0,0:0:0:0:
199,192,44282,128,0,44364:0:0:0:0:
426,192,44282,1,0,0:0:0:0:
483,192,44282,1,0,0:0:0:0:
312,192,44446,128,0,45265:0:0:0:0:
85,192,44446,128,0,44528:0:0:0:0:
369,192,44446,1,0,0:0:0:0:
199,192,44528,1,0,0:0:0:0:
483,192,44610,128,0,44692:0:0:0:0:
28,192,44610,1,0,0:0:0:0:
369,192,44774,128,0,44856:0:0:0:0:
199,192,44938,128,0,45019:0:0:0:0:
85,192,44938,1,0,0:0:0:0:
426,192,44938,1,0,0:0:0:0:
28,192,45101,128,0,45183:0:0:0:0:
369,192,45265,128,0,45921:0:0:0:0:
85,192,45265,128,0,45347:0:0:0:0:
256,192,45265,1,0,0:0:0:0:
199,192,45429,128,0,45511:0:0:0:0:
85,192,45593,128,0,45675:0:0:0:0:
142,192,45593,1,0,0:0:0:0:
426,192,45593,1,0,0:0:0:0:
199,192,45757,128,0,45839:0:0:0:0:
483,192,45921,128,0,46577:0:0:0:0:
28,192,45921,128,0,46003:0:0:0:0:
142,192,45921,1,0,0:0:0:0:
312,192,46085,128,0,46167:0:0:0:0:
85,192,46249,128,0,46331:0:0:0:0:
199,192,46249,1,0,0:0:0:0:
369,192,46249,1,0,0:0:0:0:
256,192,46413,128,0,46495:0:0:0:0:
426,192,46577,128,0,47888:0:0:0:0:
142,192,46577,128,0,46659:0:0:0:0:
199,192,46577,1,0,0:0:0:0:
312,192,46741,128,0,46823:0:0:0:0:
85,192,46741,1,0,0:0:0:0:
256,192,46823,1,0,0:0:0:0:
199,192,46905,128,0,46987:0:0:0:0:
28,192,46905,1,0,0:0:0:0:
369,192,46905,1,0,0:0:0:0:
85,192,47069,128,0,47151:0:0:0:0:
312,192,47069,1,0,0:0:0:0:
199,192,47151,1,0,0:0:0:0:
142,192,47233,1,0,0:0:0:0:
256,192,47233,1,0,0:0:0:0:
369,192,47233,1,0,0:0:0:0:
28,192,47233,128,0,47315:0:0:0:0:
312,192,47397,128,0,47479:0:0:0:0:
199,192,47560,128,0,47642:0:0:0:0:
85,192,47560,1,0,0:0:0:0:
142,192,47560,1,0,0:0:0:0:
28,192,47724,128,0,47806:0:0:0:0:
312,192,47888,128,0,48380:0:0:0:0:
369,192,47888,128,0,48380:0:0:0:0:
199,192,47888,128,0,47970:0:0:0:0:
256,192,47888,1,0,0:0:0:0:
85,192,48052,128,0,48134:0:0:0:0:
199,192,48216,128,0,48298:0:0:0:0:
28,192,48216,1,0,0:0:0:0:
483,192,48216,1,0,0:0:0:0:
426,192,48380,128,0,48462:0:0:0:0:
142,192,48544,128,0,49200:0:0:0:0:
199,192,48544,128,0,49200:0:0:0:0:
256,192,48544,128,0,48626:0:0:0:0:
85,192,48544,1,0,0:0:0:0:
483,192,48708,128,0,48790:0:0:0:0:
256,192,48872,128,0,48954:0:0:0:0:
312,192,48872,1,0,0:0:0:0:
426,192,48872,1,0,0:0:0:0:
483,192,49036,128,0,49118:0:0:0:0:
312,192,49200,128,0,49692:0:0:0:0:
369,192,49200,128,0,49692:0:0:0:0:
28,192,49200,128,0,49282:0:0:0:0:
85,192,49200,1,0,0:0:0:0:
199,192,49364,128,0,49446:0:0:0:0:
256,192,49528,128,0,49610:0:0:0:0:
426,192,49528,1,0,0:0:0:0:
483,192,49528,1,0,0:0:0:0:
85,192,49692,128,0,50429:0:0:0:0:
142,192,49692,128,0,50429:0:0:0:0:
28,192,49692,128,0,49774:0:0:0:0:
483,192,49856,128,0,49938:0:0:0:0:
199,192,49856,1,0,0:0:0:0:
369,192,50019,128,0,50101:0:0:0:0:
256,192,50183,128,0,50265:0:0:0:0:
426,192,50183,1,0,0:0:0:0:
483,192,50183,1,0,0:0:0:0:
199,192,50347,128,0,50429:0:0:0:0:
312,192,50511,128,0,51167:0:0:0:0:
369,192,50511,128,0,51167:0:0:0:0:
256,192,50511,128,0,50593:0:0:0:0:
483,192,50511,1,0,0:0:0:0:
28,192,50675,128,0,50757:0:0:0:0:
142,192,50839,128,0,50921:0:0:0:0:
199,192,50839,1,0,0:0:0:0:
426,192,50839,1,0,0:0:0:0:
256,192,51003,128,0,51085:0:0:0:0:
142,192,51167,128,0,51823:0:0:0:0:
199,192,51167,128,0,51823:0:0:0:0:
85,192,51167,128,0,51249:0:0:0:0:
483,192,51167,1,0,0:0:0:0:
256,192,51331,128,0,51413:0:0:0:0:
426,192,51495,128,0,51577:0:0:0:0:
28,192,51495,1,0,0:0:0:0:
312,192,51495,1,0,0:0:0:0:
256,192,51659,128,0,51741:0:0:0:0:
312,192,51823,128,0,51987:0:0:0:0:
369,192,51823,128,0,51987:0:0:0:0:
28,192,51823,128,0,51905:0:0:0:0:
483,192,51823,1,0,0:0:0:0:
256,192,51987,128,0,52069:0:0:0:0:
312,192,52151,1,0,0:0:0:0:
369,192,52151,1,0,0:0:0:0:
142,192,52151,128,0,52233:0:0:0:0:
28,192,52151,1,0,0:0:0:0:
312,192,52315,128,0,52970:0:0:0:0:
369,192,52315,128,0,52970:0:0:0:0:
28,192,52315,128,0,52397:0:0:0:0:
256,192,52479,1,0,0:0:0:0:
142,192,52479,128,0,52560:0:0:0:0:
426,192,52642,128,0,52724:0:0:0:0:
256,192,52806,128,0,52888:0:0:0:0:
28,192,52806,1,0,0:0:0:0:
199,192,52806,1,0,0:0:0:0:
85,192,52970,128,0,53052:0:0:0:0:
312,192,53134,128,0,53790:0:0:0:0:
369,192,53134,128,0,53790:0:0:0:0:
199,192,53134,128,0,53216:0:0:0:0:
256,192,53134,1,0,0:0:0:0:
28,192,53298,128,0,53380:0:0:0:0:
142,192,53462,128,0,53544:0:0:0:0:
85,192,53462,1,0,0:0:0:0:
426,192,53462,1,0,0:0:0:0:
256,192,53626,128,0,53708:0:0:0:0:
28,192,53790,128,0,54446:0:0:0:0:
85,192,53790,128,0,54446:0:0:0:0:
426,192,53790,128,0,53872:0:0:0:0:
142,192,53790,1,0,0:0:0:0:
256,192,53954,128,0,54036:0:0:0:0:
426,192,54118,128,0,54200:0:0:0:0:
199,192,54118,1,0,0:0:0:0:
369,192,54118,1,0,0:0:0:0:
312,192,54282,128,0,54364:0:0:0:0:
142,192,54446,128,0,54938:0:0:0:0:
199,192,54446,128,0,54938:0:0:0:0:
483,192,54446,128,0,54528:0:0:0:0:
369,192,54446,1,0,0:0:0:0:
256,192,54610,128,0,54692:0:0:0:0:
426,192,54774,128,0,54856:0:0:0:0:
85,192,54774,1,0,0:0:0:0:
369,192,54774,1,0,0:0:0:0:
256,192,54938,128,0,55757:0:0:0:0:
312,192,54938,128,0,55757:0:0:0:0:
28,192,54938,128,0,55019:0:0:0:0:
483,192,55101,128,0,55183:0:0:0:0:
85,192,55101,1,0,0:0:0:0:
369,192,55265,128,0,55347:0:0:0:0:
142,192,55429,128,0,55511:0:0:0:0:
199,192,55429,1,0,0:0:0:0:
426,192,55429,1,0,0:0:0:0:
28,192,55593,128,0,55675:0:0:0:0:
369,192,55757,128,0,56413:0:0:0:0:
426,192,55757,128,0,56413:0:0:0:0:
85,192,55757,128,0,55839:0:0:0:0:
483,192,55757,1,0,0:0:0:0:
199,192,55921,128,0,56003:0:0:0:0:
85,192,56085,128,0,56167:0:0:0:0:
142,192,56085,1,0,0:0:0:0:
312,192,56085,1,0,0:0:0:0:
199,192,56249,128,0,56331:0:0:0:0:
312,192,56413,128,0,57069:0:0:0:0:
483,192,56413,128,0,57069:0:0:0:0:
28,192,56413,128,0,56495:0:0:0:0:
85,192,56413,1,0,0:0:0:0:
256,192,56577,128,0,56659:0:0:0:0:
142,192,56741,128,0,56823:0:0:0:0:
85,192,56741,1,0,0:0:0:0:
199,192,56741,1,0,0:0:0:0:
369,192,56905,128,0,56987:0:0:0:0:
28,192,57069,128,0,57743:0:0:0:0:
199,192,57069,128,0,57743:0:0:0:0:
256,192,57069,128,0,57151:0:0:0:0:
142,192,57069,1,0,0:0:0:0:
426,192,57233,128,0,57315:0:0:0:0:
256,192,57397,128,0,57479:0:0:0:0:
312,192,57397,1,0,0:0:0:0:
369,192,57397,1,0,0:0:0:0:
85,192,57560,128,0,57642:0:0:0:0:
256,192,57743,1,0,0:0:0:0:
256,192,57906,1,0,0:0:0:0:
199,192,58070,1,0,0:0:0:0:
312,192,58070,1,0,0:0:0:0:
312,192,58234,1,0,0:0:0:0:
199,192,58234,1,0,0:0:0:0:
369,192,58398,1,0,0:0:0:0:
142,192,58398,1,0,0:0:0:0:
142,192,58562,1,0,0:0:0:0:
369,192,58562,1,0,0:0:0:0:
85,192,58726,1,0,0:0:0:0:
426,192,58726,1,0,0:0:0:0:
426,192,58890,1,0,0:0:0:0:
85,192,58890,1,0,0:0:0:0:
199,192,59054,1,0,0:0:0:0:
483,192,59054,1,0,0:0:0:0:
199,192,59218,1,0,0:0:0:0:
483,192,59218,1,0,0:0:0:0:
199,192,59382,1,0,0:0:0:0:
483,192,59382,1,0,0:0:0:0:
256,192,59382,1,0,0:0:0:0:
199,192,59546,1,0,0:0:0:0:
483,192,59546,1,0,0:0:0:0:
199,192,59710,1,0,0:0:0:0:
483,192,59710,1,0,0:0:0:0:
199,192,59874,1,0,0:0:0:0:
483,192,59874,1,0,0:0:0:0:
199,192,60038,1,0,0:0:0:0:
483,192,60038,1,0,0:0:0:0:
256,192,60038,1,0,0:0:0:0:
199,192,60202,1,0,0:0:0:0:
483,192,60202,1,0,0:0:0:0:
142,192,60365,1,0,0:0:0:0:
426,192,60365,1,0,0:0:0:0:
142,192,60529,1,0,0:0:0:0:
426,192,60529,1,0,0:0:0:0:
142,192,60693,1,0,0:0:0:0:
426,192,60693,1,0,0:0:0:0:
256,192,60693,1,0,0:0:0:0:
142,192,60857,1,0,0:0:0:0:
426,192,60857,1,0,0:0:0:0:
142,192,61021,1,0,0:0:0:0:
426,192,61021,1,0,0:0:0:0:
142,192,61185,1,0,0:0:0:0:
426,192,61185,1,0,0:0:0:0:
142,192,61349,1,0,0:0:0:0:
426,192,61349,1,0,0:0:0:0:
256,192,61349,1,0,0:0:0:0:
142,192,61513,1,0,0:0:0:0:
426,192,61513,1,0,0:0:0:0:
85,192,61677,1,0,0:0:0:0:
369,192,61677,1,0,0:0:0:0:
85,192,61841,1,0,0:0:0:0:
369,192,61841,1,0,0:0:0:0:
85,192,62005,1,0,0:0:0:0:
369,192,62005,1,0,0:0:0:0:
256,192,62005,1,0,0:0:0:0:
85,192,62169,1,0,0:0:0:0:
369,192,62169,1,0,0:0:0:0:
85,192,62333,1,0,0:0:0:0:
369,192,62333,1,0,0:0:0:0:
85,192,62497,1,0,0:0:0:0:
369,192,62497,1,0,0:0:0:0:
85,192,62661,1,0,0:0:0:0:
369,192,62661,1,0,0:0:0:0:
256,192,62661,1,0,0:0:0:0:
85,192,62824,1,0,0:0:0:0:
369,192,62824,1,0,0:0:0:0:
28,192,62988,1,0,0:0:0:0:
312,192,62988,1,0,0:0:0:0:
28,192,63152,1,0,0:0:0:0:
312,192,63152,1,0,0:0:0:0:
28,192,63316,1,0,0:0:0:0:
312,192,63316,1,0,0:0:0:0:
256,192,63316,1,0,0:0:0:0:
28,192,63480,1,0,0:0:0:0:
312,192,63480,1,0,0:0:0:0:
28,192,63644,1,0,0:0:0:0:
312,192,63644,1,0,0:0:0:0:
28,192,63808,1,0,0:0:0:0:
312,192,63808,1,0,0:0:0:0:
28,192,63972,1,0,0:0:0:0:
312,192,63972,1,0,0:0:0:0:
256,192,63972,1,0,0:0:0:0:
28,192,64136,1,0,0:0:0:0:
312,192,64136,1,0,0:0:0:0:
256,192,64136,1,0,0:0:0:0:
369,192,64300,1,0,0:0:0:0:
85,192,64300,1,0,0:0:0:0:
426,192,64464,1,0,0:0:0:0:
142,192,64464,1,0,0:0:0:0:
85,192,64628,1,0,0:0:0:0:
369,192,64628,1,0,0:0:0:0:
256,192,64628,1,0,0:0:0:0:
142,192,64792,1,0,0:0:0:0:
426,192,64792,1,0,0:0:0:0:
85,192,64956,1,0,0:0:0:0:
369,192,64956,1,0,0:0:0:0:
142,192,65120,1,0,0:0:0:0:
426,192,65120,1,0,0:0:0:0:
85,192,65283,1,0,0:0:0:0:
369,192,65283,1,0,0:0:0:0:
256,192,65283,1,0,0:0:0:0:
426,192,65447,1,0,0:0:0:0:
142,192,65447,1,0,0:0:0:0:
28,192,65611,1,0,0:0:0:0:
312,192,65611,1,0,0:0:0:0:
199,192,65775,1,0,0:0:0:0:
483,192,65775,1,0,0:0:0:0:
28,192,65939,1,0,0:0:0:0:
312,192,65939,1,0,0:0:0:0:
256,192,65939,1,0,0:0:0:0:
199,192,66103,1,0,0:0:0:0:
483,192,66103,1,0,0:0:0:0:
28,192,66267,1,0,0:0:0:0:
312,192,66267,1,0,0:0:0:0:
199,192,66431,1,0,0:0:0:0:
483,192,66431,1,0,0:0:0:0:
28,192,66595,1,0,0:0:0:0:
312,192,66595,1,0,0:0:0:0:
256,192,66595,1,0,0:0:0:0:
199,192,66759,1,0,0:0:0:0:
483,192,66759,1,0,0:0:0:0:
85,192,66923,1,0,0:0:0:0:
426,192,66923,1,0,0:0:0:0:
199,192,67087,1,0,0:0:0:0:
312,192,67087,1,0,0:0:0:0:
85,192,67251,1,0,0:0:0:0:
426,192,67251,1,0,0:0:0:0:
256,192,67251,1,0,0:0:0:0:
199,192,67415,1,0,0:0:0:0:
312,192,67415,1,0,0:0:0:0:
85,192,67579,1,0,0:0:0:0:
426,192,67579,1,0,0:0:0:0:
199,192,67742,1,0,0:0:0:0:
312,192,67742,1,0,0:0:0:0:
85,192,67906,1,0,0:0:0:0:
426,192,67906,1,0,0:0:0:0:
256,192,67906,1,0,0:0:0:0:
199,192,68070,1,0,0:0:0:0:
312,192,68070,1,0,0:0:0:0:
28,192,68234,1,0,0:0:0:0:
483,192,68234,1,0,0:0:0:0:
142,192,68398,1,0,0:0:0:0:
369,192,68398,1,0,0:0:0:0:
426,192,68562,128,0,68644:0:0:0:0:
85,192,68562,128,0,68644:0:0:0:0:
199,192,68726,128,0,68808:0:0:0:0:
312,192,68726,128,0,68808:0:0:0:0:
426,192,68890,128,0,69054:0:0:0:0:
85,192,68890,128,0,69054:0:0:0:0:
369,192,69054,128,0,69218:0:0:0:0:
142,192,69054,128,0,69218:0:0:0:0:
28,192,69218,128,0,69382:0:0:0:0:
483,192,69218,128,0,69382:0:0:0:0:
312,192,69382,128,0,69546:0:0:0:0:
199,192,69382,128,0,69546:0:0:0:0:
28,192,69546,1,0,0:0:0:0:
142,192,69546,1,0,0:0:0:0:
256,192,69546,1,0,0:0:0:0:
28,192,69710,1,0,0:0:0:0:
142,192,69710,1,0,0:0:0:0:
312,192,69710,1,0,0:0:0:0:
28,192,69874,1,0,0:0:0:0:
142,192,69874,1,0,0:0:0:0:
483,192,69874,1,0,0:0:0:0:
369,192,69874,1,0,0:0:0:0:
28,192,70038,1,0,0:0:0:0:
142,192,70038,1,0,0:0:0:0:
312,192,70038,1,0,0:0:0:0:
28,192,70202,1,0,0:0:0:0:
142,192,70202,1,0,0:0:0:0:
256,192,70202,1,0,0:0:0:0:
28,192,70365,1,0,0:0:0:0:
142,192,70365,1,0,0:0:0:0:
312,192,70365,1,0,0:0:0:0:
28,192,70529,1,0,0:0:0:0:
142,192,70529,1,0,0:0:0:0:
369,192,70529,1,0,0:0:0:0:
483,192,70529,1,0,0:0:0:0:
28,192,70693,1,0,0:0:0:0:
142,192,70693,1,0,0:0:0:0:
312,192,70693,1,0,0:0:0:0:
369,192,70857,1,0,0:0:0:0:
483,192,70857,1,0,0:0:0:0:
256,192,70857,1,0,0:0:0:0:
369,192,71021,1,0,0:0:0:0:
483,192,71021,1,0,0:0:0:0:
199,192,71021,1,0,0:0:0:0:
369,192,71185,1,0,0:0:0:0:
483,192,71185,1,0,0:0:0:0:
28,192,71185,1,0,0:0:0:0:
142,192,71185,1,0,0:0:0:0:
369,192,71349,1,0,0:0:0:0:
483,192,71349,1,0,0:0:0:0:
199,192,71349,1,0,0:0:0:0:
369,192,71513,1,0,0:0:0:0:
483,192,71513,1,0,0:0:0:0:
256,192,71513,1,0,0:0:0:0:
369,192,71677,1,0,0:0:0:0:
483,192,71677,1,0,0:0:0:0:
199,192,71677,1,0,0:0:0:0:
369,192,71841,1,0,0:0:0:0:
28,192,71841,1,0,0:0:0:0:
142,192,71841,1,0,0:0:0:0:
483,192,71841,1,0,0:0:0:0:
369,192,72005,1,0,0:0:0:0:
483,192,72005,1,0,0:0:0:0:
199,192,72005,1,0,0:0:0:0:
28,192,72169,1,0,0:0:0:0:
85,192,72169,1,0,0:0:0:0:
256,192,72169,1,0,0:0:0:0:
28,192,72333,1,0,0:0:0:0:
85,192,72333,1,0,0:0:0:0:
312,192,72333,1,0,0:0:0:0:
28,192,72497,1,0,0:0:0:0:
85,192,72497,1,0,0:0:0:0:
369,192,72497,1,0,0:0:0:0:
483,192,72497,1,0,0:0:0:0:
28,192,72661,1,0,0:0:0:0:
85,192,72661,1,0,0:0:0:0:
312,192,72661,1,0,0:0:0:0:
28,192,72824,1,0,0:0:0:0:
85,192,72824,1,0,0:0:0:0:
256,192,72824,1,0,0:0:0:0:
28,192,72988,1,0,0:0:0:0:
85,192,72988,1,0,0:0:0:0:
312,192,72988,1,0,0:0:0:0:
28,192,73152,1,0,0:0:0:0:
85,192,73152,1,0,0:0:0:0:
369,192,73152,1,0,0:0:0:0:
483,192,73152,1,0,0:0:0:0:
28,192,73316,1,0,0:0:0:0:
85,192,73316,1,0,0:0:0:0:
312,192,73316,1,0,0:0:0:0:
256,192,73480,1,0,0:0:0:0:
426,192,73480,1,0,0:0:0:0:
483,192,73480,1,0,0:0:0:0:
426,192,73644,1,0,0:0:0:0:
483,192,73644,1,0,0:0:0:0:
199,192,73644,1,0,0:0:0:0:
426,192,73808,1,0,0:0:0:0:
483,192,73808,1,0,0:0:0:0:
28,192,73808,1,0,0:0:0:0:
142,192,73808,1,0,0:0:0:0:
426,192,73972,1,0,0:0:0:0:
483,192,73972,1,0,0:0:0:0:
199,192,73972,1,0,0:0:0:0:
426,192,74136,1,0,0:0:0:0:
483,192,74136,1,0,0:0:0:0:
256,192,74136,1,0,0:0:0:0:
426,192,74300,1,0,0:0:0:0:
483,192,74300,1,0,0:0:0:0:
199,192,74300,1,0,0:0:0:0:
426,192,74464,1,0,0:0:0:0:
483,192,74464,1,0,0:0:0:0:
28,192,74464,1,0,0:0:0:0:
142,192,74464,1,0,0:0:0:0:
199,192,74628,1,0,0:0:0:0:
483,192,74628,1,0,0:0:0:0:
426,192,74628,1,0,0:0:0:0:
142,192,74792,1,0,0:0:0:0:
256,192,74792,1,0,0:0:0:0:
369,192,74792,1,0,0:0:0:0:
28,192,74956,1,0,0:0:0:0:
483,192,74956,1,0,0:0:0:0:
85,192,75120,1,0,0:0:0:0:
142,192,75120,1,0,0:0:0:0:
426,192,75120,1,0,0:0:0:0:
369,192,75120,1,0,0:0:0:0:
28,192,75283,1,0,0:0:0:0:
256,192,75283,1,0,0:0:0:0:
483,192,75283,1,0,0:0:0:0:
199,192,75447,1,0,0:0:0:0:
312,192,75447,1,0,0:0:0:0:
28,192,75611,1,0,0:0:0:0:
483,192,75611,1,0,0:0:0:0:
256,192,75611,1,0,0:0:0:0:
142,192,75775,1,0,0:0:0:0:
369,192,75775,1,0,0:0:0:0:
199,192,75775,1,0,0:0:0:0:
312,192,75775,1,0,0:0:0:0:
28,192,75939,1,0,0:0:0:0:
483,192,75939,1,0,0:0:0:0:
256,192,75939,1,0,0:0:0:0:
199,192,76103,1,0,0:0:0:0:
312,192,76103,1,0,0:0:0:0:
369,192,76267,1,0,0:0:0:0:
142,192,76267,1,0,0:0:0:0:
256,192,76267,1,0,0:0:0:0:
199,192,76431,1,0,0:0:0:0:
312,192,76431,1,0,0:0:0:0:
28,192,76431,1,0,0:0:0:0:
483,192,76431,1,0,0:0:0:0:
85,192,76595,1,0,0:0:0:0:
426,192,76595,1,0,0:0:0:0:
256,192,76595,1,0,0:0:0:0:
199,192,76759,1,0,0:0:0:0:
312,192,76759,1,0,0:0:0:0:
28,192,76923,1,0,0:0:0:0:
483,192,76923,1,0,0:0:0:0:
256,192,76923,1,0,0:0:0:0:
142,192,77087,1,0,0:0:0:0:
199,192,77087,1,0,0:0:0:0:
312,192,77087,1,0,0:0:0:0:
369,192,77087,1,0,0:0:0:0:
426,192,77251,1,0,0:0:0:0:
256,192,77251,1,0,0:0:0:0:
85,192,77251,1,0,0:0:0:0:
28,192,77251,1,0,0:0:0:0:
28,192,77415,1,0,0:0:0:0:
312,192,77415,1,0,0:0:0:0:
256,192,77415,128,0,79382:0:0:0:0:
85,192,77579,1,0,0:0:0:0:
369,192,77579,1,0,0:0:0:0:
142,192,77742,1,0,0:0:0:0:
426,192,77742,1,0,0:0:0:0:
199,192,77906,1,0,0:0:0:0:
483,192,77906,1,0,0:0:0:0:
483,192,78070,1,0,0:0:0:0:
199,192,78070,1,0,0:0:0:0:
426,192,78234,1,0,0:0:0:0:
142,192,78234,1,0,0:0:0:0:
369,192,78398,1,0,0:0:0:0:
85,192,78398,1,0,0:0:0:0:
28,192,78562,1,0,0:0:0:0:
312,192,78562,1,0,0:0:0:0:
369,192,78726,1,0,0:0:0:0:
142,192,78726,1,0,0:0:0:0:
199,192,78890,1,0,0:0:0:0:
312,192,78890,1,0,0:0:0:0:
28,192,79054,1,0,0:0:0:0:
142,192,79054,1,0,0:0:0:0:
369,192,79054,1,0,0:0:0:0:
483,192,79054,1,0,0:0:0:0:
85,192,79218,1,0,0:0:0:0:
426,192,79218,1,0,0:0:0:0:
28,192,79382,1,0,0:0:0:0:
85,192,79382,1,0,0:0:0:0:
142,192,79382,1,0,0:0:0:0:
426,192,79464,1,0,0:0:0:0:
483,192,79464,1,0,0:0:0:0:
369,192,79464,1,0,0:0:0:0:
28,192,79546,1,0,0:0:0:0:
85,192,79546,1,0,0:0:0:0:
142,192,79546,1,0,0:0:0:0:
426,192,79628,1,0,0:0:0:0:
483,192,79628,1,0,0:0:0:0:
369,192,79628,1,0,0:0:0:0:
28,192,79710,1,0,0:0:0:0:
85,192,79710,1,0,0:0:0:0:
142,192,79710,1,0,0:0:0:0:
256,192,79710,128,0,80211:0:0:0:0:
426,192,79792,1,0,0:0:0:0:
483,192,79792,1,0,0:0:0:0:
369,192,79792,1,0,0:0:0:0:
28,192,79874,1,0,0:0:0:0:
85,192,79874,1,0,0:0:0:0:
142,192,79874,1,0,0:0:0:0:
426,192,79956,1,0,0:0:0:0:
483,192,79956,1,0,0:0:0:0:
369,192,79956,1,0,0:0:0:0:
85,192,80048,1,0,0:0:0:0:
199,192,80048,1,0,0:0:0:0:
142,192,80048,1,0,0:0:0:0:
312,192,80211,1,0,0:0:0:0:
426,192,80239,1,0,0:0:0:0:
142,192,80375,1,0,0:0:0:0:
369,192,80375,1,0,0:0:0:0:
28,192,80375,128,0,80539:0:0:0:0:
483,192,80457,1,0,0:0:0:0:
199,192,80539,1,0,0:0:0:0:
312,192,80567,1,0,0:0:0:0:
85,192,80703,1,0,0:0:0:0:
256,192,80703,1,0,0:0:0:0:
28,192,80703,128,0,81359:0:0:0:0:
369,192,80785,1,0,0:0:0:0:
199,192,80867,1,0,0:0:0:0:
483,192,80867,1,0,0:0:0:0:
142,192,80949,1,0,0:0:0:0:
85,192,81031,1,0,0:0:0:0:
426,192,81031,1,0,0:0:0:0:
256,192,81031,1,0,0:0:0:0:
369,192,81113,1,0,0:0:0:0:
312,192,81195,1,0,0:0:0:0:
483,192,81195,1,0,0:0:0:0:
369,192,81277,1,0,0:0:0:0:
256,192,81359,1,0,0:0:0:0:
426,192,81523,1,0,0:0:0:0:
199,192,81523,128,0,81687:0:0:0:0:
312,192,81550,1,0,0:0:0:0:
28,192,81687,1,0,0:0:0:0:
483,192,81687,1,0,0:0:0:0:
369,192,81687,128,0,81851:0:0:0:0:
312,192,81851,1,0,0:0:0:0:
85,192,81892,1,0,0:0:0:0:
426,192,82015,1,0,0:0:0:0:
256,192,82015,1,0,0:0:0:0:
369,192,82015,128,0,82670:0:0:0:0:
142,192,82097,1,0,0:0:0:0:
312,192,82179,1,0,0:0:0:0:
28,192,82179,1,0,0:0:0:0:
256,192,82261,1,0,0:0:0:0:
483,192,82343,1,0,0:0:0:0:
28,192,82343,1,0,0:0:0:0:
199,192,82343,1,0,0:0:0:0:
142,192,82425,1,0,0:0:0:0:
256,192,82507,1,0,0:0:0:0:
85,192,82507,1,0,0:0:0:0:
312,192,82507,1,0,0:0:0:0:
28,192,82588,1,0,0:0:0:0:
199,192,82588,1,0,0:0:0:0:
142,192,82670,1,0,0:0:0:0:
85,192,82834,128,0,82916:0:0:0:0:
426,192,82834,1,0,0:0:0:0:
483,192,82862,1,0,0:0:0:0:
142,192,82998,128,0,83162:0:0:0:0:
199,192,82998,1,0,0:0:0:0:
312,192,82998,1,0,0:0:0:0:
369,192,83162,128,0,83244:0:0:0:0:
85,192,83162,1,0,0:0:0:0:
28,192,83190,1,0,0:0:0:0:
142,192,83326,128,0,83490:0:0:0:0:
483,192,83326,1,0,0:0:0:0:
312,192,83326,1,0,0:0:0:0:
199,192,83408,1,0,0:0:0:0:
85,192,83490,1,0,0:0:0:0:
426,192,83490,1,0,0:0:0:0:
199,192,83572,1,0,0:0:0:0:
142,192,83654,128,0,83818:0:0:0:0:
483,192,83654,1,0,0:0:0:0:
256,192,83654,1,0,0:0:0:0:
28,192,83654,1,0,0:0:0:0:
312,192,83736,1,0,0:0:0:0:
369,192,83818,128,0,83982:0:0:0:0:
426,192,83818,1,0,0:0:0:0:
85,192,83818,1,0,0:0:0:0:
312,192,83900,1,0,0:0:0:0:
142,192,83982,128,0,84146:0:0:0:0:
199,192,83982,1,0,0:0:0:0:
312,192,84146,1,0,0:0:0:0:
426,192,84173,1,0,0:0:0:0:
369,192,84228,128,0,84392:0:0:0:0:
199,192,84310,1,0,0:0:0:0:
85,192,84310,1,0,0:0:0:0:
312,192,84474,128,0,84638:0:0:0:0:
142,192,84474,1,0,0:0:0:0:
28,192,84501,1,0,0:0:0:0:
199,192,84638,128,0,85457:0:0:0:0:
483,192,84638,1,0,0:0:0:0:
85,192,84638,1,0,0:0:0:0:
369,192,84720,1,0,0:0:0:0:
256,192,84802,1,0,0:0:0:0:
312,192,84802,1,0,0:0:0:0:
142,192,84884,1,0,0:0:0:0:
369,192,84884,1,0,0:0:0:0:
28,192,84966,1,0,0:0:0:0:
483,192,84966,1,0,0:0:0:0:
85,192,84966,1,0,0:0:0:0:
369,192,85048,1,0,0:0:0:0:
312,192,85129,1,0,0:0:0:0:
256,192,85129,1,0,0:0:0:0:
483,192,85211,1,0,0:0:0:0:
142,192,85211,1,0,0:0:0:0:
28,192,85293,1,0,0:0:0:0:
369,192,85457,1,0,0:0:0:0:
256,192,85457,1,0,0:0:0:0:
483,192,85485,1,0,0:0:0:0:
312,192,85621,128,0,85785:0:0:0:0:
85,192,85621,1,0,0:0:0:0:
426,192,85621,1,0,0:0:0:0:
142,192,85785,1,0,0:0:0:0:
28,192,85813,1,0,0:0:0:0:
312,192,85949,128,0,86113:0:0:0:0:
256,192,85949,1,0,0:0:0:0:
85,192,85949,1,0,0:0:0:0:
142,192,86031,1,0,0:0:0:0:
199,192,86113,1,0,0:0:0:0:
369,192,86113,1,0,0:0:0:0:
256,192,86195,1,0,0:0:0:0:
426,192,86277,128,0,86441:0:0:0:0:
28,192,86277,1,0,0:0:0:0:
312,192,86277,1,0,0:0:0:0:
142,192,86277,1,0,0:0:0:0:
256,192,86359,1,0,0:0:0:0:
199,192,86441,1,0,0:0:0:0:
369,192,86441,1,0,0:0:0:0:
142,192,86523,1,0,0:0:0:0:
426,192,86605,128,0,86933:0:0:0:0:
85,192,86605,1,0,0:0:0:0:
256,192,86769,1,0,0:0:0:0:
312,192,86796,1,0,0:0:0:0:
199,192,86933,1,0,0:0:0:0:
369,192,86933,1,0,0:0:0:0:
28,192,87097,128,0,87261:0:0:0:0:
312,192,87097,1,0,0:0:0:0:
256,192,87124,1,0,0:0:0:0:
142,192,87261,128,0,87425:0:0:0:0:
483,192,87261,1,0,0:0:0:0:
199,192,87261,1,0,0:0:0:0:
426,192,87343,1,0,0:0:0:0:
369,192,87425,1,0,0:0:0:0:
85,192,87425,1,0,0:0:0:0:
256,192,87507,128,0,87670:0:0:0:0:
312,192,87507,1,0,0:0:0:0:
483,192,87588,1,0,0:0:0:0:
28,192,87588,1,0,0:0:0:0:
199,192,87588,1,0,0:0:0:0:
85,192,87670,1,0,0:0:0:0:
369,192,87752,128,0,88080:0:0:0:0:
142,192,87752,1,0,0:0:0:0:
426,192,87752,1,0,0:0:0:0:
312,192,87752,1,0,0:0:0:0:
199,192,87834,1,0,0:0:0:0:
256,192,87834,1,0,0:0:0:0:
28,192,87916,1,0,0:0:0:0:
142,192,87916,1,0,0:0:0:0:
85,192,88080,128,0,88244:0:0:0:0:
483,192,88080,1,0,0:0:0:0:
426,192,88108,1,0,0:0:0:0:
256,192,88244,128,0,88408:0:0:0:0:
199,192,88244,1,0,0:0:0:0:
312,192,88244,1,0,0:0:0:0:
28,192,88408,1,0,0:0:0:0:
85,192,88435,1,0,0:0:0:0:
256,192,88572,128,0,88736:0:0:0:0:
483,192,88572,1,0,0:0:0:0:
142,192,88572,1,0,0:0:0:0:
369,192,88654,1,0,0:0:0:0:
85,192,88736,1,0,0:0:0:0:
312,192,88736,1,0,0:0:0:0:
426,192,88818,1,0,0:0:0:0:
142,192,88900,128,0,89064:0:0:0:0:
199,192,88900,1,0,0:0:0:0:
312,192,88900,1,0,0:0:0:0:
28,192,88900,1,0,0:0:0:0:
483,192,88982,1,0,0:0:0:0:
369,192,89064,128,0,89228:0:0:0:0:
426,192,89064,1,0,0:0:0:0:
199,192,89064,1,0,0:0:0:0:
85,192,89146,1,0,0:0:0:0:
142,192,89228,128,0,89392:0:0:0:0:
28,192,89228,1,0,0:0:0:0:
199,192,89392,1,0,0:0:0:0:
312,192,89419,1,0,0:0:0:0:
426,192,89474,128,0,89638:0:0:0:0:
85,192,89556,1,0,0:0:0:0:
369,192,89556,1,0,0:0:0:0:
256,192,89720,128,0,89884:0:0:0:0:
312,192,89720,1,0,0:0:0:0:
199,192,89747,1,0,0:0:0:0:
85,192,89884,128,0,90867:0:0:0:0:
426,192,89884,1,0,0:0:0:0:
142,192,89884,1,0,0:0:0:0:
312,192,89966,1,0,0:0:0:0:
199,192,90047,1,0,0:0:0:0:
369,192,90047,1,0,0:0:0:0:
483,192,90047,1,0,0:0:0:0:
312,192,90129,1,0,0:0:0:0:
142,192,90129,1,0,0:0:0:0:
426,192,90211,1,0,0:0:0:0:
256,192,90211,1,0,0:0:0:0:
28,192,90211,1,0,0:0:0:0:
312,192,90293,1,0,0:0:0:0:
369,192,90375,1,0,0:0:0:0:
199,192,90375,1,0,0:0:0:0:
142,192,90375,1,0,0:0:0:0:
256,192,90457,1,0,0:0:0:0:
426,192,90457,1,0,0:0:0:0:
312,192,90539,1,0,0:0:0:0:
483,192,90539,1,0,0:0:0:0:
28,192,90539,1,0,0:0:0:0:
199,192,90703,1,0,0:0:0:0:
369,192,90731,1,0,0:0:0:0:
142,192,90867,128,0,91031:0:0:0:0:
256,192,90867,1,0,0:0:0:0:
426,192,90867,1,0,0:0:0:0:
483,192,91031,1,0,0:0:0:0:
369,192,91058,1,0,0:0:0:0:
142,192,91195,128,0,91851:0:0:0:0:
312,192,91195,1,0,0:0:0:0:
199,192,91195,1,0,0:0:0:0:
256,192,91277,1,0,0:0:0:0:
369,192,91359,1,0,0:0:0:0:
28,192,91359,1,0,0:0:0:0:
483,192,91441,1,0,0:0:0:0:
199,192,91523,1,0,0:0:0:0:
256,192,91523,1,0,0:0:0:0:
85,192,91523,1,0,0:0:0:0:
369,192,91605,1,0,0:0:0:0:
483,192,91687,1,0,0:0:0:0:
28,192,91687,1,0,0:0:0:0:
256,192,91769,1,0,0:0:0:0:
312,192,91851,1,0,0:0:0:0:
256,192,92015,128,0,92179:0:0:0:0:
85,192,92015,1,0,0:0:0:0:
142,192,92042,1,0,0:0:0:0:
369,192,92179,128,0,92343:0:0:0:0:
28,192,92179,1,0,0:0:0:0:
199,192,92179,1,0,0:0:0:0:
312,192,92343,1,0,0:0:0:0:
256,192,92370,1,0,0:0:0:0:
369,192,92507,128,0,93162:0:0:0:0:
28,192,92507,1,0,0:0:0:0:
199,192,92507,1,0,0:0:0:0:
85,192,92588,1,0,0:0:0:0:
142,192,92670,1,0,0:0:0:0:
312,192,92670,1,0,0:0:0:0:
199,192,92752,1,0,0:0:0:0:
85,192,92834,1,0,0:0:0:0:
256,192,92834,1,0,0:0:0:0:
483,192,92834,1,0,0:0:0:0:
199,192,92916,1,0,0:0:0:0:
312,192,92998,1,0,0:0:0:0:
142,192,92998,1,0,0:0:0:0:
426,192,92998,1,0,0:0:0:0:
256,192,93080,1,0,0:0:0:0:
85,192,93080,1,0,0:0:0:0:
199,192,93162,1,0,0:0:0:0:
28,192,93162,1,0,0:0:0:0:
28,192,93326,128,0,93408:0:0:0:0:
312,192,93326,1,0,0:0:0:0:
369,192,93354,1,0,0:0:0:0:
199,192,93490,128,0,93654:0:0:0:0:
256,192,93490,1,0,0:0:0:0:
426,192,93490,1,0,0:0:0:0:
312,192,93654,128,0,93736:0:0:0:0:
142,192,93654,1,0,0:0:0:0:
28,192,93681,1,0,0:0:0:0:
199,192,93818,128,0,93982:0:0:0:0:
483,192,93818,1,0,0:0:0:0:
426,192,93818,1,0,0:0:0:0:
28,192,93900,1,0,0:0:0:0:
369,192,93982,1,0,0:0:0:0:
256,192,93982,1,0,0:0:0:0:
142,192,94064,1,0,0:0:0:0:
199,192,94146,128,0,94310:0:0:0:0:
85,192,94146,1,0,0:0:0:0:
426,192,94146,1,0,0:0:0:0:
483,192,94146,1,0,0:0:0:0:
28,192,94228,1,0,0:0:0:0:
312,192,94310,128,0,94474:0:0:0:0:
369,192,94310,1,0,0:0:0:0:
256,192,94310,1,0,0:0:0:0:
142,192,94392,1,0,0:0:0:0:
199,192,94474,128,0,94638:0:0:0:0:
483,192,94474,1,0,0:0:0:0:
28,192,94638,1,0,0:0:0:0:
85,192,94665,1,0,0:0:0:0:
312,192,94720,128,0,94884:0:0:0:0:
142,192,94802,1,0,0:0:0:0:
369,192,94802,1,0,0:0:0:0:
256,192,94966,128,0,95129:0:0:0:0:
199,192,94966,1,0,0:0:0:0:
85,192,94993,1,0,0:0:0:0:
426,192,95129,128,0,95949:0:0:0:0:
483,192,95129,1,0,0:0:0:0:
142,192,95129,1,0,0:0:0:0:
199,192,95211,1,0,0:0:0:0:
28,192,95293,1,0,0:0:0:0:
256,192,95293,1,0,0:0:0:0:
142,192,95293,1,0,0:0:0:0:
85,192,95375,1,0,0:0:0:0:
312,192,95375,1,0,0:0:0:0:
142,192,95457,1,0,0:0:0:0:
369,192,95457,1,0,0:0:0:0:
256,192,95457,1,0,0:0:0:0:
312,192,95539,1,0,0:0:0:0:
369,192,95621,1,0,0:0:0:0:
199,192,95621,1,0,0:0:0:0:
28,192,95621,1,0,0:0:0:0:
312,192,95703,1,0,0:0:0:0:
142,192,95703,1,0,0:0:0:0:
256,192,95785,1,0,0:0:0:0:
85,192,95785,1,0,0:0:0:0:
199,192,95949,1,0,0:0:0:0:
369,192,95976,1,0,0:0:0:0:
142,192,96113,128,0,96277:0:0:0:0:
85,192,96113,1,0,0:0:0:0:
312,192,96113,1,0,0:0:0:0:
426,192,96277,1,0,0:0:0:0:
483,192,96304,1,0,0:0:0:0:
142,192,96441,128,0,96605:0:0:0:0:
312,192,96441,1,0,0:0:0:0:
369,192,96441,1,0,0:0:0:0:
256,192,96523,1,0,0:0:0:0:
199,192,96605,1,0,0:0:0:0:
483,192,96605,1,0,0:0:0:0:
85,192,96687,1,0,0:0:0:0:
369,192,96769,128,0,96933:0:0:0:0:
256,192,96769,1,0,0:0:0:0:
426,192,96769,1,0,0:0:0:0:
28,192,96769,1,0,0:0:0:0:
199,192,96851,1,0,0:0:0:0:
142,192,96933,1,0,0:0:0:0:
483,192,96933,1,0,0:0:0:0:
85,192,97015,1,0,0:0:0:0:
369,192,97097,128,0,97261:0:0:0:0:
28,192,97097,1,0,0:0:0:0:
199,192,97261,1,0,0:0:0:0:
256,192,97288,1,0,0:0:0:0:
142,192,97425,1,0,0:0:0:0:
312,192,97425,1,0,0:0:0:0:
85,192,97588,128,0,97752:0:0:0:0:
426,192,97588,1,0,0:0:0:0:
369,192,97616,1,0,0:0:0:0:
199,192,97752,128,0,97916:0:0:0:0:
483,192,97752,1,0,0:0:0:0:
312,192,97752,1,0,0:0:0:0:
369,192,97834,1,0,0:0:0:0:
426,192,97916,1,0,0:0:0:0:
142,192,97916,1,0,0:0:0:0:
312,192,97998,128,0,98162:0:0:0:0:
256,192,97998,1,0,0:0:0:0:
85,192,98080,1,0,0:0:0:0:
28,192,98080,1,0,0:0:0:0:
369,192,98080,1,0,0:0:0:0:
142,192,98162,1,0,0:0:0:0:
426,192,98244,128,0,98572:0:0:0:0:
199,192,98244,1,0,0:0:0:0:
85,192,98244,1,0,0:0:0:0:
483,192,98244,1,0,0:0:0:0:
256,192,98326,1,0,0:0:0:0:
142,192,98326,1,0,0:0:0:0:
312,192,98408,1,0,0:0:0:0:
199,192,98408,1,0,0:0:0:0:
142,192,98572,128,0,98736:0:0:0:0:
85,192,98572,1,0,0:0:0:0:
28,192,98599,1,0,0:0:0:0:
256,192,98736,128,0,98900:0:0:0:0:
369,192,98736,1,0,0:0:0:0:
483,192,98736,1,0,0:0:0:0:
312,192,98900,1,0,0:0:0:0:
426,192,98927,1,0,0:0:0:0:
256,192,99064,128,0,99228:0:0:0:0:
85,192,99064,1,0,0:0:0:0:
199,192,99228,1,0,0:0:0:0:
312,192,99255,1,0,0:0:0:0:
28,192,99392,128,0,99556:0:0:0:0:
426,192,99392,1,0,0:0:0:0:
483,192,99392,1,0,0:0:0:0:
256,192,99556,128,0,99720:0:0:0:0:
312,192,99556,1,0,0:0:0:0:
369,192,99556,1,0,0:0:0:0:
199,192,99556,1,0,0:0:0:0:
85,192,99583,1,0,0:0:0:0:
142,192,99720,128,0,99884:0:0:0:0:
426,192,99720,1,0,0:0:0:0:
483,192,99720,1,0,0:0:0:0:
256,192,99966,128,0,100129:0:0:0:0:
312,192,99966,1,0,0:0:0:0:
369,192,99966,1,0,0:0:0:0:
369,192,100211,128,0,100375:0:0:0:0:
142,192,100211,1,0,0:0:0:0:
199,192,100211,1,0,0:0:0:0:
483,192,100375,128,0,101195:0:0:0:0:
28,192,100375,1,0,0:0:0:0:
85,192,100375,1,0,0:0:0:0:
369,192,101031,128,0,103326:0:0:0:0:
28,192,101031,1,0,0:0:0:0:
142,192,101195,1,0,0:0:0:0:
312,192,101359,1,0,0:0:0:0:
142,192,101523,1,0,0:0:0:0:
312,192,101687,1,0,0:0:0:0:
85,192,101851,1,0,0:0:0:0:
312,192,102015,1,0,0:0:0:0:
28,192,102179,1,0,0:0:0:0:
199,192,102343,1,0,0:0:0:0:
28,192,102507,1,0,0:0:0:0:
199,192,102670,1,0,0:0:0:0:
312,192,102834,1,0,0:0:0:0:
199,192,102998,1,0,0:0:0:0:
426,192,103162,1,0,0:0:0:0:
483,192,103326,1,0,0:0:0:0:
312,192,103490,1,0,0:0:0:0:
256,192,103654,128,0,104966:0:0:0:0:
199,192,103654,1,0,0:0:0:0:
142,192,103818,1,0,0:0:0:0:
312,192,103982,1,0,0:0:0:0:
142,192,104146,1,0,0:0:0:0:
426,192,104310,1,0,0:0:0:0:
28,192,104474,1,0,0:0:0:0:
426,192,104638,1,0,0:0:0:0:
28,192,104802,1,0,0:0:0:0:
142,192,104966,128,0,106277:0:0:0:0:
85,192,104966,1,0,0:0:0:0:
199,192,105129,1,0,0:0:0:0:
426,192,105293,1,0,0:0:0:0:
256,192,105457,1,0,0:0:0:0:
369,192,105621,1,0,0:0:0:0:
256,192,105785,1,0,0:0:0:0:
369,192,105949,1,0,0:0:0:0:
199,192,106113,1,0,0:0:0:0:
28,192,106277,128,0,108572:0:0:0:0:
85,192,106277,1,0,0:0:0:0:
256,192,106441,1,0,0:0:0:0:
426,192,106605,1,0,0:0:0:0:
256,192,106769,1,0,0:0:0:0:
426,192,106933,1,0,0:0:0:0:
199,192,107097,1,0,0:0:0:0:
426,192,107261,1,0,0:0:0:0:
199,192,107425,1,0,0:0:0:0:
312,192,107588,1,0,0:0:0:0:
142,192,107752,1,0,0:0:0:0:
312,192,107916,1,0,0:0:0:0:
369,192,108080,1,0,0:0:0:0:
312,192,108244,1,0,0:0:0:0:
369,192,108408,1,0,0:0:0:0:
483,192,108572,1,0,0:0:0:0:
312,192,108736,1,0,0:0:0:0:
142,192,108900,1,0,0:0:0:0:
28,192,108900,1,0,0:0:0:0:
369,192,109064,1,0,0:0:0:0:
199,192,109064,1,0,0:0:0:0:
142,192,109228,1,0,0:0:0:0:
312,192,109228,1,0,0:0:0:0:
369,192,109392,1,0,0:0:0:0:
199,192,109392,1,0,0:0:0:0:
142,192,109556,1,0,0:0:0:0:
312,192,109556,1,0,0:0:0:0:
369,192,109720,1,0,0:0:0:0:
85,192,109720,1,0,0:0:0:0:
142,192,109884,1,0,0:0:0:0:
426,192,109884,1,0,0:0:0:0:
369,192,110047,1,0,0:0:0:0:
85,192,110047,1,0,0:0:0:0:
28,192,110211,1,0,0:0:0:0:
256,192,110375,1,0,0:0:0:0:
483,192,110539,1,0,0:0:0:0:
256,192,110703,1,0,0:0:0:0:
426,192,110867,1,0,0:0:0:0:
85,192,111031,1,0,0:0:0:0:
256,192,111195,128,0,111523:0:0:0:0:
426,192,111195,1,0,0:0:0:0:
85,192,111523,128,0,111605:0:0:0:0:
369,192,111523,1,0,0:0:0:0:
483,192,111523,1,0,0:0:0:0:
28,192,111523,1,0,0:0:0:0:
142,192,111523,1,0,0:0:0:0:
199,192,111687,128,0,111769:0:0:0:0:
312,192,111687,1,0,0:0:0:0:
369,192,111851,128,0,111933:0:0:0:0:
28,192,111851,1,0,0:0:0:0:
142,192,111851,1,0,0:0:0:0:
199,192,112015,128,0,112097:0:0:0:0:
256,192,112015,1,0,0:0:0:0:
369,192,112179,128,0,112261:0:0:0:0:
426,192,112179,1,0,0:0:0:0:
483,192,112179,1,0,0:0:0:0:
142,192,112179,1,0,0:0:0:0:
85,192,112343,128,0,112425:0:0:0:0:
312,192,112343,1,0,0:0:0:0:
369,192,112507,128,0,112588:0:0:0:0:
142,192,112507,1,0,0:0:0:0:
199,192,112507,1,0,0:0:0:0:
85,192,112670,128,0,112752:0:0:0:0:
426,192,112670,1,0,0:0:0:0:
256,192,112834,128,0,112916:0:0:0:0:
312,192,112834,1,0,0:0:0:0:
28,192,112834,1,0,0:0:0:0:
85,192,112998,128,0,113080:0:0:0:0:
369,192,112998,1,0,0:0:0:0:
142,192,113162,128,0,113244:0:0:0:0:
199,192,113162,1,0,0:0:0:0:
426,192,113162,1,0,0:0:0:0:
312,192,113326,128,0,113408:0:0:0:0:
483,192,113326,1,0,0:0:0:0:
142,192,113490,128,0,113572:0:0:0:0:
256,192,113490,1,0,0:0:0:0:
28,192,113490,1,0,0:0:0:0:
199,192,113490,1,0,0:0:0:0:
369,192,113654,128,0,113736:0:0:0:0:
85,192,113654,1,0,0:0:0:0:
426,192,113654,1,0,0:0:0:0:
483,192,113818,128,0,113900:0:0:0:0:
199,192,113818,1,0,0:0:0:0:
312,192,113818,1,0,0:0:0:0:
256,192,113982,128,0,114064:0:0:0:0:
142,192,113982,1,0,0:0:0:0:
28,192,114146,128,0,114228:0:0:0:0:
199,192,114146,1,0,0:0:0:0:
369,192,114146,1,0,0:0:0:0:
142,192,114310,128,0,114392:0:0:0:0:
256,192,114310,1,0,0:0:0:0:
312,192,114474,128,0,114556:0:0:0:0:
85,192,114474,1,0,0:0:0:0:
426,192,114474,1,0,0:0:0:0:
142,192,114638,128,0,114720:0:0:0:0:
199,192,114638,1,0,0:0:0:0:
426,192,114802,128,0,114884:0:0:0:0:
256,192,114802,1,0,0:0:0:0:
369,192,114802,1,0,0:0:0:0:
28,192,114802,1,0,0:0:0:0:
142,192,114966,128,0,115047:0:0:0:0:
312,192,114966,1,0,0:0:0:0:
426,192,115129,128,0,115211:0:0:0:0:
483,192,115129,1,0,0:0:0:0:
199,192,115129,1,0,0:0:0:0:
142,192,115293,128,0,115375:0:0:0:0:
256,192,115293,1,0,0:0:0:0:
28,192,115457,128,0,115539:0:0:0:0:
199,192,115457,1,0,0:0:0:0:
312,192,115457,1,0,0:0:0:0:
85,192,115621,128,0,115703:0:0:0:0:
256,192,115621,1,0,0:0:0:0:
369,192,115785,128,0,115867:0:0:0:0:
426,192,115785,1,0,0:0:0:0:
142,192,115785,1,0,0:0:0:0:
85,192,115949,128,0,116031:0:0:0:0:
483,192,115949,1,0,0:0:0:0:
312,192,116113,128,0,116195:0:0:0:0:
199,192,116113,1,0,0:0:0:0:
256,192,116113,1,0,0:0:0:0:
426,192,116113,1,0,0:0:0:0:
85,192,116277,128,0,116359:0:0:0:0:
142,192,116277,1,0,0:0:0:0:
369,192,116277,1,0,0:0:0:0:
312,192,116441,128,0,116523:0:0:0:0:
28,192,116441,1,0,0:0:0:0:
483,192,116441,1,0,0:0:0:0:
85,192,116605,128,0,116687:0:0:0:0:
256,192,116605,1,0,0:0:0:0:
142,192,116769,128,0,116851:0:0:0:0:
312,192,116769,1,0,0:0:0:0:
483,192,116769,1,0,0:0:0:0:
199,192,116769,1,0,0:0:0:0:
256,192,116933,128,0,117015:0:0:0:0:
85,192,116933,1,0,0:0:0:0:
369,192,117097,128,0,117179:0:0:0:0:
199,192,117097,1,0,0:0:0:0:
142,192,117097,1,0,0:0:0:0:
256,192,117261,128,0,117343:0:0:0:0:
28,192,117261,1,0,0:0:0:0:
369,192,117425,128,0,117507:0:0:0:0:
85,192,117425,1,0,0:0:0:0:
199,192,117425,1,0,0:0:0:0:
426,192,117425,1,0,0:0:0:0:
142,192,117588,128,0,117670:0:0:0:0:
312,192,117588,1,0,0:0:0:0:
369,192,117752,128,0,117834:0:0:0:0:
199,192,117752,1,0,0:0:0:0:
28,192,117752,1,0,0:0:0:0:
142,192,117916,128,0,117998:0:0:0:0:
426,192,117916,1,0,0:0:0:0:
256,192,118080,128,0,118162:0:0:0:0:
85,192,118080,1,0,0:0:0:0:
312,192,118080,1,0,0:0:0:0:
142,192,118244,128,0,118326:0:0:0:0:
199,192,118244,1,0,0:0:0:0:
256,192,118408,128,0,118490:0:0:0:0:
28,192,118408,1,0,0:0:0:0:
369,192,118408,1,0,0:0:0:0:
312,192,118572,128,0,118654:0:0:0:0:
199,192,118572,1,0,0:0:0:0:
256,192,118736,128,0,118818:0:0:0:0:
85,192,118736,1,0,0:0:0:0:
142,192,118736,1,0,0:0:0:0:
369,192,118736,1,0,0:0:0:0:
426,192,118900,128,0,118982:0:0:0:0:
199,192,118900,1,0,0:0:0:0:
28,192,118900,1,0,0:0:0:0:
483,192,119064,128,0,119146:0:0:0:0:
85,192,119064,1,0,0:0:0:0:
142,192,119064,1,0,0:0:0:0:
199,192,119228,128,0,119310:0:0:0:0:
369,192,119228,1,0,0:0:0:0:
85,192,119392,128,0,119474:0:0:0:0:
256,192,119392,1,0,0:0:0:0:
426,192,119392,1,0,0:0:0:0:
312,192,119556,128,0,119638:0:0:0:0:
28,192,119556,1,0,0:0:0:0:
142,192,119720,128,0,119802:0:0:0:0:
256,192,119720,1,0,0:0:0:0:
369,192,119720,1,0,0:0:0:0:
312,192,119884,128,0,119966:0:0:0:0:
28,192,119884,1,0,0:0:0:0:
199,192,120047,128,0,120703:0:0:0:0:
256,192,120047,128,0,120129:0:0:0:0:
369,192,120047,1,0,0:0:0:0:
426,192,120047,1,0,0:0:0:0:
483,192,120047,1,0,0:0:0:0:
85,192,120211,128,0,120293:0:0:0:0:
312,192,120211,1,0,0:0:0:0:
369,192,120375,128,0,120457:0:0:0:0:
142,192,120375,1,0,0:0:0:0:
426,192,120375,1,0,0:0:0:0:
256,192,120539,128,0,120621:0:0:0:0:
483,192,120539,1,0,0:0:0:0:
312,192,120703,128,0,121359:0:0:0:0:
28,192,120703,128,0,120785:0:0:0:0:
85,192,120703,1,0,0:0:0:0:
369,192,120703,1,0,0:0:0:0:
142,192,120867,128,0,120949:0:0:0:0:
256,192,120867,1,0,0:0:0:0:
483,192,121031,128,0,121113:0:0:0:0:
199,192,121031,1,0,0:0:0:0:
85,192,121031,1,0,0:0:0:0:
369,192,121195,128,0,121277:0:0:0:0:
142,192,121195,1,0,0:0:0:0:
256,192,121359,128,0,125949:0:0:0:0:
426,192,121359,128,0,121441:0:0:0:0:
28,192,121359,1,0,0:0:0:0:
199,192,121359,1,0,0:0:0:0:
483,192,121359,1,0,0:0:0:0:
85,192,121523,128,0,121605:0:0:0:0:
142,192,121523,1,0,0:0:0:0:
312,192,121523,1,0,0:0:0:0:
426,192,121687,128,0,121769:0:0:0:0:
369,192,121687,1,0,0:0:0:0:
199,192,121687,1,0,0:0:0:0:
85,192,121851,128,0,121933:0:0:0:0:
312,192,121851,1,0,0:0:0:0:
142,192,122015,128,0,122097:0:0:0:0:
199,192,122015,128,0,122097:0:0:0:0:
28,192,122015,1,0,0:0:0:0:
426,192,122015,1,0,0:0:0:0:
312,192,122179,128,0,122261:0:0:0:0:
369,192,122179,128,0,122261:0:0:0:0:
426,192,122343,128,0,122425:0:0:0:0:
483,192,122343,128,0,122425:0:0:0:0:
28,192,122343,1,0,0:0:0:0:
85,192,122343,1,0,0:0:0:0:
142,192,122507,128,0,122588:0:0:0:0:
199,192,122507,128,0,122588:0:0:0:0:
312,192,122670,128,0,122752:0:0:0:0:
369,192,122670,128,0,122752:0:0:0:0:
426,192,122670,1,0,0:0:0:0:
483,192,122670,1,0,0:0:0:0:
28,192,122670,1,0,0:0:0:0:
28,192,122834,128,0,122916:0:0:0:0:
85,192,122834,128,0,122916:0:0:0:0:
142,192,122998,128,0,123080:0:0:0:0:
199,192,122998,128,0,123080:0:0:0:0:
312,192,122998,1,0,0:0:0:0:
28,192,123162,128,0,123244:0:0:0:0:
85,192,123162,128,0,123244:0:0:0:0:
312,192,123326,128,0,123408:0:0:0:0:
369,192,123326,128,0,123408:0:0:0:0:
426,192,123326,1,0,0:0:0:0:
483,192,123326,1,0,0:0:0:0:
142,192,123490,128,0,123572:0:0:0:0:
199,192,123490,128,0,123572:0:0:0:0:
312,192,123654,128,0,123736:0:0:0:0:
369,192,123654,128,0,123736:0:0:0:0:
28,192,123654,1,0,0:0:0:0:
85,192,123654,1,0,0:0:0:0:
426,192,123818,128,0,123900:0:0:0:0:
483,192,123818,128,0,123900:0:0:0:0:
28,192,123982,128,0,124064:0:0:0:0:
85,192,123982,128,0,124064:0:0:0:0:
199,192,123982,1,0,0:0:0:0:
312,192,123982,1,0,0:0:0:0:
369,192,123982,1,0,0:0:0:0:
312,192,124146,128,0,124228:0:0:0:0:
369,192,124146,128,0,124228:0:0:0:0:
142,192,124146,1,0,0:0:0:0:
426,192,124310,128,0,124392:0:0:0:0:
483,192,124310,128,0,124392:0:0:0:0:
85,192,124310,1,0,0:0:0:0:
28,192,124310,1,0,0:0:0:0:
142,192,124474,128,0,124556:0:0:0:0:
199,192,124474,128,0,124556:0:0:0:0:
28,192,124638,128,0,124720:0:0:0:0:
85,192,124638,128,0,124720:0:0:0:0:
369,192,124638,1,0,0:0:0:0:
483,192,124638,1,0,0:0:0:0:
142,192,124802,128,0,124884:0:0:0:0:
199,192,124802,128,0,124884:0:0:0:0:
312,192,124966,128,0,125047:0:0:0:0:
369,192,124966,128,0,125047:0:0:0:0:
28,192,124966,1,0,0:0:0:0:
483,192,124966,1,0,0:0:0:0:
142,192,125129,128,0,125211:0:0:0:0:
199,192,125129,128,0,125211:0:0:0:0:
312,192,125293,128,0,125375:0:0:0:0:
369,192,125293,128,0,125375:0:0:0:0:
426,192,125293,1,0,0:0:0:0:
483,192,125293,1,0,0:0:0:0:
28,192,125293,1,0,0:0:0:0:
28,192,125457,128,0,125539:0:0:0:0:
85,192,125457,128,0,125539:0:0:0:0:
426,192,125621,128,0,125703:0:0:0:0:
483,192,125621,128,0,125703:0:0:0:0:
142,192,125621,1,0,0:0:0:0:
312,192,125785,128,0,125867:0:0:0:0:
369,192,125785,128,0,125867:0:0:0:0:
28,192,125949,128,0,126031:0:0:0:0:
85,192,125949,128,0,126031:0:0:0:0:
426,192,125949,1,0,0:0:0:0:
483,192,125949,1,0,0:0:0:0:
142,192,126113,128,0,126195:0:0:0:0:
199,192,126113,128,0,126195:0:0:0:0:
426,192,126277,128,0,126359:0:0:0:0:
483,192,126277,128,0,126359:0:0:0:0:
85,192,126277,1,0,0:0:0:0:
312,192,126277,1,0,0:0:0:0:
142,192,126441,128,0,126523:0:0:0:0:
199,192,126441,128,0,126523:0:0:0:0:
312,192,126605,128,0,126687:0:0:0:0:
369,192,126605,128,0,126687:0:0:0:0:
28,192,126605,1,0,0:0:0:0:
256,192,126605,1,0,0:0:0:0:
483,192,126605,1,0,0:0:0:0:
28,192,126769,128,0,126851:0:0:0:0:
85,192,126769,128,0,126851:0:0:0:0:
199,192,126769,1,0,0:0:0:0:
312,192,126933,128,0,127015:0:0:0:0:
369,192,126933,128,0,127015:0:0:0:0:
256,192,126933,1,0,0:0:0:0:
426,192,126933,1,0,0:0:0:0:
142,192,127097,128,0,127179:0:0:0:0:
199,192,127097,128,0,127179:0:0:0:0:
85,192,127261,128,0,127343:0:0:0:0:
256,192,127261,128,0,127343:0:0:0:0:
426,192,127261,1,0,0:0:0:0:
483,192,127261,1,0,0:0:0:0:
28,192,127261,1,0,0:0:0:0:
142,192,127425,128,0,127507:0:0:0:0:
369,192,127425,128,0,127507:0:0:0:0:
199,192,127588,128,0,127670:0:0:0:0:
426,192,127588,128,0,127670:0:0:0:0:
256,192,127588,1,0,0:0:0:0:
312,192,127752,128,0,127834:0:0:0:0:
85,192,127752,128,0,127834:0:0:0:0:
199,192,127916,128,0,127998:0:0:0:0:
426,192,127916,128,0,127998:0:0:0:0:
369,192,127916,1,0,0:0:0:0:
28,192,127916,1,0,0:0:0:0:
483,192,127916,1,0,0:0:0:0:
256,192,128080,128,0,128162:0:0:0:0:
28,192,128080,128,0,128162:0:0:0:0:
199,192,128244,128,0,128326:0:0:0:0:
426,192,128244,128,0,128326:0:0:0:0:
312,192,128244,1,0,0:0:0:0:
28,192,128408,128,0,128490:0:0:0:0:
256,192,128408,128,0,128490:0:0:0:0:
142,192,128572,128,0,128654:0:0:0:0:
369,192,128572,128,0,128654:0:0:0:0:
199,192,128572,1,0,0:0:0:0:
312,192,128572,1,0,0:0:0:0:
28,192,128736,128,0,128818:0:0:0:0:
256,192,128736,128,0,128818:0:0:0:0:
142,192,128900,128,0,128982:0:0:0:0:
369,192,128900,128,0,128982:0:0:0:0:
85,192,128900,1,0,0:0:0:0:
256,192,129064,128,0,129146:0:0:0:0:
483,192,129064,128,0,129146:0:0:0:0:
85,192,129228,128,0,129310:0:0:0:0:
312,192,129228,128,0,129310:0:0:0:0:
28,192,129228,1,0,0:0:0:0:
142,192,129228,1,0,0:0:0:0:
369,192,129228,1,0,0:0:0:0:
199,192,129392,128,0,129474:0:0:0:0:
426,192,129392,128,0,129474:0:0:0:0:
256,192,129392,1,0,0:0:0:0:
312,192,129556,128,0,129638:0:0:0:0:
483,192,129556,128,0,129638:0:0:0:0:
142,192,129556,1,0,0:0:0:0:
85,192,129556,1,0,0:0:0:0:
28,192,129720,128,0,129802:0:0:0:0:
199,192,129720,128,0,129802:0:0:0:0:
85,192,129884,128,0,129966:0:0:0:0:
256,192,129884,128,0,129966:0:0:0:0:
369,192,129884,1,0,0:0:0:0:
426,192,129884,1,0,0:0:0:0:
142,192,130047,128,0,130129:0:0:0:0:
312,192,130047,128,0,130129:0:0:0:0:
483,192,130211,128,0,130293:0:0:0:0:
256,192,130211,128,0,130293:0:0:0:0:
369,192,130211,1,0,0:0:0:0:
426,192,130211,1,0,0:0:0:0:
312,192,130375,128,0,130457:0:0:0:0:
85,192,130375,128,0,130457:0:0:0:0:
199,192,130539,128,0,131195:0:0:0:0:
483,192,130539,128,0,130621:0:0:0:0:
256,192,130539,128,0,130621:0:0:0:0:
369,192,130539,1,0,0:0:0:0:
426,192,130539,1,0,0:0:0:0:
142,192,130539,1,0,0:0:0:0:
28,192,130703,128,0,130785:0:0:0:0:
312,192,130703,128,0,130785:0:0:0:0:
369,192,130867,128,0,130949:0:0:0:0:
483,192,130867,128,0,130949:0:0:0:0:
85,192,130867,1,0,0:0:0:0:
142,192,130867,1,0,0:0:0:0:
85,192,131031,128,0,131113:0:0:0:0:
256,192,131031,128,0,131113:0:0:0:0:
312,192,131195,128,0,131851:0:0:0:0:
28,192,131195,128,0,131277:0:0:0:0:
142,192,131195,128,0,131277:0:0:0:0:
426,192,131195,1,0,0:0:0:0:
199,192,131359,128,0,131441:0:0:0:0:
256,192,131359,128,0,131441:0:0:0:0:
369,192,131523,128,0,131605:0:0:0:0:
483,192,131523,128,0,131605:0:0:0:0:
85,192,131523,1,0,0:0:0:0:
28,192,131523,1,0,0:0:0:0:
199,192,131687,128,0,131769:0:0:0:0:
142,192,131687,128,0,131769:0:0:0:0:
426,192,131687,1,0,0:0:0:0:
256,192,131851,128,0,137752:0:0:0:0:
369,192,131851,128,0,131933:0:0:0:0:
483,192,131851,128,0,131933:0:0:0:0:
85,192,131851,1,0,0:0:0:0:
28,192,131851,1,0,0:0:0:0:
28,192,132015,128,0,132097:0:0:0:0:
142,192,132015,128,0,132097:0:0:0:0:
369,192,132179,128,0,132261:0:0:0:0:
483,192,132179,128,0,132261:0:0:0:0:
199,192,132179,1,0,0:0:0:0:
28,192,132343,128,0,132425:0:0:0:0:
142,192,132343,128,0,132425:0:0:0:0:
312,192,132343,1,0,0:0:0:0:
85,192,132507,1,0,0:0:0:0:
199,192,132507,1,0,0:0:0:0:
312,192,132507,1,0,0:0:0:0:
426,192,132507,1,0,0:0:0:0:
142,192,132670,128,0,132834:0:0:0:0:
369,192,132670,128,0,132834:0:0:0:0:
28,192,132834,1,0,0:0:0:0:
483,192,132834,1,0,0:0:0:0:
85,192,132998,128,0,133162:0:0:0:0:
426,192,132998,128,0,133162:0:0:0:0:
142,192,133162,1,0,0:0:0:0:
369,192,133162,1,0,0:0:0:0:
199,192,133326,128,0,133490:0:0:0:0:
312,192,133326,128,0,133490:0:0:0:0:
28,192,133490,1,0,0:0:0:0:
483,192,133490,1,0,0:0:0:0:
426,192,133654,128,0,133818:0:0:0:0:
85,192,133654,128,0,133818:0:0:0:0:
142,192,133818,1,0,0:0:0:0:
369,192,133818,1,0,0:0:0:0:
199,192,133982,128,0,134146:0:0:0:0:
312,192,133982,128,0,134146:0:0:0:0:
28,192,134146,1,0,0:0:0:0:
483,192,134146,1,0,0:0:0:0:
85,192,134310,128,0,134474:0:0:0:0:
426,192,134310,128,0,134474:0:0:0:0:
142,192,134474,1,0,0:0:0:0:
369,192,134474,1,0,0:0:0:0:
199,192,134638,128,0,134802:0:0:0:0:
312,192,134638,128,0,134802:0:0:0:0:
28,192,134802,1,0,0:0:0:0:
483,192,134802,1,0,0:0:0:0:
85,192,134966,1,0,0:0:0:0:
426,192,134966,1,0,0:0:0:0:
426,192,135047,1,0,0:0:0:0:
85,192,135047,1,0,0:0:0:0:
142,192,135129,1,0,0:0:0:0:
369,192,135129,1,0,0:0:0:0:
28,192,135293,128,0,135457:0:0:0:0:
483,192,135293,128,0,135457:0:0:0:0:
85,192,135457,1,0,0:0:0:0:
426,192,135457,1,0,0:0:0:0:
142,192,135621,128,0,135785:0:0:0:0:
369,192,135621,128,0,135785:0:0:0:0:
199,192,135785,1,0,0:0:0:0:
312,192,135785,1,0,0:0:0:0:
28,192,135949,128,0,136113:0:0:0:0:
483,192,135949,128,0,136113:0:0:0:0:
426,192,136113,1,0,0:0:0:0:
85,192,136113,1,0,0:0:0:0:
142,192,136277,128,0,136441:0:0:0:0:
369,192,136277,128,0,136441:0:0:0:0:
199,192,136441,1,0,0:0:0:0:
312,192,136441,1,0,0:0:0:0:
28,192,136605,128,0,136687:0:0:0:0:
483,192,136605,128,0,136687:0:0:0:0:
85,192,136769,128,0,136851:0:0:0:0:
426,192,136769,128,0,136851:0:0:0:0:
199,192,136769,1,0,0:0:0:0:
312,192,136769,1,0,0:0:0:0:
369,192,136933,128,0,137015:0:0:0:0:
142,192,136933,128,0,137015:0:0:0:0:
312,192,137097,128,0,137179:0:0:0:0:
199,192,137097,128,0,137179:0:0:0:0:
28,192,137097,1,0,0:0:0:0:
483,192,137097,1,0,0:0:0:0:
85,192,137261,128,0,137752:0:0:0:0:
426,192,137261,128,0,137752:0:0:0:0:
142,192,137425,1,0,0:0:0:0:
369,192,137425,1,0,0:0:0:0:
28,192,137916,128,0,138080:0:0:0:0:
85,192,138080,128,0,138244:0:0:0:0:
199,192,138080,1,0,0:0:0:0:
312,192,138408,1,0,0:0:0:0:
142,192,138408,128,0,139064:0:0:0:0:
369,192,138490,1,0,0:0:0:0:
483,192,138572,1,0,0:0:0:0:
426,192,138654,1,0,0:0:0:0:
312,192,138736,1,0,0:0:0:0:
199,192,138736,1,0,0:0:0:0:
369,192,138818,1,0,0:0:0:0:
483,192,138900,1,0,0:0:0:0:
426,192,138982,1,0,0:0:0:0:
312,192,139064,1,0,0:0:0:0:
369,192,139146,1,0,0:0:0:0:
483,192,139228,1,0,0:0:0:0:
199,192,139228,128,0,139392:0:0:0:0:
426,192,139310,1,0,0:0:0:0:
312,192,139392,128,0,139556:0:0:0:0:
256,192,139392,1,0,0:0:0:0:
199,192,139720,1,0,0:0:0:0:
369,192,139720,128,0,140375:0:0:0:0:
142,192,139802,1,0,0:0:0:0:
28,192,139884,1,0,0:0:0:0:
85,192,139966,1,0,0:0:0:0:
199,192,140047,1,0,0:0:0:0:
312,192,140047,1,0,0:0:0:0:
142,192,140129,1,0,0:0:0:0:
28,192,140211,1,0,0:0:0:0:
85,192,140293,1,0,0:0:0:0:
199,192,140375,1,0,0:0:0:0:
142,192,140457,1,0,0:0:0:0:
28,192,140539,1,0,0:0:0:0:
483,192,140539,128,0,140621:0:0:0:0:
85,192,140621,1,0,0:0:0:0:
426,192,140703,128,0,140785:0:0:0:0:
369,192,140703,1,0,0:0:0:0:
256,192,141031,1,0,0:0:0:0:
199,192,141031,128,0,141195:0:0:0:0:
312,192,141113,1,0,0:0:0:0:
483,192,141195,1,0,0:0:0:0:
426,192,141277,1,0,0:0:0:0:
256,192,141359,1,0,0:0:0:0:
142,192,141359,128,0,141441:0:0:0:0:
199,192,141359,1,0,0:0:0:0:
312,192,141441,1,0,0:0:0:0:
483,192,141523,1,0,0:0:0:0:
85,192,141523,128,0,141605:0:0:0:0:
426,192,141605,1,0,0:0:0:0:
256,192,141687,1,0,0:0:0:0:
28,192,141687,128,0,141810:0:0:0:0:
312,192,141769,1,0,0:0:0:0:
483,192,141851,1,0,0:0:0:0:
426,192,141933,1,0,0:0:0:0:
142,192,141933,128,0,142056:0:0:0:0:
256,192,142015,1,0,0:0:0:0:
369,192,142179,128,0,142343:0:0:0:0:
256,192,142343,1,0,0:0:0:0:
483,192,142343,128,0,142998:0:0:0:0:
199,192,142425,1,0,0:0:0:0:
28,192,142507,1,0,0:0:0:0:
85,192,142588,1,0,0:0:0:0:
256,192,142670,1,0,0:0:0:0:
312,192,142670,1,0,0:0:0:0:
199,192,142752,1,0,0:0:0:0:
28,192,142834,1,0,0:0:0:0:
85,192,142916,1,0,0:0:0:0:
256,192,142998,1,0,0:0:0:0:
199,192,143080,1,0,0:0:0:0:
28,192,143162,1,0,0:0:0:0:
85,192,143244,1,0,0:0:0:0:
426,192,143326,128,0,143490:0:0:0:0:
256,192,143326,1,0,0:0:0:0:
312,192,143654,1,0,0:0:0:0:
256,192,143654,128,0,143818:0:0:0:0:
426,192,143736,1,0,0:0:0:0:
369,192,143818,1,0,0:0:0:0:
483,192,143900,1,0,0:0:0:0:
312,192,143982,1,0,0:0:0:0:
85,192,143982,128,0,144146:0:0:0:0:
142,192,143982,1,0,0:0:0:0:
426,192,144064,1,0,0:0:0:0:
369,192,144146,1,0,0:0:0:0:
483,192,144228,1,0,0:0:0:0:
312,192,144310,1,0,0:0:0:0:
199,192,144310,128,0,144474:0:0:0:0:
426,192,144392,1,0,0:0:0:0:
369,192,144474,1,0,0:0:0:0:
483,192,144556,1,0,0:0:0:0:
28,192,144638,128,0,144720:0:0:0:0:
256,192,144638,1,0,0:0:0:0:
142,192,144802,128,0,144884:0:0:0:0:
199,192,144966,1,0,0:0:0:0:
483,192,144966,128,0,145047:0:0:0:0:
85,192,145047,1,0,0:0:0:0:
142,192,145129,1,0,0:0:0:0:
369,192,145129,128,0,145293:0:0:0:0:
28,192,145211,1,0,0:0:0:0:
199,192,145293,1,0,0:0:0:0:
312,192,145293,1,0,0:0:0:0:
85,192,145375,1,0,0:0:0:0:
142,192,145457,1,0,0:0:0:0:
256,192,145457,128,0,145785:0:0:0:0:
28,192,145539,1,0,0:0:0:0:
199,192,145621,1,0,0:0:0:0:
85,192,145703,1,0,0:0:0:0:
142,192,145785,1,0,0:0:0:0:
312,192,145785,128,0,145949:0:0:0:0:
28,192,145867,1,0,0:0:0:0:
369,192,145949,128,0,146113:0:0:0:0:
483,192,145949,1,0,0:0:0:0:
199,192,146277,1,0,0:0:0:0:
426,192,146277,128,0,146441:0:0:0:0:
142,192,146359,1,0,0:0:0:0:
312,192,146441,1,0,0:0:0:0:
369,192,146523,1,0,0:0:0:0:
199,192,146605,1,0,0:0:0:0:
28,192,146605,128,0,146769:0:0:0:0:
483,192,146605,1,0,0:0:0:0:
142,192,146687,1,0,0:0:0:0:
312,192,146769,1,0,0:0:0:0:
256,192,146769,128,0,146933:0:0:0:0:
369,192,146851,1,0,0:0:0:0:
483,192,146933,128,0,147097:0:0:0:0:
256,192,147261,128,0,147425:0:0:0:0:
426,192,147588,128,0,147752:0:0:0:0:
28,192,147588,1,0,0:0:0:0:
142,192,147670,1,0,0:0:0:0:
312,192,147752,128,0,147916:0:0:0:0:
483,192,147752,1,0,0:0:0:0:
369,192,147834,1,0,0:0:0:0:
28,192,147916,1,0,0:0:0:0:
199,192,147916,128,0,148080:0:0:0:0:
142,192,147998,1,0,0:0:0:0:
85,192,148080,128,0,148244:0:0:0:0:
483,192,148080,1,0,0:0:0:0:
369,192,148162,1,0,0:0:0:0:
256,192,148244,128,0,148900:0:0:0:0:
142,192,148244,1,0,0:0:0:0:
312,192,148244,1,0,0:0:0:0:
28,192,148244,1,0,0:0:0:0:
369,192,148408,1,0,0:0:0:0:
483,192,148435,1,0,0:0:0:0:
199,192,148572,1,0,0:0:0:0:
426,192,148572,1,0,0:0:0:0:
85,192,148736,1,0,0:0:0:0:
28,192,148763,1,0,0:0:0:0:
142,192,148900,128,0,149228:0:0:0:0:
312,192,148900,1,0,0:0:0:0:
256,192,149064,1,0,0:0:0:0:
312,192,149091,1,0,0:0:0:0:
369,192,149228,128,0,149392:0:0:0:0:
28,192,149228,1,0,0:0:0:0:
199,192,149228,1,0,0:0:0:0:
256,192,149392,128,0,150539:0:0:0:0:
426,192,149392,1,0,0:0:0:0:
483,192,149419,1,0,0:0:0:0:
85,192,149556,1,0,0:0:0:0:
199,192,149720,1,0,0:0:0:0:
142,192,149747,1,0,0:0:0:0:
312,192,149884,1,0,0:0:0:0:
483,192,149884,1,0,0:0:0:0:
369,192,150047,1,0,0:0:0:0:
426,192,150075,1,0,0:0:0:0:
199,192,150211,1,0,0:0:0:0:
142,192,150375,1,0,0:0:0:0:
85,192,150403,1,0,0:0:0:0:
426,192,150539,128,0,150867:0:0:0:0:
369,192,150539,1,0,0:0:0:0:
28,192,150539,1,0,0:0:0:0:
85,192,150703,1,0,0:0:0:0:
142,192,150731,1,0,0:0:0:0:
312,192,150867,128,0,151523:0:0:0:0:
199,192,150867,1,0,0:0:0:0:
426,192,151031,1,0,0:0:0:0:
483,192,151058,1,0,0:0:0:0:
28,192,151195,1,0,0:0:0:0:
85,192,151195,1,0,0:0:0:0:
199,192,151359,1,0,0:0:0:0:
142,192,151386,1,0,0:0:0:0:
256,192,151523,128,0,151687:0:0:0:0:
85,192,151523,1,0,0:0:0:0:
369,192,151687,128,0,151851:0:0:0:0:
142,192,151687,1,0,0:0:0:0:
199,192,151714,1,0,0:0:0:0:
256,192,151851,128,0,152015:0:0:0:0:
426,192,151851,1,0,0:0:0:0:
483,192,151851,1,0,0:0:0:0:
142,192,152015,128,0,152179:0:0:0:0:
85,192,152015,1,0,0:0:0:0:
28,192,152042,1,0,0:0:0:0:
312,192,152179,1,0,0:0:0:0:
85,192,152343,128,0,152507:0:0:0:0:
426,192,152343,1,0,0:0:0:0:
483,192,152370,1,0,0:0:0:0:
312,192,152507,128,0,152670:0:0:0:0:
142,192,152507,1,0,0:0:0:0:
369,192,152507,1,0,0:0:0:0:
199,192,152670,128,0,152834:0:0:0:0:
256,192,152670,1,0,0:0:0:0:
142,192,152698,1,0,0:0:0:0:
426,192,152834,128,0,152998:0:0:0:0:
28,192,152834,1,0,0:0:0:0:
256,192,152998,128,0,153162:0:0:0:0:
142,192,152998,1,0,0:0:0:0:
85,192,153026,1,0,0:0:0:0:
28,192,153162,128,0,153326:0:0:0:0:
199,192,153162,1,0,0:0:0:0:
312,192,153162,1,0,0:0:0:0:
483,192,153326,128,0,153490:0:0:0:0:
369,192,153326,1,0,0:0:0:0:
426,192,153354,1,0,0:0:0:0:
199,192,153490,128,0,154146:0:0:0:0:
256,192,153490,1,0,0:0:0:0:
142,192,153654,1,0,0:0:0:0:
85,192,153681,1,0,0:0:0:0:
312,192,153818,1,0,0:0:0:0:
426,192,153818,1,0,0:0:0:0:
28,192,153982,1,0,0:0:0:0:
85,192,154009,1,0,0:0:0:0:
256,192,154146,1,0,0:0:0:0:
199,192,154310,128,0,154392:0:0:0:0:
369,192,154310,1,0,0:0:0:0:
426,192,154337,1,0,0:0:0:0:
199,192,154474,128,0,154556:0:0:0:0:
85,192,154474,1,0,0:0:0:0:
142,192,154474,1,0,0:0:0:0:
199,192,154638,128,0,154720:0:0:0:0:
483,192,154638,1,0,0:0:0:0:
426,192,154665,1,0,0:0:0:0:
199,192,154802,128,0,154884:0:0:0:0:
312,192,154802,1,0,0:0:0:0:
85,192,154966,1,0,0:0:0:0:
142,192,154993,1,0,0:0:0:0:
256,192,155129,128,0,155457:0:0:0:0:
369,192,155129,1,0,0:0:0:0:
483,192,155129,1,0,0:0:0:0:
28,192,155293,1,0,0:0:0:0:
85,192,155321,1,0,0:0:0:0:
312,192,155457,128,0,155785:0:0:0:0:
199,192,155457,1,0,0:0:0:0:
369,192,155621,1,0,0:0:0:0:
483,192,155649,1,0,0:0:0:0:
426,192,155785,128,0,155949:0:0:0:0:
28,192,155785,1,0,0:0:0:0:
142,192,155785,1,0,0:0:0:0:
312,192,155949,128,0,156933:0:0:0:0:
199,192,155949,1,0,0:0:0:0:
85,192,155976,1,0,0:0:0:0:
256,192,156113,1,0,0:0:0:0:
426,192,156277,1,0,0:0:0:0:
483,192,156304,1,0,0:0:0:0:
142,192,156441,1,0,0:0:0:0:
369,192,156441,1,0,0:0:0:0:
85,192,156605,1,0,0:0:0:0:
28,192,156632,1,0,0:0:0:0:
256,192,156769,128,0,157097:0:0:0:0:
426,192,156769,1,0,0:0:0:0:
199,192,156933,128,0,157261:0:0:0:0:
369,192,156933,1,0,0:0:0:0:
483,192,156960,1,0,0:0:0:0:
142,192,157097,128,0,157425:0:0:0:0:
426,192,157097,1,0,0:0:0:0:
312,192,157097,1,0,0:0:0:0:
85,192,157261,128,0,157425:0:0:0:0:
483,192,157261,1,0,0:0:0:0:
369,192,157288,1,0,0:0:0:0:
28,192,157425,1,0,0:0:0:0:
256,192,157588,1,0,0:0:0:0:
85,192,157752,128,0,157916:0:0:0:0:
426,192,157752,128,0,157916:0:0:0:0:
28,192,157752,1,0,0:0:0:0:
483,192,157752,1,0,0:0:0:0:
142,192,157916,128,0,158080:0:0:0:0:
369,192,157916,128,0,158080:0:0:0:0:
256,192,157916,1,0,0:0:0:0:
199,192,158080,128,0,158736:0:0:0:0:
312,192,158080,128,0,158736:0:0:0:0:
85,192,158080,1,0,0:0:0:0:
426,192,158080,1,0,0:0:0:0:
256,192,158244,1,0,0:0:0:0:
142,192,158408,1,0,0:0:0:0:
369,192,158408,1,0,0:0:0:0:
256,192,158572,1,0,0:0:0:0:
28,192,158736,1,0,0:0:0:0:
483,192,158736,1,0,0:0:0:0:
426,192,158736,1,0,0:0:0:0:
256,192,158900,1,0,0:0:0:0:
369,192,158927,1,0,0:0:0:0:
85,192,159064,128,0,159228:0:0:0:0:
142,192,159064,1,0,0:0:0:0:
312,192,159146,1,0,0:0:0:0:
426,192,159173,1,0,0:0:0:0:
85,192,159392,128,0,160047:0:0:0:0:
199,192,159392,1,0,0:0:0:0:
28,192,159392,1,0,0:0:0:0:
312,192,159474,1,0,0:0:0:0:
426,192,159556,1,0,0:0:0:0:
256,192,159638,1,0,0:0:0:0:
369,192,159720,1,0,0:0:0:0:
142,192,159720,1,0,0:0:0:0:
483,192,159802,1,0,0:0:0:0:
312,192,159884,1,0,0:0:0:0:
426,192,159966,1,0,0:0:0:0:
199,192,160047,1,0,0:0:0:0:
256,192,160211,128,0,160293:0:0:0:0:
312,192,160211,1,0,0:0:0:0:
369,192,160239,1,0,0:0:0:0:
426,192,160375,128,0,160539:0:0:0:0:
142,192,160375,1,0,0:0:0:0:
85,192,160539,1,0,0:0:0:0:
28,192,160567,1,0,0:0:0:0:
426,192,160703,128,0,161359:0:0:0:0:
312,192,160703,1,0,0:0:0:0:
483,192,160703,1,0,0:0:0:0:
199,192,160785,1,0,0:0:0:0:
85,192,160867,1,0,0:0:0:0:
256,192,160949,1,0,0:0:0:0:
142,192,161031,1,0,0:0:0:0:
312,192,161031,1,0,0:0:0:0:
28,192,161113,1,0,0:0:0:0:
199,192,161195,1,0,0:0:0:0:
369,192,161195,1,0,0:0:0:0:
85,192,161277,1,0,0:0:0:0:
256,192,161277,1,0,0:0:0:0:
142,192,161359,1,0,0:0:0:0:
256,192,161523,128,0,161605:0:0:0:0:
199,192,161523,1,0,0:0:0:0:
312,192,161550,1,0,0:0:0:0:
28,192,161687,128,0,161851:0:0:0:0:
369,192,161687,1,0,0:0:0:0:
483,192,161851,128,0,161933:0:0:0:0:
426,192,161851,1,0,0:0:0:0:
85,192,161878,1,0,0:0:0:0:
28,192,162015,128,0,162179:0:0:0:0:
199,192,162015,1,0,0:0:0:0:
256,192,162015,1,0,0:0:0:0:
312,192,162097,1,0,0:0:0:0:
142,192,162179,1,0,0:0:0:0:
369,192,162261,1,0,0:0:0:0:
28,192,162343,128,0,162507:0:0:0:0:
199,192,162343,1,0,0:0:0:0:
256,192,162343,1,0,0:0:0:0:
312,192,162425,1,0,0:0:0:0:
483,192,162507,128,0,162670:0:0:0:0:
142,192,162507,1,0,0:0:0:0:
369,192,162588,1,0,0:0:0:0:
28,192,162670,128,0,162834:0:0:0:0:
256,192,162670,1,0,0:0:0:0:
199,192,162834,1,0,0:0:0:0:
142,192,162862,1,0,0:0:0:0:
369,192,162916,128,0,163080:0:0:0:0:
85,192,162998,1,0,0:0:0:0:
256,192,163162,128,0,163326:0:0:0:0:
312,192,163162,1,0,0:0:0:0:
426,192,163190,1,0,0:0:0:0:
142,192,163326,128,0,164064:0:0:0:0:
483,192,163326,1,0,0:0:0:0:
28,192,163326,1,0,0:0:0:0:
426,192,163408,1,0,0:0:0:0:
369,192,163490,1,0,0:0:0:0:
199,192,163490,1,0,0:0:0:0:
312,192,163572,1,0,0:0:0:0:
85,192,163572,1,0,0:0:0:0:
256,192,163654,1,0,0:0:0:0:
483,192,163654,1,0,0:0:0:0:
199,192,163736,1,0,0:0:0:0:
85,192,163818,1,0,0:0:0:0:
426,192,163818,1,0,0:0:0:0:
28,192,163900,1,0,0:0:0:0:
312,192,163900,1,0,0:0:0:0:
199,192,163982,1,0,0:0:0:0:
256,192,164146,1,0,0:0:0:0:
312,192,164173,1,0,0:0:0:0:
28,192,164310,128,0,164474:0:0:0:0:
85,192,164310,128,0,164474:0:0:0:0:
369,192,164310,1,0,0:0:0:0:
426,192,164474,1,0,0:0:0:0:
483,192,164501,1,0,0:0:0:0:
28,192,164638,128,0,164802:0:0:0:0:
85,192,164638,128,0,164802:0:0:0:0:
199,192,164638,1,0,0:0:0:0:
369,192,164638,1,0,0:0:0:0:
256,192,164720,1,0,0:0:0:0:
312,192,164802,1,0,0:0:0:0:
369,192,164884,1,0,0:0:0:0:
426,192,164966,128,0,165129:0:0:0:0:
483,192,164966,128,0,165129:0:0:0:0:
256,192,164966,1,0,0:0:0:0:
28,192,164966,1,0,0:0:0:0:
142,192,165047,1,0,0:0:0:0:
85,192,165129,1,0,0:0:0:0:
256,192,165211,1,0,0:0:0:0:
426,192,165293,128,0,165621:0:0:0:0:
483,192,165293,128,0,165621:0:0:0:0:
369,192,165293,1,0,0:0:0:0:
312,192,165457,1,0,0:0:0:0:
199,192,165485,1,0,0:0:0:0:
142,192,165621,1,0,0:0:0:0:
199,192,165785,128,0,165949:0:0:0:0:
312,192,165785,128,0,165949:0:0:0:0:
85,192,165785,1,0,0:0:0:0:
426,192,165813,1,0,0:0:0:0:
142,192,165949,128,0,166113:0:0:0:0:
369,192,165949,128,0,166113:0:0:0:0:
28,192,165949,1,0,0:0:0:0:
483,192,166031,1,0,0:0:0:0:
199,192,166113,1,0,0:0:0:0:
85,192,166195,128,0,166359:0:0:0:0:
426,192,166195,128,0,166359:0:0:0:0:
312,192,166195,1,0,0:0:0:0:
142,192,166277,1,0,0:0:0:0:
369,192,166359,1,0,0:0:0:0:
28,192,166441,128,0,166769:0:0:0:0:
483,192,166441,128,0,166769:0:0:0:0:
199,192,166441,1,0,0:0:0:0:
256,192,166441,1,0,0:0:0:0:
312,192,166523,1,0,0:0:0:0:
142,192,166523,1,0,0:0:0:0:
369,192,166605,1,0,0:0:0:0:
85,192,166769,128,0,166933:0:0:0:0:
199,192,166769,128,0,166933:0:0:0:0:
256,192,166769,1,0,0:0:0:0:
142,192,166796,1,0,0:0:0:0:
312,192,166933,128,0,167097:0:0:0:0:
426,192,166933,128,0,167097:0:0:0:0:
369,192,166933,1,0,0:0:0:0:
142,192,167097,1,0,0:0:0:0:
256,192,167124,1,0,0:0:0:0:
312,192,167261,128,0,167425:0:0:0:0:
426,192,167261,128,0,167425:0:0:0:0:
28,192,167261,1,0,0:0:0:0:
199,192,167261,1,0,0:0:0:0:
142,192,167343,1,0,0:0:0:0:
256,192,167425,1,0,0:0:0:0:
369,192,167507,1,0,0:0:0:0:
142,192,167588,128,0,167752:0:0:0:0:
199,192,167588,128,0,167752:0:0:0:0:
483,192,167588,1,0,0:0:0:0:
85,192,167588,1,0,0:0:0:0:
426,192,167670,1,0,0:0:0:0:
312,192,167752,128,0,167916:0:0:0:0:
369,192,167752,128,0,167916:0:0:0:0:
28,192,167752,1,0,0:0:0:0:
85,192,167834,1,0,0:0:0:0:
142,192,167916,128,0,168080:0:0:0:0:
199,192,167916,128,0,168080:0:0:0:0:
256,192,167916,1,0,0:0:0:0:
312,192,168080,1,0,0:0:0:0:
426,192,168108,1,0,0:0:0:0:
369,192,168162,128,0,168326:0:0:0:0:
483,192,168162,128,0,168326:0:0:0:0:
142,192,168244,1,0,0:0:0:0:
312,192,168408,128,0,168572:0:0:0:0:
199,192,168408,128,0,168572:0:0:0:0:
256,192,168408,1,0,0:0:0:0:
85,192,168435,1,0,0:0:0:0:
142,192,168572,128,0,169228:0:0:0:0:
28,192,168572,128,0,169228:0:0:0:0:
369,192,168572,1,0,0:0:0:0:
426,192,168572,1,0,0:0:0:0:
483,192,168654,1,0,0:0:0:0:
312,192,168736,1,0,0:0:0:0:
199,192,168736,1,0,0:0:0:0:
426,192,168818,1,0,0:0:0:0:
85,192,168818,1,0,0:0:0:0:
256,192,168900,1,0,0:0:0:0:
483,192,168900,1,0,0:0:0:0:
369,192,168982,1,0,0:0:0:0:
199,192,169064,1,0,0:0:0:0:
426,192,169064,1,0,0:0:0:0:
312,192,169146,1,0,0:0:0:0:
369,192,169146,1,0,0:0:0:0:
256,192,169228,1,0,0:0:0:0:
483,192,169228,1,0,0:0:0:0:
85,192,169228,1,0,0:0:0:0:
369,192,169392,1,0,0:0:0:0:
426,192,169419,1,0,0:0:0:0:
142,192,169556,128,0,169720:0:0:0:0:
312,192,169556,1,0,0:0:0:0:
85,192,169720,1,0,0:0:0:0:
28,192,169747,1,0,0:0:0:0:
142,192,169884,128,0,170539:0:0:0:0:
199,192,169884,1,0,0:0:0:0:
369,192,169884,1,0,0:0:0:0:
256,192,169966,1,0,0:0:0:0:
483,192,170047,1,0,0:0:0:0:
426,192,170129,1,0,0:0:0:0:
312,192,170211,1,0,0:0:0:0:
85,192,170211,1,0,0:0:0:0:
369,192,170293,1,0,0:0:0:0:
426,192,170375,1,0,0:0:0:0:
256,192,170457,1,0,0:0:0:0:
28,192,170539,1,0,0:0:0:0:
256,192,170703,128,0,170785:0:0:0:0:
85,192,170703,1,0,0:0:0:0:
199,192,170731,1,0,0:0:0:0:
369,192,170867,128,0,171031:0:0:0:0:
312,192,170867,1,0,0:0:0:0:
426,192,171031,1,0,0:0:0:0:
483,192,171058,1,0,0:0:0:0:
312,192,171195,1,0,0:0:0:0:
369,192,171195,128,0,171851:0:0:0:0:
142,192,171195,1,0,0:0:0:0:
256,192,171277,1,0,0:0:0:0:
28,192,171359,1,0,0:0:0:0:
85,192,171441,1,0,0:0:0:0:
199,192,171523,1,0,0:0:0:0:
426,192,171523,1,0,0:0:0:0:
142,192,171605,1,0,0:0:0:0:
85,192,171687,1,0,0:0:0:0:
199,192,171687,1,0,0:0:0:0:
256,192,171769,1,0,0:0:0:0:
28,192,171769,1,0,0:0:0:0:
312,192,171851,1,0,0:0:0:0:
256,192,172015,128,0,172097:0:0:0:0:
199,192,172015,1,0,0:0:0:0:
142,192,172042,1,0,0:0:0:0:
85,192,172179,128,0,172343:0:0:0:0:
369,192,172179,1,0,0:0:0:0:
426,192,172343,128,0,172425:0:0:0:0:
256,192,172343,1,0,0:0:0:0:
312,192,172370,1,0,0:0:0:0:
85,192,172507,128,0,172670:0:0:0:0:
142,192,172507,1,0,0:0:0:0:
369,192,172507,1,0,0:0:0:0:
199,192,172588,1,0,0:0:0:0:
256,192,172670,1,0,0:0:0:0:
312,192,172752,1,0,0:0:0:0:
85,192,172834,128,0,172998:0:0:0:0:
369,192,172834,1,0,0:0:0:0:
142,192,172834,1,0,0:0:0:0:
312,192,172916,1,0,0:0:0:0:
426,192,172998,128,0,173162:0:0:0:0:
256,192,172998,1,0,0:0:0:0:
199,192,173080,1,0,0:0:0:0:
85,192,173162,128,0,173326:0:0:0:0:
142,192,173162,1,0,0:0:0:0:
256,192,173326,1,0,0:0:0:0:
369,192,173354,1,0,0:0:0:0:
199,192,173408,128,0,173572:0:0:0:0:
483,192,173490,1,0,0:0:0:0:
256,192,173654,128,0,173818:0:0:0:0:
142,192,173654,1,0,0:0:0:0:
85,192,173681,1,0,0:0:0:0:
312,192,173818,128,0,174474:0:0:0:0:
369,192,173818,128,0,174474:0:0:0:0:
28,192,173818,1,0,0:0:0:0:
426,192,173818,1,0,0:0:0:0:
85,192,173900,1,0,0:0:0:0:
142,192,173982,1,0,0:0:0:0:
28,192,173982,1,0,0:0:0:0:
199,192,174064,1,0,0:0:0:0:
85,192,174064,1,0,0:0:0:0:
256,192,174146,1,0,0:0:0:0:
142,192,174146,1,0,0:0:0:0:
28,192,174228,1,0,0:0:0:0:
142,192,174310,1,0,0:0:0:0:
85,192,174310,1,0,0:0:0:0:
256,192,174392,1,0,0:0:0:0:
199,192,174392,1,0,0:0:0:0:
426,192,174474,1,0,0:0:0:0:
142,192,174638,1,0,0:0:0:0:
256,192,174665,1,0,0:0:0:0:
85,192,174802,128,0,174966:0:0:0:0:
199,192,174802,128,0,174966:0:0:0:0:
483,192,174802,1,0,0:0:0:0:
426,192,174966,1,0,0:0:0:0:
312,192,174993,1,0,0:0:0:0:
199,192,175129,128,0,175334:0:0:0:0:
142,192,175129,128,0,175293:0:0:0:0:
483,192,175129,1,0,0:0:0:0:
28,192,175129,1,0,0:0:0:0:
369,192,175211,1,0,0:0:0:0:
256,192,175293,1,0,0:0:0:0:
28,192,175375,1,0,0:0:0:0:
312,192,175457,128,0,175621:0:0:0:0:
426,192,175457,128,0,175621:0:0:0:0:
142,192,175457,1,0,0:0:0:0:
369,192,175457,1,0,0:0:0:0:
256,192,175539,1,0,0:0:0:0:
199,192,175621,1,0,0:0:0:0:
85,192,175703,1,0,0:0:0:0:
312,192,175785,128,0,175990:0:0:0:0:
369,192,175785,128,0,175949:0:0:0:0:
28,192,175785,1,0,0:0:0:0:
142,192,175949,1,0,0:0:0:0:
199,192,175976,1,0,0:0:0:0:
483,192,176113,1,0,0:0:0:0:
199,192,176277,128,0,176441:0:0:0:0:
256,192,176277,128,0,176441:0:0:0:0:
85,192,176277,1,0,0:0:0:0:
28,192,176304,1,0,0:0:0:0:
142,192,176441,128,0,176605:0:0:0:0:
312,192,176441,128,0,176605:0:0:0:0:
426,192,176441,1,0,0:0:0:0:
369,192,176441,1,0,0:0:0:0:
483,192,176523,1,0,0:0:0:0:
256,192,176605,1,0,0:0:0:0:
85,192,176687,128,0,176851:0:0:0:0:
369,192,176687,128,0,176851:0:0:0:0:
199,192,176687,1,0,0:0:0:0:
312,192,176769,1,0,0:0:0:0:
256,192,176851,1,0,0:0:0:0:
28,192,176933,128,0,177261:0:0:0:0:
426,192,176933,128,0,177261:0:0:0:0:
142,192,176933,1,0,0:0:0:0:
312,192,176933,1,0,0:0:0:0:
199,192,177015,1,0,0:0:0:0:
369,192,177015,1,0,0:0:0:0:
256,192,177097,1,0,0:0:0:0:
142,192,177261,128,0,177425:0:0:0:0:
85,192,177261,128,0,177425:0:0:0:0:
199,192,177261,1,0,0:0:0:0:
369,192,177288,1,0,0:0:0:0:
312,192,177425,128,0,177588:0:0:0:0:
483,192,177425,128,0,177588:0:0:0:0:
256,192,177425,1,0,0:0:0:0:
369,192,177588,1,0,0:0:0:0:
199,192,177616,1,0,0:0:0:0:
312,192,177752,128,0,177916:0:0:0:0:
483,192,177752,128,0,177916:0:0:0:0:
85,192,177752,1,0,0:0:0:0:
28,192,177752,1,0,0:0:0:0:
142,192,177834,1,0,0:0:0:0:
199,192,177916,1,0,0:0:0:0:
369,192,177998,1,0,0:0:0:0:
28,192,178080,128,0,178244:0:0:0:0:
199,192,178080,128,0,178244:0:0:0:0:
312,192,178080,1,0,0:0:0:0:
483,192,178080,1,0,0:0:0:0:
256,192,178162,1,0,0:0:0:0:
369,192,178244,128,0,178408:0:0:0:0:
426,192,178244,128,0,178408:0:0:0:0:
142,192,178244,1,0,0:0:0:0:
312,192,178244,1,0,0:0:0:0:
85,192,178326,1,0,0:0:0:0:
199,192,178408,128,0,178572:0:0:0:0:
312,192,178408,128,0,178572:0:0:0:0:
28,192,178408,1,0,0:0:0:0:
483,192,178408,1,0,0:0:0:0:
256,192,178408,1,0,0:0:0:0:
142,192,178654,128,0,178818:0:0:0:0:
369,192,178654,128,0,178818:0:0:0:0:
256,192,178654,1,0,0:0:0:0:
85,192,178654,1,0,0:0:0:0:
426,192,178654,1,0,0:0:0:0:
85,192,178900,128,0,179064:0:0:0:0:
426,192,178900,128,0,179064:0:0:0:0:
256,192,178900,1,0,0:0:0:0:
199,192,178900,1,0,0:0:0:0:
312,192,178900,1,0,0:0:0:0:
28,192,179064,128,0,179392:0:0:0:0:
483,192,179064,128,0,179392:0:0:0:0:
256,192,179064,1,0,0:0:0:0:
142,192,179064,1,0,0:0:0:0:
369,192,179064,1,0,0:0:0:0:
199,192,179392,128,0,179720:0:0:0:0:
312,192,179392,128,0,179720:0:0:0:0:
256,192,179392,1,0,0:0:0:0:
85,192,179720,128,0,180703:0:0:0:0:
426,192,179720,128,0,180703:0:0:0:0:
28,192,179720,1,0,0:0:0:0:
142,192,179720,1,0,0:0:0:0:
369,192,179720,1,0,0:0:0:0:
483,192,179720,1,0,0:0:0:0:
