osu file format v14

[General]
AudioFilename: audio.mp3
AudioLeadIn: 0
PreviewTime: 29451
Countdown: 0
SampleSet: Soft
StackLeniency: 0.7
Mode: 0
LetterboxInBreaks: 0
WidescreenStoryboard: 1

[Editor]
DistanceSpacing: 1.1
BeatDivisor: 4
GridSize: 4
TimelineZoom: 1

[Metadata]
Title:LAY YOUR HANDS ON ME -TV MIX-
TitleUnicode:LAY YOUR HANDS ON ME -TV MIX-
Artist:BOOM BOOM SATELLITES
ArtistUnicode:BOOM BOOM SATELLITES
Creator:Nozhomi
Version:NORMAL
Source:キズナイーバー
Tags:Kiznaiver tv size opening op
BeatmapID:963264
BeatmapSetID:448847

[Difficulty]
HPDrainRate:3.5
CircleSize:3.3
OverallDifficulty:4
ApproachRate:5
SliderMultiplier:1.2
SliderTickRate:1

[Events]
//Background and Video events
0,0,"nice.jpg",0,0
Video,-600,"Kiznaiver.avi"
//Break Periods
2,28374,29103
//Storyboard Layer 0 (Background)
//Storyboard Layer 1 (Fail)
//Storyboard Layer 2 (Pass)
//Storyboard Layer 3 (Foreground)
//Storyboard Sound Samples

[TimingPoints]
3069,425.531914893617,4,2,1,40,1,0
3069,-125,4,2,1,40,0,0
16686,-125,4,2,1,55,0,0
23494,-125,4,2,1,70,0,0
30303,-100,4,2,1,60,0,0
55834,-100,4,2,1,20,0,0
56047,-100,4,2,1,25,0,0
56260,-100,4,2,1,30,0,0
56473,-100,4,2,1,35,0,0
56686,-100,4,2,1,40,0,0
56898,-100,4,2,1,45,0,0
57111,-100,4,2,1,50,0,0
57324,-100,4,2,1,55,0,0
57537,-100,4,2,1,70,0,1
69451,-100,4,2,1,20,0,1
69664,-100,4,2,1,25,0,1
69877,-100,4,2,1,30,0,1
70090,-100,4,2,1,35,0,1
70303,-100,4,2,1,40,0,1
70515,-100,4,2,1,45,0,1
70728,-100,4,2,1,50,0,1
70941,-100,4,2,1,55,0,1
71154,-100,4,2,1,60,0,0
84877,-100,4,2,1,40,0,0
87324,-100,4,2,1,30,0,0
87537,-100,4,2,1,20,0,0
87749,-100,4,2,1,10,0,0
87962,-100,4,2,1,5,0,0

[Colours]
Combo1 : 1,62,175
Combo2 : 159,131,32
Combo3 : 17,180,208
Combo4 : 233,10,149
Combo5 : 255,201,36
Combo6 : 153,95,201
Combo7 : 219,126,70

[HitObjects]
304,232,3069,6,0,P|376:256|448:228,2,144,4|0|0,0:0|0:0|0:0,0:0:0:0:
208,152,4771,2,0,P|136:128|64:156,2,144,2|0|0,0:0|0:0|0:0,0:0:0:0:
304,232,6473,6,0,L|292:376,2,144,2|0|0,0:0|0:0|0:0,0:0:0:0:
316,108,8175,1,2,0:0:0:0:
192,96,8600,1,0,0:0:0:0:
180,220,9026,1,2,0:0:0:0:
304,232,9451,1,0,0:0:0:0:
412,168,9877,6,0,P|430:236|407:303,2,144,2|0|0,0:0|0:0|0:0,0:0:0:0:
328,76,11579,2,0,B|256:92|256:92|188:76,2,144,2|0|0,0:0|0:0|0:0,0:0:0:0:
320,200,13281,6,0,B|276:216|256:232|256:232|236:216|192:200,2,144,2|0|0,0:0|0:0|0:0,0:0:0:0:
436,248,14983,2,0,P|413:290|364:314,1,96,2|0,0:0|0:0,0:0:0:0:
248,320,15834,2,0,L|152:312,1,96,2|0,0:0|0:0,0:0:0:0:
36,267,16686,6,0,P|38:196|8:132,2,144,2|2|0,0:0|0:0|0:0,0:0:0:0:
152,224,18388,2,0,P|144:152|96:68,2,144,2|2|0,0:0|0:0|0:0,0:0:0:0:
268,176,20090,6,0,P|256:112|216:32,2,144,2|2|0,0:0|0:0|0:0,0:0:0:0:
272,300,21792,1,2,0:0:0:0:
164,241,22217,1,0,0:0:0:0:
268,176,22643,1,2,0:0:0:0:
384,224,23069,1,0,0:0:0:0:
372,99,23494,6,0,P|416:83|464:83,2,96,2|0|2,0:0|0:0|0:0,0:0:0:0:
256,144,24771,1,0,0:0:0:0:
139,99,25196,2,0,P|95:83|47:83,2,96,2|0|2,0:0|0:0|0:0,0:0:0:0:
256,144,26473,1,0,0:0:0:0:
194,252,26898,6,0,P|182:300|198:352,1,96,2|0,0:0|0:0,0:0:0:0:
318,344,27749,2,0,P|330:297|318:252,1,96,2|0,0:0|0:0,0:0:0:0:
444,260,30303,6,0,P|387:276|330:260,1,120,12|8,0:0|0:0,0:0:0:0:
220,188,31154,2,0,P|163:171|106:187,1,120,8|8,0:0|0:0,0:0:0:0:
53,226,31792,1,2,0:0:0:0:
53,226,32005,2,0,L|45:94,2,120,8|8|8,0:0|0:0|0:0,0:0:0:0:
96,276,33069,2,0,L|96:344,2,60,2|8|2,0:0|0:0|0:0,0:0:0:0:
144,232,33707,6,0,P|188:212|272:236,1,120,8|8,0:0|0:0,0:0:0:0:
371,287,34558,2,0,P|361:229|377:172,1,120,8|8,0:0|0:0,0:0:0:0:
416,120,35196,1,2,0:0:0:0:
416,120,35409,2,0,L|284:116,1,120,8|8,0:0|0:0,0:0:0:0:
168,80,36260,1,8,0:0:0:0:
168,80,36473,2,0,P|152:48|112:24,2,60,2|8|2,0:0|0:0|0:0,0:0:0:0:
190,144,37111,6,0,B|170:192|170:192|189:257,1,120,8|8,0:0|0:0,0:0:0:0:
322,257,37962,2,0,B|341:191|341:191|321:143,1,120,8|8,0:0|0:0,0:0:0:0:
292,84,38600,1,2,0:0:0:0:
292,84,38813,2,0,P|233:108|177:100,1,120,8|8,0:0|0:0,0:0:0:0:
48,72,39664,1,8,0:0:0:0:
48,72,39877,2,0,L|36:13,2,60,2|8|2,0:0|0:0|0:0,0:0:0:0:
64,136,40515,6,0,B|72:176|72:176|56:260,1,120,8|8,0:0|0:0,0:0:0:0:
132,364,41366,2,0,L|159:227,1,120,8|8,0:0|0:0,0:0:0:0:
188,188,42005,1,2,0:0:0:0:
188,188,42217,2,0,L|164:120,2,60,8|0|8,0:0|0:0|0:0,0:0:0:0:
324,196,43069,1,8,0:0:0:0:
324,196,43281,2,0,L|348:264,2,60,2|8|2,0:0|0:0|0:0,0:0:0:0:
295,135,43920,6,0,P|275:80|295:25,1,120,8|8,0:0|0:0,0:0:0:0:
428,25,44771,2,0,P|448:80|427:135,1,120,8|8,0:0|0:0,0:0:0:0:
376,176,45409,1,2,0:0:0:0:
376,176,45622,2,0,L|248:168,1,120,8|8,0:0|0:0,0:0:0:0:
164,264,46473,1,8,0:0:0:0:
164,264,46686,2,0,L|283:271,1,120,2|2,0:0|0:0,0:0:0:0:
348,288,47324,6,0,P|349:229|381:180,1,120,8|8,0:0|0:0,0:0:0:0:
440,60,48175,2,0,L|322:34,1,120,8|8,0:0|0:0,0:0:0:0:
256,24,48813,1,2,0:0:0:0:
189,35,49026,2,0,L|130:47,2,60,8|0|8,0:0|0:0|0:0,0:0:0:0:
251,151,49877,1,8,0:0:0:0:
251,151,50090,2,0,L|310:139,2,60,2|8|2,0:0|0:0|0:0,0:0:0:0:
192,180,50728,6,0,B|172:236|172:236|192:294,1,120,8|8,0:0|0:0,0:0:0:0:
92,208,51579,2,0,B|112:150|112:150|92:94,1,120,8|8,0:0|0:0,0:0:0:0:
60,44,52217,1,2,0:0:0:0:
60,44,52430,2,0,P|124:68|192:36,1,120,8|8,0:0|0:0,0:0:0:0:
300,20,53281,1,8,0:0:0:0:
300,20,53494,2,0,P|357:6|411:29,1,120,2|2,0:0|0:0,0:0:0:0:
463,71,54132,6,0,L|455:191,1,120,8|8,0:0|0:0,0:0:0:0:
348,116,54983,2,0,L|340:236,1,120,8|8,0:0|0:0,0:0:0:0:
216,280,55834,2,0,P|188:284|156:279,2,60,0|0|0,3:0|3:0|3:0,0:0:0:0:
188,148,56686,2,0,P|164:131|147:107,2,60,0|0|0,3:0|3:0|3:0,0:0:0:0:
320,132,57537,6,0,P|376:115|445:147,1,120,12|8,0:0|0:0,0:0:0:0:
484,176,58175,1,2,0:0:0:0:
484,176,58388,2,0,L|476:304,1,120,8|8,0:0|0:0,0:0:0:0:
436,348,59026,1,2,0:0:0:0:
436,348,59239,6,0,P|377:358|324:334,1,120,8|8,0:0|0:0,0:0:0:0:
240,232,60090,2,0,L|176:232,2,60,8|2|8,0:0|0:0|0:0,0:0:0:0:
296,200,60728,1,2,0:0:0:0:
296,200,60941,6,0,L|301:78,1,120,8|8,0:0|0:0,0:0:0:0:
256,32,61579,1,2,0:0:0:0:
211,80,61792,2,0,P|188:122|96:128,1,120,8|8,0:0|0:0,0:0:0:0:
57,124,62430,1,2,0:0:0:0:
57,124,62643,6,0,L|48:248,1,120,8|8,0:0|0:0,0:0:0:0:
140,339,63494,2,0,P|161:319|189:310,1,60,8|2,0:0|0:0,0:0:0:0:
256,312,63920,2,0,P|282:325|312:326,1,60,8|2,0:0|0:0,0:0:0:0:
372,296,64345,6,0,B|388:256|388:256|374:180,1,120,8|8,0:0|0:0,0:0:0:0:
360,116,64983,1,2,0:0:0:0:
360,116,65196,2,0,P|302:104|248:128,1,120,8|8,0:0|0:0,0:0:0:0:
215,185,65834,1,2,0:0:0:0:
268,224,66047,6,0,P|325:235|379:211,1,120,8|8,0:0|0:0,0:0:0:0:
415,154,66685,2,0,L|475:154,2,60,2|8|2,0:0|0:0|0:0,0:0:0:0:
360,116,67324,1,8,0:0:0:0:
248,52,67749,6,0,B|204:36|204:36|131:46,1,120,8|8,0:0|0:0,0:0:0:0:
68,64,68388,1,2,0:0:0:0:
68,64,68600,2,0,L|4:40,2,60,8|0|8,0:0|0:0|0:0,0:0:0:0:
92,126,69239,1,2,0:0:0:0:
256,192,69451,12,12,71154,0:0:0:0:
296,140,72856,6,0,L|484:112,2,180,2|2|0,0:0|0:0|0:0,0:0:0:0:
216,244,74558,6,0,L|28:272,2,180,2|2|0,0:0|0:0|0:0,0:0:0:0:
336,184,76260,2,0,P|353:244|328:316,1,120,2|0,0:0|0:0,0:0:0:0:
216,244,77111,2,0,P|202:186|219:129,1,120,2|0,0:0|0:0,0:0:0:0:
320,44,77962,6,0,L|500:48,2,180,2|2|0,0:0|0:0|0:0,0:0:0:0:
204,108,79664,2,0,L|24:112,2,180,2|2|0,0:0|0:0|0:0,0:0:0:0:
320,168,81366,6,0,L|500:172,2,180,2|2|0,0:0|0:0|0:0,0:0:0:0:
192,204,83069,1,2,0:0:0:0:
292,292,83494,1,0,0:0:0:0:
167,334,83920,1,2,0:0:0:0:
192,204,84345,1,0,0:0:0:0:
320,168,84771,5,12,0:0:0:0:
256,192,84983,12,0,88175,0:0:0:0:
