osu file format v14

[General]
AudioFilename: audio.mp3
AudioLeadIn: 0
PreviewTime: 29451
Countdown: 0
SampleSet: Soft
StackLeniency: 0.7
Mode: 0
LetterboxInBreaks: 0
WidescreenStoryboard: 0

[Editor]
DistanceSpacing: 1.4
BeatDivisor: 4
GridSize: 4
TimelineZoom: 1

[Metadata]
Title:LAY YOUR HANDS ON ME -TV MIX-
TitleUnicode:LAY YOUR HANDS ON ME -TV MIX-
Artist:BOOM BOOM SATELLITES
ArtistUnicode:BOOM BOOM SATELLITES
Creator:Nozhomi
Version:HARD
Source:キズナイーバー
Tags:Kiznaiver tv size opening op
BeatmapID:963263
BeatmapSetID:448847

[Difficulty]
HPDrainRate:5.5
CircleSize:4
OverallDifficulty:6
ApproachRate:7
SliderMultiplier:1.5
SliderTickRate:1

[Events]
//Background and Video events
0,0,"nice.jpg",0,0
Video,-600,"Kiznaiver.avi"
//Break Periods
//Storyboard Layer 0 (Background)
//Storyboard Layer 1 (Fail)
//Storyboard Layer 2 (Pass)
//Storyboard Layer 3 (Foreground)
//Storyboard Sound Samples

[TimingPoints]
3069,425.531914893617,4,2,1,40,1,0
3069,-125,4,2,1,40,0,0
16686,-111.111111111111,4,2,1,55,0,0
23494,-111.111111111111,4,2,1,70,0,0
29345,-111.111111111111,4,2,1,40,0,0
30303,-100,4,2,1,60,0,0
55834,-100,4,2,1,20,0,0
56047,-100,4,2,1,25,0,0
56260,-100,4,2,1,30,0,0
56473,-100,4,2,1,35,0,0
56686,-100,4,2,1,40,0,0
56898,-100,4,2,1,45,0,0
57111,-100,4,2,1,50,0,0
57324,-100,4,2,1,55,0,0
57537,-83.3333333333333,4,2,1,70,0,1
69451,-83.3333333333333,4,2,1,20,0,1
69664,-83.3333333333333,4,2,1,25,0,1
69877,-83.3333333333333,4,2,1,30,0,1
70090,-83.3333333333333,4,2,1,35,0,1
70303,-83.3333333333333,4,2,1,40,0,1
70515,-83.3333333333333,4,2,1,45,0,1
70728,-83.3333333333333,4,2,1,50,0,1
70941,-83.3333333333333,4,2,1,55,0,1
71154,-100,4,2,1,60,0,0
84877,-100,4,2,1,40,0,0
87324,-100,4,2,1,30,0,0
87537,-100,4,2,1,20,0,0
87749,-100,4,2,1,10,0,0
87962,-100,4,2,1,5,0,0

[Colours]
Combo1 : 1,62,175
Combo2 : 159,131,32
Combo3 : 17,180,208
Combo4 : 233,10,149
Combo5 : 255,201,36
Combo6 : 153,95,201
Combo7 : 219,126,70

[HitObjects]
200,36,3069,6,0,P|190:79|198:123,3,90,12|2|0|2,0:0|0:0|0:0|0:0,0:0:0:0:
260,240,4345,1,0,0:0:0:0:
260,240,4558,2,0,P|267:283|258:327,3,90,2|0|2|0,0:0|0:0|0:0|0:0,0:0:0:0:
384,312,5834,2,0,P|387:280|385:250,1,60,2|0,0:0|0:0,0:0:0:0:
362,171,6260,1,0,0:0:0:0:
300,228,6473,6,0,P|257:239|215:226,3,90,2|2|0|2,0:0|0:0|0:0|0:0,0:0:0:0:
100,172,7749,1,0,0:0:0:0:
100,172,7962,2,0,L|92:356,1,180,2|0,0:0|0:0,0:0:0:0:
12,376,8813,2,0,L|19:196,1,180,2|0,0:0|0:0,0:0:0:0:
72,36,9877,6,0,P|114:22|156:36,3,90,2|2|0|2,0:0|0:0|0:0|0:0,0:0:0:0:
256,120,11153,1,0,0:0:0:0:
256,120,11366,2,0,L|248:224,3,90,2|0|2|0,0:0|0:0|0:0|0:0,0:0:0:0:
148,284,12643,2,0,P|122:240|135:184,1,90,2|0,0:0|0:0,0:0:0:0:
212,112,13281,6,0,L|316:120,3,90,2|2|0|2,0:0|0:0|0:0|0:0,0:0:0:0:
428,132,14557,1,0,0:0:0:0:
380,200,14770,2,0,B|320:228|320:228|200:200,1,180,2|0,0:0|0:0,0:0:0:0:
148,260,15622,2,0,L|323:300,1,180,2|0,0:0|0:0,0:0:0:0:
118,332,16686,6,0,P|69:251|135:184,2,202.499993820191,2|0|0,0:0|0:0|0:0,0:0:0:0:
208,308,18175,2,0,B|256:292|256:292|303:308,3,101.249996910095,2|0|2|0,0:0|0:0|0:0|0:0,0:0:0:0:
444,332,19451,2,0,P|491:278|481:219,1,134.999995880127,2|0,0:0|0:0,0:0:0:0:
404,164,20090,6,0,L|184:152,2,202.499993820191,2|2|0,0:0|0:0|0:0,0:0:0:0:
364,76,21579,2,0,P|310:135|346:241,1,202.499993820191,2|0,0:0|0:0,0:0:0:0:
428,292,22430,2,0,L|276:284,1,134.999995880127,2|0,0:0|0:0,0:0:0:0:
232,212,23069,1,2,0:0:0:0:
100,348,23494,6,0,B|92:280|92:280|104:212|104:212|96:144,2,202.499993820191,2|0|0,0:0|0:0|0:0,0:0:0:0:
168,284,24983,2,0,L|186:179,1,101.249996910095,2|0,0:0|0:0,0:0:0:0:
272,72,25622,2,0,L|289:171,1,101.249996910095,0|2,0:0|0:0,0:0:0:0:
364,292,26260,2,0,L|381:190,1,101.249996910095,2|0,0:0|0:0,0:0:0:0:
456,72,26898,5,2,0:0:0:0:
256,192,27005,12,0,29451,0:0:0:0:
96,152,30303,6,0,P|149:135|202:152,1,112.5,12|2,0:0|0:0,0:0:0:0:
309,231,30941,2,0,P|362:248|416:232,1,112.5,2|2,0:0|0:0,0:0:0:0:
492,120,31579,1,8,0:0:0:0:
492,120,31792,2,0,L|500:4,3,112.5,2|2|10|2,0:0|0:0|0:0|0:0,0:0:0:0:
368,84,33069,1,2,0:0:0:0:
264,76,33281,1,8,0:0:0:0:
264,76,33388,1,0,0:0:0:0:
264,76,33494,1,2,0:0:0:0:
200,212,33707,6,0,B|208:256|208:256|192:344,1,112.5,8|2,0:0|0:0,0:0:0:0:
76,260,34345,2,0,P|61:226|85:153,1,112.5,2|2,0:0|0:0,0:0:0:0:
184,68,34983,1,8,0:0:0:0:
184,68,35196,2,0,L|300:80,1,112.5,2|2,0:0|0:0,0:0:0:0:
412,148,35834,2,0,P|376:192|291:203,1,112.5,10|2,0:0|0:0,0:0:0:0:
208,140,36473,2,0,P|183:112|147:95,2,75,2|8|2,0:0|0:0|0:0,0:0:0:0:
208,260,37111,6,0,P|196:314|216:365,3,112.5,8|2|2|2,0:0|0:0|0:0|0:0,0:0:0:0:
336,304,38388,1,8,0:0:0:0:
336,304,38600,2,0,L|328:188,1,112.5,2|2,0:0|0:0,0:0:0:0:
256,76,39239,2,0,L|248:188,1,112.5,10|2,0:0|0:0,0:0:0:0:
208,316,39877,1,2,0:0:0:0:
140,240,40090,1,8,0:0:0:0:
140,240,40196,1,0,0:0:0:0:
140,240,40303,1,2,0:0:0:0:
192,140,40515,6,0,P|200:84|168:20,1,112.5,8|2,0:0|0:0,0:0:0:0:
332,33,41154,2,0,P|311:84|320:140,1,112.5,2|2,0:0|0:0,0:0:0:0:
392,256,41792,1,8,0:0:0:0:
340,328,42005,1,2,0:0:0:0:
292,252,42217,2,0,B|256:240|256:240|220:252,1,75,8|0,0:0|0:0,0:0:0:0:
136,284,42643,2,0,B|100:296|100:296|64:284,1,75,0|2,0:0|0:0,0:0:0:0:
20,208,43069,1,8,0:0:0:0:
20,208,43281,2,0,L|16:112,2,75,2|8|2,0:0|0:0|0:0,0:0:0:0:
96,104,43920,6,0,L|99:216,3,112.5,8|2|2|2,0:0|0:0|0:0|0:0,0:0:0:0:
156,340,45196,1,8,0:0:0:0:
156,340,45409,2,0,P|172:284|216:256,1,112.5,2|2,0:0|0:0,0:0:0:0:
348,284,46047,2,0,P|401:300|454:285,1,112.5,10|2,0:0|0:0,0:0:0:0:
500,160,46686,1,2,0:0:0:0:
400,152,46898,1,8,0:0:0:0:
400,152,47005,1,0,0:0:0:0:
400,152,47111,1,2,0:0:0:0:
312,216,47324,6,0,B|272:228|272:228|199:216,1,112.5,8|2,0:0|0:0,0:0:0:0:
202,80,47962,2,0,B|242:68|242:68|312:80,1,112.5,2|2,0:0|0:0,0:0:0:0:
444,112,48600,1,8,0:0:0:0:
404,192,48813,1,2,0:0:0:0:
444,272,49026,2,0,P|452:308|444:344,1,75,8|0,0:0|0:0,0:0:0:0:
356,368,49451,2,0,L|272:360,1,75,10|0,0:0|0:0,0:0:0:0:
204,312,49877,1,0,0:0:0:0:
204,312,50090,2,0,L|116:312,2,75,2|8|2,0:0|0:0|0:0,0:0:0:0:
256,240,50728,6,0,P|284:196|270:120,1,112.5,8|2,0:0|0:0,0:0:0:0:
165,56,51366,2,0,B|150:102|150:102|168:164,1,112.5,2|2,0:0|0:0,0:0:0:0:
252,268,52004,1,8,0:0:0:0:
252,268,52217,2,0,P|300:284|368:264,3,112.5,2|2|10|2,0:0|0:0|0:0|0:0,0:0:0:0:
428,152,53494,2,0,P|412:96|436:32,1,112.5,2|0,0:0|0:0,0:0:0:0:
332,144,54132,6,0,P|291:185|224:197,1,112.5,8|2,0:0|0:0,0:0:0:0:
372,224,54771,2,0,P|428:238|471:290,1,112.5,2|2,0:0|0:0,0:0:0:0:
356,352,55409,1,10,0:0:0:0:
304,280,55622,1,2,0:0:0:0:
372,224,55834,6,0,L|384:168,3,37.5,0|0|0|0,3:0|3:0|3:0|3:0,0:0:0:0:
304,184,56260,2,0,L|316:124,3,37.5,0|0|0|0,3:0|3:0|3:0|3:0,0:0:0:0:
236,156,56686,2,0,L|248:96,3,37.5,0|0|0|0,3:0|3:0|3:0|3:0,0:0:0:0:
168,124,57111,2,0,L|180:64,3,37.5,0|0|0|0,3:0|3:0|3:0|3:0,0:0:0:0:
96,87,57537,6,0,P|93:154|141:200,1,134.999995880127,12|2,0:0|0:0,0:0:0:0:
296,164,58175,1,2,0:0:0:0:
296,164,58281,1,0,0:0:0:0:
296,163,58388,2,0,P|338:152|381:163,1,89.9999972534181,8|0,0:0|0:0,0:0:0:0:
468,228,58813,1,8,0:0:0:0:
382,294,59026,6,0,P|318:314|216:252,1,179.999994506836,2|0,0:0|0:0,0:0:0:0:
160,176,59664,2,0,L|148:328,1,134.999995880127,0|0,0:0|0:0,0:0:0:0:
256,192,60303,1,2,0:0:0:0:
216,72,60515,1,8,0:0:0:0:
340,96,60728,1,2,0:0:0:0:
256,192,60941,6,0,B|208:208|208:208|104:192,1,134.999995880127,8|2,0:0|0:0,0:0:0:0:
299,131,61579,2,0,P|330:192|304:249,1,134.999995880127,2|2,0:0|0:0,0:0:0:0:
208,76,62217,1,10,0:0:0:0:
208,76,62324,1,0,0:0:0:0:
208,76,62430,1,2,0:0:0:0:
307,34,62643,6,0,P|349:47|382:77,1,89.9999972534181,8|2,0:0|0:0,0:0:0:0:
420,180,63069,2,0,P|406:222|376:255,1,89.9999972534181,8|2,0:0|0:0,0:0:0:0:
272,284,63494,2,0,P|229:270|196:240,1,89.9999972534181,8|2,0:0|0:0,0:0:0:0:
160,136,63920,1,8,0:0:0:0:
248,32,64133,1,0,0:0:0:0:
248,32,64239,1,2,0:0:0:0:
248,32,64345,6,0,B|285:22|285:22|260:76|264:140,1,134.999995880127,8|2,0:0|0:0,0:0:0:0:
316,280,64983,1,2,0:0:0:0:
316,280,65089,1,0,0:0:0:0:
316,280,65196,2,0,P|360:276|405:280,1,89.9999972534181,8|0,0:0|0:0,0:0:0:0:
504,328,65622,1,8,0:0:0:0:
496,220,65834,6,0,L|504:76,2,134.999995880127,2|0|0,0:0|0:0|0:0,0:0:0:0:
406,280,66686,1,2,0:0:0:0:
406,280,66792,1,0,0:0:0:0:
406,280,66898,2,0,P|388:232|398:176,1,89.9999972534181,8|2,0:0|0:0,0:0:0:0:
428,92,67324,2,0,P|399:108|328:104,1,89.9999972534181,8|2,0:0|0:0,0:0:0:0:
216,64,67749,6,0,B|172:52|172:52|56:68,1,134.999995880127,8|2,0:0|0:0,0:0:0:0:
32,216,68388,1,2,0:0:0:0:
32,216,68494,1,0,0:0:0:0:
32,216,68600,2,0,P|73:230|132:216,1,89.9999972534181,8|0,0:0|0:0,0:0:0:0:
208,164,69026,1,8,0:0:0:0:
256,68,69239,1,2,0:0:0:0:
304,164,69451,6,0,P|308:188|328:220,3,44.999998626709,0|0|0|0,3:0|3:0|3:0|3:0,0:0:0:0:
360,276,69877,2,0,P|378:260|396:227,3,44.999998626709,0|0|0|0,3:0|3:0|3:0|3:0,0:0:0:0:
426,169,70303,2,0,P|405:160|383:160,3,44.999998626709,0|0|0|0,3:0|3:0|3:0|3:0,0:0:0:0:
304,164,70728,2,0,P|281:162|260:153,3,44.999998626709,0|0|0|0,3:0|3:0|3:0|3:0,0:0:0:0:
168,128,71154,6,0,B|159:196|204:229|204:229|168:264|168:335,2,225,12|2|2,0:0|0:0|0:0,0:0:0:0:
68,88,72643,2,0,P|56:138|68:208,3,112.5,2|2|2|2,0:0|0:0|0:0|0:0,0:0:0:0:
138,325,73920,1,2,0:0:0:0:
224,280,74132,1,0,0:0:0:0:
312,236,74345,1,0,0:0:0:0:
312,236,74451,1,0,0:0:0:0:
312,236,74558,6,0,P|393:280|312:324,2,225,2|2|2,0:0|0:0|0:0,0:0:0:0:
224,280,76047,2,0,B|148:304|148:304|164:132,1,225,2|2,0:0|0:0,0:0:0:0:
202,83,76898,2,0,B|276:60|276:60|436:88,1,225
492,268,77962,6,0,P|397:320|303:267,2,225,2|2|2,0:0|0:0|0:0,0:0:0:0:
440,188,79451,2,0,L|320:179,3,112.5,2|2|2|2,0:0|0:0|0:0|0:0,0:0:0:0:
208,284,80728,1,2,0:0:0:0:
304,284,80941,1,0,0:0:0:0:
256,200,81154,1,0,0:0:0:0:
208,116,81366,6,0,P|114:63|20:116,2,225,2|2|2,0:0|0:0|0:0,0:0:0:0:
256,192,82856,2,0,P|309:208|362:191,1,112.5,2|2,0:0|0:0,0:0:0:0:
492,120,83494,2,0,P|451:157|439:211,1,112.5,2|2,0:0|0:0,0:0:0:0:
436,360,84132,2,0,P|423:306|382:268,1,112.5,2|2,0:0|0:0,0:0:0:0:
256,192,84771,5,12,0:0:0:0:
256,192,84877,12,0,88175,0:0:0:0:
