osu file format v14

[General]
AudioFilename: audio.mp3
AudioLeadIn: 0
PreviewTime: 29451
Countdown: 0
SampleSet: Soft
StackLeniency: 0.7
Mode: 0
LetterboxInBreaks: 0
WidescreenStoryboard: 0

[Editor]
DistanceSpacing: 1.2
BeatDivisor: 2
GridSize: 4
TimelineZoom: 1

[Metadata]
Title:LAY YOUR HANDS ON ME -TV MIX-
TitleUnicode:LAY YOUR HANDS ON ME -TV MIX-
Artist:BOOM BOOM SATELLITES
ArtistUnicode:BOOM BOOM SATELLITES
Creator:Nozhomi
Version:EASY
Source:キズナイーバー
Tags:Kiznaiver tv size opening op
BeatmapID:963262
BeatmapSetID:448847

[Difficulty]
HPDrainRate:2
CircleSize:2.7
OverallDifficulty:2.2
ApproachRate:3
SliderMultiplier:0.9
SliderTickRate:1

[Events]
//Background and Video events
0,0,"nice.jpg",0,0
Video,-600,"Kiznaiver.avi"
//Break Periods
//Storyboard Layer 0 (Background)
//Storyboard Layer 1 (Fail)
//Storyboard Layer 2 (Pass)
//Storyboard Layer 3 (Foreground)
//Storyboard Sound Samples

[TimingPoints]
3069,425.531914893617,4,2,1,40,1,0
16686,-100,4,2,1,55,0,0
23494,-100,4,2,1,70,0,0
30303,-100,4,2,1,60,0,0
55834,-100,4,2,1,20,0,0
56260,-100,4,2,1,30,0,0
56686,-100,4,2,1,40,0,0
57111,-100,4,2,1,50,0,0
57537,-100,4,2,1,70,0,1
69451,-100,4,2,1,20,0,1
69664,-100,4,2,1,25,0,1
69877,-100,4,2,1,30,0,1
70090,-100,4,2,1,35,0,1
70303,-100,4,2,1,40,0,1
70515,-100,4,2,1,45,0,1
70728,-100,4,2,1,50,0,1
70941,-100,4,2,1,55,0,1
71154,-100,4,2,1,60,0,0
84877,-100,4,2,1,40,0,0
87324,-100,4,2,1,30,0,0
87537,-100,4,2,1,20,0,0
87749,-100,4,2,1,10,0,0
87962,-100,4,2,1,5,0,0

[Colours]
Combo1 : 1,62,175
Combo2 : 159,131,32
Combo3 : 17,180,208
Combo4 : 233,10,149
Combo5 : 255,201,36
Combo6 : 153,95,201
Combo7 : 219,126,70

[HitObjects]
204,80,3069,6,0,P|139:192|201:306,1,270,4|0,0:0|0:0,0:0:0:0:
310,306,4771,2,0,P|372:192|307:79,1,270,2|0,0:0|0:0,0:0:0:0:
200,92,6473,6,0,B|120:96|60:68|60:68|92:140|76:208,1,270,2|0,0:0|0:0,0:0:0:0:
48,296,8175,1,2,0:0:0:0:
192,224,8813,2,0,P|256:207|321:224,1,135
412,280,9877,6,0,B|450:219|405:154|405:154|448:123|457:61|437:24,1,270,2|0,0:0|0:0,0:0:0:0:
340,68,11579,2,0,B|260:112|260:112|76:68,1,270,2|0,0:0|0:0,0:0:0:0:
44,172,13281,6,0,B|314:238,1,270,2|0,0:0|0:0,0:0:0:0:
412,260,14983,1,2,0:0:0:0:
384,100,15622,2,0,P|320:52|232:36,1,135,2|0,0:0|0:0,0:0:0:0:
160,48,16686,6,0,B|196:108|196:108|176:216,1,180,2|0,0:0|0:0,0:0:0:0:
352,336,18388,2,0,B|316:276|316:276|336:168,1,180,2|0,0:0|0:0,0:0:0:0:
152,56,20090,6,0,P|117:137|154:226,1,180,2|2,0:0|0:0,0:0:0:0:
364,219,21792,2,0,P|394:136|360:56,1,180,2|2,0:0|0:0,0:0:0:0:
256,28,23069,1,0,0:0:0:0:
176,100,23494,6,0,L|129:227,2,135,2|2|0,0:0|0:0|0:0,0:0:0:0:
256,172,25196,2,0,L|256:308,2,135,2|2|0,0:0|0:0|0:0,0:0:0:0:
336,100,26898,2,0,L|382:227,2,135,2|2|0,0:0|0:0|0:0,0:0:0:0:
424,340,30303,6,0,B|360:328|360:328|216:348,1,180,12|8,0:0|0:0,0:0:0:0:
140,360,31579,1,10,0:0:0:0:
184,264,32005,2,0,P|208:176|168:88,1,180,8|8,0:0|0:0,0:0:0:0:
76,56,33281,1,10,0:0:0:0:
36,156,33707,6,0,L|16:312,2,135,8|2|8,0:0|0:0|0:0,0:0:0:0:
76,56,35409,2,0,P|132:100|132:208,1,180,8|0,0:0|0:0,0:0:0:0:
100,304,36686,1,10,0:0:0:0:
208,296,37111,6,0,P|252:208|254:114,1,180,8|8,0:0|0:0,0:0:0:0:
232,24,38388,1,10,0:0:0:0:
336,52,38813,2,0,P|359:138|351:230,1,180,8|8,0:0|0:0,0:0:0:0:
264,292,40090,1,10,0:0:0:0:
160,316,40515,6,0,L|20:304,2,135,8|2|8,0:0|0:0|0:0,0:0:0:0:
252,256,42217,2,0,P|176:207|89:232,1,180,8|8,0:0|0:0,0:0:0:0:
52,328,43494,1,10,0:0:0:0:
160,316,43920,6,0,B|220:344|220:344|364:316,1,180,8|8,0:0|0:0,0:0:0:0:
424,264,45196,1,10,0:0:0:0:
348,184,45622,2,0,P|311:108|358:26,1,180,8|0,0:0|0:0,0:0:0:0:
460,12,46898,1,10,0:0:0:0:
448,120,47324,6,0,L|432:256,2,135,8|2|8,0:0|0:0|0:0,0:0:0:0:
344,148,49026,2,0,L|320:344,1,180,8|8,0:0|0:0,0:0:0:0:
220,360,50303,1,10,0:0:0:0:
112,364,50728,6,0,P|142:286|240:252,1,180,8|8,0:0|0:0,0:0:0:0:
336,251,52005,1,10,0:0:0:0:
312,144,52430,2,0,P|284:84|164:36,1,180,8|0,0:0|0:0,0:0:0:0:
76,44,53707,1,10,0:0:0:0:
103,147,54132,6,0,P|123:211|103:274,2,135,8|2|8,0:0|0:0|0:0,0:0:0:0:
36,64,55834,2,0,L|140:52,1,90,0|0,3:0|3:0,0:0:0:0:
193,137,56686,2,0,L|103:147,1,90,0|0,3:0|3:0,0:0:0:0:
56,244,57537,6,0,L|234:222,1,180,12|8,0:0|0:0,0:0:0:0:
340,208,58813,1,10,0:0:0:0:
272,124,59239,2,0,P|268:78|280:35,2,90,8|8|8,0:0|0:0|0:0,0:0:0:0:
340,208,60515,1,10,0:0:0:0:
436,256,60941,6,0,P|386:305|270:290,1,180,8|8,0:0|0:0,0:0:0:0:
192,240,62217,1,10,0:0:0:0:
136,148,62643,2,0,L|140:52,1,90,8|8,0:0|0:0,0:0:0:0:
44,108,63494,2,0,L|40:197,1,90,8|10,0:0|0:0,0:0:0:0:
40,308,64345,6,0,P|92:260|208:256,1,180,8|8,0:0|0:0,0:0:0:0:
292,304,65622,1,10,0:0:0:0:
280,196,66047,2,0,B|272:150|272:150|285:108,2,90,8|8|8,0:0|0:0|0:0,0:0:0:0:
292,304,67324,1,10,0:0:0:0:
392,344,67749,6,0,P|428:264|389:186,1,180,8|8,0:0|0:0,0:0:0:0:
300,124,69026,1,10,0:0:0:0:
256,192,69451,12,12,71154,0:0:0:0:
360,139,72856,6,0,P|490:191|359:242,1,360,2|2,0:0|0:0,0:0:0:0:
148,192,75409,1,2,0:0:0:0:
319,60,76260,2,0,P|380:32|447:34,2,135,2|2|0,0:0|0:0|0:0,0:0:0:0:
224,112,77962,6,0,B|232:52|156:3|80:52|76:112|76:112|100:180|68:247,1,360,2|2,0:0|0:0,0:0:0:0:
256,356,80515,1,0,0:0:0:0:
468,320,81366,6,0,B|440:222|354:190|354:190|472:135|465:62,1,360,2|2,0:0|0:0,0:0:0:0:
256,8,83920,1,0,0:0:0:0:
256,224,84771,5,12,0:0:0:0:
256,192,84983,12,0,88175,0:0:0:0:
