osu file format v14

[General]
AudioFilename: audio.mp3
AudioLeadIn: 0
PreviewTime: 29451
Countdown: 0
SampleSet: Soft
StackLeniency: 0.5
Mode: 0
LetterboxInBreaks: 0
WidescreenStoryboard: 0

[Editor]
DistanceSpacing: 1.5
BeatDivisor: 4
GridSize: 4
TimelineZoom: 1.2

[Metadata]
Title:LAY YOUR HANDS ON ME -TV MIX-
TitleUnicode:LAY YOUR HANDS ON ME -TV MIX-
Artist:BOOM BOOM SATELLITES
ArtistUnicode:BOOM BOOM SATELLITES
Creator:Nozhomi
Version:CONNECTION
Source:キズナイーバー
Tags:Kiznaiver tv size opening op
BeatmapID:963261
BeatmapSetID:448847

[Difficulty]
HPDrainRate:6.6
CircleSize:4.4
OverallDifficulty:7.7
ApproachRate:8.8
SliderMultiplier:1.7
SliderTickRate:1

[Events]
//Background and Video events
0,0,"nice.jpg",0,0
Video,-600,"Kiznaiver.avi"
//Break Periods
//Storyboard Layer 0 (Background)
//Storyboard Layer 1 (Fail)
//Storyboard Layer 2 (Pass)
//Storyboard Layer 3 (Foreground)
//Storyboard Sound Samples

[TimingPoints]
3069,425.531914893617,4,2,1,40,1,0
3069,-166.666666666667,4,2,1,40,0,0
16686,-125,4,2,1,55,0,0
23494,-111.111111111111,4,2,1,70,0,0
29345,-111.111111111111,4,2,1,40,0,0
30303,-71.4285714285714,4,2,1,60,0,0
55834,-71.4285714285714,4,2,1,20,0,0
56047,-71.4285714285714,4,2,1,25,0,0
56260,-71.4285714285714,4,2,1,30,0,0
56473,-71.4285714285714,4,2,1,35,0,0
56686,-71.4285714285714,4,2,1,40,0,0
56898,-71.4285714285714,4,2,1,45,0,0
57111,-71.4285714285714,4,2,1,50,0,0
57324,-71.4285714285714,4,2,1,55,0,0
57537,-62.5,4,2,1,70,0,1
69451,-62.5,4,2,1,20,0,1
69664,-62.5,4,2,1,25,0,1
69877,-62.5,4,2,1,30,0,1
70090,-62.5,4,2,1,35,0,1
70303,-62.5,4,2,1,40,0,1
70515,-62.5,4,2,1,45,0,1
70728,-62.5,4,2,1,50,0,1
70941,-62.5,4,2,1,55,0,1
71154,-100,4,2,1,60,0,0
84877,-100,4,2,1,40,0,0
87324,-100,4,2,1,30,0,0
87537,-100,4,2,1,20,0,0
87749,-100,4,2,1,10,0,0
87962,-100,4,2,1,5,0,0

[Colours]
Combo1 : 1,62,175
Combo2 : 159,131,32
Combo3 : 17,180,208
Combo4 : 233,10,149
Combo5 : 255,201,36
Combo6 : 153,95,201
Combo7 : 219,126,70

[HitObjects]
120,108,3069,6,0,P|104:73|104:35,2,76.4999976654053,12|2|0,0:0|0:0|0:0,0:0:0:0:
192,188,4026,1,2,0:0:0:0:
256,104,4345,1,0,0:0:0:0:
316,144,4558,6,0,P|350:159|388:159,2,76.4999976654053,2|0|2,0:0|0:0|0:0,0:0:0:0:
224,92,5515,1,0,0:0:0:0:
236,200,5834,2,0,B|240:228|240:228|231:271,1,50.9999984436036,2|0,0:0|0:0,0:0:0:0:
232,264,6154,1,0,0:0:0:0:
228,276,6260,1,0,0:0:0:0:
144,320,6473,6,0,L|48:312,2,76.4999976654053,2|2|0,0:0|0:0|0:0,0:0:0:0:
256,280,7430,1,2,0:0:0:0:
368,320,7749,1,0,0:0:0:0:
400,256,7962,2,0,P|396:188|308:180,1,152.999995330811,2|0,0:0|0:0,0:0:0:0:
188,214,8813,2,0,P|118:199|112:128,1,152.999995330811,2|0,0:0|0:0,0:0:0:0:
164,80,9664,1,0,0:0:0:0:
232,100,9877,6,0,B|256:112|256:112|312:104,2,76.4999976654053,2|2|0,0:0|0:0|0:0,0:0:0:0:
136,56,10834,1,2,0:0:0:0:
144,164,11153,1,0,0:0:0:0:
112,228,11366,6,0,P|100:264|104:320,2,76.4999976654053,2|0|2,0:0|0:0|0:0,0:0:0:0:
212,192,12323,1,0,0:0:0:0:
316,216,12643,2,0,P|352:228|377:225,1,50.9999984436036,2|0,0:0|0:0,0:0:0:0:
379,225,12962,1,0,0:0:0:0:
392,220,13068,1,0,0:0:0:0:
456,152,13281,6,0,L|462:75,2,76.4999976654053,2|2|0,0:0|0:0|0:0,0:0:0:0:
388,236,14238,1,2,0:0:0:0:
340,140,14557,1,0,0:0:0:0:
288,188,14771,2,0,P|217:214|144:196,1,152.999995330811,2|0,0:0|0:0,0:0:0:0:
104,256,15622,2,0,P|166:283|260:280,1,152.999995330811,2|0,0:0|0:0,0:0:0:0:
320,268,16473,1,0,0:0:0:0:
399,219,16686,6,0,P|412:268|398:317,2,102,2|0|0,0:0|0:0|0:0,0:0:0:0:
304,128,17643,1,0,0:0:0:0:
172,144,17962,1,0,0:0:0:0:
128,68,18175,2,0,P|80:50|30:70,2,102,2|0|2,0:0|0:0|0:0,0:0:0:0:
256,104,19132,1,0,0:0:0:0:
384,68,19451,2,0,P|432:50|482:70,1,102,2|0,0:0|0:0,0:0:0:0:
431,192,20090,6,0,P|377:212|318:197,1,102,2|0,0:0|0:0,0:0:0:0:
220,140,20728,2,0,P|175:117|124:122,1,102,2|0,0:0|0:0,0:0:0:0:
40,224,21366,1,0,0:0:0:0:
104,284,21579,2,0,B|164:304|164:304|308:284,1,204,2|0,0:0|0:0,0:0:0:0:
364,220,22430,2,0,P|303:196|238:224,1,136,2|0,0:0|0:0,0:0:0:0:
180,284,23069,2,0,P|212:304|248:312,1,68,2|0,0:0|0:0,0:0:0:0:
364,220,23494,6,0,B|396:272|400:328|400:328|412:276|452:228,2,229.499992996216,2|0|0,0:0|0:0|0:0,0:0:0:0:
312,136,24983,2,0,L|320:16,2,114.749996498108,2|0|0,0:0|0:0|0:0,0:0:0:0:
256,276,25941,1,2,0:0:0:0:
200,136,26260,2,0,L|192:16,1,114.749996498108,2|0,0:0|0:0,0:0:0:0:
256,192,26898,1,2,0:0:0:0:
256,192,27005,12,0,29451,0:0:0:0:
82,126,30303,6,0,P|136:146|193:130,1,118.999996368408,12|0,0:0|0:0,0:0:0:0:
193,130,30622,2,0,P|249:113|304:134,1,118.999996368408,2|0,0:0|0:0,0:0:0:0:
304,134,30941,2,0,L|316:267,1,118.999996368408,2|8,0:0|0:0,0:0:0:0:
388,280,31260,2,0,L|376:161,1,118.999996368408,2|0,0:0|0:0,0:0:0:0:
368,72,31579,1,10,0:0:0:0:
388,280,31792,1,2,0:0:0:0:
160,199,32005,5,8,0:0:0:0:
160,199,32111,2,0,P|150:251|203:260,1,118.999996368408,2|0,0:0|0:0,0:0:0:0:
204,261,32430,2,0,B|256:233|256:233|308:261,1,118.999996368408,10|0,0:0|0:0,0:0:0:0:
308,261,32749,2,0,P|360:252|351:199,1,118.999996368408,2|0,0:0|0:0,0:0:0:0:
240,160,33069,2,0,P|192:160|140:116,2,118.999996368408,2|8|2,0:0|0:0|0:0,0:0:0:0:
412,86,33707,6,0,L|403:205,1,118.999996368408,8|0,0:0|0:0,0:0:0:0:
403,205,34026,2,0,P|366:250|311:270,1,118.999996368408,2|0,0:0|0:0,0:0:0:0:
312,271,34345,2,0,P|255:254|199:270,1,118.999996368408,2|8,0:0|0:0,0:0:0:0:
200,271,34664,2,0,P|144:250|108:204,1,118.999996368408,2|0,0:0|0:0,0:0:0:0:
83,120,34983,1,10,0:0:0:0:
228,12,35196,1,2,0:0:0:0:
376,112,35409,5,8,0:0:0:0:
376,112,35515,2,0,P|400:160|376:220,1,118.999996368408,2|0,0:0|0:0,0:0:0:0:
288,216,35834,2,0,P|265:162|290:109,1,118.999996368408,10|0,0:0|0:0,0:0:0:0:
288,216,36154,2,0,P|230:229|170:217,1,118.999996368408,2|0,0:0|0:0,0:0:0:0:
96,172,36473,1,2,0:0:0:0:
226,49,36686,1,8,0:0:0:0:
288,216,36898,1,2,0:0:0:0:
452,288,37111,6,0,P|476:232|451:173,1,118.999996368408,8|0,0:0|0:0,0:0:0:0:
457,179,37430,2,0,P|384:200|328:184,1,118.999996368408,2|0,0:0|0:0,0:0:0:0:
343,191,37749,2,0,P|284:183|229:203,1,118.999996368408,2|8,0:0|0:0,0:0:0:0:
229,203,38069,2,0,B|192:248|192:248|124:272,1,118.999996368408,2|0,0:0|0:0,0:0:0:0:
44,272,38388,1,10,0:0:0:0:
96,76,38600,1,2,0:0:0:0:
320,156,38813,5,8,0:0:0:0:
320,156,38920,2,0,L|448:116,1,118.999996368408,2|0,0:0|0:0,0:0:0:0:
424,196,39239,2,0,L|311:232,1,118.999996368408,10|0,0:0|0:0,0:0:0:0:
256,104,39558,2,0,L|369:68,1,118.999996368408,2|0,0:0|0:0,0:0:0:0:
212,160,39877,2,0,P|184:104|216:44,2,118.999996368408,2|8|2,0:0|0:0|0:0,0:0:0:0:
276,368,40515,6,0,P|280:312|324:272,1,118.999996368408,8|0,0:0|0:0,0:0:0:0:
324,271,40834,2,0,L|452:288,1,118.999996368408,2|0,0:0|0:0,0:0:0:0:
442,286,41154,2,0,P|485:247|490:189,1,118.999996368408,2|8,0:0|0:0,0:0:0:0:
490,189,41473,2,0,P|461:138|405:122,1,118.999996368408,2|0,0:0|0:0,0:0:0:0:
324,160,41792,1,10,0:0:0:0:
256,352,42005,1,2,0:0:0:0:
188,160,42217,6,0,B|116:180|116:180|56:168,1,118.999996368408,8|0,0:0|0:0,0:0:0:0:
72,171,42537,2,0,P|4:196|48:240,1,118.999996368408,2|0,0:0|0:0,0:0:0:0:
11,222,42856,2,0,P|31:278|23:336,1,118.999996368408,2|8,0:0|0:0,0:0:0:0:
176,240,43281,1,2,0:0:0:0:
340,308,43494,1,8,0:0:0:0:
316,132,43707,1,2,0:0:0:0:
176,239,43920,6,0,P|151:292|172:347,1,118.999996368408,8|0,0:0|0:0,0:0:0:0:
171,346,44239,2,0,P|225:323|284:327,1,118.999996368408,2|0,0:0|0:0,0:0:0:0:
284,327,44558,2,0,P|338:349|397:345,1,118.999996368408,2|8,0:0|0:0,0:0:0:0:
398,345,44877,2,0,L|412:215,1,118.999996368408,2|0,0:0|0:0,0:0:0:0:
420,140,45196,1,10,0:0:0:0:
256,268,45409,1,2,0:0:0:0:
92,140,45622,5,8,0:0:0:0:
92,140,45728,2,0,L|220:128,1,118.999996368408,2|0,0:0|0:0,0:0:0:0:
273,192,46047,2,0,P|213:217|158:200,1,118.999996368408,10|0,0:0|0:0,0:0:0:0:
148,66,46366,2,0,P|200:40|257:53,1,118.999996368408,2|0,0:0|0:0,0:0:0:0:
337,97,46686,2,0,P|389:122|446:109,1,118.999996368408,2|8,0:0|0:0,0:0:0:0:
456,104,47005,1,0,0:0:0:0:
464,96,47111,1,2,0:0:0:0:
258,53,47324,6,0,L|272:175,1,118.999996368408,8|0,0:0|0:0,0:0:0:0:
271,171,47643,2,0,P|224:127|136:127,1,118.999996368408,2|0,0:0|0:0,0:0:0:0:
172,118,47962,2,0,L|185:236,1,118.999996368408,2|8,0:0|0:0,0:0:0:0:
185,236,48281,2,0,P|137:191|49:191,1,118.999996368408,2|0,0:0|0:0,0:0:0:0:
4,220,48600,1,10,0:0:0:0:
176,352,48813,1,2,0:0:0:0:
356,232,49026,5,8,0:0:0:0:
356,232,49132,2,0,P|416:216|480:240,1,118.999996368408,2|0,0:0|0:0,0:0:0:0:
468,320,49451,2,0,P|408:336|344:312,1,118.999996368408,10|0,0:0|0:0,0:0:0:0:
280,272,49770,2,0,L|292:148,1,118.999996368408,2|0,0:0|0:0,0:0:0:0:
304,64,50090,1,2,0:0:0:0:
128,84,50303,1,8,0:0:0:0:
291,153,50515,1,2,0:0:0:0:
116,180,50728,6,0,B|64:216|64:216|120:236,1,118.999996368408,8|0,0:0|0:0,0:0:0:0:
117,235,51047,2,0,P|173:257|197:329,1,118.999996368408,2|0,0:0|0:0,0:0:0:0:
198,307,51366,2,0,P|223:254|278:234,1,118.999996368408,2|8,0:0|0:0,0:0:0:0:
277,234,51686,2,0,P|361:256|401:244,1,118.999996368408,2|0,0:0|0:0,0:0:0:0:
472,212,52005,1,10,0:0:0:0:
364,28,52217,1,2,0:0:0:0:
184,148,52430,5,8,0:0:0:0:
184,148,52537,2,0,B|140:160|140:160|67:146,1,118.999996368408,2|0,0:0|0:0,0:0:0:0:
4,212,52856,2,0,L|137:238,1,118.999996368408,10|0,0:0|0:0,0:0:0:0:
211,240,53175,2,0,P|260:207|279:151,1,118.999996368408,2|0,0:0|0:0,0:0:0:0:
232,76,53494,2,0,L|384:68,1,118.999996368408,2|8,0:0|0:0,0:0:0:0:
484,188,53920,1,2,0:0:0:0:
350,314,54132,6,0,L|232:308,1,118.999996368408,8|0,0:0|0:0,0:0:0:0:
231,308,54451,2,0,P|188:264|216:176,1,118.999996368408,2|0,0:0|0:0,0:0:0:0:
189,210,54771,2,0,P|233:166|321:194,1,118.999996368408,2|8,0:0|0:0,0:0:0:0:
287,167,55090,2,0,P|331:211|303:299,1,118.999996368408,2|0,0:0|0:0,0:0:0:0:
331,265,55409,2,0,P|291:307|233:308,1,118.999996368408,10|2,0:0|0:0,0:0:0:0:
100,144,55834,5,0,3:0:0:0:
104,140,55941,1,0,3:0:0:0:
108,136,56047,1,0,3:0:0:0:
112,132,56154,1,0,3:0:0:0:
116,128,56260,1,0,3:0:0:0:
120,124,56366,1,0,3:0:0:0:
124,120,56473,1,0,3:0:0:0:
128,116,56579,1,0,3:0:0:0:
132,112,56686,5,0,3:0:0:0:
143,99,56792,1,0,3:0:0:0:
159,83,56898,1,0,3:0:0:0:
187,74,57005,1,0,3:0:0:0:
220,84,57111,5,0,3:0:0:0:
256,96,57217,1,0,3:0:0:0:
292,92,57324,1,0,3:0:0:0:
328,72,57430,1,0,3:0:0:0:
363,42,57537,6,0,P|315:106|343:182,1,136,12|0,0:0|0:0,0:0:0:0:
323,157,57856,2,0,P|327:223|283:272,1,136,2|0,0:0|0:0,0:0:0:0:
184,296,58175,5,2,0:0:0:0:
184,296,58281,2,0,L|116:288,1,68,0|8,0:0|0:0,0:0:0:0:
160,216,58494,1,2,0:0:0:0:
160,216,58600,2,0,L|228:224,1,68
272,152,58813,2,0,L|204:144,1,68,8|0,0:0|0:0,0:0:0:0:
104,128,59026,1,2,0:0:0:0:
48,324,59239,6,0,P|102:361|167:347,1,136,8|0,0:0|0:0,0:0:0:0:
212,256,59558,2,0,L|204:116,1,136,2|0,0:0|0:0,0:0:0:0:
307,120,59877,2,0,L|300:256,1,136,2|8,0:0|0:0,0:0:0:0:
344,347,60196,2,0,P|409:361|464:324,1,136,2|0,0:0|0:0,0:0:0:0:
500,228,60515,1,10,0:0:0:0:
432,36,60728,1,2,0:0:0:0:
264,152,60941,6,0,P|200:184|124:160,1,136,8|0,0:0|0:0,0:0:0:0:
139,170,61260,2,0,L|146:305,1,136,2|0,0:0|0:0,0:0:0:0:
60,364,61579,2,0,L|52:228,1,136,2|8,0:0|0:0,0:0:0:0:
16,132,61898,2,0,P|24:92|76:140,1,136,2|0,0:0|0:0,0:0:0:0:
52,228,62217,1,10,0:0:0:0:
256,120,62430,1,2,0:0:0:0:
440,260,62643,6,0,P|448:296|472:320,2,68,8|0|2,0:0|0:0|0:0,0:0:0:0:
456,159,62962,2,0,P|481:136|491:105,2,68,0|8|0,0:0|0:0|0:0,0:0:0:0:
360,196,63281,2,0,P|328:185|295:191,2,68,2|0|8,0:0|0:0|0:0,0:0:0:0:
440,260,63600,2,0,P|472:266|504:255,2,68,0|2|0,0:0|0:0|0:0,0:0:0:0:
360,196,63920,1,8,0:0:0:0:
256,372,64132,1,2,0:0:0:0:
152,196,64345,6,0,P|127:134|157:75,1,136,8|0,0:0|0:0,0:0:0:0:
262,75,64664,2,0,P|291:133|267:195,1,136,2|0,0:0|0:0,0:0:0:0:
180,248,64983,5,2,0:0:0:0:
180,248,65089,2,0,L|112:240,1,68,0|8,0:0|0:0,0:0:0:0:
270,199,65303,1,2,0:0:0:0:
270,199,65409,2,0,L|337:191,1,68
184,140,65621,2,0,L|116:132,1,68,8|0,0:0|0:0,0:0:0:0:
16,116,65834,1,2,0:0:0:0:
40,336,66047,6,0,P|68:280|52:204,1,136,8|0,0:0|0:0,0:0:0:0:
16,116,66366,2,0,P|79:139|144:120,1,136,2|0,0:0|0:0,0:0:0:0:
220,52,66686,2,0,P|260:40|296:44,1,68,2|0,0:0|0:0,0:0:0:0:
384,80,66898,1,8,0:0:0:0:
384,80,67004,2,0,B|416:116|416:116|412:228,1,136,2|0,0:0|0:0,0:0:0:0:
408,308,67324,1,10,0:0:0:0:
256,172,67536,1,2,0:0:0:0:
104,308,67749,6,0,L|84:168,1,136,8|0,0:0|0:0,0:0:0:0:
152,96,68068,2,0,P|186:157|172:226,1,136,2|0,0:0|0:0,0:0:0:0:
104,308,68387,5,2,0:0:0:0:
104,309,68493,2,0,P|71:317|38:309,1,68,0|8,0:0|0:0,0:0:0:0:
20,174,68707,1,2,0:0:0:0:
20,174,68813,2,0,P|52:165|85:173,1,68
175,219,69026,2,0,P|207:227|240:219,1,68,8|0,0:0|0:0,0:0:0:0:
336,180,69238,1,2,0:0:0:0:
203,24,69451,5,0,3:0:0:0:
207,28,69558,1,0,3:0:0:0:
211,32,69664,1,0,3:0:0:0:
215,36,69771,1,0,3:0:0:0:
219,40,69877,1,0,3:0:0:0:
223,44,69983,1,0,3:0:0:0:
227,48,70090,1,0,3:0:0:0:
231,52,70196,1,0,3:0:0:0:
235,76,70303,5,0,3:0:0:0:
243,84,70409,1,0,3:0:0:0:
251,92,70515,1,0,3:0:0:0:
263,104,70622,1,0,3:0:0:0:
264,130,70728,5,0,3:0:0:0:
280,146,70834,1,0,3:0:0:0:
300,166,70941,1,0,3:0:0:0:
320,186,71047,1,0,3:0:0:0:
328,212,71154,6,0,P|388:230|448:211,2,127.5,12|2|2,0:0|0:0|0:0,0:0:0:0:
256,92,72005,2,0,L|256:48,2,42.5,2|0|0,0:0|0:0|0:0,0:0:0:0:
198,226,72430,1,2,0:0:0:0:
198,226,72537,1,0,0:0:0:0:
198,226,72643,1,2,0:0:0:0:
198,226,72749,1,0,0:0:0:0:
198,226,72856,6,0,L|184:272,1,42.5,0|2,0:0|0:0,0:0:0:0:
314,226,73175,2,0,L|326:266,1,42.5,0|2,0:0|0:0,0:0:0:0:
176,152,73494,2,0,L|138:172,1,42.5,0|2,0:0|0:0,0:0:0:0:
336,152,73813,2,0,L|378:174,1,42.5,0|2,0:0|0:0,0:0:0:0:
488,280,74132,1,2,0:0:0:0:
488,280,74239,1,2,0:0:0:0:
488,280,74345,1,2,0:0:0:0:
488,280,74451,1,0,0:0:0:0:
488,280,74558,6,0,L|496:144,2,127.5,2|2|2,0:0|0:0|0:0,0:0:0:0:
372,332,75409,2,0,L|370:374,2,42.5,2|0|0,0:0|0:0|0:0,0:0:0:0:
236,288,75834,1,2,0:0:0:0:
232,284,75941,1,0,0:0:0:0:
228,280,76047,1,2,0:0:0:0:
224,276,76154,1,0,0:0:0:0:
220,272,76260,6,0,P|201:281|180:284,1,42.5,0|2,0:0|0:0,0:0:0:0:
180,99,76579,2,0,P|201:101|220:112,1,42.5,0|2,0:0|0:0,0:0:0:0:
292,272,76898,2,0,P|311:281|332:284,1,42.5,0|2,0:0|0:0,0:0:0:0:
331,99,77217,2,0,P|310:101|292:112,1,42.5,0|2,0:0|0:0,0:0:0:0:
192,192,77537,1,0,0:0:0:0:
188,196,77643,1,2,0:0:0:0:
184,200,77749,1,0,0:0:0:0:
180,204,77856,1,0,0:0:0:0:
176,207,77962,6,0,P|115:224|54:207,2,127.5,2|2|2,0:0|0:0|0:0,0:0:0:0:
268,116,78813,2,0,P|268:94|274:74,2,42.5,2|0|0,0:0|0:0|0:0,0:0:0:0:
316,256,79239,1,2,0:0:0:0:
316,256,79345,1,0,0:0:0:0:
316,256,79451,1,2,0:0:0:0:
316,256,79558,1,0,0:0:0:0:
316,256,79664,6,0,P|333:267|349:282,1,42.5,0|2,0:0|0:0,0:0:0:0:
196,256,79983,2,0,P|179:267|163:282,1,42.5,0|2,0:0|0:0,0:0:0:0:
196,128,80303,2,0,P|178:116|162:101,1,42.5,0|2,0:0|0:0,0:0:0:0:
315,128,80622,2,0,P|333:116|349:101,1,42.5,0|2,0:0|0:0,0:0:0:0:
256,192,80941,1,0,0:0:0:0:
256,192,81047,1,2,0:0:0:0:
256,192,81154,1,0,0:0:0:0:
256,192,81260,1,2,0:0:0:0:
256,192,81366,6,0,B|256:319,2,127.5,2|2|2,0:0|0:0|0:0,0:0:0:0:
256,64,82217,2,0,L|256:16,2,42.5,2|0|0,0:0|0:0|0:0,0:0:0:0:
224,256,82643,1,2,0:0:0:0:
220,252,82749,1,0,0:0:0:0:
216,248,82856,1,2,0:0:0:0:
212,244,82962,1,0,0:0:0:0:
208,240,83069,6,0,L|166:247,1,42.5,0|2,0:0|0:0,0:0:0:0:
304,144,83388,2,0,L|345:137,1,42.5,0|2,0:0|0:0,0:0:0:0:
208,144,83707,2,0,L|201:103,1,42.5,0|2,0:0|0:0,0:0:0:0:
304,240,84026,2,0,L|311:281,1,42.5,0|2,0:0|0:0,0:0:0:0:
204,152,84345,1,0,0:0:0:0:
200,160,84451,1,2,0:0:0:0:
196,168,84558,1,0,0:0:0:0:
192,176,84664,1,2,0:0:0:0:
188,184,84771,5,12,0:0:0:0:
256,192,84877,12,0,88175,0:0:0:0:
