osu file format v14

[General]
AudioFilename: audio.mp3
AudioLeadIn: 0
PreviewTime: -1
Countdown: 1
SampleSet: Soft
StackLeniency: 0.7
Mode: 0
LetterboxInBreaks: 0
StoryFireInFront: 0
WidescreenStoryboard: 1

[Editor]
DistanceSpacing: 1
BeatDivisor: 4
GridSize: 4
TimelineZoom: 1.1

[Metadata]
Title:HDMI
TitleUnicode:HDMI
Artist:BONES
ArtistUnicode:BONES
Creator:Ecchiblood
Version:Normal
Source:Rap
Tags:Rap
BeatmapID:1703070
BeatmapSetID:811898

[Difficulty]
HPDrainRate:2
CircleSize:3
OverallDifficulty:5
ApproachRate:4
SliderMultiplier:1.6
SliderTickRate:2

[Events]
//Background and Video events
0,0,"forest_trees_background_dark_91308_1920x1080.jpg",0,0
//Break Periods
2,27079,27959
2,122597,125397
//Storyboard Layer 0 (Background)
//Storyboard Layer 1 (Fail)
//Storyboard Layer 2 (Pass)
//Storyboard Layer 3 (Foreground)
//Storyboard Sound Samples

[TimingPoints]
0,959.980952380954,4,2,0,87,1,0

[Colours]
Combo1 : 255,255,255
Combo2 : 128,128,128
Combo3 : 255,128,128
Combo4 : 128,64,64

[HitObjects]
96,184,15359,6,0,L|161:184,1,40,0|0,3:2|3:2,3:2:0:0:
285,242,16079,1,0,0:0:0:0:
373,233,16319,1,8,0:0:0:0:
369,156,16799,2,2,B|330:87,1,80,2|2,3:2|3:2,3:2:0:0:
255,76,17519,2,0,L|206:97,2,40
273,151,18239,1,0,0:0:0:0:
361,107,18719,1,0,3:3:0:0:
354,187,19199,1,4,3:3:0:0:
301,239,19439,1,0,0:0:0:0:
209,253,19679,1,0,0:0:0:0:
131,175,20159,6,0,L|93:110,1,40
74,71,20639,1,0,0:0:0:0:
145,46,21119,1,2,0:0:0:0:
238,78,21359,2,0,L|310:97,1,40
383,134,22079,1,8,3:3:0:0:
309,215,22559,1,4,0:0:0:0:
104,148,23039,6,0,L|179:149,2,40,0|0|0,3:1|3:1|3:1,3:1:0:0:
101,230,23999,2,0,L|206:231,1,80
191,140,24959,1,0,0:0:0:0:
258,100,25199,1,0,0:0:0:0:
342,96,25439,1,0,0:0:0:0:
412,117,25679,2,0,L|437:189,1,40
363,213,26399,1,0,0:0:0:0:
281,256,26879,1,4,3:3:0:0:
46,39,29279,6,0,L|112:39,2,40
108,112,30719,6,4,L|184:112,1,40,4|4,3:3|3:3,3:3:0:0:
148,176,31199,2,0,L|200:176,1,40
247,227,31679,1,8,2:2:0:0:
298,158,32159,2,0,L|393:128,1,80
382,209,33119,2,0,L|317:229,1,40
270,237,33599,1,8,0:0:0:0:
203,190,34079,1,8,0:0:0:0:
152,122,34559,6,0,B|79:39,2,80
210,179,35999,1,4,3:3:0:0:
303,169,36239,2,0,L|405:193,1,80
402,284,36959,1,0,0:0:0:0:
322,291,37439,1,12,3:2:0:0:
149,225,38399,1,4,3:3:0:0:
159,140,38639,1,0,0:0:0:0:
217,75,38879,1,0,0:0:0:0:
275,139,39119,1,0,0:0:0:0:
289,222,39359,1,8,0:0:0:0:
237,230,39839,2,0,L|194:183,2,40
301,294,40559,2,0,P|345:290|391:219,2,120
242,249,42239,6,0,L|230:146,2,80
169,284,43679,2,0,L|145:331,2,40
102,142,44639,1,0,0:0:0:0:
190,73,45119,1,4,3:3:0:0:
272,130,46079,5,4,0:0:0:0:
285,229,47039,1,8,0:0:0:0:
192,268,47519,2,0,P|272:304|424:292,1,240
425,202,49199,2,0,L|340:108,1,120
235,111,50399,1,0,0:0:0:0:
152,160,50878,1,8,0:0:0:0:
225,224,51838,5,4,3:3:0:0:
307,146,52318,1,4,3:3:0:0:
241,85,52798,1,8,2:2:0:0:
151,151,53278,1,0,0:0:0:0:
148,83,54238,6,0,L|52:82,2,80
137,179,55678,1,4,0:0:0:0:
220,260,56638,1,4,0:0:0:0:
262,171,57118,1,4,0:0:0:0:
163,154,57598,1,2,3:3:0:0:
148,227,58078,2,0,L|204:284,2,80
130,142,59518,1,4,3:3:0:0:
220,149,59998,2,0,L|317:147,2,80
122,152,61438,1,4,3:3:0:0:
96,63,62158,5,4,3:3:0:0:
347,55,62878,1,4,3:3:0:0:
300,111,63118,2,0,L|230:189,1,80
295,313,64558,1,4,3:3:0:0:
355,243,64798,1,4,3:3:0:0:
314,75,65278,5,4,3:3:0:0:
172,136,65998,1,4,3:3:0:0:
221,241,66478,1,4,3:3:0:0:
128,233,66718,1,4,3:3:0:0:
99,132,67678,1,4,3:3:0:0:
179,75,68398,1,4,3:3:0:0:
264,72,68638,1,4,3:3:0:0:
372,140,69118,5,4,3:3:0:0:
356,240,69838,1,4,3:3:0:0:
232,292,70558,1,4,3:3:0:0:
200,196,71518,1,4,3:3:0:0:
251,114,71998,1,0,0:0:0:0:
328,83,72238,1,0,0:0:0:0:
414,84,72478,1,4,3:3:0:0:
256,192,72958,12,0,76798,3:3:0:0:
204,114,77758,5,8,0:2:0:0:
280,148,78238,2,0,L|335:195,1,40
223,198,78958,2,4,L|220:286,1,80
151,253,79678,1,8,0:0:0:0:
108,184,80158,2,0,L|180:124,1,80
303,69,81118,2,0,B|375:121|339:165|355:269|242:124,1,240
190,174,83038,2,0,L|112:233,2,80
280,274,84958,5,0,0:0:0:0:
377,279,85438,2,0,L|426:207,1,80
368,160,86398,1,0,0:0:0:0:
286,166,86878,2,0,L|222:175,2,40
282,254,87838,1,0,0:0:0:0:
210,170,88318,2,0,L|168:205,2,40
267,117,89278,1,0,0:0:0:0:
371,220,89758,1,0,0:0:0:0:
276,311,90238,1,0,0:0:0:0:
82,237,91198,1,8,0:0:0:0:
114,160,91678,6,0,L|167:117,2,40
220,101,92638,1,4,0:0:0:0:
277,159,93118,2,0,L|308:197,2,40
158,241,94078,1,0,0:0:0:0:
105,183,94558,1,0,0:0:0:0:
41,134,95038,1,8,2:2:0:0:
96,88,95998,6,0,L|156:88,1,40
140,152,96478,2,0,L|192:152,1,40
196,222,96958,2,0,L|239:222,1,40
305,220,97438,2,0,L|403:222,1,80
363,301,98398,1,0,0:0:0:0:
243,307,98878,1,0,3:2:0:0:
143,173,99838,6,0,L|240:120,3,80
280,175,101757,1,4,0:0:0:0:
205,252,102237,1,0,0:0:0:0:
114,192,102717,1,4,0:0:0:0:
202,182,103677,1,0,0:0:0:0:
271,196,103917,2,0,L|361:228,2,80
250,130,105117,1,0,0:0:0:0:
184,108,105357,1,0,0:0:0:0:
151,173,105597,2,0,L|85:318,1,160
273,292,107517,5,0,0:0:0:0:
270,197,107997,1,4,2:2:0:0:
192,123,108477,1,8,0:0:0:0:
280,113,109437,2,0,L|337:26,2,80
372,172,110877,1,0,0:0:0:0:
201,235,111357,1,4,3:3:0:0:
148,148,112317,5,8,0:2:0:0:
225,81,112797,1,0,0:0:0:0:
327,136,113277,1,0,0:0:0:0:
371,218,113757,1,0,0:0:0:0:
272,268,114237,1,8,0:2:0:0:
172,221,115197,2,0,L|93:168,1,80
138,118,116157,6,0,L|221:98,1,80
305,117,117117,2,0,L|326:230,1,80
257,266,118077,2,0,L|179:288,1,80
93,257,119037,6,0,L|92:151,1,80
169,118,119997,1,4,0:0:0:0:
103,118,120957,2,0,L|241:253,1,160
308,310,122397,1,14,2:2:0:0:
256,192,126717,12,0,130077,0:0:0:0:
