osu file format v14

[General]
AudioFilename: audio.mp3
AudioLeadIn: 0
PreviewTime: -1
Countdown: 1
SampleSet: Soft
StackLeniency: 0.7
Mode: 0
LetterboxInBreaks: 0
StoryFireInFront: 0
WidescreenStoryboard: 0

[Editor]
DistanceSpacing: 1
BeatDivisor: 4
GridSize: 4
TimelineZoom: 1.1

[Metadata]
Title:HDMI
TitleUnicode:HDMI
Artist:BONES
ArtistUnicode:BONES
Creator:Ecchiblood
Version:Easy
Source:
Tags:Rap
BeatmapID:1702951
BeatmapSetID:811898

[Difficulty]
HPDrainRate:2
CircleSize:4
OverallDifficulty:5
ApproachRate:5
SliderMultiplier:1.6
SliderTickRate:2

[Events]
//Background and Video events
0,0,"forest_trees_background_dark_91308_1920x1080.jpg",0,0
//Break Periods
2,27079,29519
//Storyboard Layer 0 (Background)
//Storyboard Layer 1 (Fail)
//Storyboard Layer 2 (Pass)
//Storyboard Layer 3 (Foreground)
//Storyboard Sound Samples

[TimingPoints]
0,959.980952380954,4,2,0,87,1,0

[Colours]
Combo1 : 255,255,255
Combo2 : 128,128,128
Combo3 : 255,128,128
Combo4 : 128,64,64

[HitObjects]
96,184,15359,6,0,L|236:180,1,120,0|0,3:2|3:2,3:2:0:0:
287,179,16799,2,2,B|371:180|399:196|435:37,1,240,2|2,3:2|3:2,3:2:0:0:
340,32,18719,1,0,3:3:0:0:
197,68,19199,1,4,3:3:0:0:
80,120,20159,6,0,L|144:124,2,40
203,129,21119,1,2,0:0:0:0:
399,128,22079,1,8,3:3:0:0:
104,148,23039,6,0,L|248:148,2,120,0|0|0,3:1|3:1|3:1,3:1:0:0:
176,80,24959,1,0,0:0:0:0:
280,62,25439,1,0,0:0:0:0:
367,103,25919,1,0,0:0:0:0:
324,196,26399,1,0,0:0:0:0:
260,280,26879,1,4,3:3:0:0:
108,112,30719,6,4,L|184:112,1,40,4|4,3:3|3:3,3:3:0:0:
148,176,31199,2,0,L|200:176,1,40
247,226,31679,1,8,2:2:0:0:
275,278,32879,1,0,0:0:0:0:
376,248,33119,2,0,L|404:176,1,40
404,148,33599,1,8,0:0:0:0:
116,84,34559,6,0,B|264:100|280:112|152:232|160:256|296:300,1,360
368,144,37439,1,12,3:2:0:0:
140,104,38399,1,4,3:3:0:0:
328,104,39359,1,8,0:0:0:0:
164,188,39839,2,0,L|224:196,2,40
304,272,40799,2,0,P|348:268|344:232,1,80
96,80,42239,6,0,L|176:80,2,80
64,200,43679,2,0,L|108:200,2,40
63,124,44639,1,0,0:0:0:0:
153,67,45119,1,4,3:3:0:0:
256,120,46079,5,4,0:0:0:0:
328,200,47039,1,8,0:0:0:0:
192,268,47519,2,0,P|272:304|424:292,1,240
307,205,49919,1,0,0:0:0:0:
288,104,50399,1,0,0:0:0:0:
160,96,50878,1,8,0:0:0:0:
128,224,51838,5,4,3:3:0:0:
214,152,52318,1,4,3:3:0:0:
300,220,52798,1,8,2:2:0:0:
382,166,53278,1,0,0:0:0:0:
132,96,54238,6,0,L|232:96,2,80
56,132,55678,1,4,0:0:0:0:
169,117,56638,1,4,0:0:0:0:
115,179,57118,1,4,0:0:0:0:
47,220,57598,1,2,3:3:0:0:
104,280,58078,2,0,L|204:284,2,80
104,208,59518,1,4,3:3:0:0:
152,140,62158,5,4,3:3:0:0:
260,88,62878,1,4,3:3:0:0:
374,130,63838,1,4,3:3:0:0:
367,228,64558,1,4,3:3:0:0:
345,154,64798,1,4,3:3:0:0:
308,68,65278,5,4,3:3:0:0:
172,136,65998,1,4,3:3:0:0:
91,275,66718,1,4,3:3:0:0:
64,140,67198,1,4,3:3:0:0:
144,218,67678,1,4,3:3:0:0:
151,78,68158,1,4,3:3:0:0:
237,74,68638,1,4,3:3:0:0:
333,124,69118,5,4,3:3:0:0:
356,240,69838,1,4,3:3:0:0:
232,292,70558,1,4,3:3:0:0:
200,196,71518,1,4,3:3:0:0:
188,100,72238,1,4,3:3:0:0:
296,104,72478,1,4,3:3:0:0:
256,192,72958,12,0,76798,3:3:0:0:
192,152,77758,5,8,0:2:0:0:
280,148,78238,2,0,L|356:216,1,80
277,255,79198,1,0,0:0:0:0:
180,252,79678,1,8,0:0:0:0:
195,265,80638,1,0,0:0:0:0:
269,82,81118,2,0,B|372:128|336:172|352:276|303:311,1,240
124,148,83518,2,0,L|232:128,2,80
184,224,84958,5,0,0:0:0:0:
244,300,85438,2,0,L|324:296,1,80
357,228,86398,1,0,0:0:0:0:
296,184,86878,2,0,L|184:184,2,80
164,128,88798,5,0,0:0:0:0:
352,96,89278,1,0,0:0:0:0:
320,201,89758,1,0,0:0:0:0:
168,228,90238,1,0,0:0:0:0:
104,136,91678,6,0,L|208:108,2,80
140,232,93118,2,0,L|232:188,2,80
200,316,94558,1,0,0:0:0:0:
272,288,95038,1,8,2:2:0:0:
96,88,95998,6,0,L|156:88,1,40
140,152,96478,2,0,L|192:152,1,40
248,152,96958,1,0,0:0:0:0:
323,157,97438,2,0,L|323:284,1,120
218,268,98878,1,0,3:2:0:0:
104,120,99838,6,0,L|304:120,2,160
176,136,102717,1,4,0:0:0:0:
271,188,103677,1,0,0:0:0:0:
144,224,105597,2,0,L|312:224,1,160
120,104,107517,5,4,3:3:0:0:
256,152,108477,1,8,0:2:0:0:
184,120,110397,1,8,0:2:0:0:
148,148,112317,1,8,0:2:0:0:
208,152,113277,1,0,0:0:0:0:
344,144,113757,1,0,0:0:0:0:
296,240,114237,1,8,0:2:0:0:
192,168,116157,6,0,L|276:164,1,80
172,183,117597,1,0,0:0:0:0:
244,256,118077,2,0,L|360:252,1,80
224,256,119517,1,0,3:3:0:0:
236,177,119997,1,4,0:0:0:0:
92,152,120957,2,0,L|192:212,2,80
256,192,126717,12,0,130077,0:0:0:0:
