osu file format v14

[General]
AudioFilename: audio.mp3
AudioLeadIn: 0
PreviewTime: 71327
Countdown: 1
SampleSet: Soft
StackLeniency: 0.7
Mode: 0
LetterboxInBreaks: 0
WidescreenStoryboard: 0

[Editor]
Bookmarks: 10396,23771,47549,71325,95102,118881
DistanceSpacing: 1.3
BeatDivisor: 1
GridSize: 8
TimelineZoom: 1.9

[Metadata]
Title:CtrlAltDelete
TitleUnicode:CtrlAltDelete
Artist:BONES
ArtistUnicode:BONES
Creator:Rubiha
Version:Insane
Source:
Tags:
BeatmapID:1885029
BeatmapSetID:902941

[Difficulty]
HPDrainRate:5
CircleSize:5
OverallDifficulty:9
ApproachRate:9
SliderMultiplier:2.4
SliderTickRate:1

[Events]
//Background and Video events
0,0,"Necromancer-Mistakenly-Attends-Necrophilia-Meeting.jpg",0,0
//Break Periods
//Storyboard Layer 0 (Background)
//Storyboard Layer 1 (Fail)
//Storyboard Layer 2 (Pass)
//Storyboard Layer 3 (Foreground)
//Storyboard Sound Samples

[TimingPoints]
1482,371.517027863777,4,2,0,45,1,0
5938,-200,4,2,0,45,0,0
23771,-100,4,2,0,45,0,0
83215,-58.8235294117647,4,2,0,45,0,0
84144,-100,4,2,0,45,0,0

[Colours]
Combo1 : 70,62,67
Combo2 : 68,107,58
Combo3 : 97,72,111
Combo4 : 119,116,83

[HitObjects]
120,124,10398,6,0,L|149:254,1,120,8|0,0:0|0:0,0:0:0:0:
236,320,11141,2,0,P|293:336|360:328,1,120
406,222,11884,6,0,L|413:151,1,60,8|0,0:0|0:0,0:0:0:0:
363,127,12255,2,0,L|354:61,1,60
234,66,12627,2,0,L|169:26,1,60,8|0,0:0|0:0,0:0:0:0:
126,57,12999,2,0,L|46:53,1,60
159,153,13370,6,0,L|207:211,1,60,8|0,0:0|0:0,0:0:0:0:
250,154,13742,2,0,L|281:207,1,60
381,291,14113,2,0,L|333:233,1,60,8|0,0:0|0:0,0:0:0:0:
290,290,14485,2,0,L|259:237,1,60
115,220,14856,6,0,L|50:209,1,60,8|0,0:0|0:0,0:0:0:0:
63,273,15228,2,0,L|-12:282,1,60
177,331,15599,2,0,P|206:354|242:363,1,60,8|0,0:0|0:0,0:0:0:0:
249,288,15971,2,0,L|307:313,1,60
173,145,16342,6,0,L|170:83,1,60,8|0,0:0|0:0,0:0:0:0:
243,28,16714,2,0,L|249:98,1,60
151,158,17085,2,0,L|143:97,1,60,8|0,0:0|0:0,0:0:0:0:
270,20,17457,2,0,L|278:81,1,60
345,243,17828,6,0,L|293:214,1,60,8|0,0:0|0:0,0:0:0:0:
253,259,18200,2,0,L|175:275,1,60
166,140,18571,2,0,L|219:170,1,60,8|0,0:0|0:0,0:0:0:0:
259,125,18943,2,0,L|337:109,1,60
176,241,19314,6,0,L|131:295,1,60,8|0,0:0|0:0,0:0:0:0:
83,225,19686,2,0,L|67:290,1,60
275,260,20057,2,0,P|311:271|357:267,1,60,8|0,0:0|0:0,0:0:0:0:
412,205,20429,2,0,P|376:194|330:198,1,60
405,335,20800,6,0,L|458:373,1,60,8|0,0:0|0:0,0:0:0:0:
461,271,21172,2,0,L|391:231,1,60
290,364,21543,2,0,P|312:336|320:306,1,60,8|0,0:0|0:0,0:0:0:0:
238,300,21915,2,0,L|228:228,1,60
173,138,22286,6,0,P|236:199|324:201,1,180,8|0,0:0|0:0,0:0:0:0:
393,177,23029,2,0,P|329:238|241:240,1,180
157,126,23775,5,8,0:0:0:0:
276,109,23959,1,0,0:0:0:0:
399,143,24145,2,0,L|526:184,1,120,8|0,0:0|0:0,0:0:0:0:
301,323,24517,2,0,P|175:344|54:343,1,240,4|0,0:0|0:0,0:0:0:0:
216,44,25260,6,0,L|121:197,1,120,8|0,0:0|0:0,0:0:0:0:
149,314,25631,2,0,L|250:153,1,120,8|0,0:0|0:0,0:0:0:0:
401,239,26003,2,0,L|256:191,1,120,4|0,0:0|0:0,0:0:0:0:
122,100,26374,2,0,P|176:133|253:148,1,120
347,180,26746,5,8,0:0:0:0:
497,304,26931,1,0,0:0:0:0:
334,348,27117,2,0,P|263:357|201:348,1,120,8|0,0:0|0:0,0:0:0:0:
40,199,27489,2,0,P|111:190|173:199,1,120,4|0,0:0|0:0,0:0:0:0:
318,249,27860,2,0,P|275:208|262:119,1,120
397,55,28232,5,8,0:0:0:0:
400,222,28417,1,0,0:0:0:0:
365,25,28603,2,0,L|341:172,1,120,8|0,0:0|0:0,0:0:0:0:
301,357,28975,2,0,P|297:286|266:207,1,120,4|0,0:0|0:0,0:0:0:0:
138,95,29346,2,0,L|263:160,1,120
427,243,29718,5,8,0:0:0:0:
292,89,29904,1,0,0:0:0:0:
477,171,30089,2,0,B|504:118|504:118|422:116,1,120,8|0,0:0|0:0,0:0:0:0:
247,283,30461,2,0,B|209:326|209:326|103:362,1,120,4|0,0:0|0:0,0:0:0:0:
13,193,30832,1,0,0:0:0:0:
271,256,31018,1,0,0:0:0:0:
126,111,31204,6,0,P|67:151|7:151,1,120,8|0,0:0|0:0,0:0:0:0:
206,239,31575,2,0,L|152:364,1,120,8|0,0:0|0:0,0:0:0:0:
357,208,31947,2,0,P|371:277|415:319,1,120,4|0,0:0|0:0,0:0:0:0:
107,247,32318,2,0,P|174:248|257:204,1,120
403,132,32690,6,0,P|335:130|252:174,1,120,8|0,0:0|0:0,0:0:0:0:
259,350,33061,2,0,L|315:231,1,120,8|0,0:0|0:0,0:0:0:0:
169,91,33433,1,4,0:0:0:0:
111,75,33526,1,0,0:0:0:0:
53,91,33619,2,0,L|3:127,1,60
32,178,33804,2,0,L|-2:255,1,60
45,280,33990,2,0,L|46:346,1,60
151,247,34176,6,0,B|207:231|207:231|284:264,1,120,8|0,0:0|0:0,0:0:0:0:
447,346,34547,2,0,B|396:376|396:376|309:381,1,120,8|0,0:0|0:0,0:0:0:0:
184,339,34919,1,4,0:0:0:0:
396,252,35105,2,0,P|403:178|367:109,2,120
319,345,35662,6,0,P|164:361|61:284,1,240,8|8,0:0|0:0,0:0:0:0:
271,220,36405,2,0,L|320:97,1,120,4|0,0:0|0:0,0:0:0:0:
120,173,36777,1,0,0:0:0:0:
315,227,36962,1,0,0:0:0:0:
141,119,37148,5,8,0:0:0:0:
274,266,37334,1,0,0:0:0:0:
164,61,37520,2,0,L|37:63,1,120,8|0,0:0|0:0,0:0:0:0:
318,102,37891,2,0,P|357:41|299:54,1,120,4|0,0:0|0:0,0:0:0:0:
215,194,38263,2,0,B|190:235|190:235|191:274|156:314,1,120
68,376,38634,5,8,0:0:0:0:
52,188,38820,1,0,0:0:0:0:
181,331,39006,2,0,P|291:367|326:361,1,120,8|0,0:0|0:0,0:0:0:0:
448,288,39377,1,4,0:0:0:0:
464,100,39563,1,0,0:0:0:0:
334,243,39749,2,0,P|281:271|222:278,1,120
154,85,40120,6,0,L|118:245,1,120,8|0,0:0|0:0,0:0:0:0:
107,320,40492,1,8,0:0:0:0:
220,150,40678,1,0,0:0:0:0:
164,345,40863,2,0,P|211:371|291:363,1,120,4|0,0:0|0:0,0:0:0:0:
118,237,41235,2,0,L|14:154,1,120
298,197,41605,6,0,L|377:82,1,120,8|0,0:0|0:0,0:0:0:0:
353,288,41977,2,0,P|293:302|220:281,1,120,8|0,0:0|0:0,0:0:0:0:
186,66,42348,2,0,L|205:212,1,120,4|0,0:0|0:0,0:0:0:0:
131,270,42720,1,0,0:0:0:0:
264,95,42906,1,0,0:0:0:0:
64,152,43091,5,8,0:0:0:0:
330,209,43277,1,0,0:0:0:0:
100,258,43463,2,0,P|102:320|125:383,1,120,8|0,0:0|0:0,0:0:0:0:
417,302,43834,2,0,P|450:191|365:54,1,240,4|0,0:0|0:0,0:0:0:0:
166,132,44577,6,0,L|45:52,1,120,8|0,0:0|0:0,0:0:0:0:
186,64,44949,1,8,0:0:0:0:
42,133,45135,1,0,0:0:0:0:
195,227,45321,2,0,L|316:307,1,120,4|0,0:0|0:0,0:0:0:0:
325,91,45692,2,0,P|362:137|393:219,1,120
368,341,46064,5,8,0:0:0:0:
463,199,46249,1,0,0:0:0:0:
286,317,46435,2,0,P|225:334|138:320,1,120,8|0,0:0|0:0,0:0:0:0:
45,251,46807,2,0,P|106:234|193:248,1,120,4|0,0:0|0:0,0:0:0:0:
312,224,47178,2,0,L|375:196,4,60,0|0|0|0|12,0:0|0:0|0:0|0:0|0:0,0:0:0:0:
206,168,47735,5,0,0:0:0:0:
96,107,47921,1,8,0:0:0:0:
284,133,48107,1,0,0:0:0:0:
10,168,48293,2,0,P|10:237|36:300,1,120,4|0,0:0|0:0,0:0:0:0:
220,237,48664,1,0,0:0:0:0:
145,342,48850,1,0,0:0:0:0:
380,344,49036,6,0,L|506:350,1,120,8|0,0:0|0:0,0:0:0:0:
327,240,49407,2,0,L|453:246,1,120,8|0,0:0|0:0,0:0:0:0:
278,128,49779,2,0,L|404:134,1,120,4|0,0:0|0:0,0:0:0:0:
138,235,50150,2,0,P|183:271|217:341,1,120
248,209,50522,5,8,0:0:0:0:
101,134,50708,1,0,0:0:0:0:
309,152,50893,1,8,0:0:0:0:
43,189,51079,1,0,0:0:0:0:
235,108,51265,2,0,P|282:72|327:-14,1,120,4|0,0:0|0:0,0:0:0:0:
337,170,51636,1,0,0:0:0:0:
257,303,51822,1,0,0:0:0:0:
489,359,52008,6,0,B|487:304|487:304|381:270,1,120,8|0,0:0|0:0,0:0:0:0:
81,318,52379,1,8,0:0:0:0:
1,185,52565,1,0,0:0:0:0:
400,95,52751,2,0,B|398:150|398:150|292:184,1,120,4|0,0:0|0:0,0:0:0:0:
145,241,53122,2,0,B|147:186|147:186|253:152,1,120
347,317,53494,6,0,L|351:388,4,60,8|0|0|0|8,0:0|0:0|0:0|0:0|0:0,0:0:0:0:
339,197,54051,1,0,0:0:0:0:
171,34,54237,2,0,L|179:199,1,120,4|0,0:0|0:0,0:0:0:0:
240,256,54608,1,0,0:0:0:0:
74,237,54794,2,0,P|24:204|6:148,1,120,0|8,0:0|0:0,0:0:0:0:
12,123,55166,5,0,0:0:0:0:
18,100,55351,1,8,0:0:0:0:
26,82,55537,1,0,0:0:0:0:
34,68,55723,2,0,L|58:213,1,120,4|0,0:0|0:0,0:0:0:0:
88,354,56095,1,0,0:0:0:0:
254,320,56280,1,0,0:0:0:0:
219,153,56466,6,0,L|194:20,1,120,8|0,0:0|0:0,0:0:0:0:
61,120,56838,2,0,L|223:90,1,120,8|0,0:0|0:0,0:0:0:0:
380,62,57209,1,4,0:0:0:0:
416,262,57395,1,0,0:0:0:0:
215,302,57581,2,0,L|91:330,1,120
156,228,57952,5,8,0:0:0:0:
322,304,58138,1,0,0:0:0:0:
178,364,58324,1,8,0:0:0:0:
242,137,58509,1,0,0:0:0:0:
78,318,58695,2,0,P|22:285|16:208,1,120,4|0,0:0|0:0,0:0:0:0:
214,233,59067,2,0,P|276:227|370:201,1,120
443,174,59438,5,8,0:0:0:0:
307,149,59624,1,0,0:0:0:0:
93,270,59810,1,8,0:0:0:0:
28,164,59995,1,0,0:0:0:0:
278,65,60181,2,0,P|334:43|386:1,2,120,4|0|0,0:0|0:0|0:0,0:0:0:0:
153,224,60738,6,0,P|94:237|27:230,2,120,0|8|0,0:0|0:0|0:0,0:0:0:0:
356,195,61296,1,8,0:0:0:0:
356,195,61481,1,0,0:0:0:0:
356,195,61667,2,0,L|407:337,1,120,4|0,0:0|0:0,0:0:0:0:
204,234,62039,2,0,B|200:293|200:293|119:372,1,120
95,136,62410,5,8,0:0:0:0:
95,136,62596,1,0,0:0:0:0:
95,136,62782,2,0,B|138:115|138:115|241:116,1,120,8|0,0:0|0:0,0:0:0:0:
411,79,63153,1,4,0:0:0:0:
411,79,63339,1,0,0:0:0:0:
411,79,63525,2,0,B|368:58|368:58|265:59,1,120
188,296,63896,5,8,0:0:0:0:
50,328,64082,1,0,0:0:0:0:
50,328,64175,1,0,0:0:0:0:
50,328,64268,2,0,P|69:266|61:174,1,120,8|0,0:0|0:0,0:0:0:0:
132,16,64639,2,0,L|151:172,1,120,4|0,0:0|0:0,0:0:0:0:
305,265,65011,2,0,P|239:274|177:235,1,120
352,124,65382,6,0,L|479:121,1,120,8|0,0:0|0:0,0:0:0:0:
381,305,65754,2,0,L|233:310,1,120,8|0,0:0|0:0,0:0:0:0:
131,79,66125,2,0,L|279:74,1,120,4|0,0:0|0:0,0:0:0:0:
160,260,66497,2,0,L|33:263,1,120
331,153,66868,6,0,B|363:120|363:120|449:115,1,120,8|0,0:0|0:0,0:0:0:0:
206,318,67240,2,0,B|174:351|174:351|88:356,1,120,8|0,0:0|0:0,0:0:0:0:
395,256,67612,2,0,P|465:243|535:257,1,120,4|0,0:0|0:0,0:0:0:0:
262,172,67983,2,0,L|126:130,1,120
279,83,68355,5,8,0:0:0:0:
401,162,68540,1,0,0:0:0:0:
229,234,68726,1,8,0:0:0:0:
182,46,68912,1,0,0:0:0:0:
360,111,69098,1,4,0:0:0:0:
116,147,69283,1,0,0:0:0:0:
417,39,69469,1,0,0:0:0:0:
287,308,69655,1,0,0:0:0:0:
287,308,69748,1,0,0:0:0:0:
287,308,69841,6,0,P|231:338|160:335,1,120,8|0,0:0|0:0,0:0:0:0:
9,220,70212,2,0,L|52:292,1,60,8|0,0:0|0:0,0:0:0:0:
133,228,70398,2,0,L|190:244,1,60
286,206,70584,2,0,L|434:201,1,120,4|0,0:0|0:0,0:0:0:0:
190,75,70955,2,0,B|132:56|132:56|46:56,1,120
321,132,71327,5,8,0:0:0:0:
474,108,71512,1,0,0:0:0:0:
498,271,71698,1,8,0:0:0:0:
346,296,71884,1,0,0:0:0:0:
197,205,72070,1,4,0:0:0:0:
303,55,72255,1,0,0:0:0:0:
432,193,72441,2,0,L|369:247,1,60
306,231,72627,2,0,L|243:285,1,60
157,268,72813,5,8,0:0:0:0:
67,84,72999,1,0,0:0:0:0:
33,298,73184,1,8,0:0:0:0:
168,61,73370,1,0,0:0:0:0:
133,350,73556,2,0,B|169:362|169:362|244:301,1,120,4|0,0:0|0:0,0:0:0:0:
370,57,73927,2,0,L|370:209,1,120
443,368,74299,5,8,0:0:0:0:
253,215,74485,1,0,0:0:0:0:
506,284,74670,2,0,P|511:229|506:152,1,120,8|0,0:0|0:0,0:0:0:0:
181,84,75042,2,0,P|176:139|181:216,1,120,4|0,0:0|0:0,0:0:0:0:
326,345,75413,1,0,0:0:0:0:
129,288,75599,1,0,0:0:0:0:
420,108,75785,6,0,L|312:175,1,120,8|0,0:0|0:0,0:0:0:0:
398,17,76156,1,8,0:0:0:0:
224,94,76342,1,0,0:0:0:0:
512,244,76528,2,0,L|398:186,1,120,4|0,0:0|0:0,0:0:0:0:
120,144,76899,6,0,L|88:56,1,60
32,168,77085,2,0,L|64:256,1,60
216,128,77271,2,0,L|184:40,1,60,8|0,0:0|0:0,0:0:0:0:
304,112,77457,2,0,L|336:200,1,60
152,264,77642,2,0,L|105:182,1,60,8|0,0:0|0:0,0:0:0:0:
336,120,77828,2,0,L|352:212,1,60
112,256,78014,2,0,L|64:128,1,120,4|0,0:0|0:0,0:0:0:0:
185,113,78386,5,0,0:0:0:0:
251,332,78571,1,0,0:0:0:0:
255,149,78757,1,8,0:0:0:0:
317,363,78943,1,0,0:0:0:0:
317,101,79129,1,8,0:0:0:0:
504,322,79314,1,0,0:0:0:0:
304,277,79500,1,4,0:0:0:0:
512,233,79686,1,0,0:0:0:0:
512,233,79872,1,0,0:0:0:0:
512,233,80057,1,0,0:0:0:0:
131,266,80243,6,0,B|90:289|90:289|79:384,1,120,8|0,0:0|0:0,0:0:0:0:
368,352,80615,1,8,0:0:0:0:
475,179,80800,1,0,0:0:0:0:
144,352,80986,1,4,0:0:0:0:
37,179,81171,1,0,0:0:0:0:
271,358,81358,1,0,0:0:0:0:
71,68,81543,1,0,0:0:0:0:
425,83,81729,6,0,B|466:106|466:106|477:201,1,120,8|0,0:0|0:0,0:0:0:0:
133,264,82101,1,8,0:0:0:0:
422,296,82286,1,0,0:0:0:0:
95,145,82472,1,4,0:0:0:0:
357,177,82658,1,0,0:0:0:0:
6,259,82844,2,0,L|111:344,1,120
473,53,83215,6,0,P|457:135|493:303,1,204.000003890991,8|0,0:0|0:0,0:0:0:0:
68,240,83587,2,0,P|84:158|46:-2,1,204.000003890991,8|0,0:0|0:0,0:0:0:0:
420,348,83958,2,0,B|356:345|356:345|265:239,1,204.000003890991,4|0,0:0|0:0,0:0:0:0:
198,68,84330,2,0,L|192:201,1,120
66,348,84701,5,8,0:0:0:0:
254,268,84887,1,0,0:0:0:0:
40,260,85073,1,8,0:0:0:0:
218,358,85259,1,0,0:0:0:0:
470,223,85444,2,0,L|398:326,1,120,4|0,0:0|0:0,0:0:0:0:
26,134,85816,2,0,L|177:134,1,120
354,212,86187,5,8,0:0:0:0:
459,374,86373,1,0,0:0:0:0:
463,106,86559,2,0,B|406:35|406:35|346:35,1,120,8|0,0:0|0:0,0:0:0:0:
49,278,86930,2,0,L|166:349,1,120,4|0,0:0|0:0,0:0:0:0:
305,152,87302,2,0,L|188:81,1,120
386,368,87673,6,0,B|411:330|411:330|409:231,1,120,8|0,0:0|0:0,0:0:0:0:
117,221,88045,1,8,0:0:0:0:
361,188,88231,1,0,0:0:0:0:
38,116,88416,2,0,L|13:242,1,120,4|0,0:0|0:0,0:0:0:0:
234,321,88788,2,0,B|295:306|295:306|314:198,1,120
164,37,89160,6,0,L|163:206,1,120,8|0,0:0|0:0,0:0:0:0:
370,344,89531,2,0,L|370:224,1,120,8|0,0:0|0:0,0:0:0:0:
223,80,89903,2,0,L|222:249,1,120,4|0,0:0|0:0,0:0:0:0:
53,314,90274,2,0,L|54:145,1,120
362,198,90646,5,8,0:0:0:0:
499,347,90831,1,0,0:0:0:0:
469,144,91017,2,0,L|447:274,1,120,8|0,0:0|0:0,0:0:0:0:
251,71,91389,2,0,L|279:193,1,120,4|0,0:0|0:0,0:0:0:0:
394,355,91760,2,0,P|328:348|258:367,1,120
29,260,92132,6,0,P|95:267|165:248,1,120,8|0,0:0|0:0,0:0:0:0:
382,188,92503,1,8,0:0:0:0:
371,189,92689,1,0,0:0:0:0:
29,124,92875,2,0,P|95:117|165:136,1,120,4|0,0:0|0:0,0:0:0:0:
464,192,93246,1,0,0:0:0:0:
481,368,93432,1,0,0:0:0:0:
482,29,93618,5,8,0:0:0:0:
447,267,93803,1,0,0:0:0:0:
380,21,93989,2,0,L|421:169,1,120,8|0,0:0|0:0,0:0:0:0:
176,189,94361,2,0,P|233:222|307:231,2,120,4|0|0,0:0|0:0|0:0,0:0:0:0:
101,118,95104,5,8,0:0:0:0:
148,316,95290,1,0,0:0:0:0:
254,165,95475,1,8,0:0:0:0:
322,334,95661,1,0,0:0:0:0:
415,220,95847,2,0,L|475:381,1,120,4|0,0:0|0:0,0:0:0:0:
196,234,96218,2,0,B|154:186|154:186|138:91,1,120
348,157,96590,5,8,0:0:0:0:
94,227,96776,1,0,0:0:0:0:
270,327,96961,1,8,0:0:0:0:
17,297,97147,1,0,0:0:0:0:
309,243,97333,2,0,L|426:221,1,120,4|0,0:0|0:0,0:0:0:0:
206,32,97704,2,0,L|238:159,1,120
37,197,98076,6,0,P|105:198|167:234,1,120,8|0,0:0|0:0,0:0:0:0:
310,357,98447,1,8,0:0:0:0:
119,313,98633,1,0,0:0:0:0:
350,240,98819,1,4,0:0:0:0:
167,148,99005,1,0,0:0:0:0:
427,130,99190,1,0,0:0:0:0:
206,24,99376,1,0,0:0:0:0:
13,151,99562,6,0,B|2:214|2:214|43:297,1,120,8|0,0:0|0:0,0:0:0:0:
263,377,99934,2,0,B|274:314|274:314|233:231,1,120,8|0,0:0|0:0,0:0:0:0:
276,19,100305,2,0,P|182:89|154:204,1,240,4|0,0:0|0:0,0:0:0:0:
386,220,101048,6,0,P|368:284|387:342,1,120,8|0,0:0|0:0,0:0:0:0:
249,177,101420,2,0,P|248:243|281:294,1,120,8|0,0:0|0:0,0:0:0:0:
9,112,101791,2,0,P|27:176|8:234,1,120,4|0,0:0|0:0,0:0:0:0:
146,69,102163,2,0,P|146:135|113:186,1,120
60,375,102534,6,0,L|222:337,1,120,8|0,0:0|0:0,0:0:0:0:
350,237,102906,2,0,L|203:276,1,120,8|0,0:0|0:0,0:0:0:0:
46,187,103277,2,0,L|193:148,1,120,4|0,0:0|0:0,0:0:0:0:
334,49,103649,2,0,L|172:87,1,120
376,336,104020,6,0,P|312:296|296:224,1,120,8|0,0:0|0:0,0:0:0:0:
491,194,104392,2,0,P|459:125|484:56,1,120,8|0,0:0|0:0,0:0:0:0:
368,352,104763,2,0,P|316:296|319:223,1,120,4|0,0:0|0:0,0:0:0:0:
480,208,105135,2,0,P|466:133|509:73,1,120
281,110,105506,6,0,P|145:128|23:103,1,240,8|8,0:0|0:0,0:0:0:0:
56,329,106249,2,0,P|192:347|314:322,1,240,4|0,0:0|0:0,0:0:0:0:
320,170,106992,5,8,0:0:0:0:
459,21,107178,1,0,0:0:0:0:
391,243,107364,1,8,0:0:0:0:
362,54,107550,1,0,0:0:0:0:
480,239,107735,2,0,L|489:368,1,120,4|0,0:0|0:0,0:0:0:0:
298,281,108107,2,0,L|289:152,1,120
141,20,108478,5,8,0:0:0:0:
359,68,108664,1,0,0:0:0:0:
133,180,108850,1,8,0:0:0:0:
384,250,109036,1,0,0:0:0:0:
196,344,109221,2,0,B|109:376|109:376|58:375,1,120,4|0,0:0|0:0,0:0:0:0:
233,179,109593,2,0,L|293:285,1,120
483,355,109964,6,0,P|420:346|335:368,1,120,8|0,0:0|0:0,0:0:0:0:
178,269,110336,1,8,0:0:0:0:
94,192,110522,1,0,0:0:0:0:
288,129,110708,1,4,0:0:0:0:
226,32,110894,1,0,0:0:0:0:
466,150,111079,1,0,0:0:0:0:
432,42,111265,1,0,0:0:0:0:
273,271,111451,6,0,B|218:346|218:346|157:347,1,120,8|0,0:0|0:0,0:0:0:0:
51,197,111822,2,0,L|191:198,1,120,8|0,0:0|0:0,0:0:0:0:
486,73,112194,2,0,P|436:147|271:193,1,240,4|0,0:0|0:0,0:0:0:0:
