osu file format v14

[General]
AudioFilename: audio.mp3
AudioLeadIn: 0
PreviewTime: 75987
Countdown: 0
SampleSet: Soft
StackLeniency: 0.8
Mode: 0
LetterboxInBreaks: 0
WidescreenStoryboard: 0

[Editor]
Bookmarks: 10479
DistanceSpacing: 1.5
BeatDivisor: 8
GridSize: 4
TimelineZoom: 1.8

[Metadata]
Title:You (=I)
TitleUnicode:You (=I)
Artist:BOL4
ArtistUnicode:볼빨간사춘기
Creator:milr_
Version:Insane
Source:
Tags:Bolbbalgan4 Red Planet Blushing Youth kpop k-pop korean pop jiyoung jiyoon
BeatmapID:2608105
BeatmapSetID:1254930

[Difficulty]
HPDrainRate:8
CircleSize:4
OverallDifficulty:7.5
ApproachRate:9
SliderMultiplier:2.1
SliderTickRate:2

[Events]
//Background and Video events
0,0,"wp6262702.jpg",0,0
//Break Periods
//Storyboard Layer 0 (Background)
//Storyboard Layer 1 (Fail)
//Storyboard Layer 2 (Pass)
//Storyboard Layer 3 (Foreground)
//Storyboard Layer 4 (Overlay)
//Storyboard Sound Samples

[TimingPoints]
1130,571.428571428571,4,2,1,50,1,0
10272,-133.333333333333,4,2,1,50,0,0
23701,-100,4,2,1,60,0,0
24844,-133.333333333333,4,2,1,60,0,0
28558,-83.3333333333333,4,2,1,70,0,0
35987,-74.0740740740741,4,2,1,70,0,0
36558,-83.3333333333333,4,2,1,70,0,0
46844,-66.6666666666667,4,2,1,80,0,0
55987,-133.333333333333,4,2,1,80,0,0
58272,-83.3333333333333,4,2,1,65,0,0
67415,-83.3333333333333,4,2,1,70,0,0
76558,-66.6666666666667,4,2,1,80,0,0
77129,-66.6666666666667,4,2,1,80,0,0
94844,-133.333333333333,4,2,1,65,0,0
103987,-83.3333333333333,4,2,1,70,0,0
113129,-133.333333333333,4,2,1,70,0,0
113272,-133.333333333333,4,2,1,40,0,0
114558,-133.333333333333,4,2,1,5,0,0
114844,-133.333333333333,4,2,1,60,0,0
115415,-62.5,4,2,1,80,0,1
118558,-62.5,4,2,1,80,0,0
142844,-62.5,4,2,1,80,0,1
151987,-62.5,4,2,1,80,0,0
156558,-62.5,4,2,1,70,0,0
157701,-62.5,4,2,1,65,0,0
158844,-62.5,4,2,1,60,0,0
159987,-62.5,4,2,1,55,0,0
161129,-62.5,4,2,1,30,0,0

[Colours]
Combo1 : 248,124,168
Combo2 : 160,169,245
Combo3 : 214,148,250
Combo4 : 250,146,244

[HitObjects]
274,233,10272,5,2,0:0:0:0:
196,167,10558,5,0,0:0:0:0:
336,149,10844,1,8,0:0:0:0:
352,289,11129,1,2,0:0:0:0:
227,366,11415,6,0,P|166:355|117:348,1,78.7500030040742
304,225,11987,1,10,0:0:0:0:
304,225,12272,1,0,0:0:0:0:
116,52,12558,6,0,P|203:66|295:80,1,157.500006008148,2|8,0:0|0:0,0:0:0:0:
350,22,13415,1,2,0:0:0:0:
512,256,13701,2,0,B|432:275|476:212|379:232,1,118.125004506111
399,155,14272,1,10,0:0:0:0:
399,155,14415,2,0,P|409:84|416:54,1,78.7500030040742,0|0,0:0|0:0,0:0:0:0:
350,22,14844,5,2,0:0:0:0:
213,31,15129,5,0,0:0:0:0:
289,150,15415,1,8,0:0:0:0:
410,77,15701,1,2,0:0:0:0:
339,209,15986,6,0,P|348:260|354:301,1,78.7500030040742,0|0,0:0|0:0,0:0:0:0:
162,384,16558,2,0,B|151:319|229:365|222:281,1,118.125004506111,10|0,0:0|0:0,0:0:0:0:
222,295,17129,6,0,P|128:305|43:315,1,157.500006008148,2|8,0:0|0:0,0:0:0:0:
0,242,17986,1,2,0:0:0:0:
132,66,18272,2,0,B|189:153|44:114|89:213,1,157.500006008148,0|10,0:0|0:0,0:0:0:0:
81,190,19129,1,0,0:0:0:0:
22,101,19415,5,2,0:0:0:0:
0,242,19701,1,0,0:0:0:0:
141,262,19986,1,10,0:0:0:0:
249,148,20272,5,2,0:0:0:0:
249,148,20558,1,2,0:0:0:0:
234,60,20844,1,0,0:0:0:0:
406,170,21129,1,10,0:0:0:0:
317,92,21415,5,0,0:0:0:0:
459,77,21701,1,2,0:0:0:0:
474,218,21986,1,0,0:0:0:0:
249,148,22272,5,10,0:0:0:0:
249,148,22558,1,2,0:0:0:0:
209,288,22844,5,2,0:0:0:0:
354,262,23129,1,0,0:0:0:0:
331,111,23415,1,10,0:0:0:0:
248,147,23701,6,0,P|221:151|195:156,1,52.5,0|0,0:0|0:0,0:0:0:0:
302,254,23986,2,0,P|329:257|355:262,1,52.5,2|0,0:0|0:0,0:0:0:0:
267,368,24272,1,0,0:0:0:0:
267,368,24415,1,0,0:0:0:0:
197,92,24844,5,2,0:0:0:0:
197,92,24986,1,0,0:0:0:0:
197,92,25129,1,2,0:0:0:0:
336,116,25415,1,0,0:0:0:0:
302,254,25701,1,10,0:0:0:0:
233,199,25986,5,0,0:0:0:0:
233,199,26129,1,0,0:0:0:0:
233,199,26272,1,2,0:0:0:0:
92,213,26558,1,0,0:0:0:0:
110,355,26844,1,8,0:0:0:0:
251,333,27129,1,2,0:0:0:0:
172,276,27415,5,0,0:0:0:0:
172,276,27701,1,2,0:0:0:0:
20,127,27986,2,0,P|78:134|136:143,1,118.125004506111,4|0,1:2|0:0,0:0:0:0:
172,113,28558,6,0,B|205:59|244:133|290:61,1,125.999996154785,6|2,1:2|0:0,0:0:0:0:
240,3,28986,1,0,0:0:0:0:
355,27,29129,2,0,P|364:75|370:115,1,62.9999980773926,10|0,0:0|0:0,0:0:0:0:
332,168,29415,1,0,0:0:0:0:
332,168,29558,1,0,0:0:0:0:
332,168,29701,6,0,B|396:141|367:230|444:198,2,125.999996154785,2|2|10,1:2|0:0|0:0,0:0:0:0:
335,376,30558,1,2,0:0:0:0:
288,313,30701,1,0,0:0:0:0:
218,344,30844,6,0,P|207:263|196:195,1,125.999996154785,2|0,1:2|0:0,0:0:0:0:
319,108,31272,1,0,0:0:0:0:
319,108,31415,2,0,P|310:188|306:254,1,125.999996154785,10|0,0:0|0:0,0:0:0:0:
94,36,31986,6,0,B|166:8|142:80|214:56,1,125.999996154785,2|0,1:2|0:0,0:0:0:0:
210,58,32415,1,0,0:0:0:0:
269,3,32558,1,10,0:0:0:0:
337,41,32701,2,0,P|347:88|355:137,2,62.9999980773926,0|0|2,0:0|0:0|0:0,0:0:0:0:
272,117,33129,6,0,P|263:191|254:270,1,125.999996154785,2|2,1:2|0:0,0:0:0:0:
238,381,33558,1,0,0:0:0:0:
179,329,33701,2,0,P|139:314|140:273,1,62.9999980773926,10|0,0:0|0:0,0:0:0:0:
327,291,33987,1,0,0:0:0:0:
327,291,34129,1,0,0:0:0:0:
326,290,34272,6,0,B|387:235|383:318|439:266,2,125.999996154785,2|2|10,1:2|0:0|0:0,0:0:0:0:
272,117,35129,1,2,0:0:0:0:
272,117,35272,1,2,0:0:0:0:
250,198,35415,6,0,P|322:187|364:185,1,62.9999980773926,2|0,1:2|0:0,0:0:0:0:
196,89,35701,1,2,0:0:0:0:
196,89,35844,1,2,0:0:0:0:
238,207,35987,6,0,P|310:196|363:192,1,70.8750002703667,2|0,1:2|0:0,0:0:0:0:
121,58,36272,2,0,P|128:17|133:-17,1,70.8750002703667,2|2,0:0|0:0,0:0:0:0:
272,117,36558,6,0,P|264:170|257:207,1,62.9999980773926,2|0,1:2|0:0,0:0:0:0:
134,258,36844,1,0,0:0:0:0:
134,258,36986,1,0,0:0:0:0:
210,238,37129,5,10,0:2:0:0:
156,332,37272,1,2,0:0:0:0:
54,277,37415,1,2,0:0:0:0:
110,181,37558,1,2,0:0:0:0:
200,249,37701,6,0,P|208:298|219:382,1,125.999996154785,2|2,1:2|0:0,0:0:0:0:
286,285,38129,1,0,0:0:0:0:
454,362,38272,2,0,B|371:389|415:316|327:350,1,125.999996154785,10|2,0:0|0:0,0:0:0:0:
337,346,38701,1,2,0:0:0:0:
401,214,38844,5,2,1:2:0:0:
401,214,38986,1,2,0:0:0:0:
438,282,39129,2,0,P|483:273|518:269,1,62.9999980773926,2|0,0:0|0:0,0:0:0:0:
320,180,39415,5,10,0:0:0:0:
455,150,39558,1,0,0:0:0:0:
326,98,39701,1,2,0:0:0:0:
401,214,39844,1,2,0:0:0:0:
408,76,39986,6,0,B|484:55|410:14|491:-10,2,125.999996154785,2|2|10,1:2|0:0|0:0,0:0:0:0:
243,200,40844,1,2,0:0:0:0:
283,269,40986,1,0,0:0:0:0:
357,243,41129,6,0,P|433:258|505:275,1,125.999996154785,2|0,1:2|0:0,0:0:0:0:
326,98,41558,1,0,0:0:0:0:
326,98,41701,2,0,P|240:83|172:70,1,125.999996154785,10|2,0:0|0:0,0:0:0:0:
138,358,42272,6,0,P|179:336|165:298,1,62.9999980773926,2|0,1:2|0:0,0:0:0:0:
231,164,42558,2,0,P|184:157|173:196,1,62.9999980773926,2|0,0:0|0:0,0:0:0:0:
41,266,42844,2,0,P|74:298|106:273,1,62.9999980773926,10|0,0:0|0:0,0:0:0:0:
255,295,43129,2,0,P|246:249|206:250,1,62.9999980773926,2|0,0:0|0:0,0:0:0:0:
99,146,43415,6,0,P|57:173|35:107,1,125.999996154785,2|0,1:2|0:0,0:0:0:0:
160,15,43844,1,0,0:0:0:0:
103,72,43986,6,0,P|112:128|115:162,1,62.9999980773926,10|0,0:0|0:0,0:0:0:0:
230,92,44272,2,0,P|235:53|241:21,1,62.9999980773926,2|0,0:0|0:0,0:0:0:0:
68,268,44558,6,0,P|114:277|163:287,1,62.9999980773926,10|0,0:2|0:0,0:0:0:0:
77,258,44844,2,0,P|123:267|172:277,1,62.9999980773926,2|0,0:0|0:0,0:0:0:0:
180,151,45129,6,0,P|187:193|194:243,1,62.9999980773926,10|0,0:0|0:0,0:0:0:0:
194,156,45415,2,0,P|201:198|208:248,1,62.9999980773926,2|0,0:0|0:0,0:0:0:0:
365,312,45701,5,2,1:2:0:0:
300,359,45844,1,2,0:0:0:0:
275,181,45986,5,2,0:0:0:0:
320,246,46129,1,2,1:2:0:0:
339,133,46272,5,10,0:0:0:0:
478,342,46558,5,2,0:0:0:0:
478,342,46701,1,2,0:0:0:0:
478,342,46844,6,0,P|484:280|492:222,1,118.125004506111,6|0,1:2|0:0,0:0:0:0:
420,193,47129,2,0,P|409:269|400:332,1,118.125004506111,2|0,1:2|0:0,0:0:0:0:
512,96,47415,6,0,B|426:172|460:49|347:150,1,157.500006008148,10|0,0:0|0:0,0:0:0:0:
225,98,47844,1,2,0:0:0:0:
303,78,47986,6,0,B|324:28|324:28|239:-1,1,118.125004506111,2|0,1:2|0:0,0:0:0:0:
149,94,48272,2,0,B|128:144|128:144|213:173,1,118.125004506111,2|0,1:2|0:0,0:0:0:0:
278,364,48558,6,0,P|283:320|302:179,1,157.500006008148,10|0,0:0|0:0,0:0:0:0:
188,164,48986,1,2,0:0:0:0:
15,323,49129,6,0,P|71:338|90:289,1,118.125004506111,2|0,1:2|0:0,0:0:0:0:
229,296,49415,2,0,P|201:239|151:258,1,118.125004506111,2|0,1:2|0:0,0:0:0:0:
5,93,49701,6,0,B|-12:177|111:144|81:244,1,157.500006008148,10|0,0:0|0:0,0:0:0:0:
176,58,50129,1,2,0:0:0:0:
143,141,50272,6,0,P|208:131|259:126,1,78.7500030040742,2|0,1:2|0:0,0:0:0:0:
247,17,50558,1,2,0:2:0:0:
247,17,50701,1,0,0:0:0:0:
155,151,50844,6,0,P|214:142|261:136,1,78.7500030040742,10|0,0:0|0:0,0:0:0:0:
377,48,51129,1,0,0:0:0:0:
305,78,51272,1,0,0:0:0:0:
247,17,51415,6,0,B|216:65|216:65|279:109,1,118.125004506111,2|0,1:2|0:0,0:0:0:0:
430,191,51701,2,0,B|479:156|479:156|448:108,1,118.125004506111,2|0,1:2|0:0,0:0:0:0:
301,317,51986,6,0,P|311:234|324:149,1,157.500006008148,10|0,0:0|0:0,0:0:0:0:
265,99,52415,1,2,0:0:0:0:
95,270,52558,6,0,P|165:280|189:244,1,118.125004506111,2|0,1:2|0:0,0:0:0:0:
334,261,52844,2,0,P|290:203|250:209,1,118.125004506111,2|0,1:2|0:0,0:0:0:0:
158,30,53129,6,0,B|122:108|219:88|180:182,1,157.500006008148,10|0,0:0|0:0,0:0:0:0:
37,123,53558,1,2,0:0:0:0:
0,194,53701,6,0,P|54:202|106:157,1,118.125004506111,2|0,1:2|0:0,0:0:0:0:
0,55,53986,2,0,P|46:46|103:84,1,118.125004506111,2|0,1:2|0:0,0:0:0:0:
4,208,54272,6,0,P|83:220|178:238,1,157.500006008148,8|0,0:0|0:0,0:0:0:0:
226,185,54701,1,2,0:0:0:0:
179,384,54844,6,0,P|222:376|271:370,1,78.7500030040742,2|0,1:2|0:0,0:0:0:0:
223,292,55129,1,2,0:2:0:0:
223,292,55272,1,0,0:0:0:0:
170,377,55415,6,0,P|213:369|262:363,1,78.7500030040742,10|0,0:0|0:0,0:0:0:0:
286,240,55701,1,0,0:0:0:0:
77,55,55987,6,0,B|40:143|136:124|90:211,2,157.500006008148,6|2|2,1:2|0:2|0:2,0:0:0:0:
143,8,57415,1,0,1:2:0:0:
258,103,57701,2,0,P|251:155|245:194,1,78.7500030040742,10|0,0:0|0:0,0:0:0:0:
36,363,58272,6,0,P|29:281|23:218,1,125.999996154785,6|0,1:2|0:0,0:0:0:0:
113,304,58701,1,0,0:0:0:0:
113,304,58844,2,0,B|181:284|158:356|235:321,1,125.999996154785,10|0,0:0|0:0,0:0:0:0:
213,30,59415,6,0,P|201:115|194:177,2,125.999996154785,2|0|10,1:2|0:0|0:0,0:0:0:0:
57,0,60272,1,0,0:0:0:0:
57,0,60415,1,0,0:0:0:0:
9,65,60558,6,0,B|43:130|83:68|119:147,1,125.999996154785,2|0,1:2|0:0,0:0:0:0:
238,315,61129,2,0,B|204:380|164:318|128:397,1,125.999996154785,10|0,0:0|0:0,0:0:0:0:
75,325,61558,1,0,0:0:0:0:
4,215,61701,6,0,B|73:191|54:282|134:230,1,125.999996154785,2|0,1:2|0:0,0:0:0:0:
197,223,62129,1,2,0:0:0:0:
186,146,62272,1,10,0:0:0:0:
106,161,62415,2,0,P|113:98|115:84,2,62.9999980773926,0|2|0,0:0|0:0|0:0,0:0:0:0:
315,0,62844,6,0,B|330:72|220:20|258:151,1,125.999996154785,2|0,1:2|0:0,0:0:0:0:
197,223,63272,1,0,0:0:0:0:
197,223,63415,2,0,P|282:211|351:204,1,125.999996154785,10|0,0:0|0:0,0:0:0:0:
498,367,63986,6,0,P|421:358|350:350,2,125.999996154785,2|0|10,1:2|0:0|0:0,0:0:0:0:
439,168,64844,5,2,0:0:0:0:
439,168,64986,1,2,0:0:0:0:
364,213,65129,2,0,P|358:174|352:140,1,62.9999980773926,2|0,1:2|0:0,0:0:0:0:
489,233,65415,5,2,0:0:0:0:
489,233,65558,1,2,0:0:0:0:
355,219,65701,2,0,P|349:180|343:146,1,62.9999980773926,10|0,0:0|0:0,0:0:0:0:
407,35,65986,2,0,P|400:89|396:134,1,62.9999980773926,0|0,0:0|0:0,0:0:0:0:
210,128,66272,6,0,P|286:140|363:152,1,125.999996154785,2|0,1:2|0:0,0:0:0:0:
231,280,66701,1,0,0:0:0:0:
283,220,66844,5,10,0:0:0:0:
292,330,66986,1,2,0:0:0:0:
180,341,67129,1,2,0:0:0:0:
168,232,67272,1,2,0:0:0:0:
231,280,67415,6,0,P|234:234|237:206,1,62.9999980773926,2|0,1:2|0:0,0:0:0:0:
95,195,67701,2,0,P|92:226|90:257,1,62.9999980773926,2|0,0:0|0:0,0:0:0:0:
279,128,67986,2,0,P|201:136|129:146,1,125.999996154785,10|2,0:0|0:0,0:0:0:0:
100,12,68415,1,0,0:0:0:0:
167,62,68558,5,2,1:2:0:0:
167,62,68701,1,2,0:0:0:0:
31,49,68844,2,0,P|36:90|40:131,1,62.9999980773926,2|0,0:0|0:0,0:0:0:0:
192,192,69129,1,10,0:0:0:0:
167,62,69272,1,2,0:0:0:0:
264,149,69415,1,2,0:0:0:0:
131,134,69558,1,2,0:0:0:0:
249,69,69701,6,0,B|322:69|275:-4|371:7,2,125.999996154785,2|2|10,1:2|0:0|0:0,0:0:0:0:
192,192,70558,1,2,0:0:0:0:
261,237,70701,1,0,0:0:0:0:
223,305,70844,6,0,P|153:317|70:334,1,125.999996154785,2|0,1:2|0:0,0:0:0:0:
330,384,71272,1,0,0:0:0:0:
330,384,71415,2,0,P|421:370|499:362,1,125.999996154785,10|2,0:0|0:0,0:0:0:0:
379,36,71986,6,0,P|371:78|341:86,1,62.9999980773926,2|0,1:2|0:0,0:0:0:0:
261,237,72272,2,0,P|242:198|262:174,1,62.9999980773926,2|0,0:2|0:0,0:0:0:0:
238,6,72558,2,0,P|275:26|273:57,1,62.9999980773926,10|0,0:2|0:0,0:0:0:0:
393,179,72844,2,0,P|350:184|333:158,1,62.9999980773926,2|0,0:2|0:0,0:0:0:0:
136,162,73129,6,0,P|136:134|221:108,1,125.999996154785,2|0,1:2|0:0,0:0:0:0:
19,43,73558,1,0,0:0:0:0:
51,173,73701,6,0,P|56:142|60:111,1,62.9999980773926,10|0,0:0|0:0,0:0:0:0:
136,4,73986,2,0,P|132:35|127:66,1,62.9999980773926,2|0,0:0|0:0,0:0:0:0:
26,265,74272,6,0,P|72:261|118:257,1,62.9999980773926,10|0,0:2|0:0,0:0:0:0:
14,255,74558,2,0,P|60:251|106:247,1,62.9999980773926,2|0,0:0|0:0,0:0:0:0:
160,380,74844,6,0,P|151:312|150:273,1,62.9999980773926,10|0,0:0|0:0,0:0:0:0:
171,369,75129,2,0,P|162:301|161:262,1,62.9999980773926,2|0,0:0|0:0,0:0:0:0:
309,227,75415,5,6,1:2:0:0:
236,267,75558,1,2,0:0:0:0:
219,85,75701,5,2,0:0:0:0:
264,156,75844,1,2,1:2:0:0:
290,41,75986,5,10,0:0:0:0:
474,211,76272,1,2,0:0:0:0:
474,211,76415,1,2,0:0:0:0:
474,211,76558,6,0,B|492:268|492:268|442:317,1,118.125004506111,6|0,1:2|0:0,0:0:0:0:
310,227,76844,2,0,B|367:206|367:206|412:258,1,118.125004506111,2|0,1:2|0:0,0:0:0:0:
499,102,77129,6,0,B|394:78|457:187|336:153,1,157.500006008148,10|0,0:0|0:0,0:0:0:0:
245,19,77558,1,2,0:0:0:0:
302,73,77701,6,0,P|294:125|286:205,1,118.125004506111,2|0,1:2|0:0,0:0:0:0:
148,214,77986,2,0,P|152:174|164:97,1,118.125004506111,2|0,1:2|0:0,0:0:0:0:
291,375,78272,6,0,B|318:296|194:325|219:246,1,157.500006008148,10|0,0:0|0:0,0:0:0:0:
280,204,78701,1,2,0:0:0:0:
428,285,78844,6,0,B|390:241|390:241|322:266,1,118.125004506111,2|0,1:2|0:0,0:0:0:0:
376,140,79129,2,0,B|414:96|414:96|482:121,1,118.125004506111,2|0,1:2|0:0,0:0:0:0:
417,0,79415,6,0,P|322:10|235:21,1,157.500006008148,10|0,0:0|0:0,0:0:0:0:
135,123,79844,1,2,0:0:0:0:
206,88,79986,6,0,P|253:110|252:151,1,78.7500030040742,2|0,1:2|0:0,0:0:0:0:
76,69,80272,1,2,0:2:0:0:
76,69,80415,1,0,0:0:0:0:
124,198,80558,6,0,P|81:227|46:206,1,78.7500030040742,10|0,0:0|0:0,0:0:0:0:
204,87,80844,1,0,0:0:0:0:
135,123,80986,1,0,0:0:0:0:
181,12,81129,6,0,P|236:8|321:2,1,118.125004506111,2|0,1:2|0:0,0:0:0:0:
321,156,81415,2,0,P|266:160|181:166,1,118.125004506111,2|0,1:2|0:0,0:0:0:0:
417,38,81701,6,0,B|403:128|325:53|313:146,1,157.500006008148,10|0,0:0|0:0,0:0:0:0:
345,237,82129,1,2,0:0:0:0:
266,203,82272,6,0,B|242:253|242:253|287:302,1,118.125004506111,2|0,1:2|0:0,0:0:0:0:
419,279,82558,2,0,B|447:223|447:223|404:175,1,118.125004506111,2|0,1:2|0:0,0:0:0:0:
252,197,82844,6,0,P|266:296|276:381,1,157.500006008148,10|0,0:0|0:0,0:0:0:0:
346,384,83272,1,2,0:0:0:0:
504,296,83415,6,0,P|462:311|424:250,1,118.125004506111,2|0,1:2|0:0,0:0:0:0:
267,283,83701,2,0,P|313:266|353:317,1,118.125004506111,2|0,1:2|0:0,0:0:0:0:
438,89,83986,6,0,B|337:123|464:171|348:204,1,157.500006008148,10|0,0:0|0:0,0:0:0:0:
285,162,84415,1,2,0:0:0:0:
141,198,84558,6,0,P|152:259|158:299,1,78.7500030040742,2|0,1:2|0:0,0:0:0:0:
228,224,84844,1,2,0:2:0:0:
228,224,84986,1,0,0:0:0:0:
133,206,85129,6,0,P|144:267|150:307,1,78.7500030040742,10|0,0:0|0:0,0:0:0:0:
285,162,85415,1,8,0:0:0:0:
194,48,85558,1,8,0:0:0:0:
128,219,85701,6,0,P|77:212|0:202,1,118.125004506111,6|0,1:2|0:0,0:0:0:0:
26,92,85986,2,0,P|65:96|157:109,1,118.125004506111,2|0,1:2|0:0,0:0:0:0:
198,238,86272,6,0,P|109:226|-1:214,1,157.500006008148,10|0,0:0|0:0,0:0:0:0:
238,11,86701,1,2,0:0:0:0:
191,141,86844,6,0,B|145:99|145:99|180:30,1,118.125004506111,2|0,1:2|0:0,0:0:0:0:
316,19,87129,2,0,B|362:61|362:61|327:130,1,118.125004506111,2|0,1:2|0:0,0:0:0:0:
412,211,87415,6,0,P|328:196|222:182,1,157.500006008148
127,332,87844,1,2,0:0:0:0:
283,345,87986,6,0,P|228:333|192:377,1,118.125004506111,2|0,1:2|0:0,0:0:0:0:
157,225,88272,2,0,P|214:217|256:256,1,118.125004506111,2|0,1:2|0:0,0:0:0:0:
328,122,88558,6,0,P|250:132|172:143,1,157.500006008148,10|0,0:0|0:0,0:0:0:0:
445,245,88986,1,2,0:0:0:0:
359,270,89129,6,0,P|368:219|373:175,1,78.7500030040742,2|0,1:2|0:0,0:0:0:0:
501,93,89415,1,2,0:2:0:0:
501,93,89558,1,0,0:0:0:0:
350,278,89701,6,0,P|359:227|364:183,1,78.7500030040742,10|0,0:0|0:0,0:0:0:0:
378,80,89986,1,0,0:0:0:0:
432,148,90129,1,0,0:0:0:0:
302,128,90272,6,0,P|295:77|238:55,1,118.125004506111,2|0,1:2|0:0,0:0:0:0:
166,226,90558,2,0,P|196:185|263:198,1,118.125004506111,2|0,1:2|0:0,0:0:0:0:
446,303,90844,6,0,B|343:330|411:220|282:249,1,157.500006008148,10|0,0:0|0:0,0:0:0:0:
254,301,91272,1,2,0:0:0:0:
167,364,91415,6,0,B|140:313|140:313|189:268,1,118.125004506111,2|0,1:2|0:0,0:0:0:0:
334,260,91701,2,0,B|359:310|359:310|306:356,1,118.125004506111,2|0,1:2|0:0,0:0:0:0:
238,218,91986,6,0,B|286:116|149:171|210:43,1,157.500006008148,10|0,0:0|0:0,0:0:0:0:
224,14,92415,1,2,0:0:0:0:
303,114,92558,6,0,P|355:105|401:153,1,118.125004506111,2|0,1:2|0:0,0:0:0:0:
344,300,92844,2,0,P|279:297|251:250,1,118.125004506111,2|0,1:2|0:0,0:0:0:0:
99,156,93129,6,0,P|197:170|289:185,1,157.500006008148,10|0,0:0|0:0,0:0:0:0:
155,276,93558,1,2,0:0:0:0:
218,325,93701,6,0,P|225:350|186:385,1,78.7500030040742,2|0,1:2|0:0,0:0:0:0:
169,200,93986,1,0,0:0:0:0:
169,200,94129,1,0,0:0:0:0:
78,306,94272,5,10,0:0:0:0:
286,182,94558,1,8,0:0:0:0:
219,130,94701,1,8,0:0:0:0:
270,66,94844,6,0,B|356:46|316:133|420:102,1,157.500006008148,6|2,1:2|0:0,0:0:0:0:
486,60,95701,1,0,1:2:0:0:
354,231,95986,2,0,P|364:301|366:339,1,78.7500030040742,10|0,0:0|0:0,0:0:0:0:
222,112,96558,1,2,0:0:0:0:
222,112,96844,1,0,0:0:0:0:
273,34,97129,6,0,P|211:27|166:21,2,78.7500030040742,2|0|2,1:2|0:0|0:0,0:0:0:0:
273,34,97986,1,0,1:2:0:0:
39,185,98272,2,0,P|46:236|51:292,1,78.7500030040742,10|0,0:0|0:0,0:0:0:0:
184,363,98844,1,2,0:0:0:0:
184,363,99129,1,0,0:0:0:0:
207,277,99415,6,0,P|148:283|102:289,2,78.7500030040742,2|0|2,1:2|0:0|0:0,0:0:0:0:
207,277,100272,1,0,1:2:0:0:
117,24,100558,2,0,P|122:86|124:122,1,78.7500030040742,10|0,0:0|0:0,0:0:0:0:
320,149,101129,1,2,0:0:0:0:
320,149,101415,1,0,0:0:0:0:
349,22,101701,5,2,1:2:0:0:
284,72,101986,2,0,P|235:75|190:80,2,78.7500030040742,0|2|0,0:0|0:0|1:2,0:0:0:0:
501,303,102844,2,0,P|444:296|389:292,1,78.7500030040742,10|0,0:0|0:0,0:0:0:0:
254,357,103415,6,0,B|274:294|186:320|215:246,1,118.125004506111,2|0,0:0|0:0,0:0:0:0:
210,258,103987,6,0,P|285:247|366:237,1,125.999996154785,6|0,1:2|0:0,0:0:0:0:
384,174,104415,1,0,0:0:0:0:
508,240,104558,6,0,P|502:288|498:327,1,62.9999980773926,10|0,0:0|0:0,0:0:0:0:
428,256,104844,1,0,0:0:0:0:
428,256,104986,1,0,0:0:0:0:
512,93,105129,6,0,B|459:55|445:142|372:74,1,125.999996154785,2|0,1:2|0:0,0:0:0:0:
256,62,105558,1,0,0:0:0:0:
312,0,105701,5,10,0:0:0:0:
378,46,105844,2,0,P|385:95|392:139,2,62.9999980773926,0|0|0,0:0|0:0|0:0,0:0:0:0:
249,199,106272,6,0,P|260:120|270:43,1,125.999996154785,2|0,1:2|0:0,0:0:0:0:
317,246,106701,1,0,0:0:0:0:
247,380,106844,5,10,0:0:0:0:
198,312,106986,2,0,P|268:303|310:295,2,62.9999980773926,0|0|0,0:0|0:0|0:0,0:0:0:0:
433,272,107415,6,0,B|351:298|377:218|288:254,1,125.999996154785,2|0,1:2|0:0,0:0:0:0:
208,146,107844,1,0,0:0:0:0:
290,114,107986,2,0,P|284:163|282:207,1,62.9999980773926,10|0,0:0|0:0,0:0:0:0:
129,157,108272,2,0,P|131:125|135:94,1,62.9999980773926,0|0,0:0|0:0,0:0:0:0:
198,312,108558,6,0,P|247:304|286:297,1,62.9999980773926,2|0,1:2|0:0,0:0:0:0:
248,223,108844,2,0,P|216:228|185:233,1,62.9999980773926,2|0,0:0|0:0,0:0:0:0:
29,323,109129,6,0,B|103:308|62:383|156:364,1,125.999996154785,10|0,0:0|0:0,0:0:0:0:
90,180,109558,1,0,0:0:0:0:
149,229,109701,6,0,P|141:273|134:316,1,62.9999980773926,2|0,1:2|0:0,0:0:0:0:
4,252,109986,2,0,P|9:220|15:189,1,62.9999980773926,2|0,0:0|0:0,0:0:0:0:
160,222,110272,2,0,P|149:290|139:348,1,125.999996154785,10|0,0:0|0:0,0:0:0:0:
90,180,110701,1,2,0:0:0:0:
195,120,110844,6,0,P|125:109|45:97,1,125.999996154785,2|2,1:2|0:0,0:0:0:0:
25,35,111272,1,0,0:0:0:0:
130,2,111415,6,0,P|137:55|143:91,1,62.9999980773926,10|0,0:0|0:0,0:0:0:0:
13,202,111701,2,0,P|8:170|4:139,1,62.9999980773926,2|0,0:0|0:0,0:0:0:0:
182,199,111986,5,2,1:2:0:0:
101,228,112129,1,10,0:0:0:0:
202,123,112272,1,2,1:2:0:0:
202,123,112415,1,0,0:0:0:0:
243,259,112558,5,10,0:0:0:0:
429,24,112844,5,2,0:0:0:0:
368,85,112986,1,2,0:0:0:0:
292,49,113129,1,6,1:2:0:0:
256,192,113272,12,0,114558,0:0:0:0:
292,49,114844,5,12,0:0:0:0:
183,176,115129,5,8,0:0:0:0:
183,176,115272,1,8,0:0:0:0:
183,176,115415,6,0,B|224:216|224:216|181:302,1,126,6|0,1:2|0:0,0:0:0:0:
27,256,115701,2,0,B|73:210|73:210|143:243,1,126,2|0,1:2|0:0,0:0:0:0:
336,333,115986,6,0,B|224:363|294:252|164:282,1,168,10|0,0:0|0:0,0:0:0:0:
96,359,116415,1,2,0:0:0:0:
21,194,116558,6,0,P|29:276|32:333,1,126,2|0,1:2|0:0,0:0:0:0:
168,330,116844,2,0,P|165:288|158:191,1,126,2|0,1:2|0:0,0:0:0:0:
300,212,117129,6,0,P|310:303|320:408,1,168,10|0,0:0|0:0,0:0:0:0:
227,167,117558,1,2,0:0:0:0:
181,97,117701,6,0,B|239:72|239:72|301:127,1,126,2|0,1:2|0:0,0:0:0:0:
270,233,117987,2,0,B|212:258|212:258|150:203,1,126,2|0,1:2|0:0,0:0:0:0:
34,179,118272,6,0,B|137:213|30:264|111:310,1,168,10|0,0:0|0:0,0:0:0:0:
128,132,118701,1,2,0:0:0:0:
58,90,118844,6,0,P|54:52|46:0,1,84,2|0,1:2|0:0,0:0:0:0:
214,44,119129,1,2,0:2:0:0:
214,44,119272,1,0,0:0:0:0:
185,203,119415,6,0,P|144:208|101:215,1,84,10|0,0:0|0:0,0:0:0:0:
128,132,119701,1,0,0:0:0:0:
263,207,119844,1,0,0:0:0:0:
214,44,119986,6,0,P|260:64|231:139,1,126,2|0,1:2|0:0,0:0:0:0:
138,300,120273,2,0,P|92:280|121:205,1,126,2|0,1:2|0:0,0:0:0:0:
324,254,120558,6,0,B|218:276|274:163|139:211,1,168,10|0,0:0|0:0,0:0:0:0:
138,300,120987,1,2,0:0:0:0:
249,384,121129,6,0,B|291:336|291:336|358:359,1,126,2|0,1:2|0:0,0:0:0:0:
432,262,121415,2,0,B|391:212|391:212|308:251,1,126,2|0,1:2|0:0,0:0:0:0:
137,191,121701,6,0,P|227:176|324:165,1,168,10|0,0:0|0:0,0:0:0:0:
359,107,122129,1,2,0:0:0:0:
223,7,122272,6,0,P|179:42|194:123,1,126,2|0,1:2|0:0,0:0:0:0:
207,254,122558,2,0,P|251:219|236:138,1,126,2|0,1:2|0:0,0:0:0:0:
0,131,122844,6,0,B|91:101|39:210|158:175,1,168,10|0,0:0|0:0,0:0:0:0:
249,154,123272,1,2,0:0:0:0:
113,355,123415,6,0,P|69:359|6:370,1,84,2|0,1:2|0:0,0:0:0:0:
161,286,123701,1,2,0:2:0:0:
161,286,123844,1,0,0:0:0:0:
0,131,123986,5,10,0:0:0:0:
161,286,124272,1,10,0:0:0:0:
105,212,124415,1,8,0:0:0:0:
179,162,124558,6,0,P|228:170|275:179,1,84,6|0,1:2|0:0,0:0:0:0:
231,85,124844,1,2,1:2:0:0:
231,85,124986,1,0,0:0:0:0:
126,17,125129,6,0,P|215:6|308:-2,1,168,10|2,0:0|0:0,0:0:0:0:
388,177,125558,1,0,0:0:0:0:
320,225,125701,6,0,P|308:265|362:289,1,84,2|0,1:2|0:0,0:0:0:0:
380,94,125986,2,0,P|351:63|303:98,1,84,2|0,1:2|0:0,0:0:0:0:
463,211,126272,6,0,P|503:201|497:142,1,84,10|0,0:0|0:0,0:0:0:0:
388,177,126558,1,2,0:0:0:0:
388,177,126701,1,0,0:0:0:0:
260,356,126844,6,0,P|355:369|456:388,1,168,2|2,1:2|1:2,0:0:0:0:
333,283,127272,1,0,0:0:0:0:
276,221,127415,6,0,B|300:118|199:188|236:55,1,168,10|2,0:0|0:0,0:0:0:0:
342,0,127844,1,0,0:0:0:0:
148,82,127987,6,0,P|189:76|231:74,1,84,2|0,1:2|0:0,0:0:0:0:
404,220,128272,1,2,1:2:0:0:
404,220,128415,1,0,0:0:0:0:
404,220,128558,6,0,P|321:239|276:174,1,168,10|2,0:0|0:0,0:0:0:0:
196,157,128986,1,2,0:0:0:0:
256,102,129129,6,0,P|251:47|249:7,1,84,2|0,1:2|0:0,0:0:0:0:
311,257,129415,1,0,0:0:0:0:
311,257,129558,1,0,0:0:0:0:
311,257,129701,6,0,B|286:153|208:254|191:136,1,168,10|2,0:0|0:0,0:0:0:0:
256,102,130129,1,0,0:0:0:0:
156,248,130272,6,0,P|62:250|23:337,1,168,2|0,1:2|1:2,0:0:0:0:
330,372,130844,6,0,P|424:370|463:283,1,168,10|2,0:0|0:0,0:0:0:0:
461,314,131272,1,0,0:0:0:0:
406,251,131415,6,0,P|320:241|219:232,1,168,2|0,1:2|1:2,0:0:0:0:
330,161,131844,1,0,0:0:0:0:
160,200,131986,6,0,P|150:307|137:400,1,168,10|0,0:0|0:0,0:0:0:0:
226,155,132415,1,0,0:0:0:0:
365,236,132558,5,2,1:2:0:0:
284,272,132701,1,2,0:0:0:0:
294,80,132844,5,2,1:2:0:0:
330,161,132987,1,2,0:0:0:0:
372,33,133129,5,10,0:0:0:0:
100,271,133415,1,2,0:0:0:0:
210,316,133558,1,2,0:0:0:0:
142,366,133701,6,0,B|81:380|81:380|37:325,1,126,6|0,1:2|0:0,0:0:0:0:
201,236,133987,2,0,B|140:222|140:222|96:277,1,126,2|0,1:2|0:0,0:0:0:0:
361,302,134272,6,0,B|274:247|284:386|184:296,1,168,10|0,0:0|0:0,0:0:0:0:
355,146,134701,1,2,0:0:0:0:
301,203,134844,6,0,P|259:198|170:187,1,126,2|0,1:2|0:0,0:0:0:0:
263,22,135129,2,0,P|305:25|394:36,1,126,2|0,1:2|0:0,0:0:0:0:
463,105,135415,6,0,P|359:111|273:118,1,168,10|0,0:0|0:0,0:0:0:0:
148,44,135844,1,2,0:0:0:0:
209,91,135986,6,0,P|215:163|174:187,1,126,2|0,1:2|0:0,0:0:0:0:
9,45,136272,2,0,P|39:98|118:88,1,126,2|0,1:2|0:0,0:0:0:0:
9,304,136558,6,0,B|3:213|101:268|101:167,1,168,10|0,0:0|0:0,0:0:0:0:
196,261,136986,1,2,0:0:0:0:
119,302,137129,6,0,P|125:336|133:394,1,84,2|0,1:2|0:0,0:0:0:0:
281,326,137415,1,2,0:2:0:0:
281,326,137558,1,0,0:0:0:0:
127,293,137701,6,0,P|133:327|141:385,1,84,10|0,0:0|0:0,0:0:0:0:
235,136,137986,1,0,0:0:0:0:
74,228,138129,1,0,0:0:0:0:
208,283,138272,6,0,P|268:274|348:266,1,126,2|0,1:2|0:0,0:0:0:0:
359,120,138558,2,0,P|276:129|233:136,1,126,2|0,1:2|0:0,0:0:0:0:
71,98,138844,6,0,B|84:196|177:114|195:253,1,168,10|0,0:0|0:0,0:0:0:0:
282,3,139272,1,2,0:0:0:0:
221,56,139415,6,0,B|172:17|172:17|92:54,1,126,2|0,1:2|0:0,0:0:0:0:
260,206,139701,2,0,B|309:166|309:166|376:197,1,126,2|0,1:2|0:0,0:0:0:0:
301,356,139986,6,0,P|193:347|114:340,1,168,10|0,0:0|0:0,0:0:0:0:
397,253,140415,1,2,0:0:0:0:
325,289,140558,6,0,B|294:343|294:343|347:389,1,126,2|0,1:2|0:0,0:0:0:0:
491,359,140844,2,0,B|522:305|522:305|469:259,1,126,2|0,1:2|0:0,0:0:0:0:
335,107,141129,6,0,B|321:212|418:147|392:286,1,168,10|0,0:0|0:0,0:0:0:0:
512,99,141558,1,2,0:0:0:0:
465,181,141701,6,0,P|420:174|357:166,1,84,2|0,1:2|0:0,0:0:0:0:
373,18,141986,1,2,0:2:0:0:
373,18,142129,1,0,0:0:0:0:
230,73,142272,6,0,P|221:147|218:193,1,84,10|0,0:0|0:0,0:0:0:0:
396,91,142558,1,0,0:0:0:0:
286,203,142701,1,0,0:0:0:0:
443,250,142844,5,6,1:2:0:0:
369,179,142986,1,2,0:0:0:0:
360,303,143129,5,0,1:2:0:0:
443,250,143272,1,2,0:0:0:0:
427,383,143415,6,0,B|337:312|346:437|222:334,1,168,10|2,0:0|0:0,0:0:0:0:
145,267,143844,1,0,0:0:0:0:
191,343,143986,5,2,1:2:0:0:
191,343,144129,1,2,0:0:0:0:
286,203,144272,2,0,P|244:206|180:210,1,84,0|2,1:2|0:0,0:0:0:0:
19,333,144558,6,0,P|82:338|128:344,2,84,10|0|2,0:0|0:0|0:0,0:0:0:0:
145,267,144986,1,0,0:0:0:0:
31,75,145129,6,0,B|-13:165|119:138|68:250,1,168,2|2,1:2|1:2,0:0:0:0:
145,267,145558,1,2,0:0:0:0:
273,155,145701,6,0,P|267:205|261:263,1,84,10|0,0:0|0:0,0:0:0:0:
103,178,145986,2,0,P|159:185|214:193,1,84,2|0,0:0|0:0,0:0:0:0:
344,18,146272,5,2,1:2:0:0:
344,18,146415,1,2,0:0:0:0:
277,74,146558,2,0,P|218:67|166:61,1,84,0|2,1:0|0:0,0:0:0:0:
332,241,146844,6,0,P|435:232|540:225,1,168,10|2,0:0|0:0,0:0:0:0:
499,227,147272,1,0,0:0:0:0:
374,318,147415,5,2,1:2:0:0:
445,384,147558,1,2,0:0:0:0:
292,369,147701,5,0,1:2:0:0:
374,318,147844,1,2,0:0:0:0:
226,293,147986,6,0,B|286:224|153:217|203:149,1,168,10|2,0:0|0:0,0:0:0:0:
319,29,148415,1,0,0:0:0:0:
214,66,148558,5,2,1:2:0:0:
214,66,148701,1,2,0:0:0:0:
282,115,148844,2,0,P|337:109|403:104,1,84,0|2,1:2|0:0,0:0:0:0:
136,266,149129,6,0,P|132:222|126:174,2,84,10|0|2,0:0|0:0|0:0,0:0:0:0:
202,149,149558,1,0,0:0:0:0:
78,320,149701,6,0,B|110:395|174:298|220:375,1,168,2|2,1:2|1:2,0:0:0:0:
335,254,150129,1,2,0:0:0:0:
248,217,150272,6,0,P|258:278|262:327,1,84,10|0,0:0|0:0,0:0:0:0:
118,160,150558,2,0,P|160:156|202:148,1,84,2|0,0:0|0:0,0:0:0:0:
358,23,150844,5,2,1:2:0:0:
358,23,150986,1,2,0:0:0:0:
294,77,151129,2,0,P|305:132|313:186,1,84,0|2,1:0|0:0,0:0:0:0:
460,320,151415,5,10,0:0:0:0:
495,233,151558,1,2,0:0:0:0:
401,199,151701,1,2,0:0:0:0:
361,289,151844,1,2,0:0:0:0:
460,320,151986,5,4,1:2:0:0:
256,192,152129,12,6,161129,1:2:0:0:
