osu file format v14

[General]
AudioFilename: BNK48_-_Koisuru_Fortune_Cookie_ZekaiDot_remix.ogg
AudioLeadIn: 0
PreviewTime: 62885
Countdown: 0
SampleSet: Soft
StackLeniency: 0.7
Mode: 3
LetterboxInBreaks: 0
SpecialStyle: 0
WidescreenStoryboard: 1

[Editor]
Bookmarks: 45285,58085,102885,128485,148485,201885
DistanceSpacing: 1
BeatDivisor: 8
GridSize: 4
TimelineZoom: 2.8

[Metadata]
Title:Koisuru Fortune Cookie (ZekaiDot Remix)
TitleUnicode:คุกกี้เสี่ยงทาย (ZekaiDot Remix)
Artist:BNK48
ArtistUnicode:BNK48
Creator:- [ L e a h ] -
Version:Normal
Source:
Tags:Independent Artist Management (i AM) Yasushi Akimoto Shintaro Ito Seiji Muto Tanupop Notayanont thai Cherprang Areekul Pun Tarwaan Jennis Pupe electronic future bass other Leah
BeatmapID:3443068
BeatmapSetID:1683625

[Difficulty]
HPDrainRate:7
CircleSize:4
OverallDifficulty:7
ApproachRate:5
SliderMultiplier:1.4
SliderTickRate:1

[Events]
//Background and Video events
0,0,"28555637_1684867374902593_1370805482_o.jpg",0,0
//Break Periods
//Storyboard Layer 0 (Background)
//Storyboard Layer 1 (Fail)
//Storyboard Layer 2 (Pass)
//Storyboard Layer 3 (Foreground)
//Storyboard Layer 4 (Overlay)
//Storyboard Sound Samples

[TimingPoints]
485,400,4,2,1,70,1,0
64485,-100,4,2,1,70,0,1
90085,-100,4,2,1,70,0,0
148485,-100,4,2,1,70,0,1
176485,-100,4,2,1,70,0,0

[HitObjects]
64,192,485,5,2,0:0:0:0:
320,192,485,1,0,0:0:0:0:
192,192,785,1,0,0:0:0:0:
320,192,1085,1,2,0:0:0:0:
448,192,1085,1,0,0:0:0:0:
192,192,1485,128,0,1785:0:0:0:0:
448,192,1785,128,0,2085:0:0:0:0:
320,192,2085,1,2,0:0:0:0:
192,192,2085,1,0,0:0:0:0:
64,192,2385,1,0,0:0:0:0:
448,192,2685,1,2,0:0:0:0:
320,192,2685,1,0,0:0:0:0:
192,192,3085,128,0,3385:0:0:0:0:
320,192,3385,128,0,3685:0:0:0:0:
64,192,3685,1,2,0:0:0:0:
448,192,3685,1,0,0:0:0:0:
320,192,3985,1,0,0:0:0:0:
448,192,4285,1,2,0:0:0:0:
192,192,4285,1,0,0:0:0:0:
320,192,4685,128,0,4985:0:0:0:0:
192,192,4985,128,0,5285:0:0:0:0:
448,192,5285,1,2,0:0:0:0:
320,192,5285,1,0,0:0:0:0:
64,192,5585,1,0,0:0:0:0:
320,192,5885,1,2,0:0:0:0:
192,192,5885,1,0,0:0:0:0:
192,192,6285,1,0,0:0:0:0:
320,192,6485,1,0,0:0:0:0:
64,192,6685,1,0,0:0:0:0:
192,192,6885,1,4,0:0:0:0:
448,192,6885,1,2,0:0:0:0:
320,192,7085,1,0,0:0:0:0:
192,192,7285,1,0,0:0:0:0:
64,192,7485,1,2,0:0:0:0:
320,192,7685,1,8,0:0:0:0:
448,192,7685,1,0,0:0:0:0:
448,192,7985,1,0,0:0:0:0:
448,192,8285,128,0,8685:0:0:0:0:
192,192,8685,1,0,0:0:0:0:
320,192,8885,1,0,0:0:0:0:
192,192,9085,1,2,0:0:0:0:
64,192,9285,1,8,0:0:0:0:
448,192,9285,1,0,0:0:0:0:
320,192,9585,1,0,0:0:0:0:
320,192,9885,128,0,10285:0:0:0:0:
192,192,10285,1,0,0:0:0:0:
320,192,10485,1,0,0:0:0:0:
192,192,10685,1,2,0:0:0:0:
64,192,10885,1,8,0:0:0:0:
448,192,10885,1,0,0:0:0:0:
448,192,11185,1,0,0:0:0:0:
448,192,11485,128,2,11885:0:0:0:0:
192,192,11885,1,0,0:0:0:0:
320,192,12085,1,0,0:0:0:0:
64,192,12285,1,2,0:0:0:0:
448,192,12485,1,8,0:0:0:0:
192,192,12485,1,0,0:0:0:0:
192,192,12785,1,0,0:0:0:0:
448,192,13085,128,0,13485:0:0:0:0:
192,192,13485,1,0,0:0:0:0:
320,192,13685,1,0,0:0:0:0:
64,192,13885,1,2,0:0:0:0:
448,192,14085,1,8,0:0:0:0:
320,192,14085,1,0,0:0:0:0:
64,192,14285,1,0,0:0:0:0:
192,192,14485,1,0,0:0:0:0:
320,192,14685,128,0,15285:0:0:0:0:
64,192,15285,1,0,0:0:0:0:
448,192,15685,1,0,0:0:0:0:
64,192,15685,1,8,0:0:0:0:
320,192,15885,1,0,0:0:0:0:
192,192,16085,1,0,0:0:0:0:
320,192,16285,128,0,17485:0:0:0:0:
192,192,17485,1,0,0:0:0:0:
320,192,17685,1,0,0:0:0:0:
448,192,17885,128,0,18685:0:0:0:0:
64,192,18685,128,2,19085:0:0:0:0:
448,192,19085,1,0,0:0:0:0:
192,192,19285,1,2,0:0:0:0:
320,192,19485,1,0,0:0:0:0:
64,192,19685,1,2,0:0:0:0:
192,192,19685,128,0,21285:0:0:0:0:
448,192,20485,1,8,0:0:0:0:
320,192,21285,128,0,22085:0:0:0:0:
448,192,21285,1,2,0:0:0:0:
64,192,22085,1,8,0:0:0:0:
192,192,22085,128,0,22885:0:0:0:0:
64,192,22885,128,0,24485:0:0:0:0:
448,192,22885,1,2,0:0:0:0:
320,192,23685,1,8,0:0:0:0:
192,192,24485,1,2,0:0:0:0:
448,192,24485,128,0,25285:0:0:0:0:
192,192,24785,1,2,0:0:0:0:
192,192,25085,128,2,25285:0:0:0:0:
64,192,25285,128,0,26085:0:0:0:0:
320,192,25285,1,8,0:0:0:0:
192,192,26085,128,0,27685:0:0:0:0:
448,192,26085,1,2,0:0:0:0:
320,192,26885,1,8,0:0:0:0:
320,192,27685,128,0,29285:0:0:0:0:
64,192,27685,1,2,0:0:0:0:
192,192,28485,1,8,0:0:0:0:
448,192,29285,1,2,0:0:0:0:
64,192,29285,128,0,30885:0:0:0:0:
192,192,30085,1,8,0:0:0:0:
320,192,30885,1,0,0:0:0:0:
448,192,30885,1,2,0:0:0:0:
192,192,31885,1,2,0:0:0:0:
320,192,31985,1,2,0:0:0:0:
448,192,32085,1,2,0:0:0:0:
192,192,32485,1,4,0:0:0:0:
64,192,32485,1,2,0:0:0:0:
320,192,32685,1,0,0:0:0:0:
448,192,32885,1,0,0:0:0:0:
192,192,33085,1,0,0:0:0:0:
320,192,33285,1,8,0:0:0:0:
448,192,33285,1,0,0:0:0:0:
64,192,33485,1,0,0:0:0:0:
192,192,33685,128,0,34085:0:0:0:0:
320,192,34085,1,2,0:0:0:0:
64,192,34285,1,0,0:0:0:0:
320,192,34485,1,0,0:0:0:0:
192,192,34685,1,0,0:0:0:0:
448,192,34885,1,8,0:0:0:0:
64,192,34885,1,0,0:0:0:0:
320,192,35085,1,0,0:0:0:0:
192,192,35285,1,0,0:0:0:0:
320,192,35485,1,0,0:0:0:0:
64,192,35685,1,2,0:0:0:0:
320,192,35885,1,0,0:0:0:0:
192,192,36085,1,0,0:0:0:0:
448,192,36285,1,0,0:0:0:0:
64,192,36485,1,8,0:0:0:0:
192,192,36485,1,0,0:0:0:0:
320,192,36685,1,0,0:0:0:0:
192,192,36885,128,0,37285:0:0:0:0:
320,192,37285,1,2,0:0:0:0:
192,192,37485,1,0,0:0:0:0:
448,192,37685,1,0,0:0:0:0:
192,192,37885,1,2,0:0:0:0:
320,192,37985,1,2,0:0:0:0:
448,192,38085,1,8,0:0:0:0:
64,192,38085,1,0,0:0:0:0:
192,192,38285,1,0,0:0:0:0:
320,192,38485,1,0,0:0:0:0:
192,192,38685,1,0,0:0:0:0:
64,192,38885,1,2,0:0:0:0:
320,192,39085,1,0,0:0:0:0:
192,192,39285,1,0,0:0:0:0:
320,192,39485,1,0,0:0:0:0:
448,192,39685,1,8,0:0:0:0:
64,192,39685,1,0,0:0:0:0:
192,192,39885,1,0,0:0:0:0:
320,192,40085,128,0,40485:0:0:0:0:
64,192,40485,1,2,0:0:0:0:
192,192,40685,1,0,0:0:0:0:
320,192,40885,1,0,0:0:0:0:
64,192,41085,1,2,0:0:0:0:
448,192,41285,1,8,0:0:0:0:
320,192,41285,1,0,0:0:0:0:
192,192,41485,1,0,0:0:0:0:
320,192,41685,1,0,0:0:0:0:
192,192,41885,1,0,0:0:0:0:
448,192,42085,1,2,0:0:0:0:
192,192,42285,1,0,0:0:0:0:
320,192,42485,1,0,0:0:0:0:
64,192,42685,1,0,0:0:0:0:
192,192,42885,1,8,0:0:0:0:
448,192,42885,1,0,0:0:0:0:
320,192,43085,1,0,0:0:0:0:
192,192,43285,128,0,43685:0:0:0:0:
448,192,43685,1,2,0:0:0:0:
64,192,43885,1,2,0:0:0:0:
192,192,44085,1,0,0:0:0:0:
320,192,44285,1,0,0:0:0:0:
64,192,44485,1,8,0:0:0:0:
448,192,44485,1,0,0:0:0:0:
192,192,44685,1,0,0:0:0:0:
320,192,44885,1,0,0:0:0:0:
64,192,45085,1,0,0:0:0:0:
448,192,45285,1,2,0:0:0:0:
320,192,45285,1,4,0:0:0:0:
192,192,45685,1,8,0:0:0:0:
64,192,45685,1,0,0:0:0:0:
320,192,45885,1,0,0:0:0:0:
64,192,46285,1,2,0:0:0:0:
192,192,46485,1,8,0:0:0:0:
448,192,46485,1,0,0:0:0:0:
320,192,46685,1,0,0:0:0:0:
192,192,47085,1,2,0:0:0:0:
448,192,47285,1,0,0:0:0:0:
320,192,47285,1,8,0:0:0:0:
64,192,47485,1,0,0:0:0:0:
192,192,47885,1,2,0:0:0:0:
448,192,48085,1,8,0:0:0:0:
64,192,48085,1,0,0:0:0:0:
320,192,48285,1,0,0:0:0:0:
64,192,48485,1,2,0:0:0:0:
320,192,48885,1,8,0:0:0:0:
448,192,48885,1,0,0:0:0:0:
192,192,49085,1,0,0:0:0:0:
192,192,49485,1,2,0:0:0:0:
320,192,49685,1,8,0:0:0:0:
448,192,49685,1,0,0:0:0:0:
64,192,49885,1,0,0:0:0:0:
64,192,50285,1,2,0:0:0:0:
448,192,50485,1,0,0:0:0:0:
192,192,50485,1,8,0:0:0:0:
320,192,50685,1,0,0:0:0:0:
192,192,51085,1,2,0:0:0:0:
64,192,51285,1,0,0:0:0:0:
448,192,51285,1,8,0:0:0:0:
320,192,51485,1,0,0:0:0:0:
192,192,51685,1,2,0:0:0:0:
448,192,51685,1,4,0:0:0:0:
320,192,52085,1,0,0:0:0:0:
64,192,52085,1,8,0:0:0:0:
448,192,52285,1,0,0:0:0:0:
192,192,52685,1,2,0:0:0:0:
448,192,52885,1,8,0:0:0:0:
64,192,52885,1,0,0:0:0:0:
192,192,53085,1,0,0:0:0:0:
320,192,53485,1,2,0:0:0:0:
448,192,53685,1,0,0:0:0:0:
64,192,53685,1,8,0:0:0:0:
192,192,53885,1,0,0:0:0:0:
64,192,54285,1,2,0:0:0:0:
448,192,54485,1,8,0:0:0:0:
192,192,54485,1,0,0:0:0:0:
320,192,54685,1,0,0:0:0:0:
192,192,54885,1,2,0:0:0:0:
448,192,55285,1,8,0:0:0:0:
64,192,55285,1,0,0:0:0:0:
192,192,55485,1,0,0:0:0:0:
192,192,55885,1,2,0:0:0:0:
448,192,56085,1,0,0:0:0:0:
64,192,56085,1,8,0:0:0:0:
320,192,56285,1,0,0:0:0:0:
320,192,56685,1,2,0:0:0:0:
64,192,56885,1,8,0:0:0:0:
448,192,56885,1,0,0:0:0:0:
192,192,57085,1,0,0:0:0:0:
192,192,57485,1,2,0:0:0:0:
448,192,57685,1,8,0:0:0:0:
64,192,57685,1,0,0:0:0:0:
320,192,57885,1,2,0:0:0:0:
320,192,58085,1,4,0:0:0:0:
64,192,58085,1,2,0:0:0:0:
192,192,58285,1,0,0:0:0:0:
448,192,58485,1,8,0:0:0:0:
64,192,58485,1,0,0:0:0:0:
320,192,58685,1,0,0:0:0:0:
192,192,58885,1,2,0:0:0:0:
448,192,58885,1,0,0:0:0:0:
64,192,59085,1,0,0:0:0:0:
320,192,59285,1,0,0:0:0:0:
448,192,59285,1,8,0:0:0:0:
192,192,59485,1,0,0:0:0:0:
448,192,59685,1,0,0:0:0:0:
64,192,59685,1,2,0:0:0:0:
320,192,59885,1,0,0:0:0:0:
64,192,60085,1,0,0:0:0:0:
192,192,60085,1,8,0:0:0:0:
448,192,60285,1,0,0:0:0:0:
320,192,60485,1,0,0:0:0:0:
192,192,60485,1,2,0:0:0:0:
64,192,60685,1,0,0:0:0:0:
320,192,60885,1,0,0:0:0:0:
448,192,60885,1,8,0:0:0:0:
192,192,61085,1,0,0:0:0:0:
320,192,61285,1,0,0:0:0:0:
64,192,61285,1,2,0:0:0:0:
64,192,61485,1,2,0:0:0:0:
448,192,61685,1,8,0:0:0:0:
192,192,61685,1,0,0:0:0:0:
320,192,61885,1,2,0:0:0:0:
64,192,62085,1,2,0:0:0:0:
448,192,62085,1,0,0:0:0:0:
448,192,62285,1,2,0:0:0:0:
64,192,62485,128,0,62885:0:0:0:0:
192,192,62485,1,8,0:0:0:0:
448,192,62885,128,0,64485:0:0:0:0:
320,192,62885,1,2,0:0:0:0:
64,192,64485,1,2,0:0:0:0:
192,192,64485,1,4,0:0:0:0:
320,192,64885,1,8,0:0:0:0:
448,192,64885,1,0,0:0:0:0:
192,192,65085,1,2,0:0:0:0:
448,192,65485,1,2,0:0:0:0:
320,192,65685,1,8,0:0:0:0:
64,192,65685,1,0,0:0:0:0:
448,192,65885,1,0,0:0:0:0:
192,192,66085,1,2,0:0:0:0:
64,192,66485,1,0,0:0:0:0:
448,192,66485,1,8,0:0:0:0:
192,192,66685,1,2,0:0:0:0:
320,192,67085,1,2,0:0:0:0:
448,192,67285,1,0,0:0:0:0:
64,192,67285,1,8,0:0:0:0:
192,192,67485,1,0,0:0:0:0:
448,192,67685,1,2,0:0:0:0:
320,192,67685,1,0,0:0:0:0:
64,192,68085,1,8,0:0:0:0:
448,192,68085,1,0,0:0:0:0:
320,192,68285,1,2,0:0:0:0:
192,192,68585,1,2,0:0:0:0:
448,192,68885,1,0,0:0:0:0:
320,192,68885,1,8,0:0:0:0:
448,192,69085,1,0,0:0:0:0:
192,192,69285,1,2,0:0:0:0:
64,192,69685,1,0,0:0:0:0:
448,192,69685,1,8,0:0:0:0:
192,192,69885,1,2,0:0:0:0:
320,192,70185,1,2,0:0:0:0:
448,192,70485,1,0,0:0:0:0:
64,192,70485,1,8,0:0:0:0:
320,192,70685,1,0,0:0:0:0:
192,192,70885,1,2,0:0:0:0:
448,192,71285,1,0,0:0:0:0:
320,192,71285,1,8,0:0:0:0:
64,192,71485,1,2,0:0:0:0:
320,192,71685,1,0,0:0:0:0:
320,192,71885,1,0,0:0:0:0:
64,192,72085,1,8,0:0:0:0:
192,192,72085,1,0,0:0:0:0:
448,192,72285,128,0,72885:0:0:0:0:
320,192,72285,1,2,0:0:0:0:
64,192,72885,1,0,0:0:0:0:
320,192,72885,1,8,0:0:0:0:
448,192,73085,1,2,0:0:0:0:
192,192,73285,1,0,0:0:0:0:
320,192,73485,1,0,0:0:0:0:
64,192,73685,1,8,0:0:0:0:
192,192,73685,1,0,0:0:0:0:
320,192,74085,1,2,0:0:0:0:
320,192,74285,1,0,0:0:0:0:
64,192,74485,1,0,0:0:0:0:
448,192,74485,1,8,0:0:0:0:
192,192,74685,1,0,0:0:0:0:
192,192,75085,1,2,0:0:0:0:
320,192,75285,1,8,0:0:0:0:
448,192,75285,1,0,0:0:0:0:
64,192,75485,1,0,0:0:0:0:
320,192,75685,1,2,0:0:0:0:
192,192,75885,1,0,0:0:0:0:
448,192,76085,1,0,0:0:0:0:
64,192,76085,1,8,0:0:0:0:
320,192,76285,1,0,0:0:0:0:
64,192,76485,1,0,0:0:0:0:
192,192,76685,1,2,0:0:0:0:
448,192,76885,1,0,0:0:0:0:
320,192,76885,1,8,0:0:0:0:
64,192,77085,1,2,0:0:0:0:
192,192,77285,1,2,0:0:0:0:
320,192,77285,1,4,0:0:0:0:
192,192,77685,1,8,0:0:0:0:
448,192,77685,1,0,0:0:0:0:
320,192,77885,1,2,0:0:0:0:
192,192,78285,1,2,0:0:0:0:
320,192,78485,1,8,0:0:0:0:
448,192,78485,1,0,0:0:0:0:
64,192,78685,1,0,0:0:0:0:
320,192,78785,1,0,0:0:0:0:
192,192,78885,1,2,0:0:0:0:
64,192,79285,1,8,0:0:0:0:
448,192,79285,1,0,0:0:0:0:
320,192,79485,1,2,0:0:0:0:
192,192,79685,1,0,0:0:0:0:
320,192,79885,1,2,0:0:0:0:
448,192,80085,1,0,0:0:0:0:
64,192,80085,1,8,0:0:0:0:
192,192,80285,1,0,0:0:0:0:
320,192,80485,1,2,0:0:0:0:
448,192,80885,1,0,0:0:0:0:
64,192,80885,1,8,0:0:0:0:
320,192,81085,1,2,0:0:0:0:
192,192,81385,1,2,0:0:0:0:
448,192,81685,1,0,0:0:0:0:
64,192,81685,1,8,0:0:0:0:
448,192,81885,1,0,0:0:0:0:
192,192,82085,1,2,0:0:0:0:
448,192,82485,1,8,0:0:0:0:
64,192,82485,1,0,0:0:0:0:
320,192,82685,1,2,0:0:0:0:
192,192,82985,1,2,0:0:0:0:
448,192,83285,1,0,0:0:0:0:
64,192,83285,1,8,0:0:0:0:
320,192,83485,1,0,0:0:0:0:
192,192,83685,1,2,0:0:0:0:
448,192,84085,1,0,0:0:0:0:
64,192,84085,1,8,0:0:0:0:
192,192,84285,1,2,0:0:0:0:
320,192,84485,1,0,0:0:0:0:
320,192,84685,1,0,0:0:0:0:
192,192,84885,1,0,0:0:0:0:
64,192,84885,1,8,0:0:0:0:
320,192,85085,1,2,0:0:0:0:
448,192,85085,128,0,85685:0:0:0:0:
64,192,85685,1,0,0:0:0:0:
192,192,85685,1,8,0:0:0:0:
320,192,85885,1,2,0:0:0:0:
192,192,86085,1,0,0:0:0:0:
192,192,86285,1,0,0:0:0:0:
320,192,86485,1,8,0:0:0:0:
64,192,86485,1,0,0:0:0:0:
448,192,86685,1,0,0:0:0:0:
64,192,86885,1,2,0:0:0:0:
64,192,87085,1,0,0:0:0:0:
320,192,87285,1,8,0:0:0:0:
448,192,87285,1,0,0:0:0:0:
192,192,87485,1,0,0:0:0:0:
320,192,87685,1,0,0:0:0:0:
320,192,87885,1,2,0:0:0:0:
448,192,88085,1,0,0:0:0:0:
64,192,88085,1,8,0:0:0:0:
192,192,88285,1,0,0:0:0:0:
448,192,88485,1,2,0:0:0:0:
64,192,88485,1,4,0:0:0:0:
320,192,88685,1,8,0:0:0:0:
192,192,88885,1,8,0:0:0:0:
64,192,89085,1,8,0:0:0:0:
320,192,89285,1,8,0:0:0:0:
192,192,89485,1,8,0:0:0:0:
320,192,89685,1,8,0:0:0:0:
192,192,89885,1,8,0:0:0:0:
64,192,90085,1,2,0:0:0:0:
448,192,90085,1,4,0:0:0:0:
192,192,90485,1,8,0:0:0:0:
448,192,90485,1,0,0:0:0:0:
320,192,90685,1,0,0:0:0:0:
64,192,91085,1,2,0:0:0:0:
448,192,91285,1,0,0:0:0:0:
320,192,91285,1,8,0:0:0:0:
192,192,91485,1,0,0:0:0:0:
448,192,91685,1,2,0:0:0:0:
448,192,92085,1,8,0:0:0:0:
64,192,92085,1,0,0:0:0:0:
192,192,92285,1,0,0:0:0:0:
320,192,92685,1,2,0:0:0:0:
448,192,92885,1,0,0:0:0:0:
64,192,92885,1,8,0:0:0:0:
320,192,93085,1,0,0:0:0:0:
192,192,93285,1,2,0:0:0:0:
448,192,93685,1,0,0:0:0:0:
320,192,93685,1,8,0:0:0:0:
64,192,93885,1,2,0:0:0:0:
320,192,94085,1,0,0:0:0:0:
192,192,94385,1,2,0:0:0:0:
320,192,94485,1,8,0:0:0:0:
448,192,94485,1,0,0:0:0:0:
192,192,94885,1,2,0:0:0:0:
320,192,95285,1,0,0:0:0:0:
448,192,95285,1,8,0:0:0:0:
64,192,95485,1,2,0:0:0:0:
320,192,95985,1,2,0:0:0:0:
192,192,96085,1,8,0:0:0:0:
64,192,96085,1,0,0:0:0:0:
448,192,96285,1,2,0:0:0:0:
320,192,96485,1,2,0:0:0:0:
448,192,96885,1,0,0:0:0:0:
64,192,96885,1,8,0:0:0:0:
320,192,97285,1,0,0:0:0:0:
192,192,97485,1,2,0:0:0:0:
448,192,97685,1,0,0:0:0:0:
320,192,97685,1,8,0:0:0:0:
64,192,98085,1,2,0:0:0:0:
448,192,98485,1,8,0:0:0:0:
192,192,98485,1,0,0:0:0:0:
64,192,98885,1,0,0:0:0:0:
320,192,99085,1,2,0:0:0:0:
192,192,99285,1,8,0:0:0:0:
64,192,99285,1,0,0:0:0:0:
448,192,99685,1,2,0:0:0:0:
64,192,100085,1,8,0:0:0:0:
320,192,100085,1,0,0:0:0:0:
192,192,100385,1,2,0:0:0:0:
192,192,100685,1,2,0:0:0:0:
448,192,100885,1,8,0:0:0:0:
64,192,100885,1,0,0:0:0:0:
320,192,101285,1,2,0:0:0:0:
448,192,101685,1,8,0:0:0:0:
192,192,101685,1,0,0:0:0:0:
320,192,101885,1,2,0:0:0:0:
320,192,102385,1,2,0:0:0:0:
448,192,102485,1,8,0:0:0:0:
64,192,102485,1,0,0:0:0:0:
192,192,102685,1,0,0:0:0:0:
320,192,102885,1,4,0:0:0:0:
64,192,102885,128,2,104485:0:0:0:0:
448,192,104485,128,0,105285:0:0:0:0:
64,192,105285,128,0,106085:0:0:0:0:
320,192,106085,128,0,107685:0:0:0:0:
192,192,107685,128,0,108485:0:0:0:0:
448,192,108485,128,0,109285:0:0:0:0:
192,192,109285,128,0,110885:0:0:0:0:
320,192,110885,128,0,112485:0:0:0:0:
64,192,112485,128,0,113285:0:0:0:0:
448,192,113285,128,0,114085:0:0:0:0:
192,192,114085,128,0,114885:0:0:0:0:
448,192,114885,1,2,0:0:0:0:
64,192,115185,1,2,0:0:0:0:
320,192,115485,1,2,0:0:0:0:
64,192,115685,1,2,0:0:0:0:
448,192,115685,128,4,116285:0:0:0:0:
192,192,116285,1,0,0:0:0:0:
320,192,116485,1,0,0:0:0:0:
64,192,116685,1,0,0:0:0:0:
320,192,116885,1,0,0:0:0:0:
192,192,117085,1,0,0:0:0:0:
448,192,117285,1,8,0:0:0:0:
64,192,117285,128,0,117885:0:0:0:0:
320,192,117885,1,0,0:0:0:0:
192,192,118085,128,0,118485:0:0:0:0:
448,192,118485,1,0,0:0:0:0:
192,192,118685,1,0,0:0:0:0:
448,192,118885,1,2,0:0:0:0:
320,192,118885,128,0,119285:0:0:0:0:
64,192,119285,1,0,0:0:0:0:
320,192,119485,1,0,0:0:0:0:
192,192,119685,1,0,0:0:0:0:
448,192,119885,1,0,0:0:0:0:
192,192,120085,1,0,0:0:0:0:
320,192,120285,1,0,0:0:0:0:
448,192,120485,1,8,0:0:0:0:
64,192,120485,128,0,121285:0:0:0:0:
448,192,121085,1,0,0:0:0:0:
320,192,121285,128,0,121685:0:0:0:0:
64,192,121685,1,0,0:0:0:0:
192,192,121885,1,0,0:0:0:0:
320,192,122085,1,2,0:0:0:0:
448,192,122085,128,0,122485:0:0:0:0:
64,192,122485,1,0,0:0:0:0:
320,192,122685,1,0,0:0:0:0:
64,192,122885,1,0,0:0:0:0:
64,192,123085,1,0,0:0:0:0:
448,192,123285,1,0,0:0:0:0:
192,192,123485,1,0,0:0:0:0:
320,192,123685,1,8,0:0:0:0:
64,192,123685,128,0,124085:0:0:0:0:
448,192,124085,128,0,124485:0:0:0:0:
192,192,124485,128,0,125085:0:0:0:0:
320,192,125085,1,2,0:0:0:0:
64,192,125185,1,2,0:0:0:0:
192,192,125285,1,2,0:0:0:0:
448,192,125285,128,0,125885:0:0:0:0:
192,192,125885,1,0,0:0:0:0:
448,192,126085,1,0,0:0:0:0:
192,192,126285,1,0,0:0:0:0:
320,192,126485,1,0,0:0:0:0:
64,192,126685,1,2,0:0:0:0:
448,192,126885,1,8,0:0:0:0:
192,192,126885,128,0,128485:0:0:0:0:
448,192,128485,1,4,0:0:0:0:
64,192,128485,1,2,0:0:0:0:
448,192,128885,1,0,0:0:0:0:
192,192,128885,1,8,0:0:0:0:
64,192,129085,1,0,0:0:0:0:
64,192,129485,1,2,0:0:0:0:
192,192,129685,1,8,0:0:0:0:
448,192,129685,1,0,0:0:0:0:
320,192,129885,1,0,0:0:0:0:
448,192,130285,1,2,0:0:0:0:
64,192,130485,1,0,0:0:0:0:
320,192,130485,1,8,0:0:0:0:
192,192,130685,1,0,0:0:0:0:
320,192,131085,1,2,0:0:0:0:
192,192,131285,1,8,0:0:0:0:
448,192,131285,1,0,0:0:0:0:
64,192,131485,1,0,0:0:0:0:
320,192,131685,1,2,0:0:0:0:
448,192,132085,1,0,0:0:0:0:
64,192,132085,1,8,0:0:0:0:
320,192,132285,1,0,0:0:0:0:
192,192,132685,1,2,0:0:0:0:
448,192,132885,1,8,0:0:0:0:
64,192,132885,1,0,0:0:0:0:
320,192,133085,1,0,0:0:0:0:
192,192,133485,1,2,0:0:0:0:
448,192,133685,1,0,0:0:0:0:
320,192,133685,1,8,0:0:0:0:
64,192,133885,1,0,0:0:0:0:
64,192,134285,1,2,0:0:0:0:
448,192,134485,1,0,0:0:0:0:
192,192,134485,1,8,0:0:0:0:
320,192,134685,1,0,0:0:0:0:
448,192,134885,1,2,0:0:0:0:
64,192,134885,1,4,0:0:0:0:
448,192,135285,1,0,0:0:0:0:
192,192,135285,1,8,0:0:0:0:
64,192,135485,1,0,0:0:0:0:
448,192,135885,1,2,0:0:0:0:
64,192,136085,1,0,0:0:0:0:
320,192,136085,1,8,0:0:0:0:
192,192,136285,1,0,0:0:0:0:
64,192,136685,1,2,0:0:0:0:
192,192,136885,1,8,0:0:0:0:
448,192,136885,1,0,0:0:0:0:
64,192,137085,1,0,0:0:0:0:
192,192,137485,1,2,0:0:0:0:
448,192,137685,1,0,0:0:0:0:
320,192,137685,1,8,0:0:0:0:
64,192,137885,1,0,0:0:0:0:
320,192,138085,1,2,0:0:0:0:
64,192,138485,1,0,0:0:0:0:
448,192,138485,1,8,0:0:0:0:
320,192,138685,1,0,0:0:0:0:
192,192,139085,1,2,0:0:0:0:
320,192,139285,1,8,0:0:0:0:
448,192,139285,1,0,0:0:0:0:
64,192,139485,1,0,0:0:0:0:
320,192,139885,1,2,0:0:0:0:
64,192,140085,1,0,0:0:0:0:
192,192,140085,1,8,0:0:0:0:
448,192,140285,1,0,0:0:0:0:
320,192,140685,1,2,0:0:0:0:
64,192,140885,1,8,0:0:0:0:
448,192,140885,1,0,0:0:0:0:
192,192,141085,1,2,0:0:0:0:
320,192,141285,1,2,0:0:0:0:
64,192,141285,1,4,0:0:0:0:
448,192,141485,1,0,0:0:0:0:
64,192,141685,1,8,0:0:0:0:
192,192,141685,1,0,0:0:0:0:
448,192,141885,1,0,0:0:0:0:
192,192,142085,1,2,0:0:0:0:
320,192,142085,1,0,0:0:0:0:
64,192,142285,1,0,0:0:0:0:
448,192,142485,1,0,0:0:0:0:
320,192,142485,1,8,0:0:0:0:
192,192,142685,1,0,0:0:0:0:
448,192,142885,1,0,0:0:0:0:
64,192,142885,1,2,0:0:0:0:
320,192,143085,1,0,0:0:0:0:
448,192,143285,1,0,0:0:0:0:
192,192,143285,1,8,0:0:0:0:
64,192,143485,1,0,0:0:0:0:
192,192,143685,1,2,0:0:0:0:
320,192,143685,1,0,0:0:0:0:
448,192,143885,1,0,0:0:0:0:
64,192,144085,1,0,0:0:0:0:
192,192,144085,1,8,0:0:0:0:
320,192,144285,1,0,0:0:0:0:
448,192,144485,1,0,0:0:0:0:
64,192,144485,1,2,0:0:0:0:
64,192,144685,1,2,0:0:0:0:
320,192,144885,1,8,0:0:0:0:
448,192,144885,1,0,0:0:0:0:
192,192,145085,1,2,0:0:0:0:
448,192,145285,1,0,0:0:0:0:
192,192,145285,1,2,0:0:0:0:
320,192,145485,1,2,0:0:0:0:
448,192,145685,128,0,146085:0:0:0:0:
64,192,145685,1,8,0:0:0:0:
320,192,146085,1,2,0:0:0:0:
64,192,146085,128,0,147685:0:0:0:0:
448,192,147685,1,0,0:0:0:0:
320,192,147685,1,2,0:0:0:0:
192,192,147885,1,0,0:0:0:0:
320,192,148085,1,0,0:0:0:0:
64,192,148285,1,0,0:0:0:0:
448,192,148485,1,0,0:0:0:0:
320,192,148485,1,8,0:0:0:0:
192,192,148685,1,0,0:0:0:0:
64,192,148885,1,2,0:0:0:0:
320,192,149085,1,0,0:0:0:0:
448,192,149285,128,0,149885:0:0:0:0:
64,192,149885,1,0,0:0:0:0:
448,192,150085,1,8,0:0:0:0:
192,192,150085,1,0,0:0:0:0:
320,192,150285,1,0,0:0:0:0:
64,192,150485,1,0,0:0:0:0:
192,192,150685,1,0,0:0:0:0:
320,192,150885,1,2,0:0:0:0:
448,192,150885,1,0,0:0:0:0:
320,192,151285,1,0,0:0:0:0:
192,192,151485,1,0,0:0:0:0:
448,192,151685,1,8,0:0:0:0:
64,192,151685,1,0,0:0:0:0:
320,192,151885,1,0,0:0:0:0:
192,192,152085,1,2,0:0:0:0:
64,192,152085,1,0,0:0:0:0:
320,192,152285,1,0,0:0:0:0:
448,192,152485,128,0,153285:0:0:0:0:
64,192,152685,1,2,0:0:0:0:
320,192,153285,1,8,0:0:0:0:
64,192,153285,1,0,0:0:0:0:
192,192,153485,1,0,0:0:0:0:
320,192,153685,1,0,0:0:0:0:
192,192,153885,1,0,0:0:0:0:
64,192,154085,1,2,0:0:0:0:
448,192,154085,128,0,154485:0:0:0:0:
64,192,154485,1,0,0:0:0:0:
320,192,154685,1,0,0:0:0:0:
448,192,154885,1,8,0:0:0:0:
192,192,154885,1,0,0:0:0:0:
448,192,155285,1,0,0:0:0:0:
64,192,155285,1,2,0:0:0:0:
320,192,155485,1,0,0:0:0:0:
192,192,155685,1,0,0:0:0:0:
192,192,155885,1,0,0:0:0:0:
448,192,156085,1,0,0:0:0:0:
192,192,156285,1,0,0:0:0:0:
448,192,156485,1,8,0:0:0:0:
64,192,156485,1,0,0:0:0:0:
320,192,156685,1,0,0:0:0:0:
448,192,156885,1,0,0:0:0:0:
192,192,157085,1,0,0:0:0:0:
448,192,157285,1,2,0:0:0:0:
320,192,157285,128,0,157885:0:0:0:0:
64,192,157885,1,0,0:0:0:0:
448,192,158085,1,8,0:0:0:0:
192,192,158085,128,0,158485:0:0:0:0:
320,192,158485,1,2,0:0:0:0:
64,192,158685,1,0,0:0:0:0:
192,192,158885,128,0,159685:0:0:0:0:
448,192,159085,1,2,0:0:0:0:
448,192,159685,1,8,0:0:0:0:
64,192,159685,1,0,0:0:0:0:
320,192,159885,1,0,0:0:0:0:
192,192,160085,1,0,0:0:0:0:
448,192,160285,1,0,0:0:0:0:
320,192,160485,1,0,0:0:0:0:
64,192,160485,1,2,0:0:0:0:
192,192,160885,1,0,0:0:0:0:
448,192,161085,1,0,0:0:0:0:
320,192,161285,1,8,0:0:0:0:
64,192,161285,1,0,0:0:0:0:
192,192,161485,1,0,0:0:0:0:
320,192,161685,1,2,0:0:0:0:
448,192,161685,1,0,0:0:0:0:
192,192,161885,1,0,0:0:0:0:
64,192,162085,128,0,162685:0:0:0:0:
192,192,162485,1,2,0:0:0:0:
448,192,162685,1,0,0:0:0:0:
448,192,162885,1,0,0:0:0:0:
192,192,162885,1,8,0:0:0:0:
192,192,163085,1,0,0:0:0:0:
320,192,163285,1,0,0:0:0:0:
64,192,163485,1,0,0:0:0:0:
448,192,163685,1,0,0:0:0:0:
192,192,163685,1,2,0:0:0:0:
320,192,164085,1,0,0:0:0:0:
192,192,164285,1,0,0:0:0:0:
448,192,164485,1,8,0:0:0:0:
64,192,164485,1,0,0:0:0:0:
320,192,164685,1,0,0:0:0:0:
192,192,164885,1,2,0:0:0:0:
64,192,164885,1,0,0:0:0:0:
320,192,165085,1,0,0:0:0:0:
448,192,165285,1,0,0:0:0:0:
192,192,165485,128,2,165885:0:0:0:0:
448,192,165885,1,2,0:0:0:0:
64,192,166085,1,8,0:0:0:0:
320,192,166085,1,0,0:0:0:0:
192,192,166285,1,0,0:0:0:0:
448,192,166485,1,0,0:0:0:0:
320,192,166685,1,0,0:0:0:0:
64,192,166885,128,0,167285:0:0:0:0:
192,192,166885,1,2,0:0:0:0:
448,192,167285,1,0,0:0:0:0:
64,192,167485,1,0,0:0:0:0:
192,192,167685,1,0,0:0:0:0:
448,192,167685,1,8,0:0:0:0:
320,192,168085,1,2,0:0:0:0:
64,192,168085,1,0,0:0:0:0:
192,192,168285,1,0,0:0:0:0:
448,192,168485,1,0,0:0:0:0:
448,192,168685,1,0,0:0:0:0:
192,192,168885,1,0,0:0:0:0:
448,192,169085,1,0,0:0:0:0:
64,192,169285,1,0,0:0:0:0:
320,192,169285,1,8,0:0:0:0:
192,192,169485,1,0,0:0:0:0:
448,192,169685,1,0,0:0:0:0:
320,192,169885,1,0,0:0:0:0:
64,192,170085,1,0,0:0:0:0:
192,192,170085,1,2,0:0:0:0:
320,192,170285,1,0,0:0:0:0:
64,192,170485,1,0,0:0:0:0:
448,192,170685,1,0,0:0:0:0:
320,192,170885,1,0,0:0:0:0:
192,192,170885,1,8,0:0:0:0:
64,192,171085,1,0,0:0:0:0:
320,192,171285,1,2,0:0:0:0:
448,192,171285,1,0,0:0:0:0:
192,192,171485,1,0,0:0:0:0:
64,192,171685,128,0,172885:0:0:0:0:
320,192,171885,1,2,0:0:0:0:
448,192,172485,1,8,0:0:0:0:
320,192,172885,128,0,173285:0:0:0:0:
64,192,173285,1,2,0:0:0:0:
448,192,173285,1,4,0:0:0:0:
448,192,174085,1,2,0:0:0:0:
192,192,174085,1,4,0:0:0:0:
64,192,174885,1,2,0:0:0:0:
320,192,174885,1,4,0:0:0:0:
192,192,175085,1,2,0:0:0:0:
448,192,175285,1,2,0:0:0:0:
64,192,175485,1,2,0:0:0:0:
448,192,175685,1,2,0:0:0:0:
64,192,175885,1,2,0:0:0:0:
448,192,176085,1,2,0:0:0:0:
64,192,176185,1,2,0:0:0:0:
320,192,176285,1,8,0:0:0:0:
192,192,176485,1,4,0:0:0:0:
448,192,176485,1,2,0:0:0:0:
320,192,176685,1,0,0:0:0:0:
192,192,176885,1,0,0:0:0:0:
64,192,177085,1,2,0:0:0:0:
320,192,177285,1,8,0:0:0:0:
448,192,177285,1,0,0:0:0:0:
448,192,177585,1,0,0:0:0:0:
448,192,177885,128,0,178285:0:0:0:0:
192,192,178285,1,0,0:0:0:0:
320,192,178485,1,0,0:0:0:0:
192,192,178685,1,2,0:0:0:0:
64,192,178885,1,8,0:0:0:0:
448,192,178885,1,0,0:0:0:0:
320,192,179185,1,0,0:0:0:0:
320,192,179485,128,0,179885:0:0:0:0:
192,192,179885,1,0,0:0:0:0:
320,192,180085,1,0,0:0:0:0:
192,192,180285,1,2,0:0:0:0:
64,192,180485,1,8,0:0:0:0:
448,192,180485,1,0,0:0:0:0:
448,192,180785,1,0,0:0:0:0:
448,192,181085,128,2,181485:0:0:0:0:
192,192,181485,1,0,0:0:0:0:
320,192,181685,1,0,0:0:0:0:
64,192,181885,1,2,0:0:0:0:
448,192,182085,1,8,0:0:0:0:
192,192,182085,1,0,0:0:0:0:
192,192,182385,1,0,0:0:0:0:
448,192,182685,128,0,183085:0:0:0:0:
192,192,183085,1,0,0:0:0:0:
320,192,183285,1,0,0:0:0:0:
64,192,183485,1,2,0:0:0:0:
448,192,183685,1,8,0:0:0:0:
320,192,183685,1,0,0:0:0:0:
64,192,183885,1,0,0:0:0:0:
192,192,184085,1,0,0:0:0:0:
320,192,184285,128,0,184885:0:0:0:0:
64,192,184885,1,0,0:0:0:0:
448,192,185285,1,0,0:0:0:0:
64,192,185285,1,8,0:0:0:0:
320,192,185485,1,0,0:0:0:0:
192,192,185685,1,0,0:0:0:0:
320,192,185885,128,0,187085:0:0:0:0:
192,192,187085,1,0,0:0:0:0:
320,192,187285,1,0,0:0:0:0:
448,192,187485,128,0,188285:0:0:0:0:
64,192,188285,128,2,188685:0:0:0:0:
448,192,188685,1,0,0:0:0:0:
192,192,188885,1,2,0:0:0:0:
320,192,189085,1,0,0:0:0:0:
192,192,189285,1,2,0:0:0:0:
64,192,189285,1,0,0:0:0:0:
320,192,189685,1,0,0:0:0:0:
192,192,190085,1,0,0:0:0:0:
320,192,190385,1,0,0:0:0:0:
448,192,190685,1,0,0:0:0:0:
192,192,191085,1,0,0:0:0:0:
448,192,191285,1,0,0:0:0:0:
64,192,191685,1,0,0:0:0:0:
320,192,191985,1,0,0:0:0:0:
192,192,192285,1,0,0:0:0:0:
320,192,192685,1,0,0:0:0:0:
64,192,192885,1,0,0:0:0:0:
448,192,193285,1,0,0:0:0:0:
192,192,193585,1,0,0:0:0:0:
320,192,193885,1,0,0:0:0:0:
192,192,194285,1,0,0:0:0:0:
320,192,194485,1,0,0:0:0:0:
64,192,194885,1,0,0:0:0:0:
320,192,195185,1,0,0:0:0:0:
192,192,195485,1,0,0:0:0:0:
320,192,195885,1,0,0:0:0:0:
64,192,196085,1,0,0:0:0:0:
448,192,196485,1,0,0:0:0:0:
192,192,196785,1,0,0:0:0:0:
320,192,197085,1,0,0:0:0:0:
64,192,197485,1,0,0:0:0:0:
448,192,197685,1,0,0:0:0:0:
64,192,198085,1,0,0:0:0:0:
320,192,198385,1,0,0:0:0:0:
192,192,198685,1,0,0:0:0:0:
448,192,199085,1,0,0:0:0:0:
192,192,199285,1,0,0:0:0:0:
320,192,199685,1,0,0:0:0:0:
64,192,199985,1,0,0:0:0:0:
320,192,200285,1,0,0:0:0:0:
192,192,200885,1,0,0:0:0:0:
448,192,201285,1,0,0:0:0:0:
192,192,201585,1,0,0:0:0:0:
320,192,201885,1,0,0:0:0:0:
