osu file format v14

[General]
AudioFilename: audio.mp3
AudioLeadIn: 0
PreviewTime: 47647
Countdown: 0
SampleSet: Soft
StackLeniency: 0.3
Mode: 0
LetterboxInBreaks: 0
WidescreenStoryboard: 1

[Editor]
DistanceSpacing: 1
BeatDivisor: 4
GridSize: 4
TimelineZoom: 1.6

[Metadata]
Title:VS (TV Size)
TitleUnicode:VS (TV Size)
Artist:BLUE ENCOUNT
ArtistUnicode:BLUE ENCOUNT
Creator:Smoke
Version:NORMAL
Source:銀魂.ポろリ編
Tags:japanese anime opening op 19 jrock j-rock rock Gintama. Porori-hen sakata gintoki shinpachi shimura kagura
BeatmapID:2354905
BeatmapSetID:1127084

[Difficulty]
HPDrainRate:4
CircleSize:3.2
OverallDifficulty:4.5
ApproachRate:5.2
SliderMultiplier:1
SliderTickRate:1

[Events]
//Background and Video events
0,0,"gintama.jpg",0,0
Video,-185,"opening vid.m4v"
//Break Periods
//Storyboard Layer 0 (Background)
//Storyboard Layer 1 (Fail)
//Storyboard Layer 2 (Pass)
//Storyboard Layer 3 (Foreground)
//Storyboard Layer 4 (Overlay)
//Storyboard Sound Samples

[TimingPoints]
600,370.37037037037,4,2,1,70,1,0
600,-105.263157894737,4,2,1,45,0,0
3192,-105.263157894737,4,2,1,60,0,0
3470,-105.263157894737,4,2,1,5,0,0
3562,368.098159509202,4,2,1,70,1,0
3562,-100,4,2,1,70,0,0
6046,-100,4,2,1,5,0,0
6138,350.877192982456,4,2,1,70,1,0
6138,-100,4,2,1,70,0,0
6488,370.37037037037,4,2,1,70,1,0
6488,-100,4,2,1,75,0,0
7876,-100,4,2,1,5,0,0
7969,-100,4,2,1,75,0,0
9450,368.098159509202,4,2,1,70,1,0
9450,-100,4,2,1,75,0,0
10830,-100,4,2,1,5,0,0
10922,363.636363636364,4,2,1,70,1,0
10922,-100,4,2,1,75,0,0
12376,368.098159509202,4,2,1,70,1,0
12376,-105.263157894737,4,2,1,65,0,0
13848,377.358490566038,4,2,1,70,1,0
13848,-105.263157894737,4,2,1,65,0,0
15357,368.098159509202,4,2,1,70,1,0
15357,-105.263157894737,4,2,1,65,0,0
16829,-105.263157894737,4,2,1,65,0,0
17565,387.096774193548,4,2,1,70,1,0
17565,-105.263157894737,4,2,1,65,0,0
17952,348.837209302326,4,2,1,70,1,0
17952,-105.263157894737,4,2,1,65,0,0
18300,357.142857142857,4,2,1,70,1,0
18300,-105.263157894737,4,2,1,65,0,0
19014,377.358490566038,4,2,1,70,1,0
19014,-105.263157894737,4,2,1,65,0,0
19768,370.37037037037,4,2,1,70,1,0
19768,-105.263157894737,4,2,1,65,0,0
20879,365.853658536585,4,2,1,70,1,0
20879,-105.263157894737,4,2,1,65,0,0
22250,-105.263157894737,4,2,1,5,0,0
22342,355.029585798817,4,2,1,70,1,0
22342,-105.263157894737,4,2,1,65,0,0
22697,370.37037037037,4,2,1,70,1,0
22697,-105.263157894737,4,2,1,70,0,0
22882,-105.263157894737,4,2,1,5,0,0
22974,-105.263157894737,4,2,1,70,0,0
23159,-105.263157894737,4,2,1,5,0,0
23252,-105.263157894737,4,2,1,70,0,0
23345,-105.263157894737,4,2,1,5,0,0
23437,-105.263157894737,4,2,1,70,0,0
23622,372.670807453416,4,2,1,70,1,0
23622,-105.263157894737,4,2,1,70,0,0
24181,368.098159509202,4,2,1,70,1,0
24181,-100,4,2,1,75,0,0
28230,357.142857142857,4,2,1,70,1,0
28230,-100,4,2,1,75,0,0
28497,-100,4,2,1,5,0,0
28587,372.670807453416,4,2,1,70,1,0
28587,-100,4,2,1,75,0,0
30077,375,4,2,1,70,1,0
30077,-100,4,2,1,75,0,0
30452,361.44578313253,4,2,1,70,1,0
30452,-100,4,2,1,75,0,0
31536,368.098159509202,4,2,1,70,1,0
31536,-100,4,2,1,75,0,0
33376,372.670807453416,4,2,1,70,1,0
33376,-100,4,2,1,75,0,0
34494,365.853658536585,4,2,1,70,1,0
34494,-100,4,2,1,75,0,0
35957,368.098159509202,4,2,1,70,1,0
35957,-111.111111111111,4,2,1,60,0,0
38073,-111.111111111111,4,2,1,5,0,0
38165,365.853658536585,4,2,1,70,1,0
38165,-111.111111111111,4,2,1,60,0,0
38896,368.098159509202,4,2,1,70,1,0
38896,-111.111111111111,4,2,1,60,0,0
41748,-111.111111111111,4,2,1,5,0,0
41840,372.670807453416,4,2,1,70,1,0
41840,-99.9999999999999,4,2,1,70,0,0
42585,368.098159509202,4,2,1,70,1,0
42585,-99.9999999999999,4,2,1,70,0,0
43321,370.37037037037,4,2,1,70,1,0
43321,-99.9999999999999,4,2,1,70,0,0
44061,365.853658536585,4,2,1,70,1,0
44061,-99.9999999999999,4,2,1,70,0,0
44426,359.281437125748,4,2,1,70,1,0
44426,-99.9999999999999,4,2,1,70,0,0
44785,370.37037037037,4,2,1,70,1,0
44785,-100,4,2,1,70,0,0
44970,-100,4,2,1,5,0,0
45062,-100,4,2,1,75,0,0
45247,-100,4,2,1,5,0,0
45338,-100,4,2,1,75,0,0
45433,-100,4,2,1,5,0,0
45525,-100,4,2,1,75,0,0
45710,-100,4,2,1,5,0,0
45803,-100,4,2,1,75,0,0
45988,-100,4,2,1,5,0,0
46081,-100,4,2,1,75,0,0
46173,-100,4,2,1,5,0,0
46266,365.853658536585,4,2,1,70,1,0
46266,-100,4,2,1,75,0,0
46448,-100,4,2,1,5,0,0
46540,-100,4,2,1,75,0,0
46723,-100,4,2,1,5,0,0
46814,-100,4,2,1,75,0,0
46906,-100,4,2,1,5,0,0
46997,371.517027863777,4,2,1,70,1,0
46997,-100,4,2,1,75,0,0
47740,368.098159509202,4,2,1,70,1,0
47740,-90.9090909090909,4,2,1,80,0,1
60991,-100,4,2,1,70,0,0
61727,-100,4,2,1,75,0,0
62095,-100,4,2,1,80,0,0
62463,-86.9565217391304,4,2,1,80,0,1
75715,-100,4,2,1,75,0,0
77187,-100,4,2,1,75,0,0
78568,-100,4,2,1,5,0,0
78660,-100,4,2,1,75,0,0
79028,359.281437125748,4,2,1,70,1,0
79028,-100,4,2,1,75,0,0
79387,372.670807453416,4,2,1,70,1,0
79387,-100,4,2,1,75,0,0
79759,355.029585798817,4,2,1,70,1,0
79759,-100,4,2,1,75,0,0
80114,370.37037037037,4,2,1,70,1,0
80114,-100,4,2,1,75,0,0
81503,-100,4,2,1,5,0,0
81595,375,4,2,1,70,1,0
81595,-100,4,2,1,75,0,0
81970,361.44578313253,4,2,1,70,1,0
81970,-100,4,2,1,75,0,0
82331,379.746835443038,4,2,1,70,1,0
82331,-100,4,2,1,75,0,0
82710,352.941176470588,4,2,1,70,1,0
82710,-100,4,2,1,75,0,0
83062,368.098159509202,4,2,1,70,1,0
83062,-100,4,2,1,75,0,0
83798,370.37037037037,4,2,1,70,1,0
83798,-100,4,2,1,75,0,0
84446,-100,4,2,1,5,0,0
84538,370.37037037037,4,2,1,70,1,0
84538,-100,4,2,1,75,0,0
84908,363.636363636364,4,2,1,70,1,0
84908,-100,4,2,1,75,0,0
85271,368.098159509202,4,2,1,70,1,0
85271,-100,4,2,1,75,0,0
86007,370.37037037037,4,2,1,70,1,0
86007,-105.263157894737,4,2,1,55,0,0
86747,365.853658536585,4,2,1,70,1,0
86747,-105.263157894737,4,2,1,55,0,0
87387,-105.263157894737,4,2,1,5,0,0
87478,377.358490566038,4,2,1,70,1,0
87478,-100,4,2,1,80,0,0
87761,-100,4,2,1,5,0,0
87855,-100,4,2,1,80,0,0
88138,-100,4,2,1,5,0,0
88232,-100,4,2,1,80,0,0
88610,-100,4,2,1,20,0,0

[Colours]
Combo1 : 237,80,126
Combo2 : 101,219,243
Combo3 : 239,96,80
Combo4 : 94,172,236

[HitObjects]
18,311,600,6,0,P|58:333|112:330,1,94.9999974632264,2|2,0:0|0:0,0:0:0:0:
183,277,1340,2,0,P|223:255|277:258,1,94.9999974632264,2|2,0:0|0:0,0:0:0:0:
356,299,2081,2,0,P|396:321|450:318,1,94.9999974632264,2|2,0:0|0:0,0:0:0:0:
504,246,2822,1,2,0:0:0:0:
457,163,3192,1,2,3:2:0:0:
362,192,3562,6,0,P|340:199|311:205,1,50,2|0,3:2|3:2,0:0:0:0:
265,218,3930,1,10,0:0:0:0:
166,234,4298,2,0,P|165:208|177:177,1,50,2|2,0:0|3:2,0:0:0:0:
185,137,4666,2,0,P|182:106|160:70,1,50,10|2,0:0|0:0,0:0:0:0:
148,46,5034,2,0,P|190:31|254:11,2,100,2|2|2,0:0|0:0|0:0,0:0:0:0:
54,82,6138,1,8,1:0:0:0:
62,181,6488,6,0,L|33:270,2,75,6|10|10,3:2|0:0|0:0,0:0:0:0:
108,163,7228,2,0,P|134:164|164:151,1,50,2|10,3:2|0:0,0:0:0:0:
199,130,7599,1,2,3:2:0:0:
262,53,7969,6,0,P|295:69|316:112,1,75,2|10,3:2|0:0,0:0:0:0:
303,186,8525,1,10,0:0:0:0:
303,186,8710,2,0,P|284:207|272:238,1,50,2|10,3:2|0:0,0:0:0:0:
260,274,9080,1,10,0:0:0:0:
223,367,9450,6,0,P|184:361|137:386,2,75,6|10|10,3:2|0:0|0:0,0:0:0:0:
271,380,10186,2,0,L|328:364,1,50,2|10,3:2|0:0,0:0:0:0:
367,352,10554,1,2,3:2:0:0:
444,286,10922,6,0,L|423:199,1,75,2|10,3:2|0:0,0:0:0:0:
432,130,11467,1,10,0:0:0:0:
432,130,11649,2,0,L|345:105,1,75,2|10,3:2|0:0,0:0:0:0:
292,60,12194,1,10,0:0:0:0:
292,60,12376,6,0,P|253:89|196:76,1,94.9999974632264,6|0,3:2|3:2,0:0:0:0:
122,25,13112,2,0,P|113:70|96:128,1,94.9999974632264,2|0,3:2|3:2,0:0:0:0:
165,194,13848,2,0,P|129:204|88:223,1,71.2499980974198,2|2,3:2|0:0,0:0:0:0:
28,252,14414,2,0,L|48:348,1,94.9999974632264,2|2,0:0|0:0,0:0:0:0:
155,361,15168,1,2,0:0:0:0:
155,361,15357,6,0,B|187:355|187:355|214:373|214:373|249:367,1,94.9999974632264,2|0,3:2|3:2,0:0:0:0:
347,380,16093,2,0,P|361:333|385:279,1,94.9999974632264,2|0,3:2|3:2,0:0:0:0:
482,278,16829,2,0,P|470:238|460:192,1,71.2499980974198,2|2,3:2|0:1,0:0:0:0:
504,142,17381,1,2,0:1:0:0:
467,47,17758,2,0,L|410:60,1,47.4999987316132,2|0,0:0|3:2,0:0:0:0:
372,67,18126,1,2,0:1:0:0:
372,67,18300,6,0,P|336:36|274:45,1,94.9999974632264,2|0,3:2|3:2,0:0:0:0:
223,109,19014,2,0,L|247:214,1,94.9999974632264,2|0,3:2|3:2,0:0:0:0:
328,265,19768,2,0,P|296:288|261:317,1,71.2499980974198,2|2,3:2|0:0,0:0:0:0:
209,356,20323,2,0,L|115:338,1,94.9999974632264,2|2,0:0|0:0,0:0:0:0:
89,241,21061,1,2,0:0:0:0:
89,241,21244,6,0,B|59:234|59:234|28:255|28:255|-5:247,1,94.9999974632264,2|0,3:2|3:2,0:0:0:0:
1,143,21976,2,0,L|25:37,1,94.9999974632264,2|0,3:2|3:2,0:0:0:0:
112,92,22697,2,0,L|132:171,2,71.2499980974198,10|10|10,3:2|3:2|3:2,0:0:0:0:
211,56,23622,1,10,0:0:0:0:
211,56,23808,2,0,L|277:66,1,47.4999987316132,10|10,0:0|0:0,0:0:0:0:
277,110,24181,6,0,P|251:157|251:206,1,100,6|8,3:2|0:0,0:0:0:0:
281,248,24733,1,2,3:2:0:0:
281,248,24917,1,2,0:0:0:0:
354,315,25285,2,0,L|414:294,1,50,10|2,0:0|0:0,0:0:0:0:
446,278,25653,6,0,B|456:246|456:246|482:231|482:231|496:182,1,100,6|8,3:2|0:0,0:0:0:0:
509,151,26205,1,2,3:2:0:0:
509,151,26389,1,2,0:0:0:0:
477,56,26757,2,0,P|451:45|422:38,1,50,10|0,0:0|0:0,0:0:0:0:
386,63,27125,6,0,P|331:73|286:47,1,100,6|8,3:2|0:0,0:0:0:0:
206,4,27861,2,0,P|197:31|186:57,1,50,2|2,0:0|3:2,0:0:0:0:
167,96,28230,1,10,0:0:0:0:
67,108,28587,6,0,P|74:136|98:171,1,50,2|2,3:2|0:0,0:0:0:0:
116,192,28959,2,0,L|98:246,1,50,10|2,0:0|3:2,0:0:0:0:
87,287,29332,1,2,0:0:0:0:
62,383,29705,2,0,L|119:372,1,50,10|2,0:0|0:0,0:0:0:0:
159,358,30077,6,0,B|187:366|187:366|221:348|221:348|256:359,1,100,6|8,3:2|0:0,0:0:0:0:
303,377,30632,1,2,3:2:0:0:
303,377,30813,1,2,0:0:0:0:
400,355,31174,2,0,L|468:337,1,50,10|2,0:0|0:0,0:0:0:0:
494,324,31536,6,0,P|471:290|491:216,1,100,6|8,3:2|0:0,0:0:0:0:
511,139,32272,2,0,L|491:73,1,50,2|2,0:0|3:2,0:0:0:0:
451,68,32640,2,0,L|385:88,1,50,10|2,0:0|0:0,0:0:0:0:
361,110,33008,6,0,L|275:90,1,75,6|2,3:2|0:0,0:0:0:0:
213,123,33562,1,2,0:0:0:0:
213,123,33748,2,0,P|187:156|194:208,1,75,2|2,3:2|0:0,0:0:0:0:
217,269,34307,1,2,0:0:0:0:
217,269,34494,6,0,P|232:290|248:326,2,50,2|0|2,3:2|3:2|3:2,0:0:0:0:
114,309,35225,2,0,P|89:301|54:296,1,50,2|8,3:2|3:2,0:0:0:0:
18,285,35591,1,2,3:2:0:0:
47,190,35957,6,0,P|37:148|20:83,1,89.9999972534181,4|0,3:2|3:2,0:0:0:0:
89,39,36693,2,0,L|182:59,1,89.9999972534181,2|2,3:2|3:2,0:0:0:0:
225,70,37245,1,0,3:2:0:0:
225,70,37429,1,2,3:2:0:0:
307,33,37797,1,2,3:2:0:0:
389,67,38165,1,2,3:2:0:0:
399,156,38530,1,2,3:2:0:0:
328,211,38896,6,0,L|223:190,1,89.9999972534181,2|0,3:2|3:2,0:0:0:0:
162,146,39632,2,0,P|123:175|77:173,1,89.9999972534181,2|2,3:2|3:2,0:0:0:0:
43,168,40184,1,0,3:2:0:0:
43,168,40368,1,2,3:2:0:0:
1,248,40736,1,2,3:2:0:0:
39,329,41104,1,2,3:2:0:0:
127,344,41472,1,6,3:2:0:0:
212,291,41840,6,0,L|283:304,1,50,6|0,3:2|3:2,0:0:0:0:
309,311,42212,1,8,0:0:0:0:
397,356,42585,2,0,P|422:354|456:333,1,50,2|0,0:0|3:2,0:0:0:0:
487,317,42953,1,10,0:0:0:0:
438,229,43321,2,0,P|438:207|455:174,1,50,2|2,3:2|3:2,0:0:0:0:
478,141,43691,1,10,0:0:0:0:
386,101,44061,2,0,L|330:116,1,50,2|0,0:0|3:2,0:0:0:0:
290,129,44426,1,10,0:0:0:0:
214,63,44785,6,0,P|184:42|134:42,1,75,6|6,3:2|3:2,0:0:0:0:
77,81,45340,1,6,3:2:0:0:
77,81,45525,2,0,L|93:161,1,75,6|6,3:2|3:2,0:0:0:0:
68,236,46081,1,6,3:2:0:0:
68,236,46266,2,0,P|101:259|145:259,1,75,12|12,3:3|3:3,0:0:0:0:
210,228,46814,1,12,3:3:0:0:
210,228,46997,2,0,B|245:237|245:237|266:268|266:268|302:278,1,100,14|0,3:2|0:0,0:0:0:0:
380,338,47740,6,0,L|400:250,1,82.5000025177003,4|10,3:1|0:0,0:0:0:0:
472,218,48292,1,10,0:0:0:0:
472,218,48476,2,0,P|486:162|452:105,1,110.000003356934,2|2,3:2|3:2,0:0:0:0:
372,56,49212,6,0,L|242:79,1,110.000003356934,4|2,3:2|3:2,0:0:0:0:
226,116,49764,1,10,0:0:0:0:
226,116,49948,2,0,B|248:148|248:148|224:218,1,110.000003356934,2|0,3:2|3:2,0:0:0:0:
146,292,50684,6,0,P|101:297|57:260,1,82.5000025177003,4|10,3:1|0:0,0:0:0:0:
18,217,51236,1,10,0:0:0:0:
18,217,51420,2,0,P|32:164|47:95,1,110.000003356934,2|2,3:2|3:2,0:0:0:0:
44,0,52157,6,0,P|80:4|102:18,1,55.0000016784668,4|2,3:2|0:0,0:0:0:0:
138,48,52525,2,0,P|174:44|196:30,1,55.0000016784668,2|10,3:2|0:0,0:0:0:0:
241,15,52893,2,0,P|295:24|354:40,1,110.000003356934,2|0,3:2|3:2,0:0:0:0:
457,28,53629,6,0,P|433:59|432:109,1,82.5000025177003,4|10,3:1|0:0,0:0:0:0:
485,169,54181,1,10,0:0:0:0:
485,169,54365,2,0,P|464:228|449:280,1,110.000003356934,2|2,3:2|3:2,0:0:0:0:
496,373,55101,6,0,B|459:363|459:363|425:381|425:381|381:368,1,110.000003356934,4|2,3:2|3:2,0:0:0:0:
361,334,55654,1,10,0:0:0:0:
361,334,55838,2,0,P|317:311|250:329,1,110.000003356934,2|0,3:2|3:2,0:0:0:0:
158,364,56574,6,0,P|112:369|64:380,1,82.5000025177003,4|10,3:1|0:0,0:0:0:0:
13,326,57126,1,10,0:0:0:0:
13,326,57310,2,0,P|12:262|47:214,1,110.000003356934,2|2,3:2|3:2,0:0:0:0:
139,257,58046,6,0,P|172:250|212:247,1,55.0000016784668,4|2,3:2|0:0,0:0:0:0:
230,207,58414,2,0,P|263:213|303:217,1,55.0000016784668,2|10,3:2|0:0,0:0:0:0:
333,240,58782,2,0,B|367:242|392:216|372:212|399:187|437:190,1,110.000003356934,2|0,3:2|3:2,0:0:0:0:
503,112,59519,6,0,P|471:84|393:82,1,110.000003356934,4|0,3:1|3:2,0:0:0:0:
368,44,60071,1,10,0:0:0:0:
368,44,60255,2,0,P|336:72|258:74,1,110.000003356934,0|0,3:2|3:2,0:0:0:0:
171,73,60991,2,0,P|150:62|117:50,2,50,2|2|2,3:2|3:2|3:2,0:0:0:0:
179,126,61543,1,2,3:2:0:0:
179,126,61727,2,0,P|170:153|164:182,1,50,8|10,0:0|0:0,0:0:0:0:
126,205,62095,2,0,P|135:232|141:261,1,50,8|8,0:0|0:0,0:0:0:0:
153,308,62463,6,0,P|189:288|233:293,1,86.2500016450882,4|10,3:1|0:0,0:0:0:0:
307,333,63016,1,10,0:0:0:0:
307,333,63200,2,0,P|357:354|422:376,1,115.000002193451,2|2,3:2|3:2,0:0:0:0:
502,299,63936,6,0,P|492:251|474:186,1,115.000002193451,4|2,3:2|3:2,0:0:0:0:
432,156,64488,1,10,0:0:0:0:
432,156,64672,2,0,B|398:148|398:148|365:168|365:168|319:158,1,115.000002193451,2|0,3:2|3:2,0:0:0:0:
244,76,65408,6,0,P|207:100|153:94,1,86.2500016450882,4|10,3:1|0:0,0:0:0:0:
87,77,65960,1,10,0:0:0:0:
87,77,66144,2,0,L|56:198,1,115.000002193451,2|2,3:2|3:2,0:0:0:0:
0,287,66881,6,0,P|27:302|60:306,1,57.5000010967255,4|2,3:2|0:0,0:0:0:0:
106,285,67249,2,0,P|133:270|165:267,1,57.5000010967255,2|10,3:2|0:0,0:0:0:0:
209,294,67617,2,0,B|245:300|269:325|249:325|270:353|306:354,1,115.000002193451,2|0,3:2|3:2,0:0:0:0:
385,274,68353,6,0,P|369:230|348:169,1,86.2500016450882,4|10,3:1|0:0,0:0:0:0:
294,141,68905,1,10,0:0:0:0:
294,141,69089,2,0,P|291:86|334:37,1,115.000002193451,2|2,3:2|3:2,0:0:0:0:
439,17,69825,6,0,B|469:45|469:45|449:125,1,115.000002193451,4|2,3:2|3:2,0:0:0:0:
416,163,70378,1,10,0:0:0:0:
416,163,70562,2,0,P|404:210|436:265,1,115.000002193451,2|0,3:2|3:2,0:0:0:0:
370,359,71298,6,0,P|322:347|276:338,1,86.2500016450882,4|10,3:1|0:0,0:0:0:0:
223,288,71850,1,10,0:0:0:0:
223,288,72034,2,0,P|165:300|103:318,1,115.000002193451,2|2,3:2|3:2,0:0:0:0:
2,352,72770,6,0,P|20:297|40:234,1,115.000002193451,4|2,3:2|3:2,0:0:0:0:
66,194,73322,1,10,0:0:0:0:
66,194,73506,2,0,P|33:150|41:81,1,115.000002193451,2|0,3:2|3:2,0:0:0:0:
125,21,74243,6,0,B|162:32|162:32|178:64|178:64|221:79,1,115.000002193451,4|0,3:1|3:2,0:0:0:0:
263,119,74795,1,10,0:0:0:0:
263,119,74979,2,0,B|300:108|300:108|316:76|316:76|360:61,1,115.000002193451,0|0,3:2|3:2,0:0:0:0:
451,85,75715,6,0,P|458:62|475:25,2,50,2|10|10,3:2|0:0|0:0,0:0:0:0:
475,134,76267,1,10,0:0:0:0:
475,134,76451,2,0,P|484:161|489:194,1,50,10|2,3:2|0:0,0:0:0:0:
496,231,76819,1,2,0:0:0:0:
396,234,77187,6,0,L|375:153,2,75,6|10|10,3:2|0:0|0:0,0:0:0:0:
372,277,77924,2,0,P|350:294|320:296,1,50,2|10,3:2|0:0,0:0:0:0:
278,294,78292,1,2,3:2:0:0:
189,340,78660,6,0,P|175:298|186:251,1,75,2|10,3:2|0:0,0:0:0:0:
225,200,79207,1,10,0:0:0:0:
225,200,79387,2,0,P|216:176|209:141,1,50,2|10,3:2|0:0,0:0:0:0:
196,101,79759,1,10,0:0:0:0:
204,5,80114,6,0,P|241:-6|280:5,2,75,6|10|10,3:2|0:0|0:0,0:0:0:0:
154,13,80854,2,0,P|127:4|94:-2,1,50,2|10,3:2|0:0,0:0:0:0:
56,6,81225,1,2,3:2:0:0:
7,92,81595,6,0,L|27:167,1,75,2|10,3:2|0:0,0:0:0:0:
91,225,82150,1,10,0:0:0:0:
91,225,82331,2,0,P|125:206|171:212,1,75,2|10,3:2|0:0,0:0:0:0:
223,268,82886,1,10,0:0:0:0:
223,268,83062,6,0,L|203:344,2,75,6|10|10,3:2|0:0|0:0,0:0:0:0:
265,241,83798,2,0,L|279:181,1,50,2|10,3:2|0:0,0:0:0:0:
288,143,84168,1,2,3:2:0:0:
228,62,84538,6,0,P|265:41|308:46,1,75,2|10,3:2|0:0,0:0:0:0:
373,84,85089,1,10,0:0:0:0:
373,84,85271,2,0,L|436:74,1,50,2|10,3:2|0:0,0:0:0:0:
471,69,85639,2,0,L|481:132,1,50,10|8,0:0|0:0,0:0:0:0:
485,165,86007,5,6,3:2:0:0:
414,228,86377,1,2,0:0:0:0:
321,200,86747,2,0,L|309:137,2,47.4999987316132,2|2|2,0:0|0:0|0:0,0:0:0:0:
231,258,87478,5,4,3:1:0:0:
123,233,87855,1,4,3:1:0:0:
16,207,88232,1,4,3:1:0:0:
