osu file format v14

[General]
AudioFilename: audio.mp3
AudioLeadIn: 0
PreviewTime: 47647
Countdown: 0
SampleSet: Soft
StackLeniency: 0.4
Mode: 0
LetterboxInBreaks: 0
WidescreenStoryboard: 0

[Editor]
DistanceSpacing: 1.8
BeatDivisor: 4
GridSize: 4
TimelineZoom: 1.6

[Metadata]
Title:VS (TV Size)
TitleUnicode:VS (TV Size)
Artist:BLUE ENCOUNT
ArtistUnicode:BLUE ENCOUNT
Creator:Smoke
Version:INSANE
Source:銀魂.ポろリ編
Tags:japanese anime opening op 19 jrock j-rock rock Gintama. Porori-hen sakata gintoki shinpachi shimura kagura
BeatmapID:2354904
BeatmapSetID:1127084

[Difficulty]
HPDrainRate:6
CircleSize:4
OverallDifficulty:8
ApproachRate:8.8
SliderMultiplier:1.5
SliderTickRate:1

[Events]
//Background and Video events
0,0,"gintama.jpg",0,0
Video,-185,"opening vid.m4v"
//Break Periods
//Storyboard Layer 0 (Background)
//Storyboard Layer 1 (Fail)
//Storyboard Layer 2 (Pass)
//Storyboard Layer 3 (Foreground)
//Storyboard Layer 4 (Overlay)
//Storyboard Sound Samples

[TimingPoints]
600,370.37037037037,4,2,1,70,1,0
600,-142.857142857143,4,2,1,45,0,0
3192,-125,4,2,1,60,0,0
3470,-125,4,2,1,5,0,0
3562,368.098159509202,4,2,1,70,1,0
3562,-111.111111111111,4,2,1,70,0,0
6046,-111.111111111111,4,2,1,5,0,0
6138,350.877192982456,4,2,1,70,1,0
6138,-111.111111111111,4,2,1,70,0,0
6488,370.37037037037,4,2,1,70,1,0
6488,-100,4,2,1,75,0,0
7876,-100,4,2,1,5,0,0
7969,-100,4,2,1,75,0,0
9450,368.098159509202,4,2,1,70,1,0
9450,-100,4,2,1,75,0,0
10830,-100,4,2,1,5,0,0
10922,363.636363636364,4,2,1,70,1,0
10922,-100,4,2,1,75,0,0
12376,368.098159509202,4,2,1,70,1,0
12376,-125,4,2,1,65,0,0
13848,377.358490566038,4,2,1,70,1,0
13848,-125,4,2,1,65,0,0
15357,368.098159509202,4,2,1,70,1,0
15357,-125,4,2,1,65,0,0
16829,-125,4,2,1,65,0,0
17565,387.096774193548,4,2,1,70,1,0
17565,-125,4,2,1,65,0,0
17952,348.837209302326,4,2,1,70,1,0
17952,-125,4,2,1,65,0,0
18300,357.142857142857,4,2,1,70,1,0
18300,-125,4,2,1,65,0,0
19014,377.358490566038,4,2,1,70,1,0
19014,-125,4,2,1,65,0,0
19768,370.37037037037,4,2,1,70,1,0
19768,-125,4,2,1,65,0,0
20879,365.853658536585,4,2,1,70,1,0
20879,-125,4,2,1,65,0,0
22250,-125,4,2,1,5,0,0
22342,355.029585798817,4,2,1,70,1,0
22342,-125,4,2,1,65,0,0
22697,370.37037037037,4,2,1,70,1,0
22697,-111.111111111111,4,2,1,70,0,0
22882,-111.111111111111,4,2,1,5,0,0
22974,-111.111111111111,4,2,1,70,0,0
23159,-111.111111111111,4,2,1,5,0,0
23252,-111.111111111111,4,2,1,70,0,0
23345,-111.111111111111,4,2,1,5,0,0
23437,-111.111111111111,4,2,1,70,0,0
23622,372.670807453416,4,2,1,70,1,0
23622,-111.111111111111,4,2,1,70,0,0
24181,368.098159509202,4,2,1,70,1,0
24181,-100,4,2,1,75,0,0
28230,357.142857142857,4,2,1,70,1,0
28230,-100,4,2,1,75,0,0
28498,-100,4,2,1,5,0,0
28587,372.670807453416,4,2,1,70,1,0
28587,-100,4,2,1,75,0,0
30077,375,4,2,1,70,1,0
30077,-100,4,2,1,75,0,0
30452,361.44578313253,4,2,1,70,1,0
30452,-100,4,2,1,75,0,0
31536,368.098159509202,4,2,1,70,1,0
31536,-100,4,2,1,75,0,0
33376,372.670807453416,4,2,1,70,1,0
33376,-100,4,2,1,75,0,0
34494,365.853658536585,4,2,1,70,1,0
34494,-100,4,2,1,75,0,0
35957,368.098159509202,4,2,1,70,1,0
35957,-125,4,2,1,60,0,0
38073,-125,4,2,1,5,0,0
38165,365.853658536585,4,2,1,70,1,0
38165,-125,4,2,1,60,0,0
38896,368.098159509202,4,2,1,70,1,0
38896,-125,4,2,1,60,0,0
41748,-125,4,2,1,5,0,0
41840,372.670807453416,4,2,1,70,1,0
41840,-111.111111111111,4,2,1,70,0,0
42585,368.098159509202,4,2,1,70,1,0
42585,-111.111111111111,4,2,1,70,0,0
43321,370.37037037037,4,2,1,70,1,0
43321,-111.111111111111,4,2,1,70,0,0
44061,365.853658536585,4,2,1,70,1,0
44061,-111.111111111111,4,2,1,70,0,0
44426,359.281437125748,4,2,1,70,1,0
44426,-111.111111111111,4,2,1,70,0,0
44785,370.37037037037,4,2,1,70,1,0
44785,-100,4,2,1,70,0,0
44970,-100,4,2,1,5,0,0
45062,-100,4,2,1,75,0,0
45247,-100,4,2,1,5,0,0
45340,-100,4,2,1,75,0,0
45433,-100,4,2,1,5,0,0
45525,-100,4,2,1,75,0,0
45710,-100,4,2,1,5,0,0
45803,-100,4,2,1,75,0,0
45988,-100,4,2,1,5,0,0
46081,-100,4,2,1,75,0,0
46173,-100,4,2,1,5,0,0
46266,365.853658536585,4,2,1,70,1,0
46266,-100,4,2,1,75,0,0
46448,-100,4,2,1,5,0,0
46540,-100,4,2,1,75,0,0
46723,-100,4,2,1,5,0,0
46814,-100,4,2,1,75,0,0
46906,-100,4,2,1,5,0,0
46997,371.517027863777,4,2,1,70,1,0
46997,-100,4,2,1,75,0,0
47740,368.098159509202,4,2,1,70,1,0
47740,-86.9565217391304,4,2,1,80,0,1
60991,-90.9090909090909,4,2,1,70,0,0
61727,-90.9090909090909,4,2,1,75,0,0
62095,-90.9090909090909,4,2,1,80,0,0
62463,-76.9230769230769,4,2,1,85,0,1
75715,-90.9090909090909,4,2,1,75,0,0
77187,-100,4,2,1,75,0,0
78568,-100,4,2,1,5,0,0
78660,-100,4,2,1,75,0,0
79028,359.281437125748,4,2,1,70,1,0
79028,-100,4,2,1,75,0,0
79387,372.670807453416,4,2,1,70,1,0
79387,-100,4,2,1,75,0,0
79759,355.029585798817,4,2,1,70,1,0
79759,-100,4,2,1,75,0,0
80114,370.37037037037,4,2,1,70,1,0
80114,-100,4,2,1,75,0,0
81502,-100,4,2,1,5,0,0
81595,375,4,2,1,70,1,0
81595,-100,4,2,1,75,0,0
81970,361.44578313253,4,2,1,70,1,0
81970,-100,4,2,1,75,0,0
82331,379.746835443038,4,2,1,70,1,0
82331,-100,4,2,1,75,0,0
82710,352.941176470588,4,2,1,70,1,0
82710,-100,4,2,1,75,0,0
83062,368.098159509202,4,2,1,70,1,0
83062,-100,4,2,1,75,0,0
83798,370.37037037037,4,2,1,70,1,0
83798,-100,4,2,1,75,0,0
84446,-100,4,2,1,5,0,0
84538,370.37037037037,4,2,1,70,1,0
84538,-100,4,2,1,75,0,0
84908,363.636363636364,4,2,1,70,1,0
84908,-100,4,2,1,75,0,0
85271,368.098159509202,4,2,1,70,1,0
85271,-100,4,2,1,75,0,0
86007,370.37037037037,4,2,1,70,1,0
86007,-111.111111111111,4,2,1,55,0,0
86747,365.853658536585,4,2,1,70,1,0
86747,-111.111111111111,4,2,1,55,0,0
87387,-111.111111111111,4,2,1,5,0,0
87478,377.358490566038,4,2,1,70,1,0
87478,-90.9090909090908,4,2,1,80,0,0
87761,-90.9090909090908,4,2,1,5,0,0
87855,-90.9090909090908,4,2,1,80,0,0
88138,-90.9090909090908,4,2,1,5,0,0
88232,-90.9090909090908,4,2,1,80,0,0
88610,-90.9090909090908,4,2,1,20,0,0

[Colours]
Combo1 : 237,80,126
Combo2 : 101,219,243
Combo3 : 239,96,80
Combo4 : 94,172,236

[HitObjects]
42,177,600,6,0,P|30:199|38:244,1,52.4999983978272,2|0,0:0|0:0,0:0:0:0:
127,248,970,2,0,P|139:226|131:181,1,52.4999983978272,2|0,0:0|0:0,0:0:0:0:
61,305,1340,1,2,0:0:0:0:
137,384,1525,1,2,0:0:0:0:
137,384,1618,1,2,0:0:0:0:
137,384,1711,2,0,P|166:376|191:365,1,52.4999983978272,2|0,0:0|0:0,0:0:0:0:
361,297,2081,1,2,0:0:0:0:
285,218,2266,1,2,0:0:0:0:
285,218,2359,1,2,0:0:0:0:
285,218,2451,2,0,P|260:207|235:201,1,52.4999983978272,2|0,0:0|0:0,0:0:0:0:
97,169,2822,2,0,P|122:162|146:152,1,52.4999983978272,2|0,0:0|0:0,0:0:0:0:
223,45,3192,2,0,P|214:76|260:110,1,90,2|0,3:2|0:0,0:0:0:0:
308,48,3562,5,2,3:2:0:0:
308,48,3746,2,0,L|350:62,1,33.7499989700318,0|2,3:2|0:0,0:0:0:0:
417,83,3930,2,0,L|483:103,1,67.4999979400635,10|0,0:0|3:2,0:0:0:0:
512,144,4206,1,10,0:0:0:0:
512,144,4298,2,0,L|501:184,1,33.7499989700318,2|10,0:0|0:0,0:0:0:0:
464,280,4482,1,2,3:2:0:0:
291,195,4666,1,10,0:0:0:0:
394,167,4850,1,2,0:0:0:0:
331,301,5034,6,0,L|346:378,1,67.4999979400635,2|0,0:0|0:0,0:0:0:0:
225,339,5402,2,0,L|209:273,1,67.4999979400635,2|0,0:0|0:0,0:0:0:0:
44,294,5770,2,0,P|67:333|130:313,1,101.249996910095,2|0,0:0|0:0,0:0:0:0:
114,240,6138,5,8,1:0:0:0:
343,367,6488,6,0,P|353:331|372:272,1,75,6|0,3:2|0:0,0:0:0:0:
434,244,6765,1,10,0:0:0:0:
434,244,6858,2,0,P|406:212|411:164,1,75,0|10,3:2|0:0,0:0:0:0:
486,42,7228,1,2,3:2:0:0:
384,90,7413,1,10,0:0:0:0:
231,28,7599,2,0,P|282:25|298:77,1,112.5,2|0,3:2|0:0,0:0:0:0:
219,112,7969,6,0,P|181:104|129:95,1,75,2|0,3:2|0:0,0:0:0:0:
80,154,8247,1,10,0:0:0:0:
80,154,8339,2,0,B|98:186|98:186|88:225,1,75,0|10,3:2|0:0,0:0:0:0:
50,375,8710,1,2,3:2:0:0:
251,325,8895,2,0,L|259:288,1,37.5,10|8,0:0|0:0,0:0:0:0:
181,230,9080,1,10,0:0:0:0:
171,266,9173,1,8,0:0:0:0:
162,302,9265,1,8,0:0:0:0:
152,338,9358,1,8,0:0:0:0:
143,375,9450,6,0,P|125:330|104:288,1,75,6|0,3:2|0:0,0:0:0:0:
49,248,9726,1,10,0:0:0:0:
49,248,9818,2,0,P|68:224|71:169,1,75,0|10,3:2|0:0,0:0:0:0:
19,45,10186,1,2,3:2:0:0:
134,108,10370,1,10,0:0:0:0:
282,24,10554,2,0,B|237:20|204:44|204:44|221:79,1,112.5,2|0,3:2|0:0,0:0:0:0:
273,154,10922,6,0,P|237:152|209:175,1,75,2|0,3:2|0:0,0:0:0:0:
178,257,11194,2,0,P|191:294|201:335,1,75,10|0,0:0|0:0,0:0:0:0:
266,382,11467,1,10,0:0:0:0:
426,300,11649,2,0,P|415:262|404:219,1,75,2|8,3:2|0:0,0:0:0:0:
364,151,11922,1,10,0:0:0:0:
364,151,12012,2,0,P|369:130|380:102,1,37.5,8|8,0:0|0:0,0:0:0:0:
474,27,12194,1,10,0:0:0:0:
474,27,12285,1,8,0:0:0:0:
474,27,12376,6,0,B|437:17|437:17|398:32|398:32|354:19,1,120,6|2,3:2|0:0,0:0:0:0:
268,57,12928,1,2,0:0:0:0:
147,9,13112,2,0,P|163:37|179:80,1,60,2|0,3:2|0:0,0:0:0:0:
61,178,13480,1,0,3:2:0:0:
61,178,13664,1,2,0:0:0:0:
126,274,13848,6,0,P|141:229|161:184,1,90,2|2,3:2|0:0,0:0:0:0:
175,145,14225,1,0,3:2:0:0:
265,202,14414,2,0,P|296:203|340:179,1,60,2|0,0:0|3:2,0:0:0:0:
420,147,14791,2,0,P|451:146|495:170,1,60,2|0,0:0|3:2,0:0:0:0:
339,102,15168,1,2,0:0:0:0:
399,237,15357,6,0,P|382:287|360:356,1,120,2|2,3:2|3:2,0:0:0:0:
266,306,15909,1,2,0:0:0:0:
149,365,16093,2,0,P|140:336|125:294,1,60,2|0,3:2|0:0,0:0:0:0:
0,175,16461,1,0,3:2:0:0:
0,175,16645,1,2,0:0:0:0:
124,89,16829,6,0,P|110:126|98:166,1,60,2|2,3:2|0:1,0:0:0:0:
93,194,17105,1,2,0:1:0:0:
93,194,17197,2,0,L|104:229,1,30,0|2,3:2|0:1,0:0:0:0:
130,308,17381,1,2,0:1:0:0:
276,237,17565,1,2,3:1:0:0:
383,287,17758,2,0,L|374:332,2,30,2|2|0,0:0|0:1|3:2,0:0:0:0:
476,251,18126,1,2,0:1:0:0:
476,251,18213,1,2,0:0:0:0:
476,251,18300,6,0,P|472:181|413:140,1,120,2|0,3:2|3:2,0:0:0:0:
346,173,18835,1,2,0:0:0:0:
289,51,19014,2,0,P|277:89|267:115,1,60,2|0,3:2|0:0,0:0:0:0:
236,218,19391,1,0,3:2:0:0:
236,218,19580,1,2,0:0:0:0:
285,315,19768,6,0,P|252:316|226:332,1,60,0|0,3:2|0:0,0:0:0:0:
187,358,20045,2,0,L|153:381,1,30,2|0,0:0|3:2,0:0:0:0:
138,268,20323,2,0,P|131:241|119:206,1,60,2|0,0:0|3:2,0:0:0:0:
86,80,20693,2,0,P|89:65|95:52,2,30,2|2|0,0:0|0:0|3:2,0:0:0:0:
30,165,21061,1,2,0:0:0:0:
178,123,21244,6,0,P|229:118|266:142,1,90,2|2,3:2|0:0,0:0:0:0:
292,172,21610,1,0,3:2:0:0:
198,358,21793,1,2,0:0:0:0:
171,270,21976,2,0,P|171:227|207:203,1,90,2|0,3:2|0:0,0:0:0:0:
260,275,22342,1,0,3:2:0:0:
260,275,22519,1,2,0:0:0:0:
390,161,22697,6,0,P|421:160|462:185,1,67.4999979400635,10|0,3:2|0:0,0:0:0:0:
434,271,22974,2,0,P|403:272|362:247,1,67.4999979400635,10|0,3:2|0:0,0:0:0:0:
299,189,23252,2,0,P|306:155|312:119,1,67.4999979400635,10|2,3:2|0:0,0:0:0:0:
131,0,23622,1,10,0:0:0:0:
88,4,23715,1,8,0:0:0:0:
64,40,23808,1,10,0:0:0:0:
72,72,23901,1,8,0:0:0:0:
81,105,23994,1,10,0:0:0:0:
90,137,24087,1,8,0:0:0:0:
99,170,24181,6,0,P|86:211|77:249,1,75,6|0,3:2|0:0,0:0:0:0:
14,299,24457,1,0,3:2:0:0:
14,299,24549,1,8,0:0:0:0:
149,384,24733,1,2,3:2:0:0:
143,354,24825,1,8,0:0:0:0:
137,324,24917,1,2,0:0:0:0:
3,168,25101,1,2,3:2:0:0:
173,242,25285,1,10,0:0:0:0:
285,195,25469,1,2,0:0:0:0:
429,259,25653,6,0,P|441:219|459:171,1,75,6|0,3:2|0:0,0:0:0:0:
509,123,25929,1,0,3:2:0:0:
509,123,26021,1,8,0:0:0:0:
383,25,26205,1,2,3:2:0:0:
389,55,26297,1,8,0:0:0:0:
395,85,26389,1,2,0:0:0:0:
429,259,26573,1,2,3:2:0:0:
308,183,26757,1,10,0:0:0:0:
146,260,26941,1,2,0:0:0:0:
267,336,27125,6,0,P|256:296|238:238,1,75,6|0,3:2|0:0,0:0:0:0:
222,185,27401,1,0,3:2:0:0:
222,185,27493,1,8,0:0:0:0:
219,76,27677,1,2,3:2:0:0:
178,67,27769,1,8,0:0:0:0:
150,99,27861,1,2,0:0:0:0:
246,263,28046,1,2,3:2:0:0:
158,362,28230,2,0,B|122:355|122:355|88:379|88:379|32:367,1,112.5,10|0,0:0|0:0,0:0:0:0:
5,300,28587,5,2,3:2:0:0:
82,184,28773,1,2,0:0:0:0:
82,184,28866,1,0,3:2:0:0:
82,184,28959,1,10,0:0:0:0:
0,0,29146,1,2,3:2:0:0:
40,90,29332,1,2,0:0:0:0:
40,90,29518,1,2,3:2:0:0:
205,21,29705,1,10,0:0:0:0:
142,99,29891,1,2,0:0:0:0:
229,223,30077,6,0,L|306:201,1,75,6|0,3:2|0:0,0:0:0:0:
383,176,30358,1,0,3:2:0:0:
383,176,30452,1,8,0:0:0:0:
349,329,30632,1,2,3:2:0:0:
355,299,30723,1,8,0:0:0:0:
361,269,30813,1,2,0:0:0:0:
486,319,30994,1,2,3:2:0:0:
383,176,31174,1,10,0:0:0:0:
479,73,31355,1,2,0:0:0:0:
407,0,31536,6,0,P|367:1|329:35,1,75,6|0,3:2|0:0,0:0:0:0:
281,82,31812,1,0,3:2:0:0:
281,82,31904,1,8,0:0:0:0:
129,46,32088,1,2,3:2:0:0:
159,52,32180,1,8,0:0:0:0:
189,58,32272,1,2,0:0:0:0:
79,153,32456,1,2,3:2:0:0:
209,250,32640,1,10,0:0:0:0:
24,378,32824,1,2,0:0:0:0:
63,227,33008,6,0,L|83:141,1,75,6|0,3:2|3:2,0:0:0:0:
132,86,33284,1,2,3:2:0:0:
132,86,33376,2,0,B|100:63|100:63|55:72,1,75,8|2,0:0|0:0,0:0:0:0:
137,290,33748,2,0,L|223:270,1,75,2|0,3:2|3:2,0:0:0:0:
278,221,34028,1,2,3:2:0:0:
278,221,34121,2,0,B|301:253|301:253|292:298,1,75,8|2,0:0|0:0,0:0:0:0:
418,373,34494,5,2,3:2:0:0:
418,373,34585,1,0,3:2:0:0:
418,373,34676,1,0,3:2:0:0:
446,246,34859,1,2,3:2:0:0:
446,246,34951,1,0,3:2:0:0:
446,246,35042,1,0,3:2:0:0:
283,76,35225,1,2,3:2:0:0:
391,22,35408,1,8,3:2:0:0:
362,167,35591,1,2,3:2:0:0:
354,216,35683,1,0,3:2:0:0:
346,256,35774,1,8,3:3:0:0:
340,289,35865,1,8,3:3:0:0:
335,315,35957,6,0,P|299:284|226:293,1,120,4|0,3:2|3:2,0:0:0:0:
71,375,36693,1,2,3:2:0:0:
39,294,36877,1,0,3:2:0:0:
39,294,36969,1,0,3:2:0:0:
39,294,37061,1,2,3:2:0:0:
131,311,37245,1,0,3:2:0:0:
90,207,37429,6,0,P|78:175|64:139,1,60,2|0,3:2|0:0,0:0:0:0:
82,6,37797,2,0,P|37:40|48:80,1,90,2|0,3:2|0:0,0:0:0:0:
122,81,38165,2,0,B|156:84|180:112|158:110|184:138|222:140,1,120,2|2,3:2|3:2,0:0:0:0:
373,24,38896,2,0,P|353:85|339:146,1,120,2|0,3:2|3:2,0:0:0:0:
444,300,39632,2,0,P|418:282|378:284,1,60,2|0,3:2|0:0,0:0:0:0:
348,297,39908,1,0,3:2:0:0:
348,297,40000,2,0,P|317:308|287:317,1,60,2|0,3:2|3:2,0:0:0:0:
180,384,40368,6,0,B|147:376|147:376|117:335|117:335|70:322,1,120,2|2,3:2|3:2,0:0:0:0:
13,163,41104,1,2,3:2:0:0:
13,163,41196,1,0,3:2:0:0:
13,163,41288,2,0,L|2:203,1,30,0|0,3:2|3:2,0:0:0:0:
77,237,41472,2,0,P|110:217|160:227,1,90,6|0,3:2|0:0,0:0:0:0:
230,273,41840,5,6,3:2:0:0:
230,273,42026,1,0,3:2:0:0:
308,165,42212,2,0,L|291:90,1,67.4999979400635,8|0,0:0|0:0,0:0:0:0:
352,39,42492,1,8,0:0:0:0:
352,39,42585,2,0,L|408:54,1,33.7499989700318,2|8,0:0|0:0,0:0:0:0:
512,76,42769,1,0,3:2:0:0:
432,135,42953,2,0,L|417:200,1,67.4999979400635,10|0,0:0|0:0,0:0:0:0:
467,274,43229,1,8,0:0:0:0:
467,274,43321,5,2,3:2:0:0:
343,244,43506,1,2,3:2:0:0:
377,380,43691,2,0,L|391:314,1,67.4999979400635,10|0,0:0|0:0,0:0:0:0:
343,244,43969,1,8,0:0:0:0:
343,244,44061,2,0,L|290:253,1,33.7499989700318,2|8,0:0|0:0,0:0:0:0:
164,272,44243,1,0,3:2:0:0:
258,373,44426,2,0,L|241:289,1,67.4999979400635,10|0,0:0|3:2,0:0:0:0:
207,70,44785,6,0,P|239:48|280:56,1,75,6|0,3:2|0:0,0:0:0:0:
150,137,45062,2,0,P|113:140|83:119,1,75,6|0,3:2|0:0,0:0:0:0:
25,35,45340,2,0,P|17:57|9:76,1,37.5,6|0,3:2|0:0,0:0:0:0:
68,218,45525,6,0,B|33:207|33:207|0:226,1,75,6|0,3:2|0:0,0:0:0:0:
10,318,45803,2,0,B|44:328|44:328|78:309,1,75,6|0,3:2|0:0,0:0:0:0:
152,253,46081,2,0,P|178:260|201:270,1,37.5,6|0,3:2|0:0,0:0:0:0:
315,347,46266,6,0,L|297:265,1,75,12|0,3:3|0:0,0:0:0:0:
414,357,46540,2,0,L|397:283,1,75,12|0,3:3|0:0,0:0:0:0:
512,368,46814,2,0,L|499:304,1,37.5,12|0,3:3|0:0,0:0:0:0:
476,191,46997,6,0,L|442:42,1,150,14|0,3:2|0:0,0:0:0:0:
442,44,47740,6,0,P|406:78|363:85,1,86.2500016450882,4|0,3:1|0:0,0:0:0:0:
309,145,48016,1,10,0:0:0:0:
309,145,48108,2,0,P|283:135|257:116,1,43.1250008225441,0|0,3:2|0:0,0:0:0:0:
197,81,48292,2,0,P|171:91|145:110,1,43.1250008225441,10|0,0:0|0:0,0:0:0:0:
62,155,48476,2,0,P|45:194|31:235,1,86.2500016450882,2|0,3:2|0:0,0:0:0:0:
7,321,48752,1,8,0:0:0:0:
7,321,48844,1,2,3:2:0:0:
112,384,49028,1,8,0:0:0:0:
294,319,49212,6,0,B|380:341,1,86.2500016450882,4|0,3:2|0:0,0:0:0:0:
465,360,49488,1,10,0:0:0:0:
465,360,49580,1,2,3:2:0:0:
408,206,49764,1,10,0:0:0:0:
488,89,49948,1,2,3:2:0:0:
488,89,50040,2,0,P|474:112|461:132,1,43.1250008225441,8|0,0:0|0:0,0:0:0:0:
338,132,50224,1,8,0:0:0:0:
309,102,50316,2,0,P|268:78|215:92,1,86.2500016450882,0|8,3:2|0:0,0:0:0:0:
113,204,50684,6,0,B|136:170|136:170|122:117,1,86.2500016450882,4|0,3:1|0:0,0:0:0:0:
105,42,50960,1,10,0:0:0:0:
105,42,51052,2,0,P|75:56|50:74,1,43.1250008225441,0|0,3:2|0:0,0:0:0:0:
3,135,51236,2,0,P|21:145|41:154,1,43.1250008225441,10|0,0:0|0:0,0:0:0:0:
189,245,51420,2,0,P|222:218|271:220,1,86.2500016450882,2|0,3:2|0:0,0:0:0:0:
350,245,51697,1,8,0:0:0:0:
350,245,51789,1,2,3:2:0:0:
290,109,51973,1,8,0:0:0:0:
495,56,52157,5,4,3:2:0:0:
456,201,52341,1,2,0:0:0:0:
456,201,52433,1,8,0:0:0:0:
456,201,52525,2,0,P|469:246|479:288,1,86.2500016450882,2|10,3:2|0:0,0:0:0:0:
318,374,52893,1,2,3:2:0:0:
328,335,52985,1,8,0:0:0:0:
364,193,53169,1,8,0:0:0:0:
374,155,53261,1,0,3:2:0:0:
438,291,53445,1,8,0:0:0:0:
250,239,53629,6,0,L|155:258,1,86.2500016450882,4|0,3:1|0:0,0:0:0:0:
122,340,53905,1,10,0:0:0:0:
122,340,53997,2,0,P|101:325|83:294,1,43.1250008225441,0|0,3:2|0:0,0:0:0:0:
76,223,54181,2,0,P|84:203|98:186,1,43.1250008225441,10|0,0:0|0:0,0:0:0:0:
55,37,54365,2,0,P|82:69|140:71,1,86.2500016450882,2|0,3:2|0:0,0:0:0:0:
204,40,54641,1,8,0:0:0:0:
204,40,54733,1,2,3:2:0:0:
387,111,54917,1,8,0:0:0:0:
317,18,55101,6,0,P|296:73|283:112,1,86.2500016450882,4|0,3:2|0:0,0:0:0:0:
263,184,55378,1,10,0:0:0:0:
263,184,55470,1,2,3:2:0:0:
361,347,55654,1,10,0:0:0:0:
434,285,55838,1,2,3:2:0:0:
434,285,55930,2,0,P|414:269|384:256,1,43.1250008225441,8|0,0:0|0:0,0:0:0:0:
273,306,56114,1,8,0:0:0:0:
237,324,56206,2,0,P|194:329|146:293,1,86.2500016450882,0|8,3:2|0:0,0:0:0:0:
232,128,56574,6,0,P|250:169|267:217,1,86.2500016450882,4|0,3:1|0:0,0:0:0:0:
346,247,56850,1,10,0:0:0:0:
346,247,56942,2,0,P|371:237|397:217,1,43.1250008225441,0|0,3:2|0:0,0:0:0:0:
494,189,57126,2,0,P|469:179|443:159,1,43.1250008225441,10|0,0:0|0:0,0:0:0:0:
353,61,57310,2,0,P|315:43|251:63,1,86.2500016450882,2|0,3:2|0:0,0:0:0:0:
198,91,57586,1,8,0:0:0:0:
198,91,57678,1,2,3:2:0:0:
49,18,57862,1,8,0:0:0:0:
90,137,58046,5,4,3:2:0:0:
29,278,58230,1,2,0:0:0:0:
29,278,58322,1,8,0:0:0:0:
29,278,58414,2,0,P|69:252|118:258,1,86.2500016450882,2|10,3:2|0:0,0:0:0:0:
259,384,58782,1,2,3:2:0:0:
270,347,58874,1,8,0:0:0:0:
305,204,59059,1,8,0:0:0:0:
315,166,59151,1,0,3:2:0:0:
376,297,59335,1,8,0:0:0:0:
197,244,59519,6,0,L|231:127,1,86.2500016450882,4|0,3:1|0:0,0:0:0:0:
246,81,59795,1,8,0:0:0:0:
246,81,59887,1,0,3:2:0:0:
416,130,60071,1,10,0:0:0:0:
361,0,60255,6,0,L|327:117,1,86.2500016450882,0|0,3:2|0:0,0:0:0:0:
316,165,60531,1,8,0:0:0:0:
316,165,60623,1,0,3:2:0:0:
439,323,60807,1,10,0:0:0:0:
321,284,60991,6,0,B|332:302|332:302|332:329,1,41.2500012588501,2|0,3:2|3:2,0:0:0:0:
233,307,61175,2,0,B|233:327|233:327|245:344,1,41.2500012588501,2|0,3:2|3:2,0:0:0:0:
140,374,61359,2,0,B|151:356|151:356|151:329,1,41.2500012588501,2|0,3:2|3:2,0:0:0:0:
52,350,61543,2,0,B|52:330|52:330|64:313,1,41.2500012588501,2|0,3:2|3:2,0:0:0:0:
144,208,61727,5,8,0:0:0:0:
154,170,61819,1,8,0:0:0:0:
166,133,61911,1,10,0:0:0:0:
177,98,62003,1,8,0:0:0:0:
187,61,62095,1,8,0:0:0:0:
147,48,62187,1,8,0:0:0:0:
101,53,62279,1,8,0:0:0:0:
61,82,62371,1,8,0:0:0:0:
39,136,62463,6,0,L|64:238,1,97.4999955368044,4|0,3:1|0:0,0:0:0:0:
22,321,62739,1,10,0:0:0:0:
22,321,62832,2,0,P|46:330|73:328,1,48.7499977684022,0|0,3:2|0:0,0:0:0:0:
156,371,63016,2,0,P|181:366|203:352,1,48.7499977684022,10|0,0:0|0:0,0:0:0:0:
312,279,63200,2,0,P|357:254|414:265,1,97.4999955368044,2|0,3:2|0:0,0:0:0:0:
490,297,63476,1,8,0:0:0:0:
490,297,63568,1,2,3:2:0:0:
408,166,63752,1,8,0:0:0:0:
512,17,63936,6,0,P|470:50|411:46,1,97.4999955368044,4|0,3:2|0:0,0:0:0:0:
348,20,64212,1,10,0:0:0:0:
348,20,64304,1,2,3:2:0:0:
149,81,64488,1,10,0:0:0:0:
268,127,64672,1,2,3:2:0:0:
268,127,64764,2,0,L|252:73,1,48.7499977684022,8|0,0:0|0:0,0:0:0:0:
104,0,64948,1,8,0:0:0:0:
72,22,65040,2,0,P|54:60|61:116,1,97.4999955368044,0|8,3:2|0:0,0:0:0:0:
177,233,65408,6,0,P|139:208|83:213,1,97.4999955368044,4|0,3:1|0:0,0:0:0:0:
36,279,65684,1,10,0:0:0:0:
36,279,65776,2,0,P|46:301|53:327,1,48.7499977684022,0|0,3:2|0:0,0:0:0:0:
159,377,65960,2,0,P|165:355|176:330,1,48.7499977684022,10|0,0:0|0:0,0:0:0:0:
322,284,66144,2,0,P|368:293|433:311,1,97.4999955368044,2|0,3:2|0:0,0:0:0:0:
500,330,66420,1,8,0:0:0:0:
500,330,66513,1,2,3:2:0:0:
337,382,66697,1,8,0:0:0:0:
475,235,66881,5,4,3:2:0:0:
339,103,67065,1,2,0:0:0:0:
339,103,67157,1,8,0:0:0:0:
339,103,67249,2,0,P|353:147|365:198,1,97.4999955368044,2|10,3:2|0:0,0:0:0:0:
233,335,67617,1,2,3:2:0:0:
194,325,67709,1,8,0:0:0:0:
39,286,67893,1,8,0:0:0:0:
0,276,67985,1,0,3:2:0:0:
101,384,68169,1,8,0:0:0:0:
133,222,68353,6,0,B|143:173|143:173|112:117,1,97.4999955368044,4|0,3:1|0:0,0:0:0:0:
58,52,68629,1,10,0:0:0:0:
58,52,68721,2,0,P|85:35|115:32,1,48.7499977684022,0|0,3:2|0:0,0:0:0:0:
224,123,68905,2,0,P|233:94|247:69,1,48.7499977684022,10|0,0:0|0:0,0:0:0:0:
372,12,69089,2,0,P|415:9|458:41,1,97.4999955368044,2|0,3:2|0:0,0:0:0:0:
512,114,69365,1,8,0:0:0:0:
512,114,69457,1,2,3:2:0:0:
416,259,69641,1,8,0:0:0:0:
454,371,69825,6,0,P|413:360|356:353,1,97.4999955368044,4|0,3:2|0:0,0:0:0:0:
274,384,70101,1,10,0:0:0:0:
274,384,70193,1,2,3:2:0:0:
101,290,70378,1,10,0:0:0:0:
193,232,70562,1,2,3:2:0:0:
193,232,70654,2,0,P|203:255|209:294,1,48.7499977684022,8|0,0:0|0:0,0:0:0:0:
47,371,70838,1,8,0:0:0:0:
17,342,70930,2,0,P|2:302|16:242,1,97.4999955368044,0|8,3:2|0:0,0:0:0:0:
152,68,71298,6,0,P|135:109|119:170,1,97.4999955368044,4|0,3:1|0:0,0:0:0:0:
187,233,71574,1,10,0:0:0:0:
187,233,71666,2,0,P|212:223|241:201,1,48.7499977684022,0|0,3:2|0:0,0:0:0:0:
312,158,71850,2,0,P|338:163|366:172,1,48.7499977684022,10|0,0:0|0:0,0:0:0:0:
484,225,72034,2,0,P|499:268|514:327,1,97.4999955368044,2|0,3:2|0:0,0:0:0:0:
448,384,72310,1,8,0:0:0:0:
448,384,72402,1,2,3:2:0:0:
340,282,72586,1,8,0:0:0:0:
438,132,72770,6,0,P|452:56|386:4,1,146.249993305207,4|10,3:2|0:0,0:0:0:0:
320,8,73138,2,0,P|278:22|226:36,1,97.4999955368044,2|10,3:2|0:0,0:0:0:0:
66,110,73506,1,2,3:2:0:0:
29,99,73598,1,8,0:0:0:0:
199,145,73782,1,8,0:0:0:0:
237,155,73874,1,0,3:2:0:0:
399,198,74059,1,8,0:0:0:0:
339,102,74243,6,0,L|314:205,1,97.4999955368044,4|0,3:1|0:0,0:0:0:0:
299,285,74519,1,8,0:0:0:0:
299,285,74611,1,0,3:2:0:0:
135,320,74795,1,10,0:0:0:0:
233,383,74979,6,0,L|211:287,1,97.4999955368044,0|0,3:2|0:0,0:0:0:0:
191,206,75255,1,8,0:0:0:0:
191,206,75347,1,0,3:2:0:0:
152,77,75531,1,10,0:0:0:0:
331,4,75715,5,2,3:2:0:0:
271,112,75899,2,0,P|263:89|246:57,1,41.2500012588501,10|8,0:0|0:0,0:0:0:0:
85,13,76083,1,10,0:0:0:0:
46,26,76175,1,8,0:0:0:0:
18,55,76267,1,10,0:0:0:0:
7,95,76359,1,8,0:0:0:0:
16,135,76451,2,0,P|34:178|49:220,1,82.5000025177003,10|2,3:2|0:0,0:0:0:0:
103,345,76819,1,2,0:0:0:0:
103,345,77187,6,0,P|113:309|134:253,1,75,6|0,3:2|0:0,0:0:0:0:
158,196,77463,1,10,0:0:0:0:
158,196,77555,2,0,P|191:170|238:173,1,75,0|10,3:2|0:0,0:0:0:0:
372,251,77924,1,2,3:2:0:0:
271,290,78108,1,10,0:0:0:0:
327,147,78292,2,0,P|309:85|290:13,1,112.5,2|0,3:2|0:0,0:0:0:0:
212,18,78660,6,0,P|185:39|132:34,1,75,2|0,3:2|0:0,0:0:0:0:
68,14,78936,1,10,0:0:0:0:
68,14,79028,2,0,P|54:57|41:93,1,75,0|10,3:2|0:0,0:0:0:0:
0,235,79387,1,2,3:2:0:0:
106,304,79573,2,0,P|100:284|95:259,1,37.5,10|8,0:0|0:0,0:0:0:0:
208,188,79759,1,10,0:0:0:0:
241,172,79847,1,8,0:0:0:0:
279,171,79936,1,8,0:0:0:0:
312,186,80025,1,8,0:0:0:0:
336,215,80114,6,0,P|322:259|311:306,1,75,6|0,3:2|0:0,0:0:0:0:
377,353,80391,1,10,0:0:0:0:
377,353,80484,2,0,P|410:359|456:323,1,75,0|10,3:2|0:0,0:0:0:0:
512,260,80854,1,2,3:2:0:0:
438,105,81039,1,10,0:0:0:0:
494,43,81225,2,0,P|462:1|414:22,1,112.5,2|0,3:2|0:0,0:0:0:0:
438,105,81595,6,0,P|454:145|466:186,1,75,2|0,3:2|0:0,0:0:0:0:
401,236,81876,2,0,P|366:237|320:203,1,74,10|0,0:0|0:0,0:0:0:0:
265,161,82150,1,10,0:0:0:0:
113,229,82331,2,0,P|101:190|86:152,1,75,2|8,3:2|0:0,0:0:0:0:
28,103,82615,1,10,0:0:0:0:
28,103,82710,2,0,P|34:85|41:68,1,37.5,8|8,0:0|0:0,0:0:0:0:
136,5,82886,1,10,0:0:0:0:
136,5,82974,1,8,0:0:0:0:
136,5,83062,6,0,P|171:0|216:32,1,75,6|0,3:2|0:0,0:0:0:0:
275,75,83338,1,10,0:0:0:0:
275,75,83430,2,0,P|311:61|351:52,1,75,0|10,3:2|0:0,0:0:0:0:
474,22,83798,1,2,3:2:0:0:
413,130,83983,1,10,0:0:0:0:
486,287,84168,2,0,P|478:234|423:235,1,112.5,2|0,3:2|0:0,0:0:0:0:
402,313,84538,6,0,P|364:305|315:297,1,75,2|0,3:2|0:0,0:0:0:0:
275,237,84815,1,10,0:0:0:0:
275,237,84908,2,0,P|248:214|207:210,1,75,0|10,3:2|0:0,0:0:0:0:
51,269,85271,1,2,3:2:0:0:
154,307,85455,2,0,L|140:267,1,37.5,10|8,0:0|0:0,0:0:0:0:
99,154,85639,1,10,0:0:0:0:
109,118,85731,1,8,0:0:0:0:
118,82,85823,1,8,0:0:0:0:
128,46,85915,1,8,0:0:0:0:
137,9,86007,5,6,3:2:0:0:
217,70,86192,2,0,L|205:114,2,33.7499989700318,2|2|2,0:0|0:0|0:0,0:0:0:0:
317,43,86562,1,2,0:0:0:0:
317,43,86747,2,0,L|394:33,1,67.4999979400635
312,132,87112,2,0,L|425:116,1,101.249996910095,2|0,0:0|0:0,0:0:0:0:
498,110,87478,6,0,P|477:176|461:244,1,123.75000377655,4|0,3:1|0:0,0:0:0:0:
481,313,87855,2,0,P|450:263|397:289,1,123.75000377655,4|0,3:1|0:0,0:0:0:0:
415,369,88232,2,0,P|359:311|277:309,1,165.000005035401,4|0,3:1|0:0,0:0:0:0:
