osu file format v14

[General]
AudioFilename: audio.mp3
AudioLeadIn: 0
PreviewTime: 56005
Countdown: 0
SampleSet: Soft
StackLeniency: 0.4
Mode: 0
LetterboxInBreaks: 0
WidescreenStoryboard: 1

[Editor]
Bookmarks: 52137
DistanceSpacing: 0.8
BeatDivisor: 4
GridSize: 8
TimelineZoom: 2.400001

[Metadata]
Title:Polaris (TV Size)
TitleUnicode:ポラリス (TV Size)
Artist:BLUE ENCOUNT
ArtistUnicode:BLUE ENCOUNT
Creator:Stack
Version:Airin's Light Insane
Source:僕のヒーローアカデミア
Tags:op opening japanese anime boku no My Hero Academia 4 season ggf gottagof4st bite you death byd reform airincat xandit mordred
BeatmapID:2197248
BeatmapSetID:1050560

[Difficulty]
HPDrainRate:5
CircleSize:3.8
OverallDifficulty:7
ApproachRate:8.6
SliderMultiplier:1.6
SliderTickRate:1

[Events]
//Background and Video events
0,0,"235280.jpg",0,0
Video,0,"video.mp4"
//Break Periods
//Storyboard Layer 0 (Background)
//Storyboard Layer 1 (Fail)
//Storyboard Layer 2 (Pass)
//Storyboard Layer 3 (Foreground)
//Storyboard Layer 4 (Overlay)
//Storyboard Sound Samples

[TimingPoints]
-621,315.789473684211,4,2,2,40,1,0
10,-250,4,2,2,40,0,0
642,-200,4,2,2,40,0,0
7589,-333.333333333333,4,2,2,40,0,0
8221,-111.111111111111,4,2,2,75,0,0
13273,-111.111111111111,4,2,2,60,0,0
22115,-111.111111111111,4,2,2,60,0,0
23379,-133.333333333333,4,2,2,45,0,0
32221,-133.333333333333,4,2,2,50,0,0
32852,-125,4,2,2,50,0,0
33484,-111.111111111111,4,2,2,60,0,0
43589,-166.666666666667,4,2,2,50,0,0
48010,-200,4,2,2,60,0,0
48247,-200,4,2,2,5,0,0
48326,-200,4,2,2,60,0,0
48563,-200,4,2,2,5,0,0
48642,-111.111111111111,4,2,2,70,0,0
50852,-166.666666666666,4,2,2,70,0,0
51168,-105.263157894737,4,2,2,70,0,0
53694,-100,4,2,2,70,0,0
54957,-222.222222222222,4,2,2,70,0,0
55589,-333.333333333333,4,2,2,40,0,0
55905,-125,4,2,2,50,0,0
56221,-100,4,2,2,75,0,1
60957,-166.666666666667,4,2,2,75,0,1
61273,-100,4,2,2,75,0,1
71063,-166.666666666667,4,2,2,75,0,1
71379,-100,4,2,2,75,0,1
74852,-142.857142857143,4,2,2,75,0,1
75168,-100,4,2,2,75,0,1
81484,-111.111111111111,4,2,2,75,0,0
82115,-105.263157894737,4,2,2,75,0,0
82747,-100,4,2,2,75,0,0
83379,-95.2380952380952,4,2,2,75,0,0
84010,-100,4,2,2,75,0,0
85905,-250,4,2,2,55,0,0
86536,-200,4,2,2,35,0,0
88905,-200,4,2,2,5,0,0
89063,-200,4,2,2,5,0,0

[Colours]
Combo1 : 109,224,190
Combo2 : 248,172,71
Combo3 : 255,85,81

[HitObjects]
20,281,10,6,0,L|91:267,1,64,2|2,0:0|0:0,0:0:0:0:
82,268,642,6,0,L|69:189,2,80,2|2|2,0:0|0:0|0:0,0:0:0:0:
146,343,1589,1,2,0:0:0:0:
237,300,1905,2,0,L|325:303,1,80,2|2,0:0|0:0,0:0:0:0:
407,355,2536,1,2,0:0:0:0:
464,203,2852,6,0,L|472:282,2,80,2|2|0,0:0|0:0|0:0,0:0:0:0:
402,149,3642,2,0,L|315:158,1,80,2|0,0:0|0:0,0:0:0:0:
322,157,4431,2,0,P|341:195|342:238,1,80,2|0,0:0|0:0,0:0:0:0:
279,304,5063,2,0,L|194:294,1,80,2|2,0:0|0:0,0:0:0:0:
199,294,5694,6,0,L|208:208,2,80,2|2|2,0:0|0:0|0:0,0:0:0:0:
93,355,6642,1,2,0:0:0:0:
10,242,6957,2,0,L|101:250,1,80,2|2,0:0|0:0,0:0:0:0:
74,27,7589,6,0,P|68:69|64:116,1,83.9999974365235,2|0,0:0|0:0,0:0:0:0:
71,131,8221,6,0,L|-11:125,1,71.9999978027344,12|0,3:2|0:0,0:0:0:0:
119,239,8536,1,0,3:0:0:0:
210,140,8694,2,0,L|292:134,1,71.9999978027344,12|0,0:0|0:0,0:0:0:0:
372,219,9010,1,0,3:0:0:0:
287,343,9168,6,0,P|282:298|277:262,1,71.9999978027344,12|0,0:0|0:0,0:0:0:0:
372,196,9484,1,0,3:0:0:0:
451,345,9642,2,0,P|455:307|463:274,1,71.9999978027344,12|0,0:0|0:0,0:0:0:0:
373,176,9957,1,0,0:0:0:0:
186,258,10115,6,0,P|149:254|115:236,1,71.9999978027344,12|0,0:0|3:0,0:0:0:0:
235,123,10431,2,0,P|205:102|184:68,1,71.9999978027344,12|0,0:0|3:0,0:0:0:0:
389,0,10747,6,0,L|381:78,1,71.9999978027344,12|0,0:0|0:0,0:0:0:0:
325,154,11063,1,0,3:0:0:0:
496,284,11221,2,0,L|505:204,1,71.9999978027344,12|0,0:0|0:0,0:0:0:0:
448,134,11536,1,0,3:0:0:0:
344,277,11694,2,0,L|252:262,1,71.9999978027344,12|0,0:0|0:0,0:0:0:0:
99,170,12010,5,12,0:0:0:0:
236,164,12168,1,0,3:0:0:0:
153,282,12326,1,12,0:0:0:0:
99,82,12484,1,2,1:2:0:0:
99,82,13273,6,0,P|159:40|235:74,1,143.999995605469,6|10,3:2|0:3,0:0:0:0:
328,194,13747,1,0,3:0:0:0:
311,204,13826,1,0,0:0:0:0:
299,213,13905,2,0,L|298:137,1,71.9999978027344,2|0,0:3|3:0,0:0:0:0:
382,63,14221,2,0,L|440:64,2,35.9999989013672,2|0|8,0:3|0:0|0:0,0:0:0:0:
176,147,14536,5,2,0:3:0:0:
176,147,14615,1,0,0:0:0:0:
176,147,14694,2,0,L|177:223,1,71.9999978027344,0|10,3:2|0:3,0:0:0:0:
56,336,15010,1,0,0:0:0:0:
48,322,15089,1,0,0:0:0:0:
38,307,15168,2,0,L|116:299,1,71.9999978027344,2|0,3:0|3:0,0:0:0:0:
265,378,15484,2,0,P|232:374|186:372,1,71.9999978027344,10|0,0:3|0:0,0:0:0:0:
362,280,15800,6,0,B|350:233|350:233|370:205|370:205|353:139,1,143.999995605469,2|10,3:0|0:3,0:0:0:0:
169,83,16273,1,0,3:0:0:0:
164,101,16352,1,0,0:0:0:0:
160,119,16431,2,0,L|245:106,1,71.9999978027344,2|0,0:3|3:0,0:0:0:0:
319,34,16747,2,0,L|310:-8,2,35.9999989013672,2|0|8,0:3|0:0|0:0,0:0:0:0:
512,118,17063,5,2,0:3:0:0:
512,119,17142,1,0,0:0:0:0:
512,119,17221,2,0,L|435:128,1,71.9999978027344,0|10,3:0|0:3,0:0:0:0:
335,149,17536,1,0,0:0:0:0:
345,252,17694,1,2,3:0:0:0:
461,278,17852,1,0,3:0:0:0:
286,336,18010,1,10,0:3:0:0:
276,314,18326,6,0,B|190:303|232:361|141:344,1,143.999995605469,2|10,3:0|0:3,0:0:0:0:
52,201,18800,1,0,3:0:0:0:
63,192,18879,1,0,0:0:0:0:
75,183,18957,2,0,L|83:264,1,71.9999978027344,2|0,0:3|3:0,0:0:0:0:
4,350,19273,2,0,L|-2:303,2,35.9999989013672,2|0|8,0:3|0:0|0:0,0:0:0:0:
177,219,19589,5,2,0:3:0:0:
177,219,19668,1,0,0:0:0:0:
177,219,19747,2,0,L|256:211,1,71.9999978027344,0|10,3:0|0:3,0:0:0:0:
353,91,20063,1,0,0:0:0:0:
338,81,20142,1,0,0:0:0:0:
324,71,20221,2,0,L|333:149,1,71.9999978027344,2|0,3:0|3:0,0:0:0:0:
435,261,20536,2,0,P|438:219|444:183,1,71.9999978027344,10|0,0:3|0:0,0:0:0:0:
305,322,20852,6,0,P|244:352|188:296,1,143.999995605469,2|10,3:0|0:3,0:0:0:0:
98,184,21326,1,0,3:0:0:0:
110,176,21405,1,0,0:0:0:0:
121,170,21484,2,0,L|116:246,1,71.9999978027344,2|0,0:3|3:0,0:0:0:0:
35,323,21800,2,0,L|-4:320,2,35.9999989013672,2|0|8,0:3|0:0|0:0,0:0:0:0:
223,253,22115,6,0,B|280:247|280:247|304:265|304:265|384:253,1,143.999995605469,2|10,0:3|0:3,0:0:0:0:
494,158,22589,1,0,0:0:0:0:
500,138,22668,1,0,0:0:0:0:
503,123,22747,2,0,L|430:134,1,71.9999978027344,8|8,0:0|0:0,0:0:0:0:
360,256,23063,1,8,0:0:0:0:
283,128,23221,5,4,3:0:0:0:
283,128,23300,1,4,3:0:0:0:
283,128,23379,2,0,P|283:61|285:7,2,120.000004577637,6|0|2,3:2|3:0|3:2,0:0:0:0:
219,191,24168,1,2,0:0:0:0:
138,152,24326,2,0,L|74:164,1,60.0000022888184,2|2,3:2|0:0,0:0:0:0:
96,261,24642,2,0,P|115:207|75:161,1,120.000004577637,2|2,3:2|3:2,0:0:0:0:
3,248,25115,2,0,L|14:311,1,60.0000022888184,2|0,0:0|3:0,0:0:0:0:
89,369,25431,2,0,L|156:357,1,60.0000022888184,2|0,0:0|3:0,0:0:0:0:
211,287,25747,1,2,0:0:0:0:
331,350,25905,6,0,P|382:354|416:291,2,120.000004577637,0|0|0,3:0|3:0|3:0,0:0:0:0:
418,205,26852,2,0,L|484:218,1,60.0000022888184,2|2,3:2|0:0,0:0:0:0:
409,109,27168,2,0,B|365:115|365:115|349:133|349:133|299:142,2,120.000004577637,0|0|0,3:0|3:0|3:0,0:0:0:0:
226,9,28115,2,0,L|239:78,1,60.0000022888184,2|2,3:2|0:0,0:0:0:0:
196,173,28431,6,0,P|137:179|103:133,1,120.000004577637,0|0,3:0|3:0,0:0:0:0:
103,135,29063,2,0,P|87:160|81:189,1,60.0000022888184,2|2,3:2|0:0,0:0:0:0:
0,226,29379,2,0,P|0:255|8:284,1,60.0000022888184,2|2,3:2|0:0,0:0:0:0:
129,364,29694,2,0,P|103:348|74:342,1,60.0000022888184,2|2,3:2|0:0,0:0:0:0:
192,291,30010,2,0,P|177:263|154:244,1,60.0000022888184,2|2,3:2|0:0,0:0:0:0:
211,383,30326,1,2,3:2:0:0:
280,326,30484,2,0,B|343:314|318:357|394:342,1,120.000004577637,2|2,0:0|0:0,0:0:0:0:
445,181,30957,6,0,P|394:195|384:270,1,120.000004577637,0|2,3:0|3:2,0:0:0:0:
512,238,31431,1,2,0:0:0:0:
512,238,31589,2,0,P|502:177|492:107,1,120.000004577637,0|0,3:0|3:0,0:0:0:0:
493,119,32221,2,0,P|436:123|391:73,1,120.000004577637,0|0,3:0|3:0,0:0:0:0:
393,82,32852,5,8,0:0:0:0:
386,106,32931,1,8,0:0:0:0:
378,130,33010,1,8,0:0:0:0:
371,154,33089,1,8,0:0:0:0:
362,178,33168,2,0,L|309:166,3,32,8|8|8|8,0:0|0:0|0:0|0:0,0:0:0:0:
303,180,33484,6,0,P|256:196|198:124,1,143.999995605469,6|8,3:2|0:0,0:0:0:0:
197,134,34115,1,2,3:2:0:0:
109,212,34273,1,10,0:0:0:0:
17,114,34431,2,0,L|93:120,1,71.9999978027344,2|8,3:2|0:0,0:0:0:0:
36,345,34747,6,0,P|27:292|-4:199,1,143.999995605469,2|10,3:2|0:0,0:0:0:0:
88,119,35221,1,2,0:0:0:0:
166,230,35379,1,0,3:0:0:0:
270,174,35536,1,10,0:0:0:0:
198,64,35694,2,0,L|187:147,1,71.9999978027344,0|10,3:0|0:0,0:0:0:0:
260,293,36010,6,0,B|343:309|306:250|402:266,1,143.999995605469,0|10,3:0|0:0,0:0:0:0:
496,337,36484,1,2,0:0:0:0:
496,337,36642,2,0,L|504:258,1,71.9999978027344,0|8,3:0|0:0,0:0:0:0:
418,181,36957,1,2,3:2:0:0:
260,293,37115,6,0,P|192:291|167:217,1,143.999995605469,10|0,0:0|0:0,0:0:0:0:
273,95,37589,1,8,0:0:0:0:
273,95,37905,2,0,L|262:174,1,71.9999978027344,2|8,3:2|0:0,0:0:0:0:
372,291,38221,2,0,L|371:216,1,71.9999978027344,2|8,3:2|0:0,0:0:0:0:
134,119,38536,6,0,B|69:110|69:110|52:91|52:91|-8:82,2,143.999995605469,2|10|0,3:2|0:0|3:0,0:0:0:0:
228,51,39326,1,8,0:0:0:0:
309,150,39484,1,2,3:2:0:0:
356,25,39642,1,8,0:0:0:0:
211,170,39800,6,0,L|213:250,1,71.9999978027344,2|0,3:2|0:0,0:0:0:0:
335,346,40115,2,0,L|266:319,1,71.9999978027344,10|0,0:0|0:0,0:0:0:0:
104,353,40431,2,0,L|172:324,1,71.9999978027344,2|8,3:2|0:0,0:0:0:0:
118,187,40747,1,2,3:2:0:0:
118,187,41063,6,0,P|48:223|-7:173,1,143.999995605469,2|8,3:2|0:0,0:0:0:0:
58,96,41536,1,0,0:0:0:0:
214,192,41694,1,0,3:0:0:0:
264,93,41852,1,8,0:0:0:0:
166,23,42010,2,0,L|171:102,1,71.9999978027344,2|8,3:2|0:0,0:0:0:0:
373,191,42326,6,0,P|412:183|450:176,1,71.9999978027344,2|0,3:2|0:0,0:0:0:0:
278,341,42642,2,0,P|317:348|355:356,1,71.9999978027344,10|0,0:0|0:0,0:0:0:0:
214,192,42957,1,0,3:0:0:0:
124,320,43115,1,8,0:0:0:0:
116,335,43194,1,8,0:0:0:0:
110,349,43273,2,0,L|72:338,3,35.9999989013672,10|8|8|8,0:0|0:0|0:0|0:0,0:0:0:0:
197,285,43589,6,0,L|308:307,1,95.9999970703126,0|0,3:2|0:0,0:0:0:0:
292,304,44221,1,0,0:0:0:0:
300,325,44536,1,0,0:0:0:0:
97,177,44852,5,2,3:2:0:0:
85,201,45168,1,0,0:0:0:0:
72,226,45484,1,0,0:0:0:0:
62,247,45800,1,0,0:0:0:0:
343,344,46115,5,2,3:2:0:0:
354,322,46431,1,0,0:0:0:0:
365,298,46747,1,0,0:0:0:0:
377,272,47063,1,0,0:0:0:0:
191,132,47379,5,2,3:2:0:0:
198,149,47694,5,2,0:3:0:0:
320,67,47852,1,2,0:3:0:0:
320,67,48642,6,0,L|313:147,1,71.9999978027344,6|0,3:2|0:0,0:0:0:0:
419,236,48957,2,0,L|458:226,3,35.9999989013672,8|0|0|0,0:0|3:0|3:0|3:0,0:0:0:0:
381,312,49273,2,0,L|420:324,3,35.9999989013672,10|0|0|0,0:0|3:0|3:0|3:0,0:0:0:0:
305,346,49589,2,0,L|332:375,1,35.9999989013672,10|0,0:0|3:0,0:0:0:0:
221,333,49747,2,0,L|229:371,1,35.9999989013672,2|0,3:2|3:0,0:0:0:0:
150,291,49905,6,0,L|138:330,3,35.9999989013672,8|0|2|0,0:0|3:0|3:2|3:0,0:0:0:0:
103,225,50221,2,0,L|73:252,3,35.9999989013672,8|0|2|0,0:0|3:0|3:2|3:0,0:0:0:0:
90,138,50536,1,8,0:0:0:0:
73,142,50615,1,0,3:0:0:0:
58,148,50694,1,0,3:0:0:0:
42,153,50773,1,0,3:0:0:0:
29,159,50852,2,0,L|43:72,1,71.9999978027344,10|0,0:3|0:0,0:0:0:0:
22,83,51168,6,0,L|10:169,1,75.9999979705811,14|0,0:0|3:0,0:0:0:0:
187,43,51484,1,2,3:2:0:0:
187,43,51642,2,0,L|99:29,1,75.9999979705811,12|2,0:0|3:2,0:0:0:0:
228,167,51957,1,0,3:0:0:0:
315,51,52115,2,0,L|404:36,1,75.9999979705811,14|0,0:0|3:0,0:0:0:0:
461,230,52431,5,2,3:2:0:0:
380,148,52589,1,12,0:0:0:0:
481,50,52747,2,0,L|498:129,1,75.9999979705811,2|0,3:2|3:0,0:0:0:0:
298,190,53063,2,0,P|259:184|222:161,1,75.9999979705811,14|0,0:0|0:0,0:0:0:0:
271,346,53379,2,0,P|303:327|341:322,1,75.9999979705811,14|0,0:0|0:0,0:0:0:0:
150,118,53694,6,0,B|121:171|153:213|153:213|133:286,1,160,14|8,0:0|0:0,0:0:0:0:
55,351,54168,1,8,0:0:0:0:
55,351,54247,1,8,0:0:0:0:
55,351,54326,1,0,3:0:0:0:
26,229,54484,1,0,3:0:0:0:
137,269,54642,1,0,3:0:0:0:
278,318,54800,1,0,3:0:0:0:
278,318,54879,1,0,3:0:0:0:
278,318,54957,6,0,B|326:307|326:307|359:310|359:310|382:300|428:297,1,143.999995605469,6|2,3:2|0:0,0:0:0:0:
419,297,56221,6,0,B|484:287|492:220|492:220|458:169,1,160,6|8,3:2|0:0,0:0:0:0:
404,83,56694,1,0,0:0:0:0:
308,196,56852,2,0,L|220:180,1,80,2|0,3:2|0:0,0:0:0:0:
120,309,57168,2,0,L|217:288,1,80,10|0,0:0|0:0,0:0:0:0:
0,157,57484,6,0,P|11:215|22:324,2,160,2|10|2,3:2|0:0|3:2,0:0:0:0:
124,188,58273,1,0,3:0:0:0:
175,63,58431,2,0,L|87:75,1,80,10|0,0:0|0:0,0:0:0:0:
256,189,58747,6,0,L|389:165,1,120,2|0,3:2|0:0,0:0:0:0:
387,156,59063,2,0,P|384:110|369:74,1,80,10|0,0:0|0:0,0:0:0:0:
488,239,59379,2,0,P|493:194|515:158,1,80,2|0,3:2|0:0,0:0:0:0:
354,304,59694,6,0,P|290:259|218:284,2,160,10|0|8,0:0|3:0|0:0,0:0:0:0:
277,352,60484,1,0,0:0:0:0:
208,185,60642,1,2,3:2:0:0:
208,185,60800,1,0,3:0:0:0:
390,193,60957,6,0,L|480:175,1,71.9999978027344,10|0,0:0|0:0,0:0:0:0:
463,162,61273,6,0,B|386:176|386:176|378:184|378:184|303:198,1,160,6|8,3:2|0:0,0:0:0:0:
199,275,61747,1,0,0:0:0:0:
116,143,61905,2,0,P|122:100|126:63,1,80,2|0,3:2|0:0,0:0:0:0:
231,25,62221,2,0,P|225:68|221:105,1,80,10|0,0:0|0:0,0:0:0:0:
100,238,62536,6,0,B|26:238|16:173|16:173|28:118,2,160,2|10|2,3:2|0:0|3:2,0:0:0:0:
192,183,63326,1,0,3:0:0:0:
284,323,63484,2,0,L|195:334,1,80,10|0,0:0|0:0,0:0:0:0:
286,223,63800,6,0,B|341:231|341:231|365:272|365:272|426:281,1,160,2|10,3:2|0:0,0:0:0:0:
512,238,64273,1,0,0:0:0:0:
449,74,64431,2,0,B|437:128|382:145|382:145|411:162|422:200,1,160,2|8,3:2|0:0,0:0:0:0:
512,140,64905,1,0,0:0:0:0:
353,50,65063,5,2,3:2:0:0:
249,147,65221,1,0,3:0:0:0:
164,36,65379,2,0,L|261:26,1,80,8|0,0:0|0:0,0:0:0:0:
338,230,65694,2,0,L|280:220,3,40,10|8|8|8,0:0|0:0|0:0|0:0,0:0:0:0:
234,286,66010,2,0,L|176:274,3,40,10|8|8|8,0:0|0:0|0:0|0:0,0:0:0:0:
128,345,66326,6,0,B|98:365|53:352|53:352|25:317|44:272,1,160,6|8,3:2|0:0,0:0:0:0:
107,185,66800,1,0,0:0:0:0:
0,73,66957,2,0,P|9:114|16:158,1,80,2|0,3:2|0:0,0:0:0:0:
189,145,67273,2,0,P|191:106|196:66,1,80,10|0,0:0|0:0,0:0:0:0:
290,205,67589,6,0,B|386:215|342:148|440:157,2,160,2|10|2,3:2|0:0|3:2,0:0:0:0:
189,145,68379,1,0,3:0:0:0:
276,24,68536,2,0,L|295:117,1,80,10|0,0:0|0:0,0:0:0:0:
167,246,68852,6,0,P|111:237|46:231,1,120,2|0,3:2|0:0,0:0:0:0:
39,209,69168,2,0,P|37:169|19:133,1,80,10|0,0:0|0:0,0:0:0:0:
189,145,69484,2,0,P|207:109|209:70,1,80,2|0,3:2|0:0,0:0:0:0:
306,251,69800,6,0,P|371:254|417:173,2,160,10|0|8,0:0|3:0|0:0,0:0:0:0:
333,165,70589,1,0,0:0:0:0:
482,277,70747,1,2,3:2:0:0:
482,277,70905,1,0,3:0:0:0:
367,370,71063,6,0,L|285:363,1,71.9999978027344,10|0,0:0|0:0,0:0:0:0:
293,345,71379,6,0,L|379:353,1,80,6|0,3:2|0:0,0:0:0:0:
209,249,71694,2,0,L|123:257,1,80,10|0,0:0|0:0,0:0:0:0:
296,151,72010,2,0,L|382:159,1,80,0|0,3:0|0:0,0:0:0:0:
241,13,72326,2,0,P|197:39|198:126,1,120,10|0,0:0|0:0,0:0:0:0:
189,124,72642,6,0,P|144:116|107:108,1,80,2|0,3:2|0:0,0:0:0:0:
15,272,72957,2,0,P|60:264|97:256,1,80,10|0,0:0|0:0,0:0:0:0:
0,145,73273,1,2,3:2:0:0:
0,145,73431,1,0,3:0:0:0:
94,257,73589,6,0,B|157:242|157:242|189:252|189:252|256:239,2,160,10|0|8,0:0|3:0|0:0,0:0:0:0:
282,15,74536,2,0,L|296:110,1,80,0|0,3:0|0:0,0:0:0:0:
446,246,74852,6,0,L|453:160,1,83.9999974365235,8|0,0:0|0:0,0:0:0:0:
472,162,75168,6,0,P|433:208|349:161,1,160,0|8,3:0|0:0,0:0:0:0:
403,76,75642,1,0,0:0:0:0:
215,108,75800,2,0,P|256:103|303:91,1,80,2|0,3:2|3:0,0:0:0:0:
166,224,76115,2,0,P|127:214|87:209,1,80,10|0,0:0|0:0,0:0:0:0:
248,368,76431,6,0,P|253:310|272:197,2,160,6|10|2,3:2|0:0|3:2,0:0:0:0:
348,284,77221,1,0,0:0:0:0:
165,331,77379,2,0,P|127:322|74:318,1,80,10|0,0:0|0:0,0:0:0:0:
9,119,77694,6,0,P|60:145|69:202,1,120,2|0,3:2|0:0,0:0:0:0:
53,219,78010,2,0,P|81:191|123:184,1,80,10|0,0:0|0:0,0:0:0:0:
118,25,78326,2,0,P|154:41|175:77,1,80,2|0,3:2|3:0,0:0:0:0:
313,0,78642,2,0,P|316:39|296:76,1,80,10|0,0:0|0:0,0:0:0:0:
200,202,78957,6,0,B|256:187|256:187|282:198|282:198|356:178,1,160,6|8,3:2|0:0,0:0:0:0:
403,265,79431,1,0,0:0:0:0:
475,188,79589,1,0,3:0:0:0:
408,89,79747,1,0,3:0:0:0:
506,22,79905,2,0,P|503:62|502:101,1,80,8|0,0:0|0:0,0:0:0:0:
297,74,80221,6,0,P|257:65|215:57,1,80,0|0,3:2|0:0,0:0:0:0:
73,205,80536,2,0,P|129:193|141:130,1,120,8|0,0:0|0:0,0:0:0:0:
162,123,80852,2,0,L|176:208,1,80,2|0,3:2|3:0,0:0:0:0:
318,267,81168,2,0,P|323:225|342:194,1,80,10|0,0:0|0:0,0:0:0:0:
131,322,81484,6,0,P|98:307|62:307,1,71.9999978027344,6|0,3:2|0:0,0:0:0:0:
202,266,81800,2,0,P|194:231|174:201,1,71.9999978027344,10|0,0:0|0:0,0:0:0:0:
55,79,82115,6,0,P|94:84|132:72,1,75.9999979705811,2|0,3:2|0:0,0:0:0:0:
2,159,82431,2,0,P|25:190|60:209,1,75.9999979705811,10|0,0:0|0:0,0:0:0:0:
340,99,82747,6,0,P|311:131|303:178,1,80,2|0,3:2|0:0,0:0:0:0:
288,15,83063,2,0,P|244:17|205:44,1,80,10|0,0:0|0:0,0:0:0:0:
186,329,83379,6,0,P|181:287|158:253,1,83.9999974365235,2|0,3:2|3:0,0:0:0:0:
301,362,83694,2,0,P|327:329|334:288,1,83.9999974365235,10|0,0:0|0:0,0:0:0:0:
116,108,84010,5,14,3:2:0:0:
116,108,84326,1,0,3:0:0:0:
217,145,84484,1,0,3:0:0:0:
288,15,84642,2,0,L|297:94,1,80,8|8,0:0|0:0,0:0:0:0:
330,224,84957,1,8,0:0:0:0:
422,105,85115,1,8,0:0:0:0:
445,306,85273,2,0,L|463:221,1,80,8|8,0:0|0:0,0:0:0:0:
237,166,85589,1,8,0:0:0:0:
326,331,85747,1,8,0:0:0:0:
209,355,85905,6,0,B|177:349|152:342|152:342|134:352|134:352|74:342,1,128,2|2,0:0|0:0,0:0:0:0:
256,192,86615,12,0,89063,0:0:0:0:
