osu file format v14

[General]
AudioFilename: audio.mp3
AudioLeadIn: 0
PreviewTime: 56057
Countdown: 0
SampleSet: Soft
StackLeniency: 0.4
Mode: 0
LetterboxInBreaks: 0
WidescreenStoryboard: 1

[Editor]
Bookmarks: 13978,24084,44294,49347,57557,89135,109188
DistanceSpacing: 0.95
BeatDivisor: 4
GridSize: 32
TimelineZoom: 0.8

[Metadata]
Title:Polaris (Cut Ver.)
TitleUnicode:Polaris (Cut Ver.)
Artist:BLUE ENCOUNT
ArtistUnicode:BLUE ENCOUNT
Creator:Irohas
Version:Normal
Source:僕のヒーローアカデミア
Tags:mugiwarasekai djulus kudosu soop so0p fuyuyu- mamayu kanau silky kalibe japanese rock j-rock jrock mha bnha my hero opening boku no hero academia season 4
BeatmapID:2642743
BeatmapSetID:1251736

[Difficulty]
HPDrainRate:4
CircleSize:3.5
OverallDifficulty:5
ApproachRate:5
SliderMultiplier:1.05
SliderTickRate:1

[Events]
//Background and Video events
0,0,"BG.jpg",0,0
//Break Periods
2,44494,48147
//Storyboard Layer 0 (Background)
//Storyboard Layer 1 (Fail)
//Storyboard Layer 2 (Pass)
//Storyboard Layer 3 (Foreground)
//Storyboard Layer 4 (Overlay)
//Storyboard Sound Samples

[TimingPoints]
84,315.789473684211,4,2,1,40,1,0
1347,-100,4,2,1,40,0,0
3557,-100,4,2,1,40,0,0
5294,-100,4,2,1,40,0,0
8926,-100,4,2,1,60,0,0
13978,-100,4,2,17,80,0,0
14136,-100,4,2,1,60,0,0
24084,-100,4,2,1,50,0,0
33557,-100,4,2,1,60,0,0
34505,-100,4,2,1,60,0,0
44294,-100,4,2,1,45,0,0
48715,-100,4,2,1,45,0,0
49347,-100,4,2,1,65,0,0
49662,-100,4,2,1,65,0,0
56294,-100,4,2,1,45,0,0
56926,-100,4,2,1,45,0,0
57399,-100,4,2,1,55,0,0
57557,315.789473684211,4,2,17,80,1,1
57557,-100,4,2,17,80,0,1
57714,-100,4,2,1,70,0,0
67030,-100,4,2,1,70,0,0
67346,-100,4,2,1,70,0,0
67662,-100,4,2,17,80,0,1
67820,-100,4,2,1,70,0,0
87241,-100,4,2,1,35,0,0
89057,-100,4,2,1,5,0,0
89135,-100,4,2,17,80,0,0
89293,-100,4,2,1,60,0,0
91346,-100,4,2,1,60,0,0
91425,-100,4,2,1,5,0,0
91662,-100,4,2,1,60,0,0
95925,-100,4,2,1,60,0,0
96714,-100,4,2,1,60,0,0
98609,-100,4,2,1,60,0,0
98925,-100,4,2,1,60,0,0
99241,-100,4,2,17,80,0,0
99557,-100,4,2,1,60,0,0
101135,-100,4,2,1,60,0,0
101767,-100,4,2,1,60,0,0
103504,-100,4,2,1,60,0,0
103662,-100,4,2,1,60,0,0
104293,-100,4,2,1,60,0,0
106820,-100,4,2,1,60,0,0
107293,-100,4,2,1,60,0,0
108083,-100,4,2,1,60,0,0

[Colours]
Combo1 : 253,200,214
Combo2 : 231,208,255
Combo3 : 193,224,255
Combo4 : 249,238,179
Combo5 : 171,235,227

[HitObjects]
393,173,1347,6,0,L|375:64,2,105,2|2|2,1:2|0:3|0:0,0:0:0:0:
466,240,2294,1,2,0:3:0:0:
387,301,2610,2,0,L|272:287,1,105,2|2,0:0|0:3,0:0:0:0:
200,231,3241,2,0,L|85:245,1,105,2|2,0:0|0:3,0:0:0:0:
23,177,3873,6,0,P|12:133|70:40,1,157.5,2|2,0:0|0:1,0:0:0:0:
160,74,4662,2,0,L|317:51,1,157.5,2|2,0:1|0:0,0:0:0:0:
340,39,5294,1,2,0:1:0:0:
465,120,5768,2,0,L|446:223,1,105,2|2,0:0|0:3,0:0:0:0:
458,322,6399,6,0,P|414:297|352:303,1,105,2|2,1:2|0:3,0:0:0:0:
269,257,7031,2,0,L|152:275,1,105,2|2,0:0|0:3,0:0:0:0:
83,218,7662,2,0,P|40:212|-7:303,1,157.5,2|2,0:0|0:1,0:0:0:0:
5,322,8294,1,0,3:0:0:0:
184,179,8926,6,0,B|171:116|171:116|173:107|173:107|155:15,2,157.5,8|8|8,0:0|0:0|0:0,0:0:0:0:
263,247,10189,1,0,3:0:0:0:
263,247,10347,2,0,P|323:258|394:194,1,157.5,8|8,0:0|0:0,0:0:0:0:
355,106,11136,1,12,0:0:0:0:
446,65,11452,6,8,P|408:58|277:35,1,157.5,12|8,0:0|0:0,0:0:0:0:
205,85,12241,1,0,3:0:0:0:
205,85,12399,2,0,P|151:89|103:124,1,105,12|12,0:0|0:0,0:0:0:0:
85,105,12873,2,0,L|71:46,2,52.5,8|0|12,0:3|3:0|0:0,0:0:0:0:
0,244,13978,6,0,L|106:226,1,105,8|8,0:3|0:0,0:0:0:0:
126,214,14452,2,0,P|120:255|109:326,1,105,2|2,0:3|0:3,0:0:0:0:
104,344,14926,1,0,3:0:0:0:
193,383,15241,2,0,P|240:366|307:382,1,105,2|8,0:3|0:0,0:0:0:0:
374,315,15873,2,0,L|364:252,1,52.5,2|8,3:1|0:3,0:0:0:0:
361,237,16189,1,12,0:0:0:0:
421,157,16505,6,0,L|299:142,1,105,6|8,0:1|0:0,0:0:0:0:
301,123,16978,2,0,P|261:110|196:129,1,105,2|2,0:3|0:3,0:0:0:0:
183,144,17452,1,0,3:0:0:0:
98,91,17768,2,0,L|116:202,1,105,2|8,0:3|0:0,0:0:0:0:
50,271,18399,2,0,L|-4:262,2,52.5,2|8|12,3:1|0:3|0:0,0:0:0:0:
133,325,19031,6,0,P|184:330|231:300,1,105,6|8,0:1|0:0,0:0:0:0:
254,294,19505,2,0,L|373:314,1,105,2|2,0:3|0:3,0:0:0:0:
379,328,19978,1,0,3:0:0:0:
462,273,20294,2,0,P|476:239|459:171,1,105,2|8,0:3|0:0,0:0:0:0:
390,103,20926,2,0,L|401:52,1,52.5,2|8,3:1|0:3,0:0:0:0:
382,34,21241,1,12,0:0:0:0:
290,70,21557,6,0,L|182:57,1,105,6|8,0:1|0:0,0:0:0:0:
163,71,22031,2,0,P|169:112|180:183,1,105,2|2,0:3|0:3,0:0:0:0:
180,201,22505,1,0,3:0:0:0:
90,245,22820,2,0,P|69:297|88:355,1,105,6|8,0:1|0:0,0:0:0:0:
174,376,23452,2,8,L|234:369,1,52.5,8|8,1:3|0:3,0:0:0:0:
252,380,23768,2,8,L|312:373,1,52.5,8|8,0:0|0:0,0:0:0:0:
331,379,24084,6,0,P|339:330|349:269,1,105,4|0,3:2|3:0,0:0:0:0:
428,215,24715,2,0,P|420:166|410:105,1,105,2|0,3:2|3:0,0:0:0:0:
476,35,25347,2,0,P|414:48|373:17,1,105,0|0,3:2|3:0,0:0:0:0:
359,14,25820,2,0,L|248:34,1,105,2|2,0:3|0:3,0:0:0:0:
175,91,26452,5,0,0:0:0:0:
175,91,26610,2,0,P|135:86|52:76,2,105,0|0|2,3:2|3:0|3:2,0:0:0:0:
261,150,27557,1,0,3:0:0:0:
261,150,27715,2,0,B|332:153|333:103|421:119,1,157.5,2|0,0:3|3:0,0:0:0:0:
494,174,28505,1,2,3:2:0:0:
437,255,28820,2,0,L|445:315,1,52.5,0|0,3:0|0:0,0:0:0:0:
427,329,29136,6,0,L|311:316,1,105,0|0,3:2|3:0,0:0:0:0:
242,256,29768,1,2,3:2:0:0:
154,303,30084,1,0,3:0:0:0:
59,273,30399,1,0,3:2:0:0:
15,183,30715,1,0,3:0:0:0:
54,91,31031,1,2,3:2:0:0:
54,91,31189,2,0,P|100:83|169:72,1,105,2|0,0:3|0:0,0:0:0:0:
175,93,31662,6,0,P|224:106|283:85,1,105,0|0,3:2|3:0,0:0:0:0:
357,146,32294,2,0,P|347:205|338:255,1,105,2|0,3:2|3:0,0:0:0:0:
408,321,32926,1,0,3:0:0:0:
330,383,33241,1,0,3:0:0:0:
248,325,33557,2,8,L|189:316,1,52.5,8|8,0:0|0:0,0:0:0:0:
176,336,33873,2,8,L|117:327,1,52.5,8|8,0:0|0:0,0:0:0:0:
100,341,34189,6,0,P|92:296|79:216,1,105,6|8,0:0|0:0,0:0:0:0:
4,165,34820,1,0,3:0:0:0:
4,165,34978,2,8,L|111:144,1,105,8|8,0:0|0:0,0:0:0:0:
128,161,35452,2,0,P|180:142|232:153,1,105,0|8,3:0|0:0,0:0:0:0:
314,100,36084,2,0,L|326:41,2,52.5,2|0|8,0:1|3:3|0:3,0:0:0:0:
395,157,36715,6,0,P|438:151|511:141,1,105,8|8,0:3|0:0,0:0:0:0:
474,239,37347,1,0,3:0:0:0:
474,239,37505,2,0,P|466:284|453:364,1,105,8|8,0:0|0:0,0:0:0:0:
448,367,37978,2,0,P|396:377|349:355,1,105,8|8,0:3|0:0,0:0:0:0:
267,299,38610,2,0,P|214:294|169:321,1,105,2|8,0:1|0:3,0:0:0:0:
83,364,39241,6,0,L|-22:347,2,105,8|8|0,0:3|0:0|3:0,0:0:0:0:
170,320,40189,1,0,3:0:0:0:
110,239,40505,2,0,P|97:190|114:137,1,105,8|8,0:3|0:0,0:0:0:0:
206,106,41136,2,0,P|258:112|310:119,1,105,2|8,0:1|0:3,0:0:0:0:
393,174,41768,6,0,P|438:175|475:128,2,105,8|8|0,0:3|0:0|3:3,0:0:0:0:
321,243,42715,2,0,L|329:303,1,52.5,0|8,3:0|0:0,0:0:0:0:
313,317,43031,2,0,L|198:340,1,105,2|8,3:2|0:0,0:0:0:0:
119,379,43662,1,2,3:1:0:0:
115,383,43820,2,8,L|60:375,2,52.5,8|8|8,0:3|0:0|0:0,0:0:0:0:
137,368,44294,5,4,0:0:0:0:
256,192,49347,12,2,51084,0:0:0:0:
386,236,51873,6,0,P|381:207|359:72,2,157.5,12|12|12,0:0|0:0|0:0,0:0:0:0:
325,316,53136,1,0,3:0:0:0:
325,316,53294,2,0,B|271:299|271:299|227:340|169:323,1,157.5,12|12,0:0|0:0,0:0:0:0:
95,382,54084,1,12,0:0:0:0:
16,320,54399,6,0,B|-64:157|56:22|184:58|179:182|100:196,1,420,12|4,0:0|0:1,0:0:0:0:
116,190,56294,2,0,P|192:116|299:128,1,210,2|2,0:0|0:3,0:0:0:0:
481,66,57557,6,0,P|421:73|381:54,1,105,14|8,3:0|0:0,0:0:0:0:
289,17,58188,2,0,L|304:121,1,105,0|8,3:0|0:0,0:0:0:0:
235,194,58820,1,8,0:3:0:0:
309,259,59135,1,8,0:0:0:0:
222,307,59451,2,0,L|116:294,1,105,0|8,3:3|0:0,0:0:0:0:
50,220,60083,6,0,P|36:162|23:104,2,105,8|8|0,0:3|0:0|3:3,0:0:0:0:
117,294,61030,1,8,0:0:0:0:
39,356,61346,2,0,L|-19:348,2,52.5,8|0|8,0:3|3:1|0:0,0:0:0:0:
117,294,61978,2,0,P|164:279|222:296,1,105,0|8,3:3|0:0,0:0:0:0:
295,358,62609,6,0,P|334:352|411:341,1,105,4|8,0:0|0:0,0:0:0:0:
452,257,63241,2,0,P|400:249|348:241,1,105,0|8,3:0|0:0,0:0:0:0:
268,181,63872,1,8,0:3:0:0:
173,211,64188,1,8,0:0:0:0:
78,243,64504,1,0,3:3:0:0:
13,167,64820,2,0,P|17:129|26:105,1,52.5,8|0,0:0|0:0,0:0:0:0:
6,93,65135,6,0,P|56:103|104:71,1,105,8|8,3:0|0:0,0:0:0:0:
188,28,65767,2,0,P|242:36|295:44,1,105,0|8,3:0|0:0,0:0:0:0:
390,60,66399,2,8,L|401:2,2,52.5,8|0|8,0:3|0:1|0:0,0:0:0:0:
321,132,67030,2,8,L|329:197,1,52.5,8|2,0:3|3:2,0:0:0:0:
346,202,67346,2,8,L|338:267,1,52.5,8|2,0:0|0:2,0:0:0:0:
356,275,67662,6,0,P|403:282|444:241,2,105,8|8|0,0:3|0:0|3:0,0:0:0:0:
271,328,68609,1,8,0:0:0:0:
209,249,68925,2,0,P|216:198|227:138,2,105,8|8|0,0:3|0:0|3:0,0:0:0:0:
271,328,69872,1,8,0:0:0:0:
363,364,70188,6,0,L|485:346,1,105,8|8,0:3|0:0,0:0:0:0:
489,250,70820,2,0,L|374:268,1,105,0|8,3:3|0:0,0:0:0:0:
295,222,71451,1,8,0:3:0:0:
356,143,71767,1,8,0:0:0:0:
291,66,72083,2,0,L|301:9,2,52.5,8|0|8,0:3|3:1|0:0,0:0:0:0:
212,128,72714,6,0,P|160:142|111:126,1,105,0|8,3:0|0:0,0:0:0:0:
17,94,73346,2,0,L|32:208,1,105,0|8,3:0|0:0,0:0:0:0:
88,279,73978,2,0,P|105:331|91:388,2,105,8|8|0,0:3|0:0|3:3,0:0:0:0:
30,198,74925,1,8,0:0:0:0:
116,149,75241,6,0,P|167:156|220:163,1,105,8|8,3:0|0:0,0:0:0:0:
290,233,75872,2,0,P|342:241|393:219,1,105,0|8,3:0|0:0,0:0:0:0:
438,134,76504,2,8,L|427:76,2,52.5,8|2|8,0:3|0:3|0:0,0:0:0:0:
389,221,77135,1,0,3:0:0:0:
470,279,77451,1,8,0:0:0:0:
400,351,77767,6,0,P|349:345|284:337,1,105,4|8,0:0|0:0,0:0:0:0:
239,255,78399,2,0,P|245:215|258:147,1,105,0|8,3:0|0:0,0:0:0:0:
185,82,79030,1,8,0:3:0:0:
97,130,79346,1,8,0:0:0:0:
30,56,79662,2,8,L|41:-2,2,52.5,0|0|8,3:3|3:0|0:0,0:0:0:0:
97,130,80293,6,0,L|114:246,1,105,4|8,0:0|0:0,0:0:0:0:
71,325,80925,2,0,P|118:313|170:345,1,105,8|8,0:3|0:0,0:0:0:0:
264,371,81557,1,8,0:3:0:0:
264,371,81714,2,0,L|375:353,1,105,2|2,3:0|0:0,0:0:0:0:
392,367,82188,2,0,L|410:248,1,105,8|8,0:3|0:0,0:0:0:0:
500,225,82820,6,0,P|512:172|495:120,1,105,4|8,0:0|0:0,0:0:0:0:
416,66,83451,2,0,L|307:78,1,105,0|8,3:0|0:0,0:0:0:0:
220,35,84083,1,8,0:3:0:0:
121,19,84399,1,8,0:0:0:0:
32,65,84714,1,0,3:3:0:0:
0,157,85030,1,8,0:0:0:0:
46,245,85346,5,8,0:0:0:0:
256,192,85504,12,2,87241,0:0:0:0:
510,275,89135,6,0,P|465:254|406:261,1,105,8|8,0:3|0:0,0:0:0:0:
386,247,89609,1,2,0:3:0:0:
389,243,89767,2,0,L|376:184,2,52.5,0|2|0,3:0|0:3|3:0,0:0:0:0:
307,301,90399,2,0,L|196:290,1,105,2|8,0:3|0:0,0:0:0:0:
111,332,91030,2,0,L|102:280,1,52.5,2|8,3:1|0:3,0:0:0:0:
99,255,91345,1,12,0:0:0:0:
44,171,91662,6,0,P|98:164|151:157,1,105,6|8,0:1|0:0,0:0:0:0:
170,142,92135,1,2,0:3:0:0:
167,138,92293,2,0,L|180:79,2,52.5,0|2|0,3:0|0:3|3:0,0:0:0:0:
252,190,92925,2,0,P|300:174|354:186,1,105,2|8,0:3|0:0,0:0:0:0:
433,243,93557,2,0,L|496:232,2,52.5,2|8|12,3:1|0:3|0:0,0:0:0:0:
350,299,94188,6,0,L|241:289,1,105,6|8,0:1|0:0,0:0:0:0:
225,307,94662,1,2,0:3:0:0:
222,311,94820,2,0,L|230:371,2,52.5,0|2|0,3:0|0:3|3:0,0:0:0:0:
149,242,95451,2,0,P|136:192|152:138,1,105,2|8,0:3|0:0,0:0:0:0:
221,72,96083,2,0,L|210:21,2,52.5,2|8|12,3:1|0:3|0:0,0:0:0:0:
313,109,96714,6,0,P|361:118|408:90,1,105,6|8,0:1|0:0,0:0:0:0:
490,147,97346,2,0,P|483:194|473:261,1,105,0|0,3:0|3:0,0:0:0:0:
409,326,97978,1,6,0:1:0:0:
320,280,98293,1,8,0:0:0:0:
232,327,98609,2,8,L|172:320,1,52.5,8|8,1:3|0:3,0:0:0:0:
154,331,98925,2,8,L|94:324,1,52.5,8|8,0:0|0:0,0:0:0:0:
78,312,99241,6,0,P|64:250|78:208,1,105,8|8,3:3|0:0,0:0:0:0:
93,194,99714,2,0,L|76:81,1,105,2|2,0:3|0:3,0:0:0:0:
67,67,100188,1,0,3:0:0:0:
161,34,100504,2,0,P|205:48|272:24,1,105,2|8,0:3|0:0,0:0:0:0:
353,69,101135,2,0,L|361:17,2,52.5,2|8|12,3:1|0:3|0:0,0:0:0:0:
426,136,101767,6,0,L|409:252,1,105,6|8,0:1|0:0,0:0:0:0:
395,262,102241,2,0,P|346:278|293:264,1,105,2|2,0:3|0:3,0:0:0:0:
271,255,102714,1,0,3:0:0:0:
183,207,103030,2,0,L|71:219,1,105,2|8,0:3|0:0,0:0:0:0:
16,139,103662,2,0,L|6:77,2,52.5,2|0|12,3:1|0:0|0:0,0:0:0:0:
78,218,104293,6,0,L|61:334,1,105,6|8,0:1|0:0,0:0:0:0:
64,349,104767,2,0,P|110:334|166:347,1,105,2|2,0:3|0:3,0:0:0:0:
187,360,105241,1,0,3:0:0:0:
276,316,105556,2,0,L|385:302,1,105,2|8,0:3|0:0,0:0:0:0:
455,368,106188,2,0,L|523:378,2,52.5,2|8|12,3:1|0:3|0:0,0:0:0:0:
380,302,106820,6,0,P|389:247|398:193,1,105,6|8,0:1|0:0,0:0:0:0:
322,132,107451,2,0,P|265:141|214:149,1,105,0|12,3:0|0:0,0:0:0:0:
139,85,108083,6,8,L|151:11,2,70,8|8|8,0:0|0:0|0:0,0:0:0:0:
88,127,108714,2,8,L|100:206,2,78.75,8|8|12,0:0|0:0|0:0,0:0:0:0:
