osu file format v14

[General]
AudioFilename: audio.mp3
AudioLeadIn: 0
PreviewTime: 121416
Countdown: 0
SampleSet: Soft
StackLeniency: 0.7
Mode: 0
LetterboxInBreaks: 0
WidescreenStoryboard: 0

[Editor]
Bookmarks: 11509,22724,31696,45154,49080,63098,72070,81042,92257,101229,110201,116930,123659,132631,141603,150575,161790,170762
DistanceSpacing: 0.8
BeatDivisor: 4
GridSize: 4
TimelineZoom: 3.199999

[Metadata]
Title:HOPE
TitleUnicode:HOPE
Artist:BLUE ENCOUNT
ArtistUnicode:BLUE ENCOUNT
Creator:dorsalplum
Version:FAITH
Source:
Tags:cris- collaberation elcheer kowari synderes frostwich reform kujinn mobile suit gundam iron-blooded orphans 機動戦士ガンダム 鉄血のオルフェンズ mikazuki augus orga itsuka
BeatmapID:1975201
BeatmapSetID:945939

[Difficulty]
HPDrainRate:6
CircleSize:4
OverallDifficulty:9.3
ApproachRate:9.8
SliderMultiplier:1.9
SliderTickRate:1

[Events]
//Background and Video events
0,0,"thumb-1920-932960.jpg",0,0
//Break Periods
//Storyboard Layer 0 (Background)
//Storyboard Layer 1 (Fail)
//Storyboard Layer 2 (Pass)
//Storyboard Layer 3 (Foreground)
//Storyboard Layer 4 (Overlay)
//Storyboard Sound Samples

[TimingPoints]
295,280.373831775701,4,2,1,80,1,0
4780,-83.3333333333333,4,2,1,80,0,0
5061,-95.2380952380952,4,2,1,80,0,0
13752,-181.818181818182,4,2,1,70,0,0
14033,-95.2380952380952,4,2,1,40,0,0
14383,-95.2380952380952,4,2,1,45,0,0
14874,-95.2380952380952,4,2,1,50,0,0
15435,-95.2380952380952,4,2,1,55,0,0
15715,-95.2380952380952,4,2,1,60,0,0
15995,-95.2380952380952,4,2,1,65,0,0
16276,-95.2380952380952,4,2,1,70,0,0
16556,-95.2380952380952,4,2,1,75,0,0
16837,-95.2380952380952,4,2,1,80,0,0
18238,-90.9090909090909,4,2,1,80,0,0
22724,-90.9090909090909,4,2,1,70,0,0
27210,-90.9090909090909,4,2,1,80,0,0
31136,-100,4,2,1,60,0,0
38425,-100,4,2,1,70,0,0
42911,-76.9230769230769,4,2,1,80,0,0
42981,-76.9230769230769,4,2,1,80,0,0
43192,-76.9230769230769,4,2,1,80,0,0
43262,-76.9230769230769,4,2,1,80,0,0
43472,-76.9230769230769,4,2,1,80,0,0
43542,-76.9230769230769,4,2,1,80,0,0
43752,-76.9230769230769,4,2,1,80,0,0
43823,-76.9230769230769,4,2,1,80,0,0
44033,-90.9090909090909,4,2,1,50,0,0
44173,-90.9090909090909,4,2,1,50,0,0
44453,-90.9090909090909,4,2,1,50,0,0
44594,-86.9565217391304,4,2,1,50,0,0
44734,-86.9565217391304,4,2,1,50,0,0
45014,-86.9565217391304,4,2,1,50,0,0
45154,-90.9090909090909,4,2,1,90,0,1
45575,-90.9090909090909,4,2,1,90,0,1
63098,-95.2380952380952,4,2,1,70,0,0
66743,-95.2380952380952,4,2,1,80,0,0
67584,-95.2380952380952,4,2,1,70,0,0
74594,-95.2380952380952,4,2,1,80,0,0
76556,-95.2380952380952,4,2,1,70,0,0
81042,-90.9090909090909,4,2,1,80,0,0
91696,-90.9090909090909,4,2,1,70,0,0
91977,-133.333333333333,4,2,1,60,0,0
96182,-400,4,2,1,60,0,0
96603,-400,4,2,1,70,0,0
98986,-90.9090909090909,4,2,1,80,0,0
101229,-71.4285714285714,4,2,1,85,0,0
101509,-80,4,2,1,85,0,0
105154,-86.9565217391304,4,2,1,85,0,0
106837,-80,4,2,1,90,0,0
110201,-117.647058823529,4,2,1,70,0,0
116930,-117.647058823529,4,2,1,80,0,0
119594,-111.111111111111,4,2,1,80,0,0
120855,-111.111111111111,4,2,1,90,0,0
121556,-111.111111111111,4,2,1,50,0,0
122397,-111.111111111111,4,2,1,50,0,0
122537,-125,4,2,1,60,0,0
122678,-125,4,2,1,60,0,0
123519,-125,4,2,1,60,0,0
123659,-86.9565217391304,4,2,1,90,0,1
128145,-86.9565217391304,4,2,1,90,0,1
141603,-86.9565217391304,4,2,1,85,0,0
150575,-95.2380952380952,4,2,1,75,0,0
161790,-95.2380952380952,4,2,1,80,0,0
170692,-95.2380952380952,4,2,1,80,0,0

[Colours]
Combo1 : 73,73,73
Combo2 : 255,155,106
Combo3 : 255,100,112
Combo4 : 218,192,92

[HitObjects]
387,249,295,5,0,3:2:0:0:
441,334,435,1,0,0:2:0:0:
346,334,575,2,0,P|312:303|297:216,1,95,0|0,3:2|0:2,0:0:0:0:
406,159,855,2,0,P|407:204|357:276,1,95,0|0,3:2|0:2,0:0:0:0:
344,88,1136,1,0,3:2:0:0:
462,78,1276,1,0,0:2:0:0:
399,9,1416,6,0,P|345:-4|280:18,1,95,0|0,3:2|0:2,0:0:0:0:
269,141,1696,2,0,P|312:123|344:88,1,95,0|0,3:2|0:2,0:0:0:0:
218,71,1977,1,0,3:2:0:0:
177,155,2117,1,0,0:2:0:0:
238,232,2257,2,0,P|293:244|344:223,1,95,0|0,3:2|0:2,0:0:0:0:
177,155,2537,6,0,P|153:189|150:259,1,95,0|0,3:2|0:2,0:0:0:0:
240,334,2818,1,0,3:2:0:0:
238,232,2958,1,0,0:2:0:0:
150,372,3098,2,0,L|46:373,1,95,0|0,3:2|0:2,0:0:0:0:
50,241,3379,2,0,L|157:240,1,95,0|0,3:2|0:2,0:0:0:0:
428,367,3659,6,0,P|432:318|405:247,1,95,4|0,1:3|0:2,0:0:0:0:
238,232,3939,2,0,P|234:281|261:352,1,95,4|0,1:3|0:2,0:0:0:0:
433,191,4220,1,8,0:2:0:0:
439,143,4290,1,8,0:2:0:0:
444,96,4360,1,8,0:2:0:0:
450,49,4430,1,8,0:2:0:0:
455,2,4500,1,8,0:2:0:0:
354,151,4780,6,0,L|341:264,1,113.999996520996,0|0,3:2|1:2,0:0:0:0:
256,20,5061,1,8,0:2:0:0:
159,160,5201,2,0,L|259:153,1,99.7499969558717,0|0,1:2|3:2,0:0:0:0:
356,27,5482,2,0,L|243:19,1,99.7499969558717,0|8,1:2|0:2,0:0:0:0:
81,97,5762,2,0,P|63:62|81:-27,1,99.7499969558717,0|0,1:2|3:2,0:0:0:0:
174,38,6042,5,0,1:2:0:0:
10,184,6182,1,8,0:2:0:0:
217,257,6322,1,0,1:2:0:0:
81,97,6463,1,0,3:2:0:0:
115,217,6603,5,0,1:2:0:0:
174,38,6743,1,8,0:2:0:0:
217,257,6883,1,0,1:2:0:0:
364,61,7023,6,0,P|300:66|250:100,1,99.7499969558717,0|0,3:2|1:2,0:0:0:0:
217,257,7304,1,8,0:2:0:0:
404,343,7444,2,0,L|399:234,1,99.7499969558717,0|0,1:2|3:2,0:0:0:0:
240,160,7724,2,0,L|215:264,1,99.7499969558717,0|8,1:2|0:2,0:0:0:0:
313,289,8005,1,0,1:2:0:0:
341,160,8145,5,0,3:2:0:0:
240,160,8285,1,0,1:2:0:0:
399,243,8425,1,8,0:2:0:0:
288,76,8566,1,0,1:2:0:0:
216,256,8706,2,0,L|99:259,1,99.7499969558717,0|0,3:2|1:2,0:0:0:0:
123,61,8986,2,0,L|139:160,1,99.7499969558717,8|0,0:2|1:2,0:0:0:0:
14,363,9266,6,0,L|24:263,1,99.7499969558717,4|0,3:2|1:2,0:0:0:0:
45,169,9547,1,8,0:2:0:0:
216,256,9687,2,0,P|171:273|99:259,1,99.7499969558717,0|0,1:2|3:2,0:0:0:0:
321,274,9967,2,0,P|358:304|382:373,1,99.7499969558717,0|8,1:2|0:2,0:0:0:0:
284,181,10248,2,0,P|291:133|339:78,1,99.7499969558717,0|0,1:2|3:2,0:0:0:0:
480,186,10528,5,0,1:2:0:0:
381,184,10668,1,8,0:2:0:0:
505,287,10809,1,0,1:2:0:0:
437,96,10949,1,0,3:2:0:0:
321,274,11089,1,0,1:2:0:0:
480,186,11229,1,8,0:2:0:0:
323,109,11369,1,0,1:2:0:0:
317,361,11509,6,0,P|388:359|441:320,1,99.7499969558717,0|0,3:2|1:2,0:0:0:0:
381,184,11790,1,8,0:2:0:0:
221,268,11930,2,0,L|339:275,1,99.7499969558717,0|0,1:2|3:2,0:0:0:0:
143,209,12210,2,0,P|123:257|134:320,1,99.7499969558717,12|0,1:2|3:2,0:0:0:0:
215,363,12491,1,10,1:2:0:0:
278,172,12631,5,4,3:2:0:0:
143,209,12771,1,8,0:2:0:0:
143,209,12841,1,8,0:2:0:0:
143,209,12912,1,8,0:2:0:0:
266,273,13052,1,8,0:2:0:0:
130,109,13192,5,4,0:3:0:0:
127,303,13332,1,0,3:2:0:0:
278,172,13472,2,0,P|284:125|253:55,1,99.7499969558717,8|0,0:3|0:2,0:0:0:0:
77,109,13752,6,0,L|141:108,1,52.2500015945435,6|0,0:2|0:2,0:0:0:0:
218,215,14033,5,8,3:2:0:0:
223,245,14103,1,8,0:2:0:0:
245,267,14173,1,8,0:2:0:0:
275,273,14243,1,8,0:2:0:0:
304,260,14313,1,10,3:2:0:0:
321,234,14383,1,8,0:2:0:0:
348,220,14453,1,8,0:2:0:0:
380,225,14523,1,8,0:2:0:0:
403,244,14594,1,8,3:2:0:0:
411,274,14664,1,8,0:2:0:0:
399,303,14734,1,8,0:2:0:0:
375,317,14804,1,8,0:2:0:0:
335,310,14874,5,10,3:2:0:0:
310,276,14944,1,8,0:2:0:0:
310,235,15014,1,8,0:2:0:0:
336,202,15084,1,8,0:2:0:0:
367,167,15154,1,8,3:2:0:0:
392,133,15224,1,8,0:2:0:0:
391,92,15294,1,8,0:2:0:0:
365,59,15364,1,8,0:2:0:0:
320,46,15435,5,10,3:2:0:0:
277,59,15505,1,8,0:2:0:0:
253,95,15575,1,8,0:2:0:0:
252,139,15645,1,8,0:2:0:0:
276,179,15715,1,8,3:2:0:0:
290,220,15785,1,8,0:2:0:0:
277,261,15855,1,8,0:2:0:0:
243,289,15925,1,8,0:2:0:0:
194,284,15995,5,10,3:2:0:0:
212,236,16065,1,8,0:2:0:0:
257,209,16135,1,8,0:2:0:0:
309,217,16205,1,8,0:2:0:0:
348,242,16276,1,8,3:2:0:0:
397,248,16346,1,8,0:2:0:0:
442,223,16416,1,8,0:2:0:0:
462,175,16486,1,8,0:2:0:0:
468,114,16556,5,10,3:2:0:0:
436,64,16626,1,8,0:2:0:0:
382,40,16696,1,8,0:2:0:0:
324,49,16766,1,8,0:2:0:0:
276,98,16836,1,4,3:2:0:0:
240,151,16907,1,8,0:3:0:0:
181,178,16977,1,8,0:3:0:0:
118,168,17047,1,12,0:3:0:0:
77,124,17117,5,10,0:2:0:0:
372,146,17257,1,8,0:2:0:0:
140,40,17397,1,8,0:2:0:0:
436,64,17537,1,8,0:2:0:0:
463,162,18238,6,0,L|451:286,1,104.500003189087,6|10,3:2|1:2,0:0:0:0:
299,364,18519,1,0,0:2:0:0:
372,146,18659,2,0,L|360:270,1,104.500003189087,10|0,1:2|0:2,0:0:0:0:
408,354,18939,1,10,1:2:0:0:
240,225,19080,1,2,3:2:0:0:
240,225,19150,1,0,3:2:0:0:
240,225,19220,1,8,1:2:0:0:
452,266,19360,5,2,3:2:0:0:
299,364,19500,2,0,L|197:344,1,104.500003189087,10|0,1:2|0:2,0:0:0:0:
214,127,19780,2,0,P|239:178|231:250,1,104.500003189087,10|0,1:2|3:2,0:0:0:0:
80,119,20061,1,10,1:2:0:0:
236,13,20201,1,0,3:2:0:0:
236,13,20271,1,0,3:2:0:0:
236,13,20341,1,8,1:2:0:0:
214,127,20481,5,2,3:2:0:0:
80,7,20622,1,8,1:2:0:0:
150,265,20762,1,0,0:2:0:0:
147,65,20902,1,8,1:2:0:0:
278,289,21042,1,0,3:2:0:0:
293,74,21182,1,8,1:2:0:0:
104,190,21322,1,0,3:2:0:0:
104,190,21393,1,0,3:2:0:0:
104,190,21463,1,8,1:2:0:0:
359,193,21603,5,0,3:2:0:0:
150,265,21743,1,8,1:2:0:0:
418,321,21883,1,0,3:2:0:0:
418,321,21953,1,0,3:2:0:0:
418,321,22023,1,8,1:2:0:0:
293,74,22164,1,0,3:2:0:0:
262,349,22303,1,8,1:2:0:0:
196,189,22444,1,0,3:2:0:0:
160,174,22514,1,0,3:2:0:0:
121,178,22584,1,8,0:2:0:0:
90,201,22654,1,0,3:2:0:0:
73,236,22724,5,6,3:2:0:0:
97,353,22865,1,8,0:2:0:0:
161,263,23005,1,0,3:2:0:0:
161,263,23075,1,0,3:2:0:0:
161,263,23145,1,8,0:2:0:0:
0,278,23285,5,2,3:2:0:0:
193,339,23425,1,8,0:2:0:0:
105,179,23566,1,0,3:2:0:0:
105,179,23636,1,0,3:2:0:0:
105,179,23706,1,8,0:2:0:0:
10,374,23846,5,2,3:2:0:0:
211,181,23986,1,8,0:2:0:0:
0,175,24126,1,0,3:2:0:0:
0,175,24196,1,0,3:2:0:0:
0,175,24266,1,8,0:2:0:0:
193,339,24407,5,2,3:2:0:0:
84,106,24547,1,8,0:2:0:0:
99,358,24687,1,0,3:2:0:0:
99,358,24757,1,0,3:2:0:0:
99,358,24827,1,8,0:2:0:0:
284,114,24967,5,2,3:2:0:0:
84,106,25108,1,8,0:2:0:0:
381,232,25248,1,0,3:2:0:0:
381,232,25318,1,0,3:2:0:0:
381,232,25388,1,8,0:2:0:0:
187,55,25528,5,2,3:2:0:0:
264,343,25668,1,8,0:2:0:0:
346,61,25809,1,0,3:2:0:0:
346,61,25879,1,0,3:2:0:0:
346,61,25949,1,8,0:2:0:0:
157,356,26089,5,2,3:2:0:0:
267,54,26229,1,8,0:2:0:0:
377,355,26370,1,0,3:2:0:0:
377,355,26440,1,0,3:2:0:0:
377,355,26510,1,8,0:2:0:0:
207,99,26650,1,6,3:2:0:0:
159,118,26720,1,8,0:3:0:0:
137,164,26790,1,8,0:2:0:0:
150,213,26860,1,8,0:2:0:0:
192,242,26930,1,8,0:2:0:0:
236,211,27000,1,8,0:2:0:0:
291,196,27070,1,8,0:2:0:0:
343,203,27140,1,8,0:2:0:0:
385,239,27210,5,6,3:2:0:0:
294,384,27351,2,0,L|295:267,1,104.500003189087,10|0,1:2|0:2,0:0:0:0:
464,88,27631,2,0,L|463:205,1,104.500003189087,10|0,1:2|3:2,0:0:0:0:
404,324,27911,1,10,1:2:0:0:
375,105,28051,1,0,3:2:0:0:
375,105,28122,1,0,3:2:0:0:
375,105,28192,1,8,1:2:0:0:
505,315,28332,6,0,P|438:329|387:317,1,104.500003189087,2|10,3:2|1:2,0:0:0:0:
273,113,28612,2,0,P|340:99|391:111,1,104.500003189087,0|10,0:2|1:2,0:0:0:0:
252,267,28893,1,0,3:2:0:0:
114,66,29033,1,10,1:2:0:0:
154,316,29173,1,0,3:2:0:0:
259,32,29313,1,8,1:2:0:0:
259,32,29383,1,0,3:2:0:0:
259,32,29453,6,0,P|316:21|377:28,1,104.500003189087,2|8,3:2|1:2,0:0:0:0:
423,332,29734,1,0,0:2:0:0:
317,116,29874,1,8,1:2:0:0:
317,357,30014,1,2,3:2:0:0:
429,162,30154,1,8,1:2:0:0:
203,163,30294,1,0,3:2:0:0:
423,332,30434,1,8,1:2:0:0:
219,353,30575,6,0,L|70:350,1,104.500003189087,6|8,3:2|0:3,0:0:0:0:
99,163,30855,2,0,L|247:163,1,104.500003189087,8|8,0:2|0:3,0:0:0:0:
51,250,31136,2,0,P|4:165|78:74,1,190,10|0,0:2|3:2,0:0:0:0:
185,26,31696,5,4,3:2:0:0:
253,274,31837,1,0,3:2:0:0:
242,295,32117,5,0,3:2:0:0:
316,47,32258,1,8,0:2:0:0:
298,24,32537,6,0,P|282:69|289:140,1,95,0|0,3:2|0:2,0:0:0:0:
358,286,32818,1,2,3:2:0:0:
158,217,32958,1,2,0:2:0:0:
412,200,33098,1,10,0:2:0:0:
242,295,33238,1,2,0:2:0:0:
282,115,33379,2,0,P|351:107|380:120,1,95,2|0,3:2|0:2,0:0:0:0:
477,266,33659,2,0,P|422:222|411:193,1,95,10|0,0:2|0:2,0:0:0:0:
496,0,33939,5,0,3:2:0:0:
412,200,34080,1,0,3:2:0:0:
396,232,34360,5,0,3:2:0:0:
298,2,34501,1,8,0:2:0:0:
293,22,34780,6,0,P|316:68|323:149,1,95,0|0,3:2|0:2,0:0:0:0:
218,321,35061,1,2,3:2:0:0:
455,315,35201,1,10,0:2:0:0:
236,208,35341,1,10,0:3:0:0:
412,200,35481,1,2,3:2:0:0:
142,200,35622,2,0,L|17:200,1,95,10|0,0:2|3:2,0:0:0:0:
206,123,35902,2,0,P|236:174|221:247,1,95,10|0,0:2|3:2,0:0:0:0:
72,69,36182,5,6,3:2:0:0:
348,84,36323,1,0,3:2:0:0:
372,60,36603,5,0,3:2:0:0:
96,45,36743,1,8,0:2:0:0:
67,24,37023,6,0,L|-40:20,1,95,0|0,3:2|0:2,0:0:0:0:
66,146,37304,1,2,0:2:0:0:
67,24,37444,1,2,3:2:0:0:
150,198,37584,1,10,0:2:0:0:
147,75,37724,1,2,0:2:0:0:
229,246,37865,2,0,P|246:297|227:351,1,95,2|0,3:2|3:2,0:0:0:0:
56,318,38145,2,0,P|103:314|146:296,1,95,14|8,0:2|0:2,0:0:0:0:
320,123,38425,6,0,L|227:139,1,95,6|0,3:2|0:2,0:0:0:0:
377,38,38706,2,0,L|470:53,1,95,10|0,0:2|0:2,0:0:0:0:
429,228,38986,2,0,P|410:184|412:137,1,95,2|0,3:2|3:2,0:0:0:0:
352,319,39266,2,0,P|398:324|452:364,1,95,10|0,0:2|0:2,0:0:0:0:
263,371,39547,6,0,L|269:276,1,95,2|0,3:2|0:2,0:0:0:0:
327,100,39827,2,0,L|334:194,1,95,10|0,0:2|0:2,0:0:0:0:
165,361,40108,2,0,L|171:266,1,95,2|0,3:2|3:2,0:0:0:0:
229,90,40388,2,0,L|236:184,1,95,10|0,0:2|0:2,0:0:0:0:
180,8,40668,5,10,0:2:0:0:
226,2,40738,1,8,0:2:0:0:
271,18,40808,1,8,0:2:0:0:
304,51,40878,1,8,0:2:0:0:
336,95,40949,1,8,0:3:0:0:
371,125,41019,1,8,0:3:0:0:
417,130,41089,1,8,0:2:0:0:
459,108,41159,1,8,0:2:0:0:
479,66,41229,1,10,0:2:0:0:
433,75,41299,1,8,0:2:0:0:
400,108,41369,1,8,0:3:0:0:
392,154,41439,1,8,0:3:0:0:
402,205,41509,6,0,P|409:251|380:325,1,95,12|0,0:2|3:2,0:0:0:0:
265,361,41790,5,10,0:2:0:0:
214,370,41860,1,8,0:2:0:0:
164,357,41930,1,8,0:2:0:0:
126,323,42000,1,8,0:2:0:0:
107,275,42070,1,8,0:3:0:0:
113,224,42140,1,8,0:3:0:0:
141,181,42210,1,8,0:3:0:0:
186,156,42280,1,8,0:3:0:0:
237,154,42350,1,6,0:3:0:0:
286,169,42421,1,4,0:3:0:0:
325,203,42491,1,4,0:3:0:0:
345,250,42561,1,4,0:3:0:0:
355,302,42631,1,12,0:2:0:0:
378,339,42701,1,0,3:2:0:0:
415,362,42771,1,0,3:2:0:0:
460,369,42841,1,0,3:2:0:0:
505,341,42911,6,0,L|512:280,1,61.7499971733095,4|0,3:2|0:2,0:0:0:0:
498,90,43192,6,0,L|490:151,1,61.7499971733095,4|0,3:2|0:2,0:0:0:0:
36,330,43472,6,0,L|30:269,1,61.7499971733095,4|0,3:2|0:2,0:0:0:0:
0,86,43753,6,0,L|7:147,1,61.7499971733095,4|0,3:2|0:2,0:0:0:0:
416,249,44033,6,0,B|290:283|318:196|209:256|209:256|259:250|301:286,1,313.500009567261,2|0,3:2|3:2,3:0:0:0:
241,379,44594,6,0,B|281:314|221:252|221:252|232:200|282:184|282:184|215:124|263:44,1,382.375007293224
237,39,45154,5,0,0:0:0:0:
241,314,45295,1,0,0:0:0:0:
65,85,45435,2,0,L|38:186,1,104.500003189087
251,345,45715,1,0,3:2:0:0:
178,147,45855,1,8,1:2:0:0:
374,332,45995,1,0,3:2:0:0:
374,332,46066,1,0,0:0:0:0:
374,332,46136,1,8,1:2:0:0:
465,201,46276,5,2,3:2:0:0:
126,304,46416,1,8,1:2:0:0:
470,231,46556,1,0,0:2:0:0:
178,147,46696,1,8,1:2:0:0:
481,269,46837,1,2,3:2:0:0:
281,19,46977,1,8,1:2:0:0:
380,282,47117,1,0,3:2:0:0:
380,282,47187,1,0,3:2:0:0:
380,282,47257,1,8,1:2:0:0:
340,132,47397,5,2,3:2:0:0:
213,384,47537,1,8,1:2:0:0:
339,94,47678,1,0,0:2:0:0:
436,352,47818,1,8,1:2:0:0:
122,286,47958,1,0,3:2:0:0:
375,174,48098,1,8,1:2:0:0:
109,15,48238,1,0,3:2:0:0:
44,35,48309,1,0,3:2:0:0:
17,97,48379,1,8,1:2:0:0:
44,156,48449,1,0,0:0:0:0:
104,184,48519,5,2,3:2:0:0:
491,262,48659,1,8,1:2:0:0:
122,286,48799,5,0,0:2:0:0:
410,88,48939,1,8,1:2:0:0:
17,97,49080,5,0,3:2:0:0:
305,156,49220,1,8,1:2:0:0:
137,372,49360,2,0,P|82:362|33:308,1,104.500003189087,2|8,3:2|1:2,0:0:0:0:
104,184,49640,6,0,L|122:286,1,104.500003189087,6|8,3:2|1:2,0:0:0:0:
0,186,49921,1,0,0:2:0:0:
52,84,50061,2,0,P|106:80|158:110,1,104.500003189087,8|0,1:2|3:2,0:0:0:0:
184,211,50341,1,8,1:2:0:0:
0,186,50481,1,2,3:2:0:0:
0,186,50552,1,0,3:2:0:0:
0,186,50622,1,8,1:2:0:0:
257,94,50762,6,0,L|279:208,1,104.500003189087,2|8,3:2|1:2,0:0:0:0:
164,313,51042,2,0,L|186:199,1,104.500003189087,0|8,0:2|1:2,0:0:0:0:
354,266,51323,1,2,3:2:0:0:
260,292,51463,1,8,1:2:0:0:
350,163,51603,1,2,3:2:0:0:
350,163,51673,1,0,3:2:0:0:
350,163,51743,1,8,1:2:0:0:
411,335,51883,5,2,3:2:0:0:
453,151,52023,1,8,1:2:0:0:
329,378,52164,1,2,0:2:0:0:
281,94,52304,1,8,1:2:0:0:
500,365,52444,1,2,3:2:0:0:
384,68,52584,1,8,1:2:0:0:
224,384,52725,1,2,3:2:0:0:
224,384,52795,1,0,3:2:0:0:
224,384,52865,1,8,1:2:0:0:
350,163,53005,6,0,L|471:150,1,104.500003189087,2|8,3:2|1:2,0:0:0:0:
315,9,53285,2,0,L|183:30,1,104.500003189087,0|8,3:2|1:2,0:0:0:0:
142,177,53566,1,2,3:2:0:0:
350,162,53706,1,8,1:2:0:0:
160,226,53846,1,2,3:2:0:0:
142,177,53916,1,0,3:2:0:0:
147,125,53986,1,8,1:2:0:0:
172,80,54056,1,0,3:2:0:0:
224,63,54126,6,0,P|246:119|239:176,1,104.500003189087,6|8,3:2|1:2,0:0:0:0:
245,357,54407,1,2,0:2:0:0:
440,170,54547,2,0,P|397:167|330:194,1,104.500003189087,8|2,1:2|3:2,0:0:0:0:
245,357,54827,1,8,1:2:0:0:
454,310,54967,1,2,3:2:0:0:
454,310,55037,1,0,3:2:0:0:
454,310,55108,1,8,1:2:0:0:
243,162,55248,6,0,P|193:178|147:253,1,104.500003189087,2|8,3:2|1:2,0:0:0:0:
245,357,55528,2,0,P|257:311|237:232,1,104.500003189087,2|8,0:2|1:2,0:0:0:0:
1,153,55809,1,2,3:2:0:0:
16,301,55949,1,8,1:2:0:0:
70,103,56089,1,2,3:2:0:0:
70,103,56159,1,0,3:2:0:0:
70,103,56229,1,8,1:2:0:0:
97,187,56369,6,0,P|38:179|-15:131,1,104.500003189087,2|8,3:2|1:2,0:0:0:0:
231,247,56650,2,0,P|291:226|356:243,1,104.500003189087,0|8,0:2|1:2,0:0:0:0:
195,14,56930,1,0,3:2:0:0:
70,103,57070,1,10,1:2:0:0:
207,169,57210,1,0,3:2:0:0:
207,169,57280,1,0,3:2:0:0:
207,169,57351,1,10,1:2:0:0:
361,65,57491,6,0,L|256:64,1,104.500003189087,2|8,3:2|1:2,0:0:0:0:
330,231,57771,2,0,L|434:231,1,104.500003189087,0|8,0:2|1:2,0:0:0:0:
361,65,58052,2,0,P|324:102|309:152,1,104.500003189087,2|8,3:2|1:2,0:0:0:0:
464,310,58332,1,2,3:2:0:0:
502,277,58402,1,0,3:2:0:0:
512,227,58472,1,8,1:2:0:0:
497,179,58542,1,0,3:2:0:0:
454,152,58612,5,6,3:2:0:0:
291,365,58752,1,8,1:2:0:0:
248,150,58893,1,2,0:2:0:0:
397,367,59033,1,8,1:2:0:0:
336,93,59173,1,2,3:2:0:0:
141,366,59313,1,8,1:2:0:0:
168,91,59453,1,2,3:2:0:0:
475,343,59594,1,8,1:2:0:0:
418,65,59734,5,2,3:2:0:0:
291,365,59874,1,8,1:2:0:0:
168,91,60014,1,2,0:2:0:0:
453,256,60154,1,8,1:2:0:0:
141,366,60295,5,2,3:2:0:0:
95,49,60435,1,8,1:2:0:0:
401,356,60575,1,2,3:2:0:0:
487,38,60715,1,8,0:2:0:0:
290,273,60855,1,6,3:2:0:0:
331,273,60925,1,0,3:2:0:0:
369,256,60995,1,8,0:2:0:0:
396,224,61065,1,8,0:2:0:0:
407,184,61135,1,8,0:2:0:0:
402,144,61205,1,8,0:2:0:0:
384,103,61276,1,8,0:2:0:0:
347,82,61346,1,8,0:2:0:0:
299,69,61416,6,0,L|217:61,1,52.2500015945435,8|0,0:2|3:2,0:0:0:0:
169,201,61556,2,0,L|233:180,1,52.2500015945435,10|8,0:3|0:3,0:0:0:0:
290,273,61696,1,4,0:3:0:0:
263,317,61766,1,4,0:3:0:0:
218,342,61836,1,2,3:2:0:0:
166,341,61906,1,0,3:2:0:0:
125,314,61977,6,0,L|-1:314,1,104.500003189087,10|0,0:2|3:2,0:0:0:0:
218,185,62257,1,8,0:2:0:0:
315,315,62397,2,0,L|426:315,1,104.500003189087,8|8,0:2|0:2,0:0:0:0:
218,185,62677,1,0,3:2:0:0:
218,342,62818,2,0,L|219:160,1,156.750004783631,0|8,3:2|0:2,0:0:0:0:
218,185,63098,6,0,P|216:143|173:81,1,99.7499969558717,6|0,3:2|0:2,0:0:0:0:
14,189,63379,2,0,P|64:190|117:162,1,99.7499969558717,8|0,0:2|0:2,0:0:0:0:
115,20,63659,5,2,3:2:0:0:
50,107,63799,1,0,3:2:0:0:
188,93,63940,2,0,P|239:82|291:97,1,99.7499969558717,8|0,0:2|0:2,0:0:0:0:
280,299,64220,5,2,3:2:0:0:
218,185,64360,1,0,3:2:0:0:
373,220,64500,2,0,P|383:282|369:332,1,99.7499969558717,8|0,0:2|0:2,0:0:0:0:
184,269,64780,5,2,3:2:0:0:
316,135,64920,1,0,3:2:0:0:
375,317,65061,2,0,P|328:317|266:288,1,99.7499969558717,8|0,0:2|0:2,0:0:0:0:
316,135,65341,5,2,0:2:0:0:
437,362,65481,1,0,3:2:0:0:
195,365,65622,2,0,P|180:318|196:236,1,99.7499969558717,8|0,0:2|0:2,0:0:0:0:
316,135,65902,5,2,3:2:0:0:
305,384,66042,1,0,3:2:0:0:
104,204,66182,2,0,P|174:167|220:170,1,99.7499969558717,8|0,0:2|0:2,0:0:0:0:
376,318,66463,5,2,3:2:0:0:
195,365,66603,1,0,3:2:0:0:
415,130,66743,2,0,L|316:135,1,99.7499969558717,12|0,0:2|3:2,0:0:0:0:
375,317,67023,2,0,L|475:321,1,99.7499969558717,14|0,0:2|3:2,0:0:0:0:
493,74,67304,2,0,P|508:135|485:202,1,99.7499969558717,12|8,0:2|0:3,0:0:0:0:
399,40,67584,5,6,3:2:0:0:
512,0,67724,1,2,0:2:0:0:
415,130,67865,2,0,L|433:263,1,99.7499969558717,10|2,0:2|0:2,0:0:0:0:
328,351,68145,5,0,3:2:0:0:
326,246,68285,1,2,3:2:0:0:
511,356,68425,2,0,L|387:334,1,99.7499969558717,8|0,0:2|0:2,0:0:0:0:
227,255,68706,5,2,3:2:0:0:
230,356,68846,1,2,3:2:0:0:
326,246,68986,2,0,P|336:194|324:130,1,99.7499969558717,8|2,0:2|0:2,0:0:0:0:
173,172,69266,5,0,3:2:0:0:
227,255,69407,1,2,3:2:0:0:
233,85,69547,2,0,P|180:72|101:89,1,99.7499969558717,8|2,0:2|0:2,0:0:0:0:
20,266,69827,5,4,3:2:0:0:
227,255,69967,1,0,3:2:0:0:
173,172,70108,2,0,P|124:162|75:171,1,99.7499969558717,8|0,0:2|0:2,0:0:0:0:
20,266,70388,5,0,3:2:0:0:
227,255,70528,1,0,3:2:0:0:
170,95,70668,2,0,P|122:86|73:94,1,99.7499969558717,8|0,0:2|0:2,0:0:0:0:
20,266,70949,5,0,3:2:0:0:
227,255,71089,1,0,3:2:0:0:
173,21,71229,2,0,P|124:11|75:20,1,99.7499969558717,8|0,0:2|0:2,0:0:0:0:
125,253,71509,5,0,3:2:0:0:
355,154,71650,1,0,3:2:0:0:
173,172,71790,1,8,0:2:0:0:
231,349,71931,1,0,3:2:0:0:
359,31,72070,6,0,L|229:30,1,99.7499969558717,6|0,3:2|3:2,0:0:0:0:
8,87,72351,1,8,0:2:0:0:
173,172,72491,1,8,0:2:0:0:
93,6,72631,1,2,3:2:0:0:
63,203,72771,1,0,3:2:0:0:
276,84,72911,2,0,P|286:136|270:193,1,99.7499969558717,8|8,0:2|0:2,0:0:0:0:
211,248,73192,5,2,3:2:0:0:
63,203,73332,1,0,3:2:0:0:
275,180,73472,2,0,P|293:244|277:301,1,99.7499969558717,8|0,0:2|0:2,0:0:0:0:
140,384,73753,5,0,3:2:0:0:
211,248,73893,1,0,3:2:0:0:
351,345,74033,2,0,L|246:352,1,99.7499969558717,8|0,0:2|0:2,0:0:0:0:
21,330,74313,5,0,3:2:0:0:
211,248,74453,1,2,3:2:0:0:
36,125,74593,2,0,L|135:131,1,99.7499969558717,12|0,0:2|3:2,0:0:0:0:
315,29,74874,5,14,0:2:0:0:
211,248,75014,1,0,3:2:0:0:
465,227,75154,2,0,L|363:218,1,99.7499969558717,12|0,0:2|3:2,0:0:0:0:
135,131,75435,5,14,0:2:0:0:
288,263,75575,1,0,3:2:0:0:
199,46,75715,5,12,0:2:0:0:
160,358,75855,1,0,0:2:0:0:
295,157,75995,1,2,3:2:0:0:
344,155,76065,1,0,3:2:0:0:
388,177,76135,1,8,0:2:0:0:
415,218,76205,1,8,0:2:0:0:
419,267,76275,1,8,0:3:0:0:
429,300,76346,1,8,0:3:0:0:
443,319,76416,1,4,0:3:0:0:
465,331,76486,1,4,0:3:0:0:
491,329,76556,6,0,P|504:289|486:215,1,99.7499969558717,6|2,3:2|0:2,0:0:0:0:
295,157,76837,2,0,L|309:263,1,99.7499969558717,8|2,0:2|0:2,0:0:0:0:
332,355,77117,1,0,3:2:0:0:
388,177,77257,1,2,3:2:0:0:
204,203,77397,6,0,P|191:163|209:89,1,99.7499969558717,8|0,0:2|0:2,0:0:0:0:
290,27,77678,1,2,3:2:0:0:
295,157,77818,1,2,3:2:0:0:
198,13,77958,2,0,L|67:12,1,99.7499969558717,8|2,0:2|0:2,0:0:0:0:
295,157,78238,1,0,3:2:0:0:
290,27,78378,1,2,3:2:0:0:
388,177,78518,2,0,L|487:176,1,99.7499969558717,8|0,0:2|0:2,0:0:0:0:
204,203,78799,6,0,P|218:250|253:284,1,99.7499969558717,2|0,3:2|3:2,0:0:0:0:
211,105,79080,2,0,P|163:93|116:106,1,99.7499969558717,8|0,0:2|0:2,0:0:0:0:
0,217,79360,2,0,L|99:207,1,99.7499969558717,2|0,3:2|3:2,0:0:0:0:
228,347,79640,2,0,L|130:335,1,99.7499969558717,8|0,0:2|0:2,0:0:0:0:
45,290,79921,5,2,3:2:0:0:
81,323,79991,1,0,3:2:0:0:
129,335,80061,1,8,0:2:0:0:
176,323,80131,1,8,0:2:0:0:
214,281,80201,1,8,0:2:0:0:
247,249,80271,1,8,0:2:0:0:
292,238,80341,1,8,0:2:0:0:
336,249,80411,1,8,0:2:0:0:
370,280,80481,5,10,0:2:0:0:
176,323,80622,1,8,0:2:0:0:
416,192,80762,1,8,0:2:0:0:
457,218,80832,1,8,0:3:0:0:
476,262,80902,1,4,0:3:0:0:
470,312,80972,1,0,3:2:0:0:
438,349,81042,5,12,1:2:0:0:
159,215,81182,1,0,0:2:0:0:
368,97,81323,1,8,1:2:0:0:
263,361,81463,1,0,0:2:0:0:
253,73,81603,5,8,1:2:0:0:
354,322,81743,1,0,3:2:0:0:
159,215,81883,1,8,1:2:0:0:
129,175,81953,1,0,3:2:0:0:
121,127,82023,1,0,3:2:0:0:
135,79,82093,1,0,3:2:0:0:
169,52,82164,5,10,1:2:0:0:
166,346,82304,1,2,0:2:0:0:
302,132,82444,1,10,1:2:0:0:
55,210,82584,1,2,3:2:0:0:
55,210,82654,1,0,3:2:0:0:
55,210,82724,5,10,1:2:0:0:
324,248,82866,1,0,3:2:0:0:
54,83,83006,1,10,1:2:0:0:
302,132,83146,1,0,3:2:0:0:
55,210,83285,5,12,1:2:0:0:
249,63,83425,1,0,0:2:0:0:
166,362,83566,1,8,1:2:0:0:
156,51,83706,1,0,0:2:0:0:
31,332,83846,5,8,1:2:0:0:
324,248,83986,1,0,3:2:0:0:
55,210,84126,1,8,1:2:0:0:
310,369,84267,1,0,0:2:0:0:
166,362,84407,5,10,0:2:0:0:
128,322,84477,1,0,3:2:0:0:
115,262,84547,1,2,3:2:0:0:
131,209,84617,1,0,3:2:0:0:
172,173,84687,2,0,P|213:162|278:189,1,104.500003189087,10|2,0:2|0:2,0:0:0:0:
456,303,84967,5,10,0:2:0:0:
416,339,85037,1,0,3:2:0:0:
364,352,85107,1,4,3:2:0:0:
315,338,85177,1,0,3:2:0:0:
268,306,85248,1,10,0:2:0:0:
219,292,85318,1,0,3:2:0:0:
167,305,85388,1,0,3:2:0:0:
127,341,85458,1,0,3:2:0:0:
115,384,85528,5,14,1:2:0:0:
363,222,85668,1,0,0:2:0:0:
74,210,85809,1,8,1:2:0:0:
364,352,85949,1,0,3:2:0:0:
215,122,86089,5,8,1:2:0:0:
229,384,86229,1,0,3:2:0:0:
112,115,86369,1,8,1:2:0:0:
115,384,86509,1,0,3:2:0:0:
115,384,86580,1,0,3:2:0:0:
115,384,86650,5,10,1:2:0:0:
363,222,86790,1,2,3:2:0:0:
116,225,86930,1,10,1:2:0:0:
290,340,87070,1,2,3:2:0:0:
215,122,87210,2,0,P|158:109|110:116,1,104.500003189087,10|0,0:2|3:2,0:0:0:0:
72,317,87491,2,0,P|103:275|117:225,1,104.500003189087,10|0,0:2|0:2,0:0:0:0:
117,24,87771,6,0,L|13:38,1,104.500003189087,6|0,3:2|0:2,0:0:0:0:
215,122,88052,2,0,L|318:136,1,104.500003189087,10|0,0:2|0:2,0:0:0:0:
117,226,88332,2,0,L|13:240,1,104.500003189087,2|0,3:2|3:2,0:0:0:0:
200,328,88612,2,0,L|303:342,1,104.500003189087,10|0,0:2|0:2,0:0:0:0:
419,217,88893,6,0,P|423:284|397:335,1,104.500003189087,2|0,3:2|3:2,0:0:0:0:
318,136,89173,2,0,P|374:99|431:93,1,104.500003189087,10|0,0:2|0:2,0:0:0:0:
305,244,89453,2,0,L|202:227,1,104.500003189087,2|0,3:2|0:2,0:0:0:0:
241,30,89734,2,0,L|241:154,1,104.500003189087,10|0,0:2|3:2,0:0:0:0:
128,299,90014,5,14,0:2:0:0:
57,76,90154,2,0,L|188:98,1,104.500003189087,0|0,3:2|3:2,0:0:0:0:
260,299,90435,5,12,0:2:0:0:
334,75,90575,2,0,L|212:94,1,104.500003189087,2|0,3:2|3:2,0:0:0:0:
109,310,90855,5,12,0:2:0:0:
34,60,90995,2,0,L|177:84,1,104.500003189087,0|2,3:2|3:2,0:0:0:0:
276,313,91276,5,12,0:2:0:0:
347,58,91416,2,0,L|225:77,1,104.500003189087,0|0,3:2|3:2,0:0:0:0:
9,221,91696,6,8,P|85:171|167:202,1,156.750004783631,2|0,3:3|0:2,0:0:0:0:
177,211,91977,2,0,L|191:302,1,71.2500027179719,2|0,3:3|3:2,0:0:0:0:
209,384,92257,1,4,3:2:0:0:
256,192,92327,12,0,96042,0:2:0:0:
330,112,96182,6,0,L|330:177,1,59.375,2|0,0:2|0:2,0:0:0:0:
329,262,96603,1,0,3:2:0:0:
329,262,96673,1,0,3:2:0:0:
329,262,96743,5,12,0:2:0:0:
120,108,96883,1,0,3:2:0:0:
143,291,97023,1,0,3:2:0:0:
330,112,97164,1,12,0:2:0:0:
334,371,97304,5,0,3:2:0:0:
196,69,97444,1,0,3:2:0:0:
210,374,97584,1,12,0:2:0:0:
388,50,97724,1,0,3:2:0:0:
442,314,97865,5,12,0:2:0:0:
187,147,98004,1,0,3:2:0:0:
433,177,98145,1,0,3:2:0:0:
134,278,98285,1,12,0:2:0:0:
330,112,98424,5,0,3:2:0:0:
44,187,98566,1,0,3:2:0:0:
309,276,98706,1,12,0:2:0:0:
49,360,98846,1,0,3:2:0:0:
172,92,98986,5,4,3:2:0:0:
209,75,99056,1,0,3:2:0:0:
251,76,99126,1,0,3:2:0:0:
287,96,99196,1,0,3:2:0:0:
311,130,99266,1,0,3:2:0:0:
318,171,99336,1,0,3:2:0:0:
312,221,99407,1,8,3:2:0:0:
309,276,99477,1,0,3:2:0:0:
325,325,99547,1,0,3:2:0:0:
367,357,99617,1,0,3:2:0:0:
420,357,99687,1,0,3:2:0:0:
472,341,99757,1,0,3:2:0:0:
511,295,99827,5,8,3:2:0:0:
452,263,99897,1,0,3:2:0:0:
386,252,99967,1,0,3:2:0:0:
323,273,100037,1,0,3:2:0:0:
275,330,100108,1,8,3:2:0:0:
203,342,100178,1,0,3:2:0:0:
135,314,100248,1,0,3:2:0:0:
93,254,100318,1,0,3:2:0:0:
89,181,100388,1,8,3:2:0:0:
123,117,100458,1,0,3:2:0:0:
186,80,100528,1,0,3:2:0:0:
259,83,100598,1,0,3:2:0:0:
320,123,100668,5,2,3:1:0:0:
320,123,101229,6,0,B|324:159|317:175|317:175|328:204|328:204|314:236|321:283,1,132.999995941162,6|8,3:1|1:2,0:0:0:0:
185,358,101509,1,0,3:2:0:0:
185,358,101580,1,0,3:2:0:0:
185,358,101650,1,8,1:2:0:0:
399,249,101790,1,0,3:2:0:0:
169,184,101930,1,8,1:2:0:0:
401,348,102070,1,2,3:1:0:0:
401,348,102140,1,0,3:2:0:0:
401,348,102210,1,8,1:2:0:0:
401,348,102280,1,0,0:2:0:0:
450,318,102351,5,2,3:1:0:0:
472,263,102421,1,0,0:2:0:0:
473,204,102491,1,8,1:2:0:0:
452,149,102561,1,0,0:2:0:0:
404,110,102631,1,2,3:1:0:0:
387,55,102701,1,0,3:2:0:0:
421,9,102771,1,8,1:2:0:0:
478,10,102841,1,0,0:2:0:0:
511,57,102911,6,0,P|516:85|509:131,1,59.375,2|0,3:1|0:2,0:0:0:0:
361,261,103052,2,0,P|366:234|406:194,1,59.375,8|0,1:2|0:2,0:0:0:0:
512,318,103192,2,0,P|494:343|459:362,1,59.375,2|0,3:1|3:2,0:0:0:0:
349,127,103333,2,0,P|380:110|426:118,1,59.375,8|0,1:2|0:2,0:0:0:0:
311,363,103472,5,2,3:1:0:0:
258,334,103542,1,0,0:2:0:0:
226,285,103612,1,8,1:2:0:0:
222,227,103682,1,0,0:2:0:0:
240,167,103752,1,2,3:1:0:0:
245,109,103822,1,0,3:2:0:0:
214,59,103892,1,8,1:2:0:0:
159,40,103963,1,0,0:2:0:0:
104,59,104033,6,0,P|92:87|96:169,1,59.375,2|0,3:1|0:2,0:0:0:0:
222,227,104173,2,0,P|207:188|173:154,1,59.375,8|0,1:2|0:2,0:0:0:0:
20,57,104313,2,0,P|7:82|6:146,1,59.375,2|0,3:1|3:2,0:0:0:0:
144,286,104453,2,0,P|136:254|85:198,1,59.375,8|0,1:2|0:2,0:0:0:0:
214,59,104594,5,2,3:1:0:0:
269,83,104664,1,0,0:2:0:0:
305,129,104734,1,8,1:2:0:0:
314,186,104804,1,0,0:2:0:0:
301,247,104874,1,2,3:1:0:0:
301,305,104944,1,0,3:2:0:0:
337,353,105014,1,8,1:2:0:0:
393,367,105085,1,0,0:2:0:0:
449,342,105154,2,0,P|469:296|437:195,1,109.250002083778,2|8,3:1|1:2,0:0:0:0:
402,87,105435,1,0,3:2:0:0:
365,86,105505,1,0,3:2:0:0:
329,85,105575,1,8,1:2:0:0:
292,85,105645,1,0,0:2:0:0:
258,82,105715,6,0,B|204:73|204:73|139:115,1,109.250002083778,2|8,3:1|1:2,0:0:0:0:
95,334,105995,1,0,3:2:0:0:
95,334,106066,1,0,3:2:0:0:
95,334,106136,1,8,1:2:0:0:
341,244,106276,1,2,3:1:0:0:
158,102,106416,1,8,1:2:0:0:
245,366,106556,1,0,3:2:0:0:
245,366,106626,1,0,3:2:0:0:
245,366,106696,1,8,1:2:0:0:
245,366,106766,1,0,0:2:0:0:
245,366,106837,5,2,3:1:0:0:
270,321,106907,1,0,0:2:0:0:
273,269,106977,1,8,1:2:0:0:
251,222,107047,1,0,0:2:0:0:
216,182,107117,1,2,3:1:0:0:
205,125,107187,1,0,3:2:0:0:
235,76,107257,1,8,1:2:0:0:
290,58,107327,1,0,0:2:0:0:
343,81,107397,1,2,3:1:0:0:
367,134,107467,1,0,0:2:0:0:
344,190,107537,1,8,1:2:0:0:
341,244,107608,1,0,0:2:0:0:
371,293,107678,1,2,3:1:0:0:
428,301,107748,1,0,3:2:0:0:
472,267,107818,1,8,1:2:0:0:
479,210,107888,1,0,0:2:0:0:
470,151,107958,5,2,3:1:0:0:
409,115,108028,1,0,0:2:0:0:
341,126,108098,1,8,1:2:0:0:
293,177,108168,1,0,0:2:0:0:
222,196,108238,1,2,3:1:0:0:
155,173,108308,1,0,3:2:0:0:
111,126,108378,1,8,1:2:0:0:
111,55,108448,1,0,0:2:0:0:
160,0,108519,5,2,3:1:0:0:
224,25,108589,1,0,0:2:0:0:
275,78,108659,1,8,1:2:0:0:
296,152,108729,1,0,0:2:0:0:
288,224,108799,1,2,3:1:0:0:
251,289,108869,1,0,3:2:0:0:
191,332,108939,1,8,0:2:0:0:
119,344,109009,1,0,0:2:0:0:
54,314,109080,5,10,0:2:0:0:
101,47,109220,1,8,0:2:0:0:
42,298,109360,1,8,0:2:0:0:
101,47,109500,1,0,3:2:0:0:
16,380,109640,5,8,0:2:0:0:
16,35,109780,1,0,3:2:0:0:
16,380,109921,1,8,0:2:0:0:
16,35,110061,1,8,0:2:0:0:
183,218,110201,6,0,B|238:245|238:245|303:226,2,121.125002310276,4|0|0,3:2|0:2|3:2,0:0:0:0:
404,231,110762,6,0,B|350:203|350:203|285:232,2,121.125002310276,4|0|0,3:2|0:2|3:2,0:0:0:0:
183,218,111323,6,0,P|168:300|218:382,1,161.500003080368,8|0,0:2|0:2,0:0:0:0:
404,231,111743,2,0,P|419:149|369:67,1,161.500003080368,0|0,3:2|0:2,0:0:0:0:
255,36,112164,1,0,3:2:0:0:
255,36,112444,6,0,B|195:19|195:19|76:34,1,161.500003080368,4|0,3:2|0:2,0:0:0:0:
1,181,112865,2,0,B|61:198|61:198|180:183,1,161.500003080368,0|0,3:2|0:2,0:0:0:0:
255,36,113285,1,0,3:2:0:0:
255,36,113566,6,0,P|270:129|240:208,1,161.500003080368,8|0,0:2|0:2,0:0:0:0:
159,185,113986,1,0,3:2:0:0:
159,185,114056,1,0,3:2:0:0:
159,185,114126,1,8,0:2:0:0:
215,274,114266,2,0,B|278:294|278:294|312:281|312:281|372:297,1,161.500003080368,0|0,3:2|0:2,0:0:0:0:
484,269,114687,6,0,P|412:274|344:323,2,121.125002310276,4|0|0,3:2|0:2|3:2,0:0:0:0:
512,384,115248,2,0,P|507:311|458:244,2,121.125002310276,4|0|0,0:2|0:2|0:2,0:0:0:0:
369,296,115809,6,0,P|358:252|370:208,1,80.750001540184,8|0,0:2|0:2,0:0:0:0:
496,93,116089,2,0,P|463:124|419:136,1,80.750001540184,8|0,2:2|2:2,2:0:0:0:
301,66,116369,1,8,0:2:0:0:
227,34,116462,1,8,0:2:0:0:
149,45,116555,1,8,0:3:0:0:
89,97,116649,1,8,0:3:0:0:
66,172,116742,1,4,0:3:0:0:
86,249,116836,1,4,0:3:0:0:
140,303,116930,6,0,L|43:325,1,80.750001540184,12|0,1:2|3:2,0:0:0:0:
370,298,117210,2,0,L|467:320,1,80.750001540184,8|0,1:2|0:2,0:0:0:0:
47,176,117491,6,0,L|5:264,1,80.750001540184,8|0,1:2|3:2,0:0:0:0:
455,160,117771,2,0,L|506:259,1,80.750001540184,8|0,1:2|3:2,0:0:0:0:
36,23,118052,6,0,L|41:123,1,80.750001540184,8|0,1:2|0:2,0:0:0:0:
470,11,118332,2,0,L|465:111,1,80.750001540184,8|0,1:2|3:2,0:0:0:0:
25,14,118612,6,0,L|30:119,1,80.750001540184,8|0,1:2|3:2,0:0:0:0:
480,2,118893,2,0,L|475:107,1,80.750001540184,8|0,1:2|3:2,0:0:0:0:
458,318,119173,5,8,0:2:0:0:
417,315,119243,1,0,0:2:0:0:
377,312,119313,1,8,0:2:0:0:
337,310,119383,1,0,0:2:0:0:
296,307,119453,1,0,3:2:0:0:
255,303,119523,1,0,3:2:0:0:
213,297,119594,2,0,L|130:291,1,42.7499986953736,8|0,0:2|0:2,0:0:0:0:
30,146,119734,2,0,P|59:135|104:138,1,42.7499986953736,8|0,0:2|0:2,0:0:0:0:
314,239,119874,5,0,3:2:0:0:
346,228,119944,1,0,3:2:0:0:
379,216,120014,2,0,L|376:133,1,42.7499986953736,8|0,0:2|0:2,0:0:0:0:
212,31,120154,2,0,L|215:110,1,42.7499986953736,8|0,0:2|0:2,0:0:0:0:
198,383,120295,1,0,3:2:0:0:
150,351,120365,1,0,3:2:0:0:
113,304,120435,1,8,0:2:0:0:
99,248,120505,1,0,0:2:0:0:
103,190,120575,1,8,0:3:0:0:
127,138,120645,1,4,0:3:0:0:
164,97,120715,1,0,3:2:0:0:
210,65,120785,1,0,3:2:0:0:
267,61,120855,5,12,0:2:0:0:
385,375,120995,1,12,0:2:0:0:
129,139,121136,1,12,0:2:0:0:
421,129,121276,1,12,0:2:0:0:
152,374,121416,6,0,B|99:282|176:204|176:204|294:96|116:-44|19:64|1:184|127:226,1,641.249980430604,2|0,0:2|0:2,0:0:0:0:
254,292,122537,6,0,B|418:278|419:127|419:127|358:166|306:244|355:345|447:368,1,570,2|0,0:2|0:2,0:0:0:0:
496,305,123659,5,6,3:2:0:0:
308,360,123799,1,8,1:2:0:0:
419,128,123940,1,0,0:2:0:0:
439,366,124080,1,8,1:2:0:0:
250,168,124220,1,0,3:2:0:0:
472,206,124360,1,8,1:2:0:0:
177,262,124500,1,0,3:2:0:0:
177,262,124570,1,0,3:2:0:0:
177,262,124640,1,8,1:2:0:0:
361,43,124780,5,2,3:2:0:0:
496,305,124921,1,8,1:2:0:0:
250,168,125061,1,0,0:2:0:0:
472,206,125201,1,8,1:2:0:0:
223,339,125341,1,2,3:2:0:0:
496,305,125481,1,8,1:2:0:0:
153,172,125622,1,0,3:2:0:0:
153,172,125692,1,0,3:2:0:0:
153,172,125762,1,8,1:2:0:0:
308,360,125901,5,2,3:2:0:0:
274,85,126041,1,8,1:2:0:0:
138,369,126182,1,0,0:2:0:0:
144,84,126323,1,8,1:2:0:0:
308,360,126463,5,0,3:2:0:0:
274,85,126603,1,8,1:2:0:0:
138,369,126744,1,0,3:2:0:0:
139,367,126813,1,0,3:2:0:0:
139,367,126883,1,8,1:2:0:0:
348,161,127023,5,2,3:2:0:0:
51,159,127164,1,8,1:2:0:0:
308,360,127304,1,0,0:2:0:0:
274,85,127444,1,8,1:2:0:0:
20,301,127584,5,0,3:2:0:0:
331,260,127725,1,8,1:2:0:0:
138,39,127865,1,2,3:2:0:0:
138,39,127935,1,0,3:2:0:0:
138,39,128005,1,8,1:2:0:0:
117,333,128145,6,0,L|247:337,1,109.250002083778,6|8,3:2|1:2,0:0:0:0:
512,313,128425,1,0,0:2:0:0:
328,364,128566,2,0,P|315:312|331:261,1,109.250002083778,8|0,1:2|3:2,0:0:0:0:
283,84,128846,1,8,1:2:0:0:
222,254,128986,1,2,3:2:0:0:
222,254,129056,1,0,3:2:0:0:
222,254,129126,6,0,L|352:261,1,109.250002083778,8|2,1:2|3:2,0:0:0:0:
456,162,129407,2,0,L|326:169,1,109.250002083778,8|0,1:2|0:2,0:0:0:0:
221,153,129687,2,0,P|194:86|211:26,1,109.250002083778,8|2,1:2|3:2,0:0:0:0:
382,68,129967,1,8,1:2:0:0:
221,153,130108,1,2,3:2:0:0:
221,153,130178,1,0,3:2:0:0:
221,153,130248,2,0,L|87:155,1,109.250002083778,8|2,1:2|3:2,0:0:0:0:
250,260,130528,5,8,1:2:0:0:
115,42,130668,1,2,0:2:0:0:
145,311,130808,1,8,1:2:0:0:
269,17,130949,1,2,3:2:0:0:
239,347,131089,5,8,1:2:0:0:
6,125,131229,1,2,3:2:0:0:
0,174,131299,1,0,3:2:0:0:
17,226,131369,1,8,1:2:0:0:
58,264,131439,1,0,3:2:0:0:
109,287,131509,5,2,3:2:0:0:
269,17,131650,1,8,1:2:0:0:
291,309,131790,1,0,0:2:0:0:
349,71,131930,1,8,1:2:0:0:
198,297,132070,1,2,3:2:0:0:
428,132,132210,1,8,1:2:0:0:
91,161,132351,1,2,3:2:0:0:
92,107,132421,1,0,3:2:0:0:
120,61,132491,1,8,1:2:0:0:
168,35,132561,1,0,3:2:0:0:
222,25,132631,6,0,P|276:67|290:151,1,109.250002083778,6|8,3:2|1:2,0:0:0:0:
197,296,132911,2,0,P|206:228|272:174,1,109.250002083778,2|8,0:2|1:2,0:0:0:0:
423,239,133192,2,0,P|355:228|302:161,1,109.250002083778,2|8,3:2|1:2,0:0:0:0:
407,91,133472,1,2,3:2:0:0:
407,91,133542,1,0,3:2:0:0:
407,91,133612,1,8,1:2:0:0:
512,247,133752,6,0,P|486:308|431:334,1,109.250002083778,2|8,3:2|1:2,0:0:0:0:
230,197,134033,2,0,P|248:139|304:104,1,109.250002083778,2|8,0:2|1:2,0:0:0:0:
458,169,134313,1,2,3:2:0:0:
248,266,134453,1,8,1:2:0:0:
450,21,134594,1,2,3:2:0:0:
479,66,134664,1,0,3:2:0:0:
482,121,134734,1,8,1:2:0:0:
458,169,134804,1,0,0:2:0:0:
412,190,134874,6,0,P|357:214|292:210,1,109.250002083778,2|8,3:2|1:2,0:0:0:0:
104,214,135154,2,0,P|159:190|224:194,1,109.250002083778,0|8,0:2|1:2,0:0:0:0:
279,369,135435,2,0,P|255:321|248:267,1,109.250002083778,0|10,3:2|1:2,0:0:0:0:
258,25,135714,1,0,3:2:0:0:
258,25,135785,1,0,3:2:0:0:
258,25,135855,1,10,1:2:0:0:
361,294,135995,6,0,L|469:282,1,109.250002083778,6|8,3:2|1:2,0:0:0:0:
337,160,136276,2,0,L|229:149,1,109.250002083778,0|8,0:2|1:2,0:0:0:0:
229,355,136556,2,0,P|247:303|242:249,1,109.250002083778,2|8,3:2|1:2,0:0:0:0:
139,103,136837,1,2,3:2:0:0:
131,156,136907,1,0,3:2:0:0:
150,207,136977,1,8,0:2:0:0:
191,242,137047,1,0,3:2:0:0:
243,250,137117,6,0,L|368:256,1,109.250002083778,6|8,3:2|1:2,0:0:0:0:
139,103,137397,2,0,L|14:109,1,109.250002083778,2|8,0:2|1:2,0:0:0:0:
339,369,137678,2,0,L|491:376,1,109.250002083778,2|8,3:2|1:2,0:0:0:0:
150,207,137958,2,0,L|-2:214,1,109.250002083778,2|8,3:2|1:2,0:0:0:0:
432,136,138238,6,0,P|453:191|446:268,1,109.250002083778,2|8,3:2|1:2,0:0:0:0:
40,212,138519,2,0,P|19:157|26:80,1,109.250002083778,2|8,0:2|1:2,0:0:0:0:
360,264,138799,2,0,P|359:318|338:368,1,109.250002083778,2|8,3:2|1:2,0:0:0:0:
106,141,139080,2,0,P|106:86|127:36,1,109.250002083778,2|8,3:2|1:2,0:0:0:0:
263,305,139360,6,0,L|141:324,1,109.250002083778,6|8,3:2|1:2,0:0:0:0:
291,142,139640,2,0,L|413:161,1,109.250002083778,0|8,3:2|1:2,0:0:0:0:
337,368,139921,2,0,L|444:351,1,109.250002083778,2|8,3:2|1:2,0:0:0:0:
211,70,140201,2,0,L|103:86,1,109.250002083778,0|8,3:2|0:2,0:0:0:0:
10,214,140481,5,6,3:2:0:0:
33,262,140551,1,0,3:2:0:0:
80,288,140621,1,8,1:2:0:0:
134,282,140691,1,8,0:2:0:0:
181,243,140762,2,0,P|221:212|317:216,1,109.250002083778,8|0,0:2|0:2,0:0:0:0:
445,211,141042,1,10,0:3:0:0:
478,272,141112,1,8,0:3:0:0:
457,339,141182,1,4,0:3:0:0:
397,373,141252,1,4,0:3:0:0:
329,362,141323,2,0,P|288:326|270:274,1,109.250002083778,0|0,3:2|3:2,0:0:0:0:
283,34,141603,5,12,3:2:0:0:
376,279,141743,1,0,3:2:0:0:
376,279,141883,1,0,3:2:0:0:
207,98,142023,5,12,0:2:0:0:
486,196,142164,1,0,3:2:0:0:
486,196,142304,1,0,3:2:0:0:
159,207,142444,5,12,0:2:0:0:
426,110,142585,1,0,3:2:0:0:
191,335,142724,5,12,0:2:0:0:
283,34,142865,1,0,3:2:0:0:
283,34,143005,1,0,3:2:0:0:
295,321,143145,5,12,0:2:0:0:
183,14,143286,1,0,3:2:0:0:
183,14,143426,1,0,3:2:0:0:
93,305,143566,5,12,0:2:0:0:
416,203,143706,1,0,3:2:0:0:
122,140,143846,5,12,0:2:0:0:
401,337,143986,1,0,3:2:0:0:
401,337,144126,1,0,3:2:0:0:
264,43,144266,5,12,0:2:0:0:
335,384,144406,1,0,3:2:0:0:
335,384,144546,1,0,3:2:0:0:
70,247,144687,5,12,0:2:0:0:
416,203,144827,1,0,3:2:0:0:
87,45,144967,5,12,0:2:0:0:
161,361,145108,1,0,3:2:0:0:
161,361,145248,1,0,3:2:0:0:
264,43,145388,5,12,0:2:0:0:
270,343,145529,1,0,3:2:0:0:
141,102,145669,1,8,0:2:0:0:
377,99,145809,1,12,0:2:0:0:
151,263,145949,1,8,0:2:0:0:
396,271,146089,5,8,0:2:0:0:
57,211,146229,1,0,3:2:0:0:
370,184,146369,1,0,3:2:0:0:
59,113,146509,5,12,0:2:0:0:
184,365,146650,1,0,3:2:0:0:
203,47,146790,1,0,3:2:0:0:
58,337,146930,5,12,0:2:0:0:
6,47,147071,1,0,3:2:0:0:
184,365,147210,5,12,0:2:0:0:
82,13,147351,1,0,3:2:0:0:
323,91,147491,1,0,3:2:0:0:
58,337,147631,5,12,0:2:0:0:
283,0,147772,1,0,3:2:0:0:
370,184,147912,1,0,3:2:0:0:
85,225,148052,5,12,0:2:0:0:
426,274,148192,1,0,3:2:0:0:
204,73,148332,5,12,0:2:0:0:
280,381,148472,1,0,3:2:0:0:
370,184,148612,1,0,3:2:0:0:
125,351,148752,5,12,0:2:0:0:
426,274,148892,1,0,3:2:0:0:
204,73,149032,1,0,3:2:0:0:
280,381,149173,5,12,0:2:0:0:
323,91,149313,1,0,3:2:0:0:
504,327,149453,1,8,0:2:0:0:
455,351,149523,1,8,0:2:0:0:
401,349,149593,1,8,0:2:0:0:
356,320,149663,1,8,0:2:0:0:
328,274,149734,2,0,L|332:190,3,54.6250010418892,0|0|8|8,3:2|3:2|0:2|0:2,0:0:0:0:
323,91,150014,5,8,0:2:0:0:
266,33,150084,1,8,0:2:0:0:
192,29,150154,1,0,3:2:0:0:
132,73,150224,1,0,3:2:0:0:
116,147,150294,5,8,0:2:0:0:
116,147,150575,6,0,L|154:273,1,99.7499969558717,6|0,3:2|0:2,0:0:0:0:
331,220,150855,2,0,L|234:198,1,99.7499969558717,10|0,0:2|0:2,0:0:0:0:
157,369,151136,2,0,L|225:296,1,99.7499969558717,2|0,3:2|3:2,0:0:0:0:
391,384,151416,2,0,L|293:361,1,99.7499969558717,10|0,0:2|0:2,0:0:0:0:
408,156,151696,6,0,P|429:211|414:270,1,99.7499969558717,2|0,3:2|3:2,0:0:0:0:
314,121,151977,2,0,P|351:75|409:58,1,99.7499969558717,10|0,0:2|0:2,0:0:0:0:
331,220,152257,2,0,P|272:210|229:168,1,99.7499969558717,2|0,3:2|3:2,0:0:0:0:
148,39,152537,2,0,P|194:55|227:92,1,99.7499969558717,10|0,0:2|0:2,0:0:0:0:
163,293,152818,6,0,B|141:184|141:184|148:146,1,149.624995433808,2|0,3:2|0:2,0:0:0:0:
149,147,153098,2,0,P|178:111|251:92,1,99.7499969558717,8|0,0:2|0:2,0:0:0:0:
264,285,153379,2,0,L|237:190,1,99.7499969558717,0|2,3:2|3:2,0:0:0:0:
363,276,153659,1,8,0:2:0:0:
316,367,153799,1,2,0:2:0:0:
329,176,153939,6,0,P|379:183|433:220,1,99.7499969558717,2|0,3:2|3:2,0:0:0:0:
237,190,154220,2,0,P|218:141|223:77,1,99.7499969558717,8|0,0:2|0:2,0:0:0:0:
264,285,154500,2,0,P|231:325|173:353,1,99.7499969558717,2|0,0:2|3:2,0:0:0:0:
64,260,154780,2,0,L|164:252,1,99.7499969558717,10|0,0:2|0:2,0:0:0:0:
133,39,155061,6,0,P|120:87|128:135,1,99.7499969558717,6|0,3:2|3:2,0:0:0:0:
216,0,155341,1,10,0:2:0:0:
38,22,155481,1,0,0:2:0:0:
218,94,155622,2,0,L|315:72,1,99.7499969558717,2|0,3:2|3:2,0:0:0:0:
427,198,155902,2,0,L|329:176,1,99.7499969558717,10|0,0:2|0:2,0:0:0:0:
512,144,156182,6,0,P|520:199|510:246,1,99.7499969558717,2|0,3:2|3:2,0:0:0:0:
389,384,156463,2,0,P|381:329|391:282,1,99.7499969558717,10|0,0:2|0:2,0:0:0:0:
512,144,156743,1,0,3:2:0:0:
511,360,156883,1,0,3:2:0:0:
298,296,157023,2,0,L|191:275,1,99.7499969558717,10|0,0:2|0:2,0:0:0:0:
80,268,157304,5,0,3:2:0:0:
200,276,157444,1,0,3:2:0:0:
24,336,157584,2,0,P|1:289|8:216,1,99.7499969558717,12|0,0:2|0:2,0:0:0:0:
202,139,157865,5,0,3:2:0:0:
200,276,158005,1,0,3:2:0:0:
81,108,158145,2,0,P|118:64|195:40,1,99.7499969558717,12|0,0:2|0:2,0:0:0:0:
348,145,158425,5,0,3:2:0:0:
202,139,158565,1,0,3:2:0:0:
401,65,158706,2,0,P|432:104|446:152,1,99.7499969558717,12|0,0:2|0:2,0:0:0:0:
295,227,158986,2,0,P|312:182|347:145,1,99.7499969558717,2|0,3:2|3:2,0:0:0:0:
499,247,159266,2,0,P|450:254|402:242,1,99.7499969558717,14|8,0:2|0:3,0:0:0:0:
347,144,159547,5,14,3:2:0:0:
299,108,159617,1,8,0:2:0:0:
241,96,159687,1,8,0:2:0:0:
183,109,159757,1,8,0:2:0:0:
145,150,159827,1,10,3:2:0:0:
182,202,159897,1,8,0:2:0:0:
245,223,159967,1,8,0:2:0:0:
310,201,160037,1,8,0:2:0:0:
347,144,160107,1,10,3:2:0:0:
345,77,160177,1,8,0:2:0:0:
303,26,160247,1,8,0:2:0:0:
234,9,160317,1,8,0:2:0:0:
165,21,160388,2,0,P|109:49|77:119,1,99.7499969558717,6|0,3:2|0:2,0:0:0:0:
25,265,160668,5,14,0:2:0:0:
310,201,160808,1,0,3:2:0:0:
16,145,160949,5,14,0:2:0:0:
259,352,161089,1,0,3:2:0:0:
309,41,161229,1,0,3:2:0:0:
263,58,161299,1,0,3:2:0:0:
227,92,161369,1,8,0:2:0:0:
206,137,161439,1,8,0:2:0:0:
205,187,161509,1,8,0:3:0:0:
220,233,161579,1,8,0:3:0:0:
252,271,161649,1,4,0:3:0:0:
295,292,161720,1,4,0:3:0:0:
339,285,161790,6,0,L|452:263,1,99.7499969558717,4|0,0:2|1:2,0:0:0:0:
206,137,162070,1,8,0:2:0:0:
365,363,162210,2,0,L|478:341,1,99.7499969558717,0|0,1:2|3:2,0:0:0:0:
423,182,162491,2,0,L|324:200,1,99.7499969558717,0|8,1:2|0:2,0:0:0:0:
192,32,162771,2,0,P|248:36|296:64,1,99.7499969558717,0|0,1:2|3:2,0:0:0:0:
119,105,163052,5,0,1:2:0:0:
93,13,163192,1,8,0:2:0:0:
212,127,163332,1,0,1:2:0:0:
58,181,163472,1,0,3:2:0:0:
192,32,163612,1,0,1:2:0:0:
260,224,163752,2,0,L|161:223,1,99.7499969558717,8|0,0:2|1:2,0:0:0:0:
291,32,164033,6,0,P|314:75|314:124,1,99.7499969558717,0|0,3:2|1:2,0:0:0:0:
212,127,164313,1,8,0:2:0:0:
413,89,164453,2,0,P|462:90|504:115,1,99.7499969558717,0|0,1:2|3:2,0:0:0:0:
352,251,164734,2,0,P|302:249|260:224,1,99.7499969558717,0|8,1:2|0:2,0:0:0:0:
435,185,165014,1,0,1:2:0:0:
328,352,165154,5,0,3:2:0:0:
495,265,165294,1,0,1:2:0:0:
340,155,165435,1,8,0:2:0:0:
431,353,165575,1,0,1:2:0:0:
227,343,165715,2,0,L|90:327,1,99.7499969558717,0|0,3:2|1:2,0:0:0:0:
128,161,165995,2,0,P|160:203|167:252,1,99.7499969558717,8|0,0:2|1:2,0:0:0:0:
45,59,166276,6,0,B|83:47|83:47|146:61,1,99.7499969558717,4|0,3:2|1:2,0:0:0:0:
307,143,166556,1,8,1:2:0:0:
128,161,166696,6,0,B|90:173|90:173|27:159,1,99.7499969558717,0|0,1:2|3:2,0:0:0:0:
229,81,166977,2,0,B|261:30|261:30|296:12,1,99.7499969558717,0|8,1:2|0:2,0:0:0:0:
223,188,167257,2,0,B|250:241|250:241|248:280,1,99.7499969558717,0|0,1:2|3:2,0:0:0:0:
48,265,167537,5,12,0:2:0:0:
361,334,167678,1,0,3:2:0:0:
223,188,167818,1,12,0:2:0:0:
161,384,167958,1,0,3:2:0:0:
385,235,168098,1,0,0:2:0:0:
223,188,168238,1,12,0:2:0:0:
275,384,168379,1,0,0:2:0:0:
318,163,168519,5,8,0:2:0:0:
275,384,168659,1,0,3:2:0:0:
122,126,168799,1,8,0:2:0:0:
161,384,168939,1,0,1:2:0:0:
161,384,169220,1,0,3:2:0:0:
420,298,169360,5,8,0:2:0:0:
117,270,169500,1,0,3:2:0:0:
461,200,169640,1,8,0:2:0:0:
149,103,169780,1,0,1:2:0:0:
149,103,170061,1,0,3:2:0:0:
417,84,170201,5,8,0:2:0:0:
117,270,170341,1,8,0:2:0:0:
420,298,170481,1,8,0:2:0:0:
247,15,170622,1,8,1:2:0:0:
