osu file format v14

[General]
AudioFilename: audio.mp3
AudioLeadIn: 0
PreviewTime: 13682
Countdown: 0
SampleSet: None
StackLeniency: 0.7
Mode: 0
LetterboxInBreaks: 0
WidescreenStoryboard: 1

[Editor]
Bookmarks: 13752,22724,63168,81042,87841,92257,96603,121416,150575
DistanceSpacing: 1.3
BeatDivisor: 4
GridSize: 32
TimelineZoom: 2.2

[Metadata]
Title:HOPE
TitleUnicode:HOPE
Artist:BLUE ENCOUNT
ArtistUnicode:BLUE ENCOUNT
Creator:Monstrata
Version:MILAN-'S HARD
Source:
Tags:Mobile Suit Gundam IRON-BLOODED ORPHANS 機動戦士ガンダム 鉄血のオルフェンズ mikazuki augus orga itsuka snownino_ milan- corinn akitoshi shmiklak marvollo m_a_r_v_o_l_l_o
BeatmapID:1475733
BeatmapSetID:-1

[Difficulty]
HPDrainRate:5
CircleSize:4
OverallDifficulty:6
ApproachRate:8
SliderMultiplier:1.4
SliderTickRate:1

[Events]
//Background and Video events
0,0,"743390.jpg",0,0
//Break Periods
2,92457,95853
2,121476,122909
//Storyboard Layer 0 (Background)
//Storyboard Layer 1 (Fail)
//Storyboard Layer 2 (Pass)
//Storyboard Layer 3 (Foreground)
//Storyboard Sound Samples

[TimingPoints]
295,280.3738,4,3,1,70,1,0
295,-133.3333,4,3,1,70,0,0
4220,-100,4,3,1,70,0,0
4780,-100,4,3,1,70,0,0
13752,-133.333333333333,4,3,1,70,0,0
17678,-166.6667,4,3,1,70,0,0
18238,-90.9090909090909,4,3,1,70,0,0
22724,-111.111111111111,4,3,1,70,0,0
26650,-100,4,3,1,70,0,0
27210,-90.9090909090909,4,3,1,70,0,0
31696,-133.333333333333,4,3,1,70,0,0
38425,-111.111111111111,4,3,1,70,0,0
42981,-111.111111111111,4,3,1,5,0,0
43192,-111.111111111111,4,3,1,70,0,0
43262,-111.111111111111,4,3,1,5,0,0
43472,-111.111111111111,4,3,1,70,0,0
43542,-111.111111111111,4,3,1,5,0,0
43752,-111.111111111111,4,3,1,70,0,0
43823,-111.111111111111,4,3,1,5,0,0
44033,-111.111111111111,4,3,1,70,0,0
44173,-111.111111111111,4,3,1,20,0,0
44453,-111.111111111111,4,3,1,5,0,0
44594,-111.111111111111,4,3,1,70,0,0
44734,-111.111111111111,4,3,1,20,0,0
45014,-111.111111111111,4,3,1,5,0,0
45154,-100,4,3,1,50,0,1
45575,-100,4,3,1,80,0,1
63098,-111.111111111111,4,3,1,70,0,0
67584,-133.333333333333,4,3,1,70,0,0
72070,-111.111111111111,4,3,1,70,0,0
76556,-133.333333333333,4,3,1,70,0,0
79921,-111.111111111111,4,3,1,70,0,0
81042,-90.9090909090909,4,3,1,70,0,0
87771,-111.111111111111,4,3,1,70,0,0
96743,-133.333333333333,4,3,1,70,0,0
98986,-111.111111111111,4,3,1,70,0,0
101229,-90.9090909090909,4,3,1,80,0,1
110201,-133.333333333333,4,3,1,70,0,0
116930,-100,4,3,1,70,0,0
121556,-194.1748,4,3,1,20,0,0
122397,-194.1748,4,3,1,5,0,0
122537,-189.3939,4,3,1,70,0,0
122678,-189.3939,4,3,1,20,0,0
123519,-189.3939,4,3,1,5,0,0
123659,-100,4,3,1,80,0,1
141603,-111.111111111111,4,3,1,70,0,0
150575,-111.111111111111,4,3,1,80,0,0
161790,-100,4,3,1,70,0,0
170692,-100,4,3,1,5,0,0

[Colours]
Combo1 : 128,64,0
Combo2 : 128,0,0
Combo3 : 0,64,0
Combo4 : 64,0,64

[HitObjects]
6,257,295,6,0,L|-1:197,2,52.5000140190162,14|0|10,0:0|0:0|0:0,0:0:0:0:
319,256,855,1,2,0:0:0:0:
86,293,1136,2,0,L|79:353,2,52.5000140190162,10|0|10,0:0|0:0|0:0,0:0:0:0:
319,256,1696,1,2,0:0:0:0:
162,254,1977,2,0,L|155:194,2,52.5000140190162,10|8|2,0:0|0:0|0:0,0:0:0:0:
225,92,2537,6,0,L|218:152,2,52.5000140190162,10|0|10,0:0|0:0|0:0,0:0:0:0:
440,92,3097,1,2,0:0:0:0:
305,56,3378,2,0,L|298:-4,1,52.5000140190162,10|0,0:0|0:0,0:0:0:0:
298,3,3659,5,14,0:0:0:0:
357,125,3939,1,14,0:0:0:0:
407,237,4220,2,0,L|397:293,4,35,2|0|0|0|2,0:0|0:0|0:0|0:0|0:0,0:0:0:0:
406,237,4780,6,0,P|360:260|308:258,1,105,14|0,0:0|0:0,0:0:0:0:
298,268,5061,2,0,P|264:259|235:240,1,70,2|8,0:0|0:0,0:0:0:0:
217,340,5341,2,0,P|186:322|163:296,2,70,2|8|2,0:0|0:0|0:0,0:0:0:0:
116,384,5762,2,0,P|91:359|56:254,1,140,8|8,0:0|0:0,0:0:0:0:
10,172,6182,6,0,P|75:164|101:149,1,70,10|0,0:0|0:0,0:0:0:0:
110,84,6463,2,0,P|83:144|83:174,1,70,10|0,0:0|0:0,0:0:0:0:
138,218,6743,2,0,P|98:164|72:149,1,70,10|0,0:0|0:0,0:0:0:0:
200,124,7023,6,0,P|249:111|300:75,1,105,10|0,0:0|0:0,0:0:0:0:
310,89,7304,2,0,P|326:38|329:12,1,70,2|8,0:0|0:0,0:0:0:0:
377,139,7584,2,0,P|405:93|415:69,2,70,2|8|2,0:0|0:0|0:0,0:0:0:0:
491,145,8005,2,0,P|451:202|397:246,1,140,8|8,0:0|0:0,0:0:0:0:
358,366,8425,6,0,P|333:315|305:290,1,70,10|0,0:0|0:0,0:0:0:0:
235,283,8706,1,10,0:0:0:0:
377,139,8986,1,2,0:0:0:0:
235,283,9266,6,0,P|196:247|145:238,1,105,14|0,0:0|0:0,0:0:0:0:
136,226,9547,2,0,P|102:237|75:258,1,70,2|8,0:0|0:0,0:0:0:0:
115,148,9827,2,0,P|80:149|47:162,2,70,2|8|2,0:0|0:0|0:0,0:0:0:0:
57,62,10248,2,0,P|91:57|195:94,1,140,8|8,0:0|0:0,0:0:0:0:
296,95,10668,6,0,P|278:124|269:158,1,70,10|0,0:0|0:0,0:0:0:0:
195,183,10949,2,0,P|229:183|263:173,1,70,10|0,0:0|0:0,0:0:0:0:
323,229,11229,2,0,P|283:175|257:160,1,70,10|0,0:0|0:0,0:0:0:0:
382,149,11509,6,0,P|432:133|489:97,1,105,10|0,0:0|0:0,0:0:0:0:
493,115,11790,2,0,P|479:155|470:210,1,70,2|8,0:0|0:0,0:0:0:0:
502,267,12070,1,2,0:0:0:0:
432,346,12210,2,0,P|419:313|401:283,1,70,12|2,0:0|0:0,0:0:0:0:
312,212,12491,6,0,P|274:293|265:348,1,140,12|8,0:0|0:0,0:0:0:0:
178,369,12911,2,0,P|162:302|153:282,1,70,10|0,0:0|0:0,0:0:0:0:
87,354,13192,1,10,0:0:0:0:
26,286,13332,1,0,0:0:0:0:
100,233,13472,1,10,0:0:0:0:
24,35,13752,6,0,P|82:41|150:51,1,105.000004005432,6|2,0:0|0:0,0:0:0:0:
200,14,14173,1,8,0:0:0:0:
239,81,14313,2,0,P|297:74|365:65,1,105.000004005432,2|10,0:0|0:0,0:0:0:0:
411,28,14734,1,0,0:0:0:0:
332,88,14874,6,0,P|313:132|295:195,1,105.000004005432,10|2,0:0|0:0,0:0:0:0:
343,250,15294,1,8,0:0:0:0:
266,270,15435,2,0,P|286:318|301:368,1,105.000004005432,2|10,0:0|0:0,0:0:0:0:
379,376,15855,1,0,0:0:0:0:
279,367,15995,6,0,P|237:362|156:353,1,105.000004005432,10|2,0:0|0:0,0:0:0:0:
134,286,16416,1,8,0:0:0:0:
64,323,16556,2,0,L|14:311,4,26.2500010013581,10|0|0|0|14,0:0|0:0|0:0|0:0|0:0,0:0:0:0:
64,323,17117,5,10,0:0:0:0:
64,244,17257,1,8,0:0:0:0:
138,219,17397,1,10,0:0:0:0:
138,140,17537,1,8,0:0:0:0:
290,330,18238,5,6,0:0:0:0:
233,265,18379,2,0,B|286:247|286:247|332:260|332:260|395:247,1,154.000004699707,8|8,0:0|0:0,0:0:0:0:
336,178,18799,1,2,0:0:0:0:
420,173,18939,2,0,L|430:64,1,77.0000023498536,8|2,0:0|0:0,0:0:0:0:
341,93,19220,2,0,L|331:-16,1,77.0000023498536,8|2,0:0|0:0,0:0:0:0:
210,0,19500,6,0,P|248:67|262:160,1,154.000004699707,8|8,0:0|0:0,0:0:0:0:
230,221,19921,1,2,0:0:0:0:
179,153,20061,2,0,L|89:136,2,77.0000023498536,8|2|8,0:0|0:0|0:0,0:0:0:0:
145,62,20481,5,2,0:0:0:0:
88,126,20622,2,0,B|102:174|102:174|79:215|79:215|101:286,1,154.000004699707,8|8,0:0|0:0,0:0:0:0:
180,277,21042,2,0,L|166:374,1,77.0000023498536,2|8,0:0|0:0,0:0:0:0:
264,253,21323,2,0,L|278:350,1,77.0000023498536,2|8,0:0|0:0,0:0:0:0:
366,280,21603,6,0,L|352:377,1,77.0000023498536,2|8,0:0|0:0,0:0:0:0:
460,289,21883,1,2,0:0:0:0:
460,289,22023,2,0,B|452:235|452:235|414:207|414:207|403:136,1,154.000004699707,8|8,0:0|0:0,0:0:0:0:
491,160,22444,1,2,0:0:0:0:
491,160,22514,1,0,0:0:0:0:
491,160,22584,1,0,0:0:0:0:
393,171,22724,5,14,0:0:0:0:
321,130,22865,2,0,P|269:143|170:154,1,125.999996154785,0|0,0:0|0:0,0:0:0:0:
192,71,23285,1,10,0:0:0:0:
199,169,23425,2,0,P|147:156|48:145,1,125.999996154785,0|0,0:0|0:0,0:0:0:0:
0,219,23846,5,10,0:0:0:0:
66,164,23986,2,0,P|83:203|103:292,1,125.999996154785,0|0,0:0|0:0,0:0:0:0:
178,337,24407,1,10,0:0:0:0:
102,302,24547,2,0,P|136:275|198:209,1,125.999996154785,0|0,0:0|0:0,0:0:0:0:
223,135,24967,5,10,0:0:0:0:
210,225,25108,2,0,P|273:218|356:201,1,125.999996154785,0|0,0:0|0:0,0:0:0:0:
357,284,25528,1,10,0:0:0:0:
344,194,25669,2,0,P|407:201|490:218,1,125.999996154785,0|0,0:0|0:0,0:0:0:0:
512,141,26089,5,10,0:0:0:0:
450,199,26229,2,0,P|437:138|429:55,1,125.999996154785,0|0,0:0|0:0,0:0:0:0:
350,21,26650,2,0,P|338:79|322:110,1,70,14|8,0:0|0:0,0:0:0:0:
324,98,26860,1,8,0:0:0:0:
312,104,26930,2,0,L|256:88,4,35,8|0|8|0|0,0:0|0:0|0:0|0:0|0:0,0:0:0:0:
276,186,27351,6,0,B|222:170|222:170|192:133|192:133|132:107,1,154.000004699707,8|8,0:0|0:0,0:0:0:0:
142,198,27771,1,2,0:0:0:0:
68,155,27911,2,0,L|58:264,1,77.0000023498536,8|2,0:0|0:0,0:0:0:0:
168,277,28192,2,0,L|178:386,1,77.0000023498536,8|2,0:0|0:0,0:0:0:0:
256,289,28472,6,0,P|304:262|416:245,1,154.000004699707,8|8,0:0|0:0,0:0:0:0:
482,266,28893,1,2,0:0:0:0:
461,183,29033,2,0,L|484:104,2,77.0000023498536,8|2|8,0:0|0:0|0:0,0:0:0:0:
396,117,29453,5,2,0:0:0:0:
388,32,29594,2,0,B|341:51|341:51|311:88|311:88|257:104,1,154.000004699707,8|8,0:0|0:0,0:0:0:0:
205,38,30014,2,0,L|110:20,1,77.0000023498536,2|8,0:0|0:0,0:0:0:0:
176,116,30294,2,0,L|81:134,1,77.0000023498536,2|0,0:0|0:0,0:0:0:0:
203,193,30575,6,0,L|116:236,1,77.0000023498536,6|8,0:0|0:0,0:0:0:0:
130,236,30785,1,8,0:0:0:0:
126,244,30855,2,0,P|127:278|137:331,1,77.0000023498536,10|8,0:0|0:0,0:0:0:0:
219,375,31136,2,0,P|220:340|230:288,1,77.0000023498536,10|8,0:0|0:0,0:0:0:0:
308,240,31416,2,0,P|309:274|319:327,1,77.0000023498536,10|8,0:0|0:0,0:0:0:0:
429,375,31696,6,0,L|377:384,1,52.5000020027161,2|8,0:0|0:0,0:0:0:0:
445,130,32117,2,0,L|496:139,1,52.5000020027161,8|2,0:0|0:0,0:0:0:0:
503,331,32537,1,10,0:0:0:0:
434,290,32678,2,0,P|404:246|394:195,1,105.000004005432,0|8,0:0|0:0,0:0:0:0:
334,144,33098,2,0,P|279:157|230:150,1,105.000004005432,10|10,0:0|0:0,0:0:0:0:
170,101,33519,2,0,L|161:39,2,52.5000020027161,0|10|0,0:0|0:0|0:0,0:0:0:0:
79,70,33939,6,0,L|84:4,1,52.5000020027161,2|8,0:0|0:0,0:0:0:0:
276,220,34360,2,0,L|271:286,1,52.5000020027161,8|2,0:0|0:0,0:0:0:0:
34,142,34781,1,10,0:0:0:0:
112,149,34921,2,0,P|174:176|197:203,1,105.000004005432,0|8,0:0|0:0,0:0:0:0:
194,282,35341,2,0,P|183:306|157:334,1,52.5000020027161,10|0,0:0|0:0,0:0:0:0:
120,262,35622,2,0,P|98:277|62:288,1,52.5000020027161,10|0,0:0|0:0,0:0:0:0:
59,209,35902,2,0,P|32:211|-4:203,1,52.5000020027161,10|0,0:0|0:0,0:0:0:0:
31,132,36182,6,0,L|38:75,1,52.5000020027161,6|8,0:0|0:0,0:0:0:0:
283,4,36603,2,0,L|289:56,1,52.5000020027161,8|2,0:0|0:0,0:0:0:0:
91,16,37023,1,2,0:0:0:0:
119,90,37164,2,0,P|166:110|218:105,1,105.000004005432,0|0,0:0|0:0,0:0:0:0:
274,159,37584,2,0,P|279:210|310:252,1,105.000004005432,2|10,0:0|0:0,0:0:0:0:
390,276,38005,1,0,0:0:0:0:
390,276,38145,2,0,L|399:340,1,52.5000020027161,10|0,0:0|0:0,0:0:0:0:
463,240,38425,6,0,L|474:101,1,125.999996154785,6|2,0:0|0:0,0:0:0:0:
235,2,38986,2,0,L|225:127,1,125.999996154785,2|2,0:0|0:0,0:0:0:0:
445,38,39547,2,0,L|306:27,1,125.999996154785,2|2,0:0|0:0,0:0:0:0:
34,175,40108,2,0,L|159:184,1,125.999996154785,2|2,0:0|0:0,0:0:0:0:
238,223,40528,1,0,0:0:0:0:
318,188,40668,6,0,L|327:158,5,31.4999990386963,2|0|8|8|10|0,0:0|0:0|0:0|0:0|0:0|0:0,0:0:0:0:
309,145,41089,2,0,L|300:115,5,31.4999990386963,8|0|10|8|8|8,0:0|0:0|0:0|0:0|0:0|0:0,0:0:0:0:
318,98,41509,1,10,0:0:0:0:
308,264,41790,6,0,L|317:294,5,31.4999990386963,10|8|8|8|10|0,0:0|0:0|0:0|0:0|0:0|0:0,0:0:0:0:
299,307,42211,2,0,L|290:337,5,31.4999990386963,8|0|0|0|0|0,0:0|0:0|0:0|0:0|0:0|0:0,0:0:0:0:
308,354,42631,2,0,P|343:357|376:363,1,62.9999980773926,14|0,0:0|0:0,0:0:0:0:
476,306,42911,6,0,L|469:271,1,31.4999990386963,10|0,0:0|0:0,0:0:0:0:
324,172,43192,6,0,L|317:137,1,31.4999990386963,10|0,0:0|0:0,0:0:0:0:
402,238,43472,6,0,L|395:203,1,31.4999990386963,10|0,0:0|0:0,0:0:0:0:
250,104,43753,6,0,L|243:69,1,31.4999990386963,10|0,0:0|0:0,0:0:0:0:
15,223,45154,6,0,P|43:203|78:200,1,70,4|6,0:0|0:0,0:0:0:0:
31,98,45435,2,0,P|66:95|97:109,1,70,2|8,0:0|0:0,0:0:0:0:
108,0,45715,2,0,P|139:13|160:41,1,70,2|8,0:0|0:0,0:0:0:0:
188,127,45995,2,0,L|175:172,2,35,2|0|8,0:0|0:0|0:0,0:0:0:0:
248,58,46276,6,0,P|294:49|319:18,1,70,2|8,0:0|0:0,0:0:0:0:
417,41,46556,2,0,P|403:72|375:92,1,70,2|8,0:0|0:0,0:0:0:0:
380,188,46837,1,2,0:0:0:0:
380,188,46907,1,0,0:0:0:0:
380,188,46977,2,0,P|414:184|442:164,1,70,8|2,0:0|0:0,0:0:0:0:
512,253,47257,6,0,B|471:249|471:249|426:278|426:278|368:267,1,140,8|8,0:0|0:0,0:0:0:0:
297,234,47678,1,2,0:0:0:0:
244,308,47818,2,0,L|264:401,1,70,8|2,0:0|0:0,0:0:0:0:
148,346,48098,2,0,L|163:278,1,70,8|2,0:0|0:0,0:0:0:0:
129,192,48379,6,0,B|84:183|84:183|39:212|39:212|-1:208,2,140,8|8|8,0:0|0:0|0:0,0:0:0:0:
218,174,49080,2,0,P|244:136|249:93,1,70,2|8,0:0|0:0,0:0:0:0:
339,104,49360,2,0,P|329:70|307:43,1,70,2|8,0:0|0:0,0:0:0:0:
392,10,49640,5,2,0:0:0:0:
392,10,49780,2,0,P|438:52|526:37,1,140,8|8,0:0|0:0,0:0:0:0:
486,135,50201,2,0,P|451:179|444:216,1,70,2|8,0:0|0:0,0:0:0:0:
372,243,50481,2,0,P|363:227|353:199,2,35,2|0|8,0:0|0:0|0:0,0:0:0:0:
453,283,50762,1,2,0:0:0:0:
453,283,50902,2,0,P|402:274|338:340,1,140,8|8,0:0|0:0,0:0:0:0:
279,260,51323,6,0,L|180:277,1,70,2|8,0:0|0:0,0:0:0:0:
161,348,51603,2,0,L|62:331,1,70,2|8,0:0|0:0,0:0:0:0:
0,223,51883,6,0,L|99:240,1,70,2|8,0:0|0:0,0:0:0:0:
66,320,52163,2,0,L|165:303,1,70,2|8,0:0|0:0,0:0:0:0:
209,131,52444,6,0,L|110:148,1,70,2|8,0:0|0:0,0:0:0:0:
91,219,52724,2,0,L|-8:202,1,70,2|8,0:0|0:0,0:0:0:0:
0,81,53005,5,2,0:0:0:0:
0,81,53145,2,0,P|74:87|133:36,1,140,8|8,0:0|0:0,0:0:0:0:
207,11,53566,2,0,P|238:43|249:96,1,70,2|8,0:0|0:0,0:0:0:0:
326,22,53846,2,0,P|336:65|319:116,1,70,2|8,0:0|0:0,0:0:0:0:
333,89,54056,1,0,0:0:0:0:
333,89,54126,5,2,0:0:0:0:
360,176,54266,2,0,B|405:162|405:162|453:180|453:180|513:161,1,140,8|8,0:0|0:0,0:0:0:0:
511,87,54687,5,2,0:0:0:0:
492,168,54827,2,0,B|445:159|445:159|400:183|400:183|359:175,1,140,8|8,0:0|0:0,0:0:0:0:
298,243,55248,5,2,0:0:0:0:
211,234,55388,2,0,P|136:242|80:200,1,140,8|8,0:0|0:0,0:0:0:0:
3,195,55809,5,2,0:0:0:0:
85,207,55949,2,0,P|152:196|210:233,1,140,8|8,0:0|0:0,0:0:0:0:
279,292,56369,5,2,0:0:0:0:
340,358,56509,2,0,P|407:368|465:331,1,140,8|8,0:0|0:0,0:0:0:0:
449,240,56930,2,0,L|469:148,1,70,2|8,0:0|0:0,0:0:0:0:
412,96,57210,2,0,L|443:67,2,35,2|0|8,0:0|0:0|0:0,0:0:0:0:
323,71,57491,5,2,0:0:0:0:
323,71,57631,2,0,P|259:107|190:85,1,140,8|8,0:0|0:0,0:0:0:0:
121,41,58052,2,0,P|72:68|56:107,1,70,2|8,0:0|0:0,0:0:0:0:
50,168,58332,2,0,L|2:146,2,35,2|0|8,0:0|0:0|0:0,0:0:0:0:
140,173,58612,5,2,0:0:0:0:
140,173,58752,2,0,B|129:212|112:233|112:233|134:250|156:325,1,140,8|8,0:0|0:0,0:0:0:0:
238,304,59173,5,2,0:0:0:0:
146,296,59313,2,0,B|157:257|174:236|174:236|152:219|130:144,1,140,8|8,0:0|0:0,0:0:0:0:
197,101,59734,5,2,0:0:0:0:
283,130,59874,2,0,P|366:136|411:85,1,140,8|8,0:0|0:0,0:0:0:0:
474,42,60294,2,0,P|495:108|486:133,1,70,2|8,0:0|0:0,0:0:0:0:
446,183,60575,2,0,P|425:249|434:274,1,70,2|8,0:0|0:0,0:0:0:0:
501,351,60855,6,0,L|414:338,1,70,6|8,0:0|0:0,0:0:0:0:
431,340,61066,1,0,0:0:0:0:
431,340,61136,2,0,L|344:327,1,70,2|0,0:0|0:0,0:0:0:0:
286,368,61416,1,2,0:0:0:0:
286,368,61556,2,0,B|276:324|276:324|291:277|291:277|275:206,1,140,8|8,0:0|0:0,0:0:0:0:
198,271,61977,5,6,0:0:0:0:
216,188,62117,2,0,L|224:114,1,70,8|2,0:0|0:0,0:0:0:0:
223,118,62327,1,0,0:0:0:0:
223,118,62397,2,0,L|215:44,1,70,8|2,0:0|0:0,0:0:0:0:
120,103,62678,2,0,L|128:29,2,70,8|2|0,0:0|0:0|0:0,0:0:0:0:
64,163,63098,6,0,P|89:242|91:310,1,125.999996154785,2|2,0:0|0:0,0:0:0:0:
12,265,63519,1,0,0:0:0:0:
106,300,63659,2,0,P|141:271|220:250,1,125.999996154785,2|2,0:0|0:0,0:0:0:0:
263,181,64080,1,0,0:0:0:0:
227,269,64220,6,0,P|262:298|341:319,1,125.999996154785,2|2,0:0|0:0,0:0:0:0:
403,368,64640,1,0,0:0:0:0:
342,301,64780,2,0,P|381:258|465:219,1,125.999996154785,2|2,0:0|0:0,0:0:0:0:
491,289,65201,1,0,0:0:0:0:
441,205,65341,6,0,P|466:155|465:82,1,125.999996154785,2|2,0:0|0:0,0:0:0:0:
490,7,65762,1,0,0:0:0:0:
449,78,65902,2,0,P|404:100|311:93,1,125.999996154785,2|2,0:0|0:0,0:0:0:0:
362,24,66323,1,0,0:0:0:0:
315,113,66463,6,0,P|270:91|177:98,1,125.999996154785,2|6,0:0|0:0,0:0:0:0:
128,44,66883,1,0,0:0:0:0:
201,110,67023,2,0,L|188:193,1,62.9999980773926,6|0,0:0|0:0,0:0:0:0:
104,150,67304,2,0,L|117:233,1,62.9999980773926,6|0,0:0|0:0,0:0:0:0:
45,273,67584,6,0,B|96:296|96:296|155:283,2,105.000004005432,6|2|2,0:0|0:0|0:0,0:0:0:0:
16,352,68285,2,0,L|77:378,1,52.5000020027161,0|2,0:0|0:0,0:0:0:0:
225,259,68706,6,0,P|271:235|322:243,2,105.000004005432,2|2|2,0:0|0:0|0:0,0:0:0:0:
255,337,69407,2,0,P|285:320|321:326,1,52.5000020027161,0|2,0:0|0:0,0:0:0:0:
417,179,69827,6,0,L|403:238,2,52.5000020027161,2|0|2,0:0|0:0|0:0,0:0:0:0:
302,55,70388,2,0,L|314:106,2,52.5000020027161,2|0|2,0:0|0:0|0:0,0:0:0:0:
212,197,70949,2,0,L|198:256,2,52.5000020027161,2|0|2,0:0|0:0|0:0,0:0:0:0:
97,73,71510,2,0,L|109:124,2,52.5000020027161,2|0|2,0:0|0:0|0:0,0:0:0:0:
3,267,72070,6,0,P|73:278|133:298,1,125.999996154785,6|2,0:0|0:0,0:0:0:0:
170,363,72491,1,0,0:0:0:0:
242,326,72631,2,0,L|229:256,2,62.9999980773926,2|0|2,0:0|0:0|0:0,0:0:0:0:
512,142,73192,6,0,P|442:153|382:173,1,125.999996154785,2|2,0:0|0:0,0:0:0:0:
345,238,73613,1,0,0:0:0:0:
273,201,73753,2,0,L|286:131,2,62.9999980773926,2|0|2,0:0|0:0|0:0,0:0:0:0:
0,19,74313,6,0,P|70:30|130:50,1,125.999996154785,2|6,0:0|0:0,0:0:0:0:
167,115,74734,1,0,0:0:0:0:
239,78,74874,2,0,L|226:8,1,62.9999980773926,6|0,0:0|0:0,0:0:0:0:
312,111,75154,2,0,L|299:181,1,62.9999980773926,6|0,0:0|0:0,0:0:0:0:
387,79,75435,6,0,L|458:67,1,62.9999980773926,6|0,0:0|0:0,0:0:0:0:
508,181,75715,2,0,L|445:170,1,62.9999980773926,6|0,0:0|0:0,0:0:0:0:
394,234,75995,2,0,L|405:275,7,31.4999990386963,2|0|0|0|2|0|0|0,0:0|0:0|0:0|0:0|0:0|0:0|0:0|0:0,0:0:0:0:
397,284,76556,6,0,P|360:317|301:338,1,105.000004005432,6|2,0:0|0:0,0:0:0:0:
242,283,76977,2,0,P|205:250|146:229,1,105.000004005432,0|0,0:0|0:0,0:0:0:0:
77,264,77397,2,0,P|43:282|13:288,1,52.5000020027161,2|0,0:0|0:0,0:0:0:0:
34,192,77678,6,0,P|8:185|-17:173,2,52.5000020027161,2|0|2,0:0|0:0|0:0,0:0:0:0:
110,158,78098,2,0,P|169:135|206:89,1,105.000004005432,0|0,0:0|0:0,0:0:0:0:
213,22,78519,1,2,0:0:0:0:
213,22,78799,5,2,0:0:0:0:
299,53,78939,2,0,P|302:23|297:-18,2,52.5000020027161,0|2|0,0:0|0:0|0:0,0:0:0:0:
379,84,79360,2,0,P|431:87|480:71,1,105.000004005432,2|2,0:0|0:0,0:0:0:0:
325,207,79921,6,0,L|342:291,1,62.9999980773926,2|0,0:0|0:0,0:0:0:0:
337,268,80131,1,0,0:0:0:0:
337,268,80201,2,0,L|320:352,1,62.9999980773926,2|0,0:0|0:0,0:0:0:0:
239,281,80481,2,0,L|226:342,1,62.9999980773926,2|0,0:0|0:0,0:0:0:0:
139,288,80762,2,0,L|122:372,1,62.9999980773926,2|0,0:0|0:0,0:0:0:0:
44,294,81042,6,0,P|32:266|24:208,1,77.0000023498536,2|0,0:0|0:0,0:0:0:0:
105,195,81323,2,0,P|117:167|125:109,1,77.0000023498536,2|0,0:0|0:0,0:0:0:0:
53,75,81603,2,0,P|121:86|185:33,1,154.000004699707,2|2,0:0|0:0,0:0:0:0:
183,35,82164,6,0,P|226:27|277:29,1,77.0000023498536,2|0,0:0|0:0,0:0:0:0:
285,107,82444,2,0,P|322:114|361:115,1,77.0000023498536,2|0,0:0|0:0,0:0:0:0:
436,75,82724,2,0,L|451:166,1,77.0000023498536,2|0,0:0|0:0,0:0:0:0:
507,212,83005,2,0,L|492:303,1,77.0000023498536,2|0,0:0|0:0,0:0:0:0:
397,268,83285,6,0,L|412:359,1,77.0000023498536,6|0,0:0|0:0,0:0:0:0:
318,226,83566,2,0,L|303:317,1,77.0000023498536,2|0,0:0|0:0,0:0:0:0:
235,349,83846,2,0,P|191:366|93:319,1,154.000004699707,2|2,0:0|0:0,0:0:0:0:
97,326,84407,6,0,P|50:330|6:352,1,77.0000023498536,2|0,0:0|0:0,0:0:0:0:
0,225,84687,2,0,P|36:238|74:240,1,77.0000023498536,2|0,0:0|0:0,0:0:0:0:
109,133,84967,2,0,P|62:137|18:159,1,77.0000023498536,2|0,0:0|0:0,0:0:0:0:
18,36,85248,1,2,0:0:0:0:
18,36,85528,6,0,P|54:49|92:51,1,77.0000023498536,2|0,0:0|0:0,0:0:0:0:
174,72,85809,2,0,P|211:65|245:47,1,77.0000023498536,2|0,0:0|0:0,0:0:0:0:
326,73,86089,2,0,P|355:48|376:16,1,77.0000023498536,2|0,0:0|0:0,0:0:0:0:
465,41,86369,2,0,L|477:130,1,77.0000023498536,2|0,0:0|0:0,0:0:0:0:
475,117,86580,1,0,0:0:0:0:
475,117,86650,6,0,P|416:135|389:149,2,77.0000023498536,2|0|2,0:0|0:0|0:0,0:0:0:0:
467,201,87070,1,0,0:0:0:0:
404,257,87210,2,0,P|342:252|243:215,1,154.000004699707,2|2,0:0|0:0,0:0:0:0:
255,222,87771,6,0,L|245:347,1,125.999996154785,6|2,0:0|0:0,0:0:0:0:
10,56,88332,2,0,L|0:181,1,125.999996154785,2|2,0:0|0:0,0:0:0:0:
161,279,88893,2,0,L|35:269,1,125.999996154785,2|2,0:0|0:0,0:0:0:0:
347,152,89454,2,0,L|472:161,1,125.999996154785,2|2,0:0|0:0,0:0:0:0:
439,79,89874,1,0,0:0:0:0:
352,63,90014,6,0,L|271:88,2,62.9999980773926,6|0|2,0:0|0:0|0:0,0:0:0:0:
347,152,90435,2,0,L|289:214,2,62.9999980773926,0|6|0,0:0|0:0|0:0,0:0:0:0:
390,228,90855,2,0,L|371:310,1,62.9999980773926,6|0,0:0|0:0,0:0:0:0:
287,384,91136,6,0,L|348:368,2,62.9999980773926,6|0|0,0:0|0:0|0:0,0:0:0:0:
231,314,91556,2,0,L|169:298,1,62.9999980773926,0|2,0:0|0:0,0:0:0:0:
170,299,91766,1,0,0:0:0:0:
170,299,91837,2,0,L|123:320,4,31.4999990386963,0|0|2|0|0,0:0|0:0|0:0|0:0|0:0,0:0:0:0:
265,231,92257,5,2,0:0:0:0:
409,72,96603,5,0,0:0:0:0:
409,72,96673,1,0,0:0:0:0:
409,72,96743,2,0,L|416:130,2,52.5000020027161,14|0|2,0:0|0:0|0:0,0:0:0:0:
316,45,97164,2,0,L|309:103,2,52.5000020027161,8|2|0,0:0|0:0|0:0,0:0:0:0:
227,88,97584,2,0,L|234:146,1,52.5000020027161,14|0,0:0|0:0,0:0:0:0:
177,205,97865,6,0,L|105:195,2,52.5000020027161,14|0|2,0:0|0:0|0:0,0:0:0:0:
141,291,98285,2,0,L|213:281,2,52.5000020027161,12|2|0,0:0|0:0|0:0,0:0:0:0:
173,379,98706,2,0,L|101:369,1,52.5000020027161,14|0,0:0|0:0,0:0:0:0:
0,358,98986,6,0,P|41:324|-15:197,1,188.999994232178,2|0,0:0|0:0,0:0:0:0:
234,15,99827,2,0,P|203:54|199:74,1,62.9999980773926,2|0,0:0|0:0,0:0:0:0:
129,120,100108,2,0,P|147:166|162:179,1,62.9999980773926,2|0,0:0|0:0,0:0:0:0:
161,262,100388,2,0,P|210:269|229:262,1,62.9999980773926,2|0,0:0|0:0,0:0:0:0:
302,303,100668,1,2,0:0:0:0:
302,303,101229,5,6,0:0:0:0:
379,336,101369,2,0,B|386:289|386:289|362:239|362:239|371:177,1,154.000004699707,8|8,0:0|0:0,0:0:0:0:
447,223,101790,1,2,0:0:0:0:
354,195,101930,2,0,B|347:148|347:148|371:98|371:98|362:36,1,154.000004699707,8|8,0:0|0:0,0:0:0:0:
284,17,102351,6,0,L|232:26,2,38.5000011749268,2|0|8,0:0|0:0|0:0,0:0:0:0:
254,106,102631,2,0,L|260:143,2,38.5000011749268,2|0|8,0:0|0:0|0:0,0:0:0:0:
178,67,102911,2,0,L|126:76,2,38.5000011749268,2|0|8,0:0|0:0|0:0,0:0:0:0:
148,156,103191,2,0,L|154:193,2,38.5000011749268,2|0|8,0:0|0:0|0:0,0:0:0:0:
72,193,103472,6,0,L|65:154,2,38.5000011749268,2|0|8,0:0|0:0|0:0,0:0:0:0:
37,270,103752,2,0,L|-15:279,2,38.5000011749268,2|0|8,0:0|0:0|0:0,0:0:0:0:
125,301,104033,2,0,L|118:262,2,38.5000011749268,2|0|8,0:0|0:0|0:0,0:0:0:0:
90,378,104313,2,0,L|38:387,2,38.5000011749268,2|0|8,0:0|0:0|0:0,0:0:0:0:
200,359,104594,5,2,0:0:0:0:
200,359,104734,2,0,P|266:350|355:336,1,154.000004699707,8|8,0:0|0:0,0:0:0:0:
437,271,105154,1,2,0:0:0:0:
437,271,105294,2,0,P|371:262|282:248,1,154.000004699707,8|8,0:0|0:0,0:0:0:0:
194,197,105715,5,6,0:0:0:0:
275,237,105855,2,0,B|276:160|276:160|214:102,1,154.000004699707,8|8,0:0|0:0,0:0:0:0:
293,56,106276,1,2,0:0:0:0:
221,96,106416,2,0,B|144:94|144:94|86:157,1,154.000004699707,8|8,0:0|0:0,0:0:0:0:
52,226,106837,6,0,L|-2:218,2,38.5000011749268,2|0|8,0:0|0:0|0:0,0:0:0:0:
38,309,107117,2,0,L|-16:301,2,38.5000011749268,2|0|8,0:0|0:0|0:0,0:0:0:0:
133,378,107397,2,0,L|187:386,2,38.5000011749268,2|0|8,0:0|0:0|0:0,0:0:0:0:
147,295,107677,2,0,L|185:300,2,38.5000011749268,2|0|8,0:0|0:0|0:0,0:0:0:0:
191,215,107958,6,0,L|186:176,2,38.5000011749268,2|0|8,0:0|0:0|0:0,0:0:0:0:
272,194,108238,2,0,L|267:155,2,38.5000011749268,2|0|8,0:0|0:0|0:0,0:0:0:0:
328,295,108519,2,0,L|323:333,2,38.5000011749268,2|0|8,0:0|0:0|0:0,0:0:0:0:
409,316,108799,2,0,L|404:354,2,38.5000011749268,2|0|8,0:0|0:0|0:0,0:0:0:0:
460,248,109080,5,2,0:0:0:0:
460,248,109220,1,8,0:0:0:0:
460,248,109360,2,0,L|451:161,1,77.0000023498536,2|8,0:0|0:0,0:0:0:0:
367,190,109640,5,2,0:0:0:0:
367,190,109780,1,8,0:0:0:0:
367,190,109920,2,0,L|376:103,1,77.0000023498536,2|8,0:0|0:0,0:0:0:0:
272,194,110201,6,0,P|215:216|132:159,1,157.500006008148,6|0,0:0|0:0,0:0:0:0:
61,207,110762,2,0,P|58:167|45:89,1,105.000004005432,2|2,0:0|0:0,0:0:0:0:
367,190,111323,6,0,P|354:248|344:359,1,157.500006008148,2|2,0:0|0:0,0:0:0:0:
267,379,111883,2,0,P|216:364|164:357,1,105.000004005432,0|10,0:0|0:0,0:0:0:0:
110,45,112444,6,0,P|195:64|289:63,1,157.500006008148,6|2,0:0|0:0,0:0:0:0:
339,106,113005,2,0,P|382:91|443:79,1,105.000004005432,0|10,0:0|0:0,0:0:0:0:
494,378,113566,6,0,P|510:304|457:250,1,157.500006008148,2|0,0:0|0:0,0:0:0:0:
457,250,114056,1,0,0:0:0:0:
457,250,114126,1,10,0:0:0:0:
379,282,114266,2,0,P|343:288|310:223,1,105.000004005432,0|8,0:0|0:0,0:0:0:0:
251,173,114687,5,6,0:0:0:0:
251,173,114827,2,0,P|193:212|163:242,1,105.000004005432,0|0,0:0|0:0,0:0:0:0:
88,265,115248,2,0,P|70:200|52:160,1,105.000004005432,6|2,0:0|0:0,0:0:0:0:
284,0,115809,6,0,P|302:65|320:105,1,105.000004005432,6|2,0:0|0:0,0:0:0:0:
317,99,116369,2,0,L|349:106,7,26.2500010013581,2|0|0|0|10|0|0|0,0:0|0:0|0:0|0:0|0:0|0:0|0:0|0:0,0:0:0:0:
360,114,116930,6,0,L|445:101,1,70,2|0,0:0|0:0,0:0:0:0:
410,192,117210,2,0,L|495:205,1,70,2|0,0:0|0:0,0:0:0:0:
386,290,117491,2,0,L|471:277,1,70,2|0,0:0|0:0,0:0:0:0:
440,373,117771,2,0,L|525:386,1,70,2|0,0:0|0:0,0:0:0:0:
353,373,118051,6,0,P|316:372|285:351,1,70,2|0,0:0|0:0,0:0:0:0:
204,363,118332,2,0,P|172:343|156:309,1,70,2|0,0:0|0:0,0:0:0:0:
73,317,118612,2,0,P|55:284|58:247,1,70,2|0,0:0|0:0,0:0:0:0:
0,194,118893,2,0,P|1:157|22:126,1,70,2|0,0:0|0:0,0:0:0:0:
126,38,119173,5,2,0:0:0:0:
126,38,119313,2,0,L|37:48,1,70,10|2,0:0|0:0,0:0:0:0:
152,118,119594,1,8,0:0:0:0:
152,118,119734,2,0,L|241:128,1,70,2|10,0:0|0:0,0:0:0:0:
141,204,120014,1,2,0:0:0:0:
141,204,120154,2,0,L|52:214,1,70,8|2,0:0|0:0,0:0:0:0:
165,285,120435,2,0,P|246:318|268:372,1,140,8|8,0:0|0:0,0:0:0:0:
330,307,120855,5,6,0:0:0:0:
411,327,120995,1,12,0:0:0:0:
458,257,121136,1,6,0:0:0:0:
376,237,121276,1,12,0:0:0:0:
497,161,123659,6,0,P|469:181|434:184,1,70,6|8,0:0|0:0,0:0:0:0:
481,286,123940,2,0,P|446:289|415:275,1,70,2|8,0:0|0:0,0:0:0:0:
404,384,124220,2,0,P|373:371|352:343,1,70,2|8,0:0|0:0,0:0:0:0:
324,257,124500,2,0,L|337:212,2,35,2|0|8,0:0|0:0|0:0,0:0:0:0:
264,326,124781,6,0,P|218:335|193:366,1,70,2|8,0:0|0:0,0:0:0:0:
95,343,125061,2,0,P|109:312|137:292,1,70,2|8,0:0|0:0,0:0:0:0:
132,196,125342,1,2,0:0:0:0:
132,196,125412,1,0,0:0:0:0:
132,196,125482,2,0,P|98:200|70:220,1,70,8|2,0:0|0:0,0:0:0:0:
0,131,125762,6,0,B|41:135|41:135|86:106|86:106|144:117,1,140,8|8,0:0|0:0,0:0:0:0:
186,41,126183,1,2,0:0:0:0:
259,94,126323,2,0,L|273:162,1,70,8|2,0:0|0:0,0:0:0:0:
364,38,126603,2,0,L|349:106,1,70,8|2,0:0|0:0,0:0:0:0:
383,192,126884,6,0,B|428:201|428:201|473:172|473:172|513:176,2,140,8|8|8,0:0|0:0|0:0,0:0:0:0:
307,244,127585,2,0,P|281:282|276:325,1,70,2|8,0:0|0:0,0:0:0:0:
186,314,127865,2,0,P|196:348|218:375,1,70,2|8,0:0|0:0,0:0:0:0:
120,374,128145,5,6,0:0:0:0:
120,374,128285,2,0,P|74:332|-14:347,1,140,8|8,0:0|0:0,0:0:0:0:
26,249,128706,2,0,P|61:205|68:168,1,70,2|8,0:0|0:0,0:0:0:0:
38,105,128986,2,0,P|31:88|22:73,2,35,2|0|8,0:0|0:0|0:0,0:0:0:0:
131,127,129267,1,2,0:0:0:0:
131,127,129407,2,0,P|182:136|246:70,1,140,8|8,0:0|0:0,0:0:0:0:
314,22,129828,6,0,L|335:104,1,70,2|8,0:0|0:0,0:0:0:0:
422,83,130108,2,0,L|408:162,1,70,2|8,0:0|0:0,0:0:0:0:
310,240,130388,6,0,L|331:158,1,70,2|8,0:0|0:0,0:0:0:0:
435,188,130668,2,0,L|421:109,1,70,2|8,0:0|0:0,0:0:0:0:
338,222,130949,6,0,L|359:304,1,70,2|8,0:0|0:0,0:0:0:0:
446,283,131229,2,0,L|432:362,1,70,2|8,0:0|0:0,0:0:0:0:
346,380,131510,5,2,0:0:0:0:
346,380,131650,2,0,P|284:337|208:352,1,140,8|8,0:0|0:0,0:0:0:0:
135,372,132071,2,0,P|124:328|141:277,1,70,2|0,0:0|0:0,0:0:0:0:
38,303,132351,2,0,P|50:260|91:225,1,70,2|8,0:0|0:0,0:0:0:0:
65,242,132561,1,0,0:0:0:0:
65,242,132631,5,6,0:0:0:0:
165,157,132771,2,0,B|120:171|120:171|72:153|72:153|12:172,1,140,8|8,0:0|0:0,0:0:0:0:
10,76,133192,5,2,0:0:0:0:
33,165,133332,2,0,B|80:174|80:174|125:150|125:150|166:158,1,140,8|8,0:0|0:0,0:0:0:0:
237,214,133753,5,2,0:0:0:0:
301,150,133893,2,0,P|376:142|432:184,1,140,8|8,0:0|0:0,0:0:0:0:
503,126,134314,5,2,0:0:0:0:
427,177,134454,2,0,P|360:188|302:151,1,140,8|8,0:0|0:0,0:0:0:0:
233,92,134874,5,2,0:0:0:0:
172,26,135014,2,0,P|105:16|47:53,1,140,8|8,0:0|0:0,0:0:0:0:
63,144,135435,2,0,L|43:236,1,70,2|8,0:0|0:0,0:0:0:0:
135,237,135715,2,0,L|152:204,2,35,2|0|8,0:0|0:0|0:0,0:0:0:0:
75,306,135996,5,2,0:0:0:0:
75,306,136136,2,0,P|139:270|208:292,1,140,8|8,0:0|0:0,0:0:0:0:
279,331,136557,2,0,P|328:304|344:265,1,70,2|8,0:0|0:0,0:0:0:0:
426,282,136837,2,0,L|474:304,2,35,2|0|8,0:0|0:0|0:0,0:0:0:0:
372,211,137117,5,6,0:0:0:0:
372,211,137257,2,0,B|396:180|407:128|407:128|363:90,1,140,8|8,0:0|0:0,0:0:0:0:
299,36,137678,5,2,0:0:0:0:
369,95,137818,2,0,B|345:126|334:178|334:178|378:216,1,140,8|8,0:0|0:0,0:0:0:0:
315,283,138239,5,2,0:0:0:0:
229,254,138379,2,0,P|146:248|101:299,1,140,8|8,0:0|0:0,0:0:0:0:
38,342,138799,2,0,P|17:276|26:251,1,70,2|8,0:0|0:0,0:0:0:0:
66,201,139080,2,0,P|87:135|78:110,1,70,2|8,0:0|0:0,0:0:0:0:
11,33,139360,6,0,L|98:46,1,70,6|8,0:0|0:0,0:0:0:0:
81,44,139571,1,0,0:0:0:0:
81,44,139641,2,0,L|168:57,1,70,2|0,0:0|0:0,0:0:0:0:
226,16,139921,1,2,0:0:0:0:
226,16,140061,2,0,B|236:60|236:60|221:107|221:107|237:178,1,140,8|8,0:0|0:0,0:0:0:0:
314,113,140482,5,6,0:0:0:0:
312,203,140622,2,0,L|304:277,1,70,8|2,0:0|0:0,0:0:0:0:
305,273,140832,1,0,0:0:0:0:
304,272,140902,1,8,0:0:0:0:
382,335,141042,2,0,L|464:317,2,70,2|8|2,0:0|0:0|0:0,0:0:0:0:
297,369,141463,1,8,0:0:0:0:
226,312,141603,5,2,0:0:0:0:
226,312,141743,2,0,P|198:314|141:338,1,62.9999980773926,0|2,0:0|0:0,0:0:0:0:
183,226,142023,2,0,P|139:223|50:178,1,125.999996154785,8|0,0:0|0:0,0:0:0:0:
111,122,142444,2,0,P|76:84|62:54,1,62.9999980773926,10|0,0:0|0:0,0:0:0:0:
185,12,142724,6,0,P|176:71|181:101,2,62.9999980773926,2|0|2,0:0|0:0|0:0,0:0:0:0:
281,52,143145,2,0,P|264:80|250:116,2,62.9999980773926,8|2|0,0:0|0:0|0:0,0:0:0:0:
368,132,143566,2,0,P|329:154|312:174,1,62.9999980773926,10|0,0:0|0:0,0:0:0:0:
241,197,143846,5,2,0:0:0:0:
241,197,143986,2,0,L|256:273,1,62.9999980773926,0|2,0:0|0:0,0:0:0:0:
334,265,144266,2,0,P|279:298|262:380,1,125.999996154785,8|0,0:0|0:0,0:0:0:0:
189,308,144687,2,0,P|142:299|102:311,1,62.9999980773926,10|0,0:0|0:0,0:0:0:0:
21,298,144967,6,0,P|49:342|53:367,2,62.9999980773926,2|0|2,0:0|0:0|0:0,0:0:0:0:
95,227,145388,2,0,P|123:183|127:158,2,62.9999980773926,8|2|0,0:0|0:0|0:0,0:0:0:0:
17,156,145809,1,10,0:0:0:0:
17,156,145949,1,0,0:0:0:0:
17,156,146089,5,10,0:0:0:0:
66,90,146229,2,0,P|121:87|211:65,1,125.999996154785,0|8,0:0|0:0,0:0:0:0:
251,16,146650,2,0,P|305:49|311:55,1,62.9999980773926,2|0,0:0|0:0,0:0:0:0:
382,23,146930,2,0,P|396:50|401:81,1,62.9999980773926,10|0,0:0|0:0,0:0:0:0:
472,175,147210,5,10,0:0:0:0:
472,175,147351,2,0,P|385:159|322:163,1,125.999996154785,0|8,0:0|0:0,0:0:0:0:
268,179,147771,2,0,P|292:233|301:257,1,62.9999980773926,2|0,0:0|0:0,0:0:0:0:
233,292,148051,2,0,P|294:338|302:346,1,62.9999980773926,10|0,0:0|0:0,0:0:0:0:
172,361,148332,5,10,0:0:0:0:
172,361,148472,2,0,P|176:300|156:217,1,125.999996154785,0|8,0:0|0:0,0:0:0:0:
83,219,148893,2,0,P|42:255|31:263,1,62.9999980773926,2|0,0:0|0:0,0:0:0:0:
1,185,149173,2,0,P|25:165|48:144,1,62.9999980773926,10|0,0:0|0:0,0:0:0:0:
91,74,149453,6,0,L|131:69,5,31.4999990386963,10|0|0|0|2|0,0:0|0:0|0:0|0:0|0:0|0:0,0:0:0:0:
138,57,149874,2,0,L|178:62,5,31.4999990386963,8|0|2|0|0|0,0:0|0:0|0:0|0:0|0:0|0:0,0:0:0:0:
193,57,150294,1,14,0:0:0:0:
478,20,150575,6,0,P|472:62|467:159,1,125.999996154785,2|10,0:0|0:0,0:0:0:0:
189,158,151136,2,0,P|194:200|200:297,1,125.999996154785,2|10,0:0|0:0,0:0:0:0:
390,108,151696,2,0,P|333:118|252:127,1,125.999996154785,2|10,0:0|0:0,0:0:0:0:
130,331,152257,2,0,P|73:321|-8:312,1,125.999996154785,2|10,0:0|0:0,0:0:0:0:
297,298,152818,6,0,P|356:317|442:335,2,125.999996154785,2|2|2,0:0|0:0|0:0,0:0:0:0:
475,90,153659,1,2,0:0:0:0:
224,230,153939,2,0,P|283:211|369:193,2,125.999996154785,2|10|2,0:0|0:0|0:0,0:0:0:0:
0,70,154780,1,10,0:0:0:0:
140,259,155061,6,0,P|147:186|174:113,1,125.999996154785,2|10,0:0|0:0,0:0:0:0:
371,0,155622,2,0,P|378:73|405:146,1,125.999996154785,2|10,0:0|0:0,0:0:0:0:
163,52,156182,2,0,P|233:57|302:53,1,125.999996154785,2|10,0:0|0:0,0:0:0:0:
492,208,156743,2,0,P|422:213|353:209,1,125.999996154785,10|10,0:0|0:0,0:0:0:0:
232,370,157304,6,0,P|219:341|203:314,2,62.9999980773926,2|8|2,0:0|0:0|0:0,0:0:0:0:
134,176,157865,2,0,P|121:204|105:231,2,62.9999980773926,2|8|2,0:0|0:0|0:0,0:0:0:0:
339,338,158425,2,0,P|326:309|310:282,2,62.9999980773926,2|8|10,0:0|0:0|0:0,0:0:0:0:
241,144,158986,2,0,P|228:172|212:199,2,62.9999980773926,10|0|10,0:0|0:0|0:0,0:0:0:0:
191,377,159547,6,0,L|230:387,11,31.4999990386963,2|0|8|0|10|0|8|8|2|0|8|8,0:0|0:0|0:0|0:0|0:0|0:0|0:0|0:0|0:0|0:0|0:0|0:0,0:0:0:0:
173,363,160388,1,10,0:0:0:0:
173,363,160668,6,0,P|165:330|162:294,1,62.9999980773926,2|2,0:0|0:0,0:0:0:0:
74,315,160949,2,0,P|77:283|84:253,1,62.9999980773926,2|0,0:0|0:0,0:0:0:0:
166,219,161229,2,0,L|196:225,2,31.4999990386963,2|0|0,0:0|0:0|0:0,0:0:0:0:
106,147,161509,1,2,0:0:0:0:
106,147,161790,6,0,P|152:124|204:126,1,105,14|0,0:0|0:0,0:0:0:0:
214,116,162071,2,0,P|248:125|277:144,1,70,2|0,0:0|0:0,0:0:0:0:
295,44,162351,2,0,P|326:62|349:88,2,70,2|8|2,0:0|0:0|0:0,0:0:0:0:
396,0,162772,2,0,P|421:25|456:130,1,140,8|0,0:0|0:0,0:0:0:0:
502,212,163192,6,0,P|437:220|411:235,1,70,10|0,0:0|0:0,0:0:0:0:
402,300,163473,2,0,P|429:240|429:210,1,70,10|0,0:0|0:0,0:0:0:0:
374,166,163753,2,0,P|414:220|440:235,1,70,10|0,0:0|0:0,0:0:0:0:
312,260,164033,6,0,P|263:273|212:309,1,105,10|0,0:0|0:0,0:0:0:0:
202,295,164314,2,0,P|186:346|183:372,1,70,2|0,0:0|0:0,0:0:0:0:
135,245,164594,2,0,P|107:291|97:315,2,70,2|8|2,0:0|0:0|0:0,0:0:0:0:
21,239,165015,2,0,P|61:182|115:138,1,140,8|8,0:0|0:0,0:0:0:0:
154,18,165435,6,0,P|179:69|207:94,1,70,10|0,0:0|0:0,0:0:0:0:
277,101,165716,1,10,0:0:0:0:
135,245,165996,1,2,0:0:0:0:
277,101,166276,6,0,P|316:137|367:146,1,105,14|0,0:0|0:0,0:0:0:0:
376,158,166557,2,0,P|410:147|437:126,1,70,2|0,0:0|0:0,0:0:0:0:
397,236,166837,2,0,P|432:235|465:222,2,70,2|8|2,0:0|0:0|0:0,0:0:0:0:
455,322,167258,2,0,P|421:327|317:290,1,140,8|0,0:0|0:0,0:0:0:0:
216,289,167678,6,0,P|234:260|243:226,1,70,14|0,0:0|0:0,0:0:0:0:
317,201,167959,2,0,P|283:201|249:211,1,70,10|0,0:0|0:0,0:0:0:0:
189,155,168239,2,0,P|229:209|255:224,1,70,14|0,0:0|0:0,0:0:0:0:
130,235,168519,6,0,P|80:251|23:287,1,105,10|0,0:0|0:0,0:0:0:0:
19,269,168800,2,0,P|33:229|42:174,1,70,2|0,0:0|0:0,0:0:0:0:
80,38,169220,6,0,P|93:71|111:101,1,70,8|2,0:0|0:0,0:0:0:0:
181,45,169500,2,0,P|208:67|239:84,2,70,8|2|12,0:0|0:0|0:0,0:0:0:0:
419,55,170061,6,0,P|364:76|342:90,1,70,0|10,0:0|0:0,0:0:0:0:
302,156,170342,1,8,0:0:0:0:
376,208,170482,1,8,0:0:0:0:
324,283,170622,1,12,0:0:0:0:
