osu file format v14

[General]
AudioFilename: audio.mp3
AudioLeadIn: 0
PreviewTime: 13682
Countdown: 0
SampleSet: None
StackLeniency: 0.3
Mode: 0
LetterboxInBreaks: 0
WidescreenStoryboard: 1

[Editor]
Bookmarks: 92257,94500,96743,110201,116930
DistanceSpacing: 1.1
BeatDivisor: 4
GridSize: 4
TimelineZoom: 1.7

[Metadata]
Title:HOPE
TitleUnicode:HOPE
Artist:BLUE ENCOUNT
ArtistUnicode:BLUE ENCOUNT
Creator:Monstrata
Version:AKITOSHI'S NORMAL
Source:
Tags:Mobile Suit Gundam IRON-BLOODED ORPHANS 機動戦士ガンダム 鉄血のオルフェンズ mikazuki augus orga itsuka snownino_ milan- corinn akitoshi shmiklak marvollo m_a_r_v_o_l_l_o
BeatmapID:1475734
BeatmapSetID:685622

[Difficulty]
HPDrainRate:4
CircleSize:3.3
OverallDifficulty:4
ApproachRate:5.5
SliderMultiplier:0.999999999999999
SliderTickRate:1

[Events]
//Background and Video events
0,0,"743390.jpg",0,0
//Break Periods
2,110401,115805
//Storyboard Layer 0 (Background)
//Storyboard Layer 1 (Fail)
//Storyboard Layer 2 (Pass)
//Storyboard Layer 3 (Foreground)
//Storyboard Sound Samples

[TimingPoints]
295,280.3738,4,3,1,70,1,0
295,-100,4,3,1,70,0,0
4780,-100,4,3,1,70,0,0
17678,-100,4,3,1,70,0,0
18238,-100,4,3,1,70,0,0
42981,-100,4,3,1,5,0,0
43192,-100,4,3,1,70,0,0
43262,-100,4,3,1,5,0,0
43472,-100,4,3,1,70,0,0
43542,-100,4,3,1,5,0,0
43752,-100,4,3,1,70,0,0
43823,-100,4,3,1,5,0,0
44033,-100,4,3,1,70,0,0
44173,-100,4,3,1,20,0,0
44453,-100,4,3,1,5,0,0
44594,-100,4,3,1,70,0,0
44734,-100,4,3,1,20,0,0
45014,-100,4,3,1,5,0,0
45154,-100,4,3,1,80,0,1
63098,-100,4,3,1,70,0,0
101229,-100,4,3,1,80,0,1
110201,-100,4,3,1,70,0,0
121416,-100,4,3,1,70,0,0
121556,-100,4,3,1,20,0,0
122397,-100,4,3,1,5,0,0
122537,-100,4,3,1,70,0,0
122678,-100,4,3,1,20,0,0
123519,-100,4,3,1,5,0,0
123659,-100,4,3,1,80,0,1
141603,-100,4,3,1,70,0,0
150575,-100,4,3,1,80,0,1
161790,-100,4,3,1,70,0,0
170692,-100,4,3,1,5,0,0

[Colours]
Combo1 : 128,64,0
Combo2 : 128,0,0
Combo3 : 0,64,0
Combo4 : 64,0,64

[HitObjects]
303,285,295,6,0,L|411:294,2,99.9999999999999,14|10|2,0:0|0:0|0:0,0:0:0:0:
208,251,1136,2,0,L|100:260,2,99.9999999999999,10|10|2,0:0|0:0|0:0,0:0:0:0:
285,188,1977,2,0,P|294:140|276:70,1,99.9999999999999,10|2,0:0|0:0,0:0:0:0:
207,27,2537,6,0,L|103:33,1,99.9999999999999,10|10,0:0|0:0,0:0:0:0:
29,96,3098,1,2,0:0:0:0:
15,195,3379,2,0,P|27:254|61:293,1,99.9999999999999,10|14,0:0|0:0,0:0:0:0:
149,301,3939,1,14,0:0:0:0:
243,268,4220,2,0,L|236:202,2,50,2|0|2,0:0|0:0|0:0,0:0:0:0:
264,365,4780,6,0,P|328:367|367:352,1,99.9999999999999,14|2,0:0|0:0,0:0:0:0:
439,292,5341,2,0,L|488:296,2,50,2|8|2,0:0|0:0|0:0,0:0:0:0:
405,254,5762,2,0,P|403:190|418:151,1,99.9999999999999,8|8,0:0|0:0,0:0:0:0:
440,114,6182,1,10,0:0:0:0:
389,27,6463,1,10,0:0:0:0:
289,30,6743,1,10,0:0:0:0:
224,105,7023,6,0,L|219:220,1,99.9999999999999,10|2,0:0|0:0,0:0:0:0:
161,286,7584,2,0,L|163:343,2,50,2|8|2,0:0|0:0|0:0,0:0:0:0:
115,264,8005,2,0,P|99:217|109:158,1,99.9999999999999,8|8,0:0|0:0,0:0:0:0:
126,122,8425,1,10,0:0:0:0:
224,105,8706,1,10,0:0:0:0:
311,153,8986,1,2,0:0:0:0:
341,247,9266,6,0,P|393:260|454:241,1,99.9999999999999,14|2,0:0|0:0,0:0:0:0:
502,173,9827,1,2,0:0:0:0:
502,173,9968,2,0,L|496:123,1,50,8|2,0:0|0:0,0:0:0:0:
485,74,10248,2,0,P|433:61|372:80,1,99.9999999999999,8|8,0:0|0:0,0:0:0:0:
343,91,10668,1,10,0:0:0:0:
250,51,10949,1,10,0:0:0:0:
151,69,11229,1,10,0:0:0:0:
84,143,11509,6,0,P|75:193|97:256,1,99.9999999999999,10|2,0:0|0:0,0:0:0:0:
149,324,12070,1,2,0:0:0:0:
149,324,12210,2,0,L|206:321,1,50,12|2,0:0|0:0,0:0:0:0:
239,292,12491,2,0,L|344:297,1,99.9999999999999,12|8,0:0|0:0,0:0:0:0:
388,304,12911,1,10,0:0:0:0:
474,253,13192,1,10,0:0:0:0:
483,153,13472,1,10,0:0:0:0:
421,74,13752,6,0,P|354:90|307:84,1,99.9999999999999,2|2,0:0|0:0,0:0:0:0:
243,27,14313,1,2,0:0:0:0:
151,66,14594,1,10,0:0:0:0:
139,165,14874,2,0,P|169:202|221:222,1,99.9999999999999,10|2,0:0|0:0,0:0:0:0:
311,186,15435,1,2,0:0:0:0:
323,87,15715,1,10,0:0:0:0:
243,27,15995,6,0,L|119:34,1,99.9999999999999,10|2,0:0|0:0,0:0:0:0:
55,81,16556,1,10,0:0:0:0:
53,181,16837,1,14,0:0:0:0:
139,232,17117,2,0,L|197:227,1,50,10|8,0:0|0:0,0:0:0:0:
228,197,17397,2,0,L|286:202,1,50,10|8,0:0|0:0,0:0:0:0:
317,232,17678,1,2,0:0:0:0:
162,358,18238,6,0,P|101:364|53:348,1,99.9999999999999,2|2,0:0|0:0,0:0:0:0:
28,318,18659,2,0,L|21:208,1,99.9999999999999,8|8,0:0|0:0,0:0:0:0:
19,167,19080,1,2,0:0:0:0:
79,87,19360,2,0,P|140:81|188:97,1,99.9999999999999,2|2,0:0|0:0,0:0:0:0:
213,127,19781,2,0,L|220:237,1,99.9999999999999,8|8,0:0|0:0,0:0:0:0:
222,278,20202,1,2,0:0:0:0:
293,346,20481,6,0,P|342:355|412:337,1,99.9999999999999,2|2,0:0|0:0,0:0:0:0:
467,281,21042,1,2,0:0:0:0:
496,185,21323,1,2,0:0:0:0:
440,101,21603,2,0,L|331:106,1,99.9999999999999,2|2,0:0|0:0,0:0:0:0:
240,119,22164,1,2,0:0:0:0:
176,196,22444,1,2,0:0:0:0:
183,295,22724,6,0,P|132:310|72:295,1,99.9999999999999,14|2,0:0|0:0,0:0:0:0:
15,231,23285,1,10,0:0:0:0:
15,130,23566,1,2,0:0:0:0:
85,59,23846,2,0,P|136:44|196:59,1,99.9999999999999,10|2,0:0|0:0,0:0:0:0:
252,122,24407,1,10,0:0:0:0:
252,221,24687,1,2,0:0:0:0:
322,291,24967,6,0,P|383:297|433:278,1,99.9999999999999,10|2,0:0|0:0,0:0:0:0:
490,214,25528,1,10,0:0:0:0:
490,113,25809,1,2,0:0:0:0:
419,42,26089,2,0,P|358:36|308:55,1,99.9999999999999,10|2,0:0|0:0,0:0:0:0:
238,102,26650,2,0,P|177:108|127:89,1,99.9999999999999,14|8,0:0|0:0,0:0:0:0:
51,51,27210,6,0,L|41:151,1,99.9999999999999,0|2,0:0|0:0,0:0:0:0:
8,189,27631,2,0,L|18:289,1,99.9999999999999,8|8,0:0|0:0,0:0:0:0:
24,338,28052,1,2,0:0:0:0:
121,316,28332,2,0,P|176:314|222:333,1,99.9999999999999,2|2,0:0|0:0,0:0:0:0:
260,355,28752,2,0,P|315:357|361:338,1,99.9999999999999,8|8,0:0|0:0,0:0:0:0:
395,309,29173,1,2,0:0:0:0:
431,215,29453,6,0,L|424:103,1,99.9999999999999,2|2,0:0|0:0,0:0:0:0:
384,23,30014,1,2,0:0:0:0:
284,10,30294,1,2,0:0:0:0:
202,68,30575,2,0,P|157:86|97:85,1,99.9999999999999,6|10,0:0|0:0,0:0:0:0:
9,61,31136,2,0,L|13:8,2,50,10|8|10,0:0|0:0|0:0,0:0:0:0:
35,157,31696,6,0,B|53:205|53:205|40:253|28:313,2,150,2|8|10,0:0|0:0|0:0,0:0:0:0:
106,86,32818,2,0,P|153:76|214:92,1,99.9999999999999,2|10,0:0|0:0,0:0:0:0:
292,132,33379,2,0,P|339:142|400:126,1,99.9999999999999,10|10,0:0|0:0,0:0:0:0:
445,49,33939,6,0,P|482:96|464:198,2,150,2|8|10,0:0|0:0|0:0,0:0:0:0:
347,26,35061,2,0,L|233:33,1,99.9999999999999,2|10,0:0|0:0,0:0:0:0:
193,116,35622,2,0,L|79:109,1,99.9999999999999,10|10,0:0|0:0,0:0:0:0:
9,54,36182,6,0,P|47:119|38:198,1,150,6|8,0:0|0:0,0:0:0:0:
24,238,36743,2,0,P|70:253|138:239,1,99.9999999999999,2|2,0:0|0:0,0:0:0:0:
219,230,37304,2,0,L|212:338,2,99.9999999999999,10|2|10,0:0|0:0|0:0,0:0:0:0:
282,152,38145,1,10,0:0:0:0:
381,154,38425,6,0,P|413:212|409:261,1,99.9999999999999,6|2,0:0|0:0,0:0:0:0:
391,342,38986,2,0,P|333:374|284:370,1,99.9999999999999,2|2,0:0|0:0,0:0:0:0:
212,329,39547,2,0,L|91:337,2,99.9999999999999,2|2|2,0:0|0:0|0:0,0:0:0:0:
277,252,40388,1,2,0:0:0:0:
234,161,40668,6,0,P|185:151|137:164,1,99.9999999999999,2|10,0:0|0:0,0:0:0:0:
51,216,41229,1,10,0:0:0:0:
51,315,41509,1,10,0:0:0:0:
137,364,41790,2,0,P|185:373|233:360,1,99.9999999999999,10|10,0:0|0:0,0:0:0:0:
303,289,42351,2,0,L|365:292,1,50,2|2,0:0|0:0,0:0:0:0:
393,320,42631,2,0,L|455:317,1,50,14|0,0:0|0:0,0:0:0:0:
485,291,42911,5,10,0:0:0:0:
509,193,43192,1,10,0:0:0:0:
466,102,43472,1,10,0:0:0:0:
371,70,43752,1,10,0:0:0:0:
371,70,45154,6,0,P|325:85|260:82,1,99.9999999999999,0|2,0:0|0:0,0:0:0:0:
233,65,45575,1,8,0:0:0:0:
233,65,45715,2,0,P|187:80|122:77,1,99.9999999999999,2|2,0:0|0:0,0:0:0:0:
35,73,46276,1,2,0:0:0:0:
7,168,46556,1,2,0:0:0:0:
51,257,46837,2,0,P|101:248|154:257,1,99.9999999999999,2|2,0:0|0:0,0:0:0:0:
224,321,47397,6,0,L|330:314,1,99.9999999999999,2|2,0:0|0:0,0:0:0:0:
362,282,47818,1,8,0:0:0:0:
362,282,47958,2,0,L|468:289,1,99.9999999999999,2|2,0:0|0:0,0:0:0:0:
504,198,48519,2,0,P|504:148|475:91,1,99.9999999999999,2|2,0:0|0:0,0:0:0:0:
407,37,49080,1,2,0:0:0:0:
307,32,49360,1,2,0:0:0:0:
217,77,49640,6,0,P|168:65|112:71,2,99.9999999999999,2|2|2,0:0|0:0|0:0,0:0:0:0:
286,149,50481,1,2,0:0:0:0:
339,233,50762,2,0,L|326:354,1,99.9999999999999,2|2,0:0|0:0,0:0:0:0:
234,366,51323,1,2,0:0:0:0:
134,363,51603,1,2,0:0:0:0:
54,302,51883,6,0,P|41:249|52:197,1,99.9999999999999,2|2,0:0|0:0,0:0:0:0:
88,113,52444,1,2,0:0:0:0:
181,78,52724,1,2,0:0:0:0:
269,124,53005,2,0,P|318:135|374:117,1,99.9999999999999,2|2,0:0|0:0,0:0:0:0:
464,133,53566,2,0,L|472:194,1,50,2|8,0:0|0:0,0:0:0:0:
504,218,53846,2,0,L|496:279,1,50,2|8,0:0|0:0,0:0:0:0:
480,314,54126,6,0,P|418:329|367:320,1,99.9999999999999,2|2,0:0|0:0,0:0:0:0:
318,247,54687,2,0,P|256:232|205:241,1,99.9999999999999,2|2,0:0|0:0,0:0:0:0:
125,268,55248,2,0,L|138:374,2,99.9999999999999,2|2|2,0:0|0:0|0:0,0:0:0:0:
51,200,56089,1,2,0:0:0:0:
90,108,56369,6,0,P|152:89|200:98,1,99.9999999999999,2|2,0:0|0:0,0:0:0:0:
275,147,56930,1,2,0:0:0:0:
275,147,57070,2,0,L|390:139,1,99.9999999999999,8|8,0:0|0:0,0:0:0:0:
424,137,57491,2,0,P|443:182|440:239,1,99.9999999999999,2|2,0:0|0:0,0:0:0:0:
394,321,58052,1,2,0:0:0:0:
298,350,58332,1,2,0:0:0:0:
214,294,58612,6,0,P|164:285|109:298,1,99.9999999999999,2|2,0:0|0:0,0:0:0:0:
73,314,59033,1,8,0:0:0:0:
73,314,59173,2,0,L|63:203,1,99.9999999999999,2|2,0:0|0:0,0:0:0:0:
60,114,59734,1,2,0:0:0:0:
130,42,60014,1,2,0:0:0:0:
226,67,60294,2,0,P|278:75|329:61,1,99.9999999999999,2|2,0:0|0:0,0:0:0:0:
370,41,60715,1,8,0:0:0:0:
370,41,60855,6,0,L|377:151,1,99.9999999999999,6|2,0:0|0:0,0:0:0:0:
382,245,61416,1,2,0:0:0:0:
382,245,61556,2,0,P|332:235|282:247,1,99.9999999999999,8|8,0:0|0:0,0:0:0:0:
254,286,61977,2,0,L|140:278,1,99.9999999999999,6|2,0:0|0:0,0:0:0:0:
54,272,62537,1,2,0:0:0:0:
12,180,62818,1,2,0:0:0:0:
83,111,63098,6,0,P|151:112|195:130,1,99.9999999999999,2|2,0:0|0:0,0:0:0:0:
243,202,63659,1,2,0:0:0:0:
342,188,63940,1,2,0:0:0:0:
379,95,64220,2,0,P|359:51|314:18,1,99.9999999999999,2|2,0:0|0:0,0:0:0:0:
218,31,64781,1,2,0:0:0:0:
181,123,65061,1,2,0:0:0:0:
243,202,65341,6,0,L|251:313,1,99.9999999999999,2|2,0:0|0:0,0:0:0:0:
319,374,65902,1,2,0:0:0:0:
419,374,66183,1,2,0:0:0:0:
491,304,66463,2,0,P|498:242|482:195,1,99.9999999999999,2|6,0:0|0:0,0:0:0:0:
422,131,67023,2,0,L|352:126,1,50,6|0,0:0|0:0,0:0:0:0:
335,93,67304,2,0,L|265:98,1,50,6|0,0:0|0:0,0:0:0:0:
245,127,67584,6,0,P|189:131|138:113,1,99.9999999999999,6|2,0:0|0:0,0:0:0:0:
104,92,68005,2,0,L|98:202,1,99.9999999999999,0|0,0:0|0:0,0:0:0:0:
93,241,68425,1,2,0:0:0:0:
159,316,68706,2,0,P|215:312|266:330,1,99.9999999999999,2|2,0:0|0:0,0:0:0:0:
300,351,69127,2,0,L|306:241,1,99.9999999999999,0|0,0:0|0:0,0:0:0:0:
311,205,69547,1,2,0:0:0:0:
311,205,69687,6,0,P|357:191|425:204,1,99.9999999999999,0|0,0:0|0:0,0:0:0:0:
455,213,70108,1,2,0:0:0:0:
479,309,70388,2,0,P|446:344|380:366,1,99.9999999999999,2|2,0:0|0:0,0:0:0:0:
300,351,70949,1,2,0:0:0:0:
238,271,71229,1,2,0:0:0:0:
311,205,71509,2,0,L|302:92,1,99.9999999999999,2|2,0:0|0:0,0:0:0:0:
234,32,72070,6,0,P|182:46|141:86,1,99.9999999999999,6|2,0:0|0:0,0:0:0:0:
137,175,72631,1,2,0:0:0:0:
215,237,72911,1,2,0:0:0:0:
311,205,73192,2,0,L|417:207,1,99.9999999999999,2|2,0:0|0:0,0:0:0:0:
496,258,73752,1,2,0:0:0:0:
460,351,74033,1,2,0:0:0:0:
361,368,74313,6,0,P|315:352|244:356,1,99.9999999999999,2|6,0:0|0:0,0:0:0:0:
164,363,74874,1,6,0:0:0:0:
72,323,75154,1,6,0:0:0:0:
24,234,75435,2,0,P|14:176|28:115,1,99.9999999999999,6|6,0:0|0:0,0:0:0:0:
74,52,75995,2,0,P|132:42|193:56,1,99.9999999999999,2|2,0:0|0:0,0:0:0:0:
241,120,76556,6,0,L|357:114,1,99.9999999999999,6|2,0:0|0:0,0:0:0:0:
391,113,76977,2,0,P|406:174|399:223,1,99.9999999999999,0|0,0:0|0:0,0:0:0:0:
383,256,77397,1,2,0:0:0:0:
313,328,77678,2,0,P|252:313|203:320,1,99.9999999999999,2|2,0:0|0:0,0:0:0:0:
166,324,78098,2,0,L|160:208,1,99.9999999999999,0|0,0:0|0:0,0:0:0:0:
156,174,78519,1,2,0:0:0:0:
241,120,78799,6,0,P|291:133|350:117,1,99.9999999999999,2|2,0:0|0:0,0:0:0:0:
430,85,79360,1,2,0:0:0:0:
501,154,79640,1,2,0:0:0:0:
486,253,79921,2,0,L|385:259,1,99.9999999999999,2|2,0:0|0:0,0:0:0:0:
295,300,80481,2,0,L|244:297,1,50,2|0,0:0|0:0,0:0:0:0:
204,267,80762,2,0,L|153:270,1,50,2|0,0:0|0:0,0:0:0:0:
105,281,81042,6,0,P|95:331|110:377,2,99.9999999999999,2|2|2,0:0|0:0|0:0,0:0:0:0:
139,187,81883,1,2,0:0:0:0:
239,189,82164,2,0,L|352:180,1,99.9999999999999,2|2,0:0|0:0,0:0:0:0:
392,179,82584,1,0,0:0:0:0:
392,179,82724,2,0,P|402:130|387:83,1,99.9999999999999,2|2,0:0|0:0,0:0:0:0:
302,29,83285,6,0,P|253:19|206:34,2,99.9999999999999,6|2|2,0:0|0:0|0:0,0:0:0:0:
387,83,84126,1,2,0:0:0:0:
441,167,84407,2,0,L|433:269,1,99.9999999999999,2|2,0:0|0:0,0:0:0:0:
426,319,84827,1,0,0:0:0:0:
426,319,84967,2,0,P|378:298|317:302,1,99.9999999999999,2|2,0:0|0:0,0:0:0:0:
250,357,85528,6,0,P|202:378|141:374,2,99.9999999999999,2|2|2,0:0|0:0|0:0,0:0:0:0:
331,298,86369,1,2,0:0:0:0:
377,209,86650,2,0,L|368:101,1,99.9999999999999,2|2,0:0|0:0,0:0:0:0:
369,64,87070,1,0,0:0:0:0:
369,64,87210,2,0,P|321:43|260:47,1,99.9999999999999,2|2,0:0|0:0,0:0:0:0:
199,109,87771,6,0,L|190:208,1,99.9999999999999,2|2,0:0|0:0,0:0:0:0:
176,307,88332,1,2,0:0:0:0:
77,323,88612,1,2,0:0:0:0:
9,248,88893,2,0,P|1:198|11:150,1,99.9999999999999,2|2,0:0|0:0,0:0:0:0:
63,64,89453,1,2,0:0:0:0:
156,27,89734,1,2,0:0:0:0:
247,66,90014,6,0,L|362:58,1,99.9999999999999,6|2,0:0|0:0,0:0:0:0:
401,57,90435,1,0,0:0:0:0:
401,57,90575,2,0,P|419:108|416:158,1,99.9999999999999,6|6,0:0|0:0,0:0:0:0:
367,240,91136,1,6,0:0:0:0:
271,270,91416,1,0,0:0:0:0:
183,222,91696,2,0,L|119:227,1,50,2|0,0:0|0:0,0:0:0:0:
96,260,91977,2,0,L|32:255,1,50,2|0,0:0|0:0,0:0:0:0:
9,222,92257,5,2,0:0:0:0:
256,192,92397,12,2,94500,0:0:0:0:
360,152,96743,6,0,P|280:148|247:157,1,99.9999999999999,14|2,0:0|0:0,0:0:0:0:
220,181,97164,2,0,P|140:177|107:186,1,99.9999999999999,8|0,0:0|0:0,0:0:0:0:
77,205,97584,1,14,0:0:0:0:
107,300,97865,2,0,P|187:304|220:295,1,99.9999999999999,14|2,0:0|0:0,0:0:0:0:
247,271,98286,2,0,P|327:275|360:266,1,99.9999999999999,12|0,0:0|0:0,0:0:0:0:
390,247,98706,1,14,0:0:0:0:
448,166,98986,5,2,0:0:0:0:
256,192,99126,12,0,100668,0:0:0:0:
371,182,101229,6,0,B|318:174|318:174|273:195|273:195|221:189|221:189|182:156,1,200,6|2,0:0|0:0,0:0:0:0:
115,90,102070,1,2,0:0:0:0:
21,126,102351,2,0,P|15:171|31:231,1,99.9999999999999,2|2,0:0|0:0,0:0:0:0:
80,307,102911,2,0,P|125:313|185:297,1,99.9999999999999,2|2,0:0|0:0,0:0:0:0:
249,231,103472,6,0,L|242:114,2,99.9999999999999,2|2|2,0:0|0:0|0:0,0:0:0:0:
325,296,104313,1,2,0:0:0:0:
419,264,104594,2,0,P|433:211|421:152,1,99.9999999999999,2|2,0:0|0:0,0:0:0:0:
377,80,105154,1,2,0:0:0:0:
286,37,105435,1,2,0:0:0:0:
201,90,105715,6,0,B|143:92|143:92|105:73|105:73|74:93|74:93|12:95,1,200,6|2,0:0|0:0,0:0:0:0:
1,195,106556,1,2,0:0:0:0:
83,252,106837,2,0,P|130:258|183:248,2,99.9999999999999,2|2|2,0:0|0:0|0:0,0:0:0:0:
1,195,107678,1,2,0:0:0:0:
11,95,107958,6,0,L|124:89,1,99.9999999999999,2|2,0:0|0:0,0:0:0:0:
180,17,108519,2,0,L|293:23,1,99.9999999999999,2|2,0:0|0:0,0:0:0:0:
379,27,109080,1,2,0:0:0:0:
455,91,109360,1,2,0:0:0:0:
480,187,109640,2,0,L|471:241,1,50,2|8,0:0|0:0,0:0:0:0:
437,272,109921,2,0,L|446:326,1,50,2|8,0:0|0:0,0:0:0:0:
474,361,110201,5,6,0:0:0:0:
256,192,116930,6,0,P|312:200|372:188,2,99.9999999999999,2|2|2,0:0|0:0|0:0,0:0:0:0:
173,135,117771,1,2,0:0:0:0:
87,187,118051,2,0,P|79:243|91:303,1,99.9999999999999,2|2,0:0|0:0,0:0:0:0:
157,355,118612,1,2,0:0:0:0:
256,367,118893,1,2,0:0:0:0:
341,315,119173,6,0,P|397:307|457:319,1,99.9999999999999,2|2,0:0|0:0,0:0:0:0:
491,334,119594,1,8,0:0:0:0:
491,334,119734,2,0,L|496:224,1,99.9999999999999,2|2,0:0|0:0,0:0:0:0:
433,155,120294,2,0,P|376:163|317:146,1,99.9999999999999,2|2,0:0|0:0,0:0:0:0:
253,96,120855,2,0,L|188:98,1,50,6|12,0:0|0:0,0:0:0:0:
166,131,121136,2,0,L|101:129,1,50,6|12,0:0|0:0,0:0:0:0:
116,129,123659,6,0,L|123:238,1,99.9999999999999,6|2,0:0|0:0,0:0:0:0:
131,283,124080,1,8,0:0:0:0:
131,283,124220,2,0,P|180:289|233:274,1,99.9999999999999,2|2,0:0|0:0,0:0:0:0:
318,232,124780,2,0,P|367:226|420:241,1,99.9999999999999,2|2,0:0|0:0,0:0:0:0:
464,264,125201,1,8,0:0:0:0:
464,264,125341,2,0,L|467:154,1,99.9999999999999,2|2,0:0|0:0,0:0:0:0:
427,71,125902,6,0,P|378:77|325:62,1,99.9999999999999,2|2,0:0|0:0,0:0:0:0:
294,36,126323,1,8,0:0:0:0:
294,36,126463,2,0,L|182:43,1,99.9999999999999,2|2,0:0|0:0,0:0:0:0:
113,100,127023,2,0,P|107:149|122:202,1,99.9999999999999,2|2,0:0|0:0,0:0:0:0:
176,279,127584,1,2,0:0:0:0:
272,307,127865,1,2,0:0:0:0:
363,266,128145,6,0,P|415:261|468:280,2,99.9999999999999,6|2|2,0:0|0:0|0:0,0:0:0:0:
272,307,128986,1,2,0:0:0:0:
183,353,129266,2,0,L|71:346,1,99.9999999999999,2|2,0:0|0:0,0:0:0:0:
12,275,129827,1,2,0:0:0:0:
12,174,130108,1,2,0:0:0:0:
82,103,130388,6,0,P|137:93|201:107,1,99.9999999999999,2|2,0:0|0:0,0:0:0:0:
257,162,130949,1,2,0:0:0:0:
353,189,131229,1,2,0:0:0:0:
448,158,131509,2,0,P|460:112|455:45,1,99.9999999999999,2|2,0:0|0:0,0:0:0:0:
365,22,132070,2,0,L|305:26,1,50,2|8,0:0|0:0,0:0:0:0:
273,53,132351,2,0,L|213:49,1,50,2|8,0:0|0:0,0:0:0:0:
173,49,132631,6,0,P|163:100|174:152,1,99.9999999999999,6|2,0:0|0:0,0:0:0:0:
260,191,133192,2,0,P|270:240|262:289,1,99.9999999999999,2|2,0:0|0:0,0:0:0:0:
194,363,133752,1,2,0:0:0:0:
93,363,134033,1,2,0:0:0:0:
24,290,134313,2,0,P|15:241|25:192,1,99.9999999999999,2|2,0:0|0:0,0:0:0:0:
83,110,134874,6,0,L|195:104,1,99.9999999999999,2|2,0:0|0:0,0:0:0:0:
267,51,135435,1,2,0:0:0:0:
267,51,135575,2,0,L|379:57,1,99.9999999999999,8|8,0:0|0:0,0:0:0:0:
410,80,135995,2,0,P|421:138|417:180,1,99.9999999999999,2|2,0:0|0:0,0:0:0:0:
376,270,136556,1,2,0:0:0:0:
284,311,136837,1,2,0:0:0:0:
191,272,137117,6,0,P|137:262|83:272,2,99.9999999999999,6|2|2,0:0|0:0|0:0,0:0:0:0:
284,311,137958,1,2,0:0:0:0:
376,270,138238,2,0,L|368:154,1,99.9999999999999,2|2,0:0|0:0,0:0:0:0:
359,70,138799,1,2,0:0:0:0:
270,22,139080,1,2,0:0:0:0:
181,68,139360,6,0,P|127:69|74:50,1,99.9999999999999,6|2,0:0|0:0,0:0:0:0:
42,39,139780,1,8,0:0:0:0:
42,39,139921,2,0,L|32:157,1,99.9999999999999,2|2,0:0|0:0,0:0:0:0:
24,238,140481,1,6,0:0:0:0:
85,317,140762,1,2,0:0:0:0:
179,348,141042,2,0,L|242:344,1,50,2|8,0:0|0:0,0:0:0:0:
264,309,141323,2,0,L|327:313,1,50,2|8,0:0|0:0,0:0:0:0:
360,330,141603,6,0,P|374:278|365:222,1,99.9999999999999,2|2,0:0|0:0,0:0:0:0:
326,206,142023,2,0,P|312:154|321:98,1,99.9999999999999,8|0,0:0|0:0,0:0:0:0:
339,63,142444,1,10,0:0:0:0:
247,23,142724,2,0,L|126:29,1,99.9999999999999,2|2,0:0|0:0,0:0:0:0:
102,40,143145,1,8,0:0:0:0:
102,40,143285,2,0,P|119:94|110:153,1,99.9999999999999,2|10,0:0|0:0,0:0:0:0:
40,203,143846,6,0,L|50:309,1,99.9999999999999,2|2,0:0|0:0,0:0:0:0:
59,351,144266,2,0,P|114:363|172:349,1,99.9999999999999,8|0,0:0|0:0,0:0:0:0:
201,332,144687,1,10,0:0:0:0:
275,265,144967,2,0,L|383:270,1,99.9999999999999,2|2,0:0|0:0,0:0:0:0:
429,273,145388,1,8,0:0:0:0:
429,273,145528,2,0,P|443:220|434:157,1,99.9999999999999,2|10,0:0|0:0,0:0:0:0:
392,86,146089,6,0,P|339:72|276:81,1,99.9999999999999,10|2,0:0|0:0,0:0:0:0:
264,115,146509,2,0,L|271:222,1,99.9999999999999,8|0,0:0|0:0,0:0:0:0:
275,265,146930,1,10,0:0:0:0:
205,336,147210,2,0,P|150:340|89:320,1,99.9999999999999,10|2,0:0|0:0,0:0:0:0:
80,287,147630,2,0,L|73:175,1,99.9999999999999,8|0,0:0|0:0,0:0:0:0:
72,136,148051,1,10,0:0:0:0:
141,64,148332,6,0,P|192:72|250:57,1,99.9999999999999,10|2,0:0|0:0,0:0:0:0:
284,42,148752,2,0,P|335:50|393:35,1,99.9999999999999,8|0,0:0|0:0,0:0:0:0:
426,17,149173,1,10,0:0:0:0:
490,92,149453,2,0,P|498:148|487:202,1,99.9999999999999,10|2,0:0|0:0,0:0:0:0:
406,245,150014,2,0,L|338:242,1,50,2|0,0:0|0:0,0:0:0:0:
310,223,150294,2,0,L|242:226,1,50,14|0,0:0|0:0,0:0:0:0:
209,230,150575,6,0,P|199:283|218:345,2,99.9999999999999,2|10|2,0:0|0:0|0:0,0:0:0:0:
242,135,151416,1,10,0:0:0:0:
204,42,151696,2,0,L|101:46,1,99.9999999999999,2|10,0:0|0:0,0:0:0:0:
24,106,152257,1,2,0:0:0:0:
10,204,152537,1,10,0:0:0:0:
47,297,152818,6,0,P|96:308|158:293,1,99.9999999999999,2|2,0:0|0:0,0:0:0:0:
234,254,153379,1,2,0:0:0:0:
234,254,153519,2,0,P|283:243|345:258,1,99.9999999999999,8|0,0:0|0:0,0:0:0:0:
368,285,153939,2,0,L|478:278,1,99.9999999999999,2|10,0:0|0:0,0:0:0:0:
502,184,154500,1,2,0:0:0:0:
460,92,154780,1,10,0:0:0:0:
363,64,155061,6,0,P|312:77|251:64,1,99.9999999999999,2|10,0:0|0:0,0:0:0:0:
173,32,155622,1,2,0:0:0:0:
75,54,155902,1,10,0:0:0:0:
22,138,156182,2,0,L|31:242,1,99.9999999999999,2|10,0:0|0:0,0:0:0:0:
73,328,156743,1,10,0:0:0:0:
168,357,157023,1,10,0:0:0:0:
266,336,157304,6,0,P|316:345|378:331,2,99.9999999999999,2|2|2,0:0|0:0|0:0,0:0:0:0:
197,262,158145,1,2,0:0:0:0:
266,190,158425,2,0,L|272:88,1,99.9999999999999,2|10,0:0|0:0,0:0:0:0:
344,20,158986,1,10,0:0:0:0:
442,39,159266,1,10,0:0:0:0:
487,128,159547,6,0,P|497:178|486:235,1,99.9999999999999,2|10,0:0|0:0,0:0:0:0:
411,288,160108,2,0,L|346:283,1,50,2|8,0:0|0:0,0:0:0:0:
320,255,160388,2,0,L|255:260,1,50,10|8,0:0|0:0,0:0:0:0:
220,264,160668,2,0,P|210:215|217:166,1,99.9999999999999,2|2,0:0|0:0,0:0:0:0:
214,65,161229,2,0,L|148:63,1,50,2|0,0:0|0:0,0:0:0:0:
126,30,161509,2,0,L|60:32,1,50,2|0,0:0|0:0,0:0:0:0:
31,54,161790,6,0,P|16:99|23:166,1,99.9999999999999,14|2,0:0|0:0,0:0:0:0:
77,231,162351,2,0,L|72:297,2,50,2|8|2,0:0|0:0|0:0,0:0:0:0:
109,193,162771,2,0,P|155:186|220:204,1,99.9999999999999,8|8,0:0|0:0,0:0:0:0:
249,224,163192,1,10,0:0:0:0:
330,282,163472,1,10,0:0:0:0:
429,281,163752,1,10,0:0:0:0:
497,208,164033,6,0,P|499:155|477:100,1,99.9999999999999,10|2,0:0|0:0,0:0:0:0:
396,62,164594,2,0,L|400:1,2,50,2|8|2,0:0|0:0|0:0,0:0:0:0:
368,103,165014,2,0,L|264:93,1,99.9999999999999,8|8,0:0|0:0,0:0:0:0:
218,88,165435,1,10,0:0:0:0:
136,145,165715,1,10,0:0:0:0:
134,244,165995,1,2,0:0:0:0:
189,327,166276,6,0,P|233:317|297:327,1,99.9999999999999,14|2,0:0|0:0,0:0:0:0:
383,367,166837,1,2,0:0:0:0:
383,367,166977,2,0,L|441:363,1,50,8|2,0:0|0:0,0:0:0:0:
482,356,167257,2,0,P|494:308|477:243,1,99.9999999999999,8|12,0:0|0:0,0:0:0:0:
467,211,167678,1,14,0:0:0:0:
376,167,167958,1,10,0:0:0:0:
284,205,168238,2,0,L|222:201,1,50,14|0,0:0|0:0,0:0:0:0:
201,163,168519,6,0,L|139:167,1,50,10|0,0:0|0:0,0:0:0:0:
101,174,168799,1,2,0:0:0:0:
49,259,169080,2,0,L|-13:255,2,50,2|8|2,0:0|0:0|0:0,0:0:0:0:
84,303,169500,1,8,0:0:0:0:
84,303,169640,2,0,P|146:314|190:297,1,99.9999999999999,2|2,0:0|0:0,0:0:0:0:
262,246,170201,2,0,L|326:251,1,50,10|8,0:0|0:0,0:0:0:0:
365,260,170481,1,8,0:0:0:0:
365,260,170622,1,12,0:0:0:0:
