osu file format v14

[General]
AudioFilename: audio.mp3
AudioLeadIn: 0
PreviewTime: 13682
Countdown: 0
SampleSet: None
StackLeniency: 0.3
Mode: 0
LetterboxInBreaks: 0
WidescreenStoryboard: 0

[Editor]
DistanceSpacing: 1.1
BeatDivisor: 4
GridSize: 4
TimelineZoom: 2.2

[Metadata]
Title:HOPE
TitleUnicode:HOPE
Artist:BLUE ENCOUNT
ArtistUnicode:BLUE ENCOUNT
Creator:Monstrata
Version:SURVIVOR
Source:
Tags:Mobile Suit Gundam IRON-BLOODED ORPHANS 機動戦士ガンダム 鉄血のオルフェンズ mikazuki augus orga itsuka snownino_ milan- corinn akitoshi shmiklak marvollo m_a_r_v_o_l_l_o
BeatmapID:1451282
BeatmapSetID:685622

[Difficulty]
HPDrainRate:6
CircleSize:4
OverallDifficulty:9
ApproachRate:9.6
SliderMultiplier:1.8
SliderTickRate:1

[Events]
//Background and Video events
0,0,"743390.jpg",0,0
//Break Periods
//Storyboard Layer 0 (Background)
//Storyboard Layer 1 (Fail)
//Storyboard Layer 2 (Pass)
//Storyboard Layer 3 (Foreground)
//Storyboard Sound Samples

[TimingPoints]
295,280.3738,4,3,1,70,1,0
295,-133.3333,4,3,1,70,0,0
4780,-100,4,3,1,70,0,0
17678,-166.6667,4,3,1,70,0,0
18238,-100,4,3,1,70,0,0
42981,-100,4,3,1,5,0,0
43192,-100,4,3,1,70,0,0
43262,-100,4,3,1,5,0,0
43472,-100,4,3,1,70,0,0
43542,-100,4,3,1,5,0,0
43752,-100,4,3,1,70,0,0
43823,-100,4,3,1,5,0,0
44033,-166.6667,4,3,1,70,0,0
44173,-166.6667,4,3,1,20,0,0
44453,-166.6667,4,3,1,5,0,0
44594,-166.6667,4,3,1,70,0,0
44734,-166.6667,4,3,1,20,0,0
45014,-166.6667,4,3,1,5,0,0
45154,-166.6667,4,3,1,50,0,0
45575,-100,4,3,1,80,0,1
63098,-100,4,3,1,70,0,0
101229,-100,4,3,1,80,0,1
110201,-100,4,3,1,70,0,0
121416,-194.1748,4,3,1,70,0,0
121556,-194.1748,4,3,1,20,0,0
122397,-194.1748,4,3,1,5,0,0
122537,-189.3939,4,3,1,70,0,0
122678,-189.3939,4,3,1,20,0,0
123519,-189.3939,4,3,1,5,0,0
123659,-100,4,3,1,80,0,1
141603,-100,4,3,1,70,0,0
150575,-100,4,3,1,80,0,1
161790,-100,4,3,1,70,0,0
170692,-100,4,3,1,5,0,0

[Colours]
Combo1 : 128,64,0
Combo2 : 128,0,0
Combo3 : 0,64,0
Combo4 : 64,0,64

[HitObjects]
341,193,295,5,14,0:0:0:0:
367,107,435,1,0,0:0:0:0:
426,174,575,2,0,B|511:179,1,67.5,10|0,0:0|0:0,0:0:0:0:
400,260,855,2,0,B|485:265,1,67.5,2|0,0:0|0:0,0:0:0:0:
341,193,1136,5,10,0:0:0:0:
315,279,1276,1,0,0:0:0:0:
257,145,1416,2,0,B|253:212,1,67.5,10|0,0:0|0:0,0:0:0:0:
170,165,1696,2,0,B|166:232,1,67.5,2|0,0:0|0:0,0:0:0:0:
197,78,1977,5,10,0:0:0:0:
227,300,2117,1,8,0:0:0:0:
253,212,2257,2,0,B|320:215,1,67.5,2|0,0:0|0:0,0:0:0:0:
333,60,2537,5,10,0:0:0:0:
280,133,2678,1,0,0:0:0:0:
371,142,2818,2,0,B|438:145,1,67.5,10|0,0:0|0:0,0:0:0:0:
320,215,3098,2,0,B|387:218,1,67.5,2|0,0:0|0:0,0:0:0:0:
269,288,3379,5,10,0:0:0:0:
193,126,3519,1,0,0:0:0:0:
150,364,3659,2,0,B|217:360,1,67.5,14|0,0:0|0:0,0:0:0:0:
312,50,3939,2,0,B|244:53,1,67.5,14|0,0:0|0:0,0:0:0:0:
163,210,4220,1,2,0:0:0:0:
197,208,4290,1,0,0:0:0:0:
231,207,4360,1,0,0:0:0:0:
264,205,4430,1,0,0:0:0:0:
298,203,4500,1,2,0:0:0:0:
77,80,4780,6,0,B|83:170,1,90,14|0,0:0|0:0,0:0:0:0:
152,30,5061,1,2,0:0:0:0:
236,158,5201,2,0,P|269:188|313:199,1,90,8|2,0:0|0:0,0:0:0:0:
385,64,5481,2,0,P|342:77|311:109,1,90,8|2,0:0|0:0,0:0:0:0:
229,267,5762,6,0,P|198:299|156:313,1,90,8|2,0:0|0:0,0:0:0:0:
76,178,6042,1,8,0:0:0:0:
153,223,6182,1,10,0:0:0:0:
75,267,6323,1,0,0:0:0:0:
154,134,6463,1,10,0:0:0:0:
229,267,6603,1,0,0:0:0:0:
308,134,6743,1,10,0:0:0:0:
153,223,6883,1,0,0:0:0:0:
384,178,7023,6,0,P|393:112|368:70,1,90,10|0,0:0|0:0,0:0:0:0:
232,90,7304,1,2,0:0:0:0:
229,267,7444,2,0,B|227:369,1,90,8|2,0:0|0:0,0:0:0:0:
77,179,7724,2,0,B|78:76,1,90,8|2,0:0|0:0,0:0:0:0:
307,222,8005,6,0,B|384:268,1,90,8|2,0:0|0:0,0:0:0:0:
232,90,8285,1,8,0:0:0:0:
153,223,8425,1,10,0:0:0:0:
156,46,8566,1,0,0:0:0:0:
77,179,8706,2,0,B|75:281,1,90,10|0,0:0|0:0,0:0:0:0:
232,90,8986,2,0,B|230:192,1,90,2|0,0:0|0:0,0:0:0:0:
512,89,9266,6,0,P|475:59|432:52,1,90,14|0,0:0|0:0,0:0:0:0:
369,195,9547,1,2,0:0:0:0:
452,227,9687,2,0,P|457:182|440:141,1,90,8|2,0:0|0:0,0:0:0:0:
297,252,9967,2,0,P|252:245|217:219,1,90,8|2,0:0|0:0,0:0:0:0:
276,74,10248,6,0,B|285:163,1,90,8|2,0:0|0:0,0:0:0:0:
148,274,10528,1,8,0:0:0:0:
119,97,10668,1,10,0:0:0:0:
203,128,10809,1,0,0:0:0:0:
65,244,10949,1,10,0:0:0:0:
49,155,11089,1,0,0:0:0:0:
218,217,11229,2,0,P|274:180|292:117,1,135,10|0,0:0|0:0,0:0:0:0:
218,217,11509,6,0,P|191:270|202:327,1,90,10|0,0:0|0:0,0:0:0:0:
348,347,11790,1,2,0:0:0:0:
437,324,11930,2,0,P|404:274|349:255,1,90,8|2,0:0|0:0,0:0:0:0:
101,316,12210,2,0,B|-16:338,1,90,12|2,0:0|0:0,0:0:0:0:
283,282,12491,1,12,0:0:0:0:
42,247,12631,5,2,0:0:0:0:
224,213,12771,1,8,0:0:0:0:
224,213,12841,1,0,0:0:0:0:
224,213,12911,1,10,0:0:0:0:
192,299,13052,1,0,0:0:0:0:
165,142,13192,1,10,0:0:0:0:
314,197,13332,1,0,0:0:0:0:
101,316,13472,2,0,B|-16:338,1,90,10|0,0:0|0:0,0:0:0:0:
253,125,13752,6,0,B|341:108,1,90,2|0,0:0|0:0,0:0:0:0:
223,212,14033,1,2,0:0:0:0:
203,204,14103,1,0,0:0:0:0:
185,190,14173,1,8,0:0:0:0:
172,172,14243,1,0,0:0:0:0:
165,151,14313,1,2,0:0:0:0:
169,129,14383,1,0,0:0:0:0:
162,107,14453,1,0,0:0:0:0:
147,92,14523,1,0,0:0:0:0:
125,85,14593,1,10,0:0:0:0:
103,90,14663,1,0,0:0:0:0:
86,104,14734,1,0,0:0:0:0:
78,125,14803,1,0,0:0:0:0:
80,147,14874,5,10,0:0:0:0:
97,175,14944,1,0,0:0:0:0:
105,208,15014,1,0,0:0:0:0:
102,241,15084,1,0,0:0:0:0:
89,272,15154,1,2,0:0:0:0:
66,297,15224,1,0,0:0:0:0:
53,327,15295,1,8,0:0:0:0:
61,360,15365,1,0,0:0:0:0:
86,382,15435,1,2,0:0:0:0:
119,386,15505,1,0,0:0:0:0:
148,370,15575,1,0,0:0:0:0:
173,347,15645,1,0,0:0:0:0:
203,332,15715,1,10,0:0:0:0:
236,325,15785,1,0,0:0:0:0:
270,326,15855,1,0,0:0:0:0:
302,336,15925,1,0,0:0:0:0:
331,354,15995,5,10,0:0:0:0:
373,367,16065,1,0,0:0:0:0:
415,354,16135,1,0,0:0:0:0:
443,319,16205,1,0,0:0:0:0:
447,275,16275,1,2,0:0:0:0:
425,237,16345,1,0,0:0:0:0:
385,217,16415,1,8,0:0:0:0:
339,220,16486,1,0,0:0:0:0:
294,213,16556,1,10,0:0:0:0:
258,187,16626,1,0,0:0:0:0:
235,149,16696,1,0,0:0:0:0:
232,104,16766,1,0,0:0:0:0:
248,63,16837,1,14,0:0:0:0:
281,32,16906,1,0,0:0:0:0:
324,19,16976,1,0,0:0:0:0:
368,26,17046,1,0,0:0:0:0:
405,51,17117,5,10,0:0:0:0:
143,133,17257,1,8,0:0:0:0:
444,132,17397,1,10,0:0:0:0:
182,218,17538,1,8,0:0:0:0:
471,373,17678,6,0,B|482:212,1,162,2|0,0:0|0:0,0:0:0:0:
127,294,18238,5,2,0:0:0:0:
380,383,18379,2,0,B|386:293,1,90,8|2,0:0|0:0,0:0:0:0:
175,128,18659,2,0,B|182:218,1,90,8|2,0:0|0:0,0:0:0:0:
442,217,18939,1,8,0:0:0:0:
231,53,19080,1,2,0:0:0:0:
231,53,19150,1,0,0:0:0:0:
231,53,19220,1,8,0:0:0:0:
127,294,19360,5,2,0:0:0:0:
320,63,19500,2,0,B|435:76,1,90,8|2,0:0|0:0,0:0:0:0:
92,207,19780,2,0,B|3:197,1,90,8|2,0:0|0:0,0:0:0:0:
231,53,20061,1,8,0:0:0:0:
233,75,20131,1,0,0:0:0:0:
236,97,20201,1,2,0:0:0:0:
238,120,20271,1,0,0:0:0:0:
241,142,20341,1,8,0:0:0:0:
243,164,20411,1,0,0:0:0:0:
246,187,20481,5,2,0:0:0:0:
471,34,20622,1,8,0:0:0:0:
407,264,20762,1,2,0:0:0:0:
315,46,20902,1,8,0:0:0:0:
252,276,21042,1,2,0:0:0:0:
396,85,21182,1,8,0:0:0:0:
413,354,21323,1,2,0:0:0:0:
321,136,21463,1,8,0:0:0:0:
177,325,21603,5,2,0:0:0:0:
240,97,21743,1,8,0:0:0:0:
333,315,21883,1,2,0:0:0:0:
315,46,22023,1,8,0:0:0:0:
169,236,22164,1,2,0:0:0:0:
233,6,22304,1,8,0:0:0:0:
406,263,22444,1,2,0:0:0:0:
440,264,22514,1,0,0:0:0:0:
472,253,22584,1,0,0:0:0:0:
496,230,22654,1,0,0:0:0:0:
511,200,22724,5,14,0:0:0:0:
425,173,22865,1,0,0:0:0:0:
319,235,23005,1,2,0:0:0:0:
319,235,23075,1,0,0:0:0:0:
319,235,23145,1,0,0:0:0:0:
338,145,23285,5,10,0:0:0:0:
406,263,23425,1,0,0:0:0:0:
405,83,23566,1,2,0:0:0:0:
402,72,23636,1,0,0:0:0:0:
399,61,23706,1,0,0:0:0:0:
250,173,23846,5,10,0:0:0:0:
337,325,23986,1,0,0:0:0:0:
425,173,24126,1,2,0:0:0:0:
439,171,24196,1,0,0:0:0:0:
454,169,24266,1,0,0:0:0:0:
231,263,24407,5,10,0:0:0:0:
269,83,24547,1,0,0:0:0:0:
407,264,24687,1,2,0:0:0:0:
412,285,24757,1,0,0:0:0:0:
417,306,24827,1,0,0:0:0:0:
357,55,24967,5,10,0:0:0:0:
231,263,25108,1,0,0:0:0:0:
113,49,25248,1,2,0:0:0:0:
84,40,25318,1,0,0:0:0:0:
55,32,25388,1,0,0:0:0:0:
143,291,25528,5,10,0:0:0:0:
206,25,25668,1,0,0:0:0:0:
322,268,25809,1,2,0:0:0:0:
355,262,25879,1,0,0:0:0:0:
388,256,25949,1,0,0:0:0:0:
311,49,26089,5,10,0:0:0:0:
212,354,26229,1,0,0:0:0:0:
113,49,26369,1,2,0:0:0:0:
72,59,26439,1,0,0:0:0:0:
30,70,26509,1,0,0:0:0:0:
388,256,26650,2,0,B|475:238,1,45,14|0,0:0|0:0,0:0:0:0:
216,135,26790,5,8,0:0:0:0:
186,167,26860,1,8,0:0:0:0:
185,211,26930,1,8,0:0:0:0:
214,244,27000,1,0,0:0:0:0:
242,277,27070,1,8,0:0:0:0:
241,321,27140,1,0,0:0:0:0:
212,353,27210,5,0,0:0:0:0:
305,129,27351,2,0,B|395:124,1,90,8|2,0:0|0:0,0:0:0:0:
89,246,27631,2,0,B|0:251,1,90,8|2,0:0|0:0,0:0:0:0:
255,53,27911,1,8,0:0:0:0:
219,321,28052,1,2,0:0:0:0:
219,321,28122,1,0,0:0:0:0:
219,321,28192,1,8,0:0:0:0:
166,59,28332,5,2,0:0:0:0:
219,321,28472,2,0,B|308:326,1,90,8|2,0:0|0:0,0:0:0:0:
435,44,28752,2,0,B|345:49,1,90,8|2,0:0|0:0,0:0:0:0:
89,246,29033,1,8,0:0:0:0:
255,53,29173,1,2,0:0:0:0:
255,53,29243,1,0,0:0:0:0:
255,53,29313,1,8,0:0:0:0:
397,331,29453,5,2,0:0:0:0:
303,135,29594,1,8,0:0:0:0:
115,331,29734,1,2,0:0:0:0:
209,135,29874,1,8,0:0:0:0:
409,341,30014,5,2,0:0:0:0:
358,59,30155,1,8,0:0:0:0:
103,341,30295,1,2,0:0:0:0:
154,59,30436,1,0,0:0:0:0:
256,384,30575,5,6,0:0:0:0:
394,214,30715,1,8,0:0:0:0:
373,175,30785,1,8,0:0:0:0:
330,164,30855,1,10,0:0:0:0:
294,189,30925,1,0,0:0:0:0:
287,232,30995,1,8,0:0:0:0:
272,273,31066,1,0,0:0:0:0:
235,296,31136,1,10,0:0:0:0:
191,291,31206,1,0,0:0:0:0:
159,260,31276,1,8,0:0:0:0:
154,216,31346,1,8,0:0:0:0:
177,179,31416,2,0,B|190:111,1,45,10|0,0:0|0:0,0:0:0:0:
354,281,31556,2,0,B|366:349,1,45,8|0,0:0|0:0,0:0:0:0:
338,49,31696,5,2,0:0:0:0:
54,161,31837,1,8,0:0:0:0:
39,169,32117,5,8,0:0:0:0:
354,281,32258,1,2,0:0:0:0:
52,384,32537,6,0,P|48:339|25:301,1,90,10|0,0:0|0:0,0:0:0:0:
93,242,32818,1,2,0:0:0:0:
132,322,32958,1,8,0:0:0:0:
142,168,33098,1,10,0:0:0:0:
220,328,33238,1,0,0:0:0:0:
191,94,33379,2,0,P|139:80|95:93,1,90,10|0,0:0|0:0,0:0:0:0:
308,334,33659,2,0,P|360:348|404:335,1,90,10|0,0:0|0:0,0:0:0:0:
280,100,33939,5,2,0:0:0:0:
220,328,34080,1,8,0:0:0:0:
216,341,34360,5,8,0:0:0:0:
156,113,34501,1,2,0:0:0:0:
41,331,34780,6,0,P|84:317|128:325,1,90,10|0,0:0|0:0,0:0:0:0:
273,272,35061,1,2,0:0:0:0:
216,341,35201,1,8,0:0:0:0:
241,188,35341,1,10,0:0:0:0:
305,356,35481,1,0,0:0:0:0:
297,118,35622,2,0,B|283:28,1,90,10|0,0:0|0:0,0:0:0:0:
185,258,35902,2,0,B|145:157,1,90,10|0,0:0|0:0,0:0:0:0:
41,331,36182,5,6,0:0:0:0:
273,272,36323,1,8,0:0:0:0:
290,269,36603,5,8,0:0:0:0:
58,210,36744,1,2,0:0:0:0:
41,207,37023,5,2,0:0:0:0:
273,148,37164,1,0,0:0:0:0:
174,244,37304,5,10,0:0:0:0:
139,110,37444,1,0,0:0:0:0:
306,281,37585,1,2,0:0:0:0:
370,50,37724,1,0,0:0:0:0:
174,244,37865,2,0,B|169:333,1,90,10|0,0:0|0:0,0:0:0:0:
373,139,38145,2,0,B|369:49,1,90,10|0,0:0|0:0,0:0:0:0:
139,110,38425,6,0,B|27:165,1,90,6|0,0:0|0:0,0:0:0:0:
373,274,38706,2,0,B|485:219,1,90,2|0,0:0|0:0,0:0:0:0:
110,87,38986,6,0,B|-2:142,1,90,2|0,0:0|0:0,0:0:0:0:
402,297,39266,2,0,B|514:242,1,90,2|0,0:0|0:0,0:0:0:0:
115,277,39547,6,0,B|95:401,1,90,2|0,0:0|0:0,0:0:0:0:
397,107,39827,2,0,B|417:-17,1,90,2|0,0:0|0:0,0:0:0:0:
78,296,40108,6,0,B|58:420,1,90,2|0,0:0|0:0,0:0:0:0:
434,88,40388,2,0,B|454:-36,1,90,2|0,0:0|0:0,0:0:0:0:
123,93,40668,5,2,0:0:0:0:
104,133,40738,1,0,0:0:0:0:
109,177,40808,1,8,0:0:0:0:
137,212,40878,1,8,0:0:0:0:
178,229,40948,1,10,0:0:0:0:
222,221,41018,1,0,0:0:0:0:
256,192,41088,1,8,0:0:0:0:
290,163,41159,1,0,0:0:0:0:
334,155,41229,1,10,0:0:0:0:
375,172,41299,1,8,0:0:0:0:
403,207,41369,1,8,0:0:0:0:
408,251,41439,1,8,0:0:0:0:
388,291,41509,2,0,P|347:306|304:294,1,90,10|0,0:0|0:0,0:0:0:0:
153,21,41790,5,10,0:0:0:0:
203,6,41860,1,8,0:0:0:0:
253,18,41930,1,8,0:0:0:0:
291,54,42000,1,8,0:0:0:0:
305,104,42070,1,10,0:0:0:0:
292,155,42140,1,0,0:0:0:0:
256,191,42210,1,8,0:0:0:0:
219,228,42280,1,0,0:0:0:0:
206,279,42350,1,2,0:0:0:0:
220,329,42420,1,2,0:0:0:0:
258,365,42490,1,2,0:0:0:0:
308,377,42560,1,2,0:0:0:0:
358,362,42631,5,14,0:0:0:0:
206,106,42771,1,0,0:0:0:0:
39,270,42911,6,0,B|29:314,1,45,10|0,0:0|0:0,0:0:0:0:
29,70,43192,2,0,B|39:113,1,45,10|0,0:0|0:0,0:0:0:0:
472,270,43472,2,0,B|483:314,1,45,10|0,0:0|0:0,0:0:0:0:
483,70,43752,2,0,B|472:113,1,45,10|0,0:0|0:0,0:0:0:0:
84,107,44033,6,0,P|53:179|83:252,1,162
295,181,44594,2,0,P|223:149|151:181,1,162
158,347,45154,5,0,0:0:0:0:
225,237,45294,2,0,B|226:290,1,53.9999884643579,6|2,0:0|0:0,0:0:0:0:
396,354,45575,1,8,0:0:0:0:
352,87,45715,1,2,0:0:0:0:
242,379,45855,1,8,0:0:0:0:
282,144,45995,1,2,0:0:0:0:
282,144,46066,1,0,0:0:0:0:
282,144,46136,1,8,0:0:0:0:
481,384,46276,5,2,0:0:0:0:
352,87,46416,1,8,0:0:0:0:
227,291,46556,1,2,0:0:0:0:
182,21,46696,1,8,0:0:0:0:
158,347,46837,1,2,0:0:0:0:
365,177,46977,1,8,0:0:0:0:
115,83,47117,1,2,0:0:0:0:
115,83,47187,1,0,0:0:0:0:
115,83,47257,1,8,0:0:0:0:
242,379,47397,5,2,0:0:0:0:
282,144,47537,1,8,0:0:0:0:
74,315,47678,1,2,0:0:0:0:
198,112,47818,1,8,0:0:0:0:
396,354,47958,1,2,0:0:0:0:
267,54,48098,1,8,0:0:0:0:
158,347,48238,1,2,0:0:0:0:
184,368,48308,1,0,0:0:0:0:
216,378,48378,1,8,0:0:0:0:
249,376,48448,1,0,0:0:0:0:
279,362,48518,5,2,0:0:0:0:
352,87,48659,1,8,0:0:0:0:
86,215,48799,5,2,0:0:0:0:
361,288,48940,1,8,0:0:0:0:
233,22,49080,5,2,0:0:0:0:
160,297,49221,1,8,0:0:0:0:
426,169,49360,5,2,0:0:0:0:
151,96,49500,1,8,0:0:0:0:
353,377,49640,6,0,B|363:253,1,90,2|8,0:0|0:0,0:0:0:0:
159,7,49921,2,0,B|149:131,1,90,2|8,0:0|0:0,0:0:0:0:
385,97,50201,2,0,P|433:87|473:102,1,90,2|8,0:0|0:0,0:0:0:0:
127,287,50481,2,0,P|79:297|39:282,1,90,2|8,0:0|0:0,0:0:0:0:
363,201,50762,6,0,P|373:249|358:289,1,90,2|8,0:0|0:0,0:0:0:0:
149,183,51042,2,0,P|139:135|154:95,1,90,2|8,0:0|0:0,0:0:0:0:
359,286,51323,2,0,B|471:300,1,90,2|8,0:0|0:0,0:0:0:0:
153,98,51603,2,0,B|41:84,1,90,2|8,0:0|0:0,0:0:0:0:
269,274,51883,5,2,0:0:0:0:
243,110,52023,1,8,0:0:0:0:
200,316,52164,5,2,0:0:0:0:
312,68,52304,1,8,0:0:0:0:
270,354,52444,5,2,0:0:0:0:
242,30,52584,1,8,0:0:0:0:
199,235,52724,5,2,0:0:0:0:
243,213,52794,1,0,0:0:0:0:
293,215,52864,1,8,0:0:0:0:
335,241,52934,1,0,0:0:0:0:
359,286,53005,6,0,B|471:300,1,90,2|8,0:0|0:0,0:0:0:0:
448,86,53285,2,0,B|359:98,1,90,2|8,0:0|0:0,0:0:0:0:
153,286,53566,2,0,B|41:300,1,90,2|8,0:0|0:0,0:0:0:0:
63,86,53846,1,2,0:0:0:0:
86,89,53916,1,0,0:0:0:0:
108,92,53986,1,8,0:0:0:0:
130,95,54056,1,0,0:0:0:0:
153,98,54126,6,0,P|178:161|166:205,1,90,2|8,0:0|0:0,0:0:0:0:
175,369,54407,2,0,P|150:306|162:262,1,90,2|8,0:0|0:0,0:0:0:0:
367,183,54687,1,2,0:0:0:0:
239,307,54827,1,8,0:0:0:0:
346,97,54967,1,2,0:0:0:0:
368,95,55037,1,0,0:0:0:0:
390,98,55107,1,8,0:0:0:0:
325,328,55248,6,0,B|223:303,1,90,2|8,0:0|0:0,0:0:0:0:
108,153,55528,2,0,B|210:127,1,90,2|8,0:0|0:0,0:0:0:0:
367,183,55809,1,2,0:0:0:0:
152,285,55949,1,8,0:0:0:0:
261,71,56089,1,2,0:0:0:0:
282,76,56159,1,0,0:0:0:0:
304,81,56229,1,8,0:0:0:0:
325,328,56369,5,2,0:0:0:0:
390,98,56509,2,0,P|385:46|354:8,1,90,8|2,0:0|0:0,0:0:0:0:
108,113,56790,2,0,P|113:165|144:203,1,90,8|2,0:0|0:0,0:0:0:0:
411,345,57070,2,0,P|405:292|374:254,1,90,8|2,0:0|0:0,0:0:0:0:
195,131,57351,1,8,0:0:0:0:
87,382,57491,6,0,B|174:360,1,90,2|8,0:0|0:0,0:0:0:0:
369,173,57771,2,0,B|282:152,1,90,2|8,0:0|0:0,0:0:0:0:
86,25,58052,2,0,B|107:112,1,90,2|8,0:0|0:0,0:0:0:0:
393,337,58332,1,2,0:0:0:0:
398,315,58402,1,0,0:0:0:0:
403,293,58472,1,8,0:0:0:0:
409,271,58542,1,0,0:0:0:0:
414,249,58612,5,2,0:0:0:0:
311,5,58752,1,8,0:0:0:0:
149,216,58893,1,2,0:0:0:0:
379,167,59033,1,8,0:0:0:0:
167,66,59173,1,2,0:0:0:0:
269,309,59313,1,8,0:0:0:0:
311,5,59453,1,2,0:0:0:0:
28,125,59594,1,8,0:0:0:0:
318,384,59734,5,2,0:0:0:0:
255,78,59874,1,8,0:0:0:0:
127,366,60014,1,2,0:0:0:0:
167,66,60154,1,8,0:0:0:0:
405,371,60295,1,2,0:0:0:0:
343,90,60435,1,8,0:0:0:0:
127,366,60575,1,2,0:0:0:0:
221,0,60715,1,8,0:0:0:0:
460,312,60855,6,0,B|528:299,1,45,6|0,0:0|0:0,0:0:0:0:
255,78,60995,1,8,0:0:0:0:
213,95,61065,1,0,0:0:0:0:
180,125,61135,1,2,0:0:0:0:
158,164,61205,1,0,0:0:0:0:
150,208,61275,1,8,0:0:0:0:
156,253,61345,1,0,0:0:0:0:
176,293,61416,6,0,B|220:284,1,45,2|0,0:0|0:0,0:0:0:0:
365,127,61556,2,0,B|320:135,1,45,8|0,0:0|0:0,0:0:0:0:
61,185,61696,1,2,0:0:0:0:
69,229,61766,1,0,0:0:0:0:
77,273,61836,1,8,0:0:0:0:
85,317,61906,1,0,0:0:0:0:
94,361,61976,5,6,0:0:0:0:
297,328,62117,1,8,0:0:0:0:
306,307,62187,1,0,0:0:0:0:
309,285,62257,1,2,0:0:0:0:
306,263,62327,1,0,0:0:0:0:
298,242,62397,1,8,0:0:0:0:
285,223,62467,1,0,0:0:0:0:
269,209,62537,1,2,0:0:0:0:
94,361,62678,1,8,0:0:0:0:
362,384,62818,2,0,P|406:380|450:349,1,90,2|0,0:0|0:0,0:0:0:0:
285,122,63098,6,0,P|241:126|197:157,1,90,2|0,0:0|0:0,0:0:0:0:
368,92,63379,2,0,P|342:55|293:33,1,90,2|0,0:0|0:0,0:0:0:0:
269,209,63659,1,2,0:0:0:0:
352,179,63799,1,0,0:0:0:0:
185,62,63939,2,0,B|202:150,1,90,2|0,0:0|0:0,0:0:0:0:
324,354,64220,5,2,0:0:0:0:
341,265,64360,1,0,0:0:0:0:
164,326,64500,2,0,B|53:363,1,90,2|0,0:0|0:0,0:0:0:0:
186,239,64780,1,2,0:0:0:0:
253,296,64921,1,0,0:0:0:0:
296,123,65061,2,0,P|252:124|213:146,1,90,2|0,0:0|0:0,0:0:0:0:
233,384,65341,5,2,0:0:0:0:
275,210,65481,1,0,0:0:0:0:
100,268,65622,2,0,B|15:296,1,90,2|0,0:0|0:0,0:0:0:0:
138,89,65902,1,2,0:0:0:0:
164,326,66042,1,0,0:0:0:0:
356,183,66182,2,0,B|376:88,1,90,2|0,0:0|0:0,0:0:0:0:
119,180,66463,5,2,0:0:0:0:
307,33,66603,1,0,0:0:0:0:
337,271,66743,2,0,B|357:365,1,90,6|0,0:0|0:0,0:0:0:0:
137,91,67023,2,0,B|116:185,1,90,6|0,0:0|0:0,0:0:0:0:
443,37,67304,2,0,B|463:131,1,90,6|0,0:0|0:0,0:0:0:0:
99,267,67584,5,6,0:0:0:0:
155,2,67724,2,0,P|200:26|228:93,1,90,0|2,0:0|0:0,0:0:0:0:
337,271,68005,2,0,P|363:307|403:326,1,90,0|2,0:0|0:0,0:0:0:0:
306,29,68285,1,0,0:0:0:0:
99,267,68425,2,0,B|7:296,1,90,2|0,0:0|0:0,0:0:0:0:
155,2,68706,5,2,0:0:0:0:
364,161,68846,2,0,P|409:156|446:131,1,90,0|2,0:0|0:0,0:0:0:0:
70,30,69126,2,0,P|25:34|-11:59,1,90,0|2,0:0|0:0,0:0:0:0:
283,199,69407,1,0,0:0:0:0:
155,2,69547,2,0,B|147:122,1,90,2|0,0:0|0:0,0:0:0:0:
353,340,69827,5,2,0:0:0:0:
358,250,69967,1,0,0:0:0:0:
187,283,70108,2,0,B|307:291,1,90,2|0,0:0|0:0,0:0:0:0:
434,302,70388,5,2,0:0:0:0:
283,199,70528,1,0,0:0:0:0:
185,370,70668,2,0,B|305:378,1,90,2|0,0:0|0:0,0:0:0:0:
434,302,70949,5,2,0:0:0:0:
364,161,71089,1,0,0:0:0:0:
187,283,71229,2,0,B|307:291,1,90,2|0,0:0|0:0,0:0:0:0:
434,302,71509,5,2,0:0:0:0:
289,110,71650,1,0,0:0:0:0:
185,370,71790,2,0,B|305:378,1,90,2|0,0:0|0:0,0:0:0:0:
364,161,72070,5,6,0:0:0:0:
289,110,72210,1,0,0:0:0:0:
445,121,72351,1,2,0:0:0:0:
282,200,72491,1,0,0:0:0:0:
371,71,72631,1,2,0:0:0:0:
357,251,72771,1,0,0:0:0:0:
207,149,72911,2,0,P|202:81|219:47,1,90,2|0,0:0|0:0,0:0:0:0:
350,341,73192,5,2,0:0:0:0:
364,161,73332,1,0,0:0:0:0:
201,238,73472,2,0,B|102:284,1,90,2|0,0:0|0:0,0:0:0:0:
289,110,73752,1,2,0:0:0:0:
350,341,73893,1,0,0:0:0:0:
445,121,74033,2,0,B|427:31,1,90,2|0,0:0|0:0,0:0:0:0:
193,327,74313,5,2,0:0:0:0:
209,62,74453,1,0,0:0:0:0:
430,208,74594,2,0,P|493:194|519:168,1,90,6|0,0:0|0:0,0:0:0:0:
82,176,74874,2,0,P|19:190|-7:216,1,90,6|0,0:0|0:0,0:0:0:0:
357,352,75154,2,0,B|363:244,1,90,6|0,0:0|0:0,0:0:0:0:
155,32,75435,6,0,B|149:140,1,90,6|0,0:0|0:0,0:0:0:0:
445,121,75715,2,0,P|408:95|363:91,1,90,6|0,0:0|0:0,0:0:0:0:
67,263,75995,1,2,0:0:0:0:
97,276,76065,1,0,0:0:0:0:
130,284,76135,1,0,0:0:0:0:
164,281,76205,1,0,0:0:0:0:
196,272,76275,1,2,0:0:0:0:
229,265,76345,1,0,0:0:0:0:
263,266,76415,1,0,0:0:0:0:
295,275,76485,1,0,0:0:0:0:
326,288,76555,5,6,0:0:0:0:
67,263,76696,2,0,B|78:153,1,90,0|2,0:0|0:0,0:0:0:0:
363,91,76977,2,0,B|354:180,1,90,0|2,0:0|0:0,0:0:0:0:
187,361,77257,1,0,0:0:0:0:
213,93,77397,2,0,B|222:3,1,90,2|0,0:0|0:0,0:0:0:0:
196,272,77678,5,2,0:0:0:0:
444,232,77818,2,0,B|435:142,1,90,0|2,0:0|0:0,0:0:0:0:
68,152,78098,2,0,B|76:241,1,90,0|2,0:0|0:0,0:0:0:0:
316,272,78379,1,0,0:0:0:0:
122,0,78519,2,0,B|130:89,1,90,2|0,0:0|0:0,0:0:0:0:
308,362,78799,5,2,0:0:0:0:
324,182,78939,1,0,0:0:0:0:
145,302,79080,2,0,B|234:310,1,90,2|0,0:0|0:0,0:0:0:0:
204,22,79360,5,2,0:0:0:0:
188,202,79500,1,0,0:0:0:0:
367,82,79640,2,0,B|277:73,1,90,2|0,0:0|0:0,0:0:0:0:
145,302,79921,5,2,0:0:0:0:
324,182,80061,1,0,0:0:0:0:
346,184,80131,1,0,0:0:0:0:
368,186,80201,1,2,0:0:0:0:
234,310,80341,1,0,0:0:0:0:
277,73,80481,2,0,B|349:80,1,45,2|0,0:0|0:0,0:0:0:0:
415,295,80622,2,0,B|343:287,1,45,0|0,0:0|0:0,0:0:0:0:
247,150,80762,2,0,B|202:154,1,45,2|0,0:0|0:0,0:0:0:0:
145,302,80903,2,0,B|190:297,1,45,0|0,0:0|0:0,0:0:0:0:
450,216,81042,6,0,B|438:104,1,90,2|0,0:0|0:0,0:0:0:0:
258,233,81323,1,2,0:0:0:0:
277,73,81463,1,0,0:0:0:0:
333,281,81603,2,0,B|342:370,1,90,2|0,0:0|0:0,0:0:0:0:
192,95,81883,2,0,B|182:184,1,90,2|0,0:0|0:0,0:0:0:0:
413,241,82164,5,2,0:0:0:0:
277,73,82304,1,0,0:0:0:0:
254,322,82444,1,2,0:0:0:0:
355,132,82584,1,0,0:0:0:0:
355,132,82654,1,0,0:0:0:0:
355,132,82724,2,0,P|399:141|441:126,1,90,2|0,0:0|0:0,0:0:0:0:
182,269,83005,2,0,P|138:260|96:275,1,90,2|0,0:0|0:0,0:0:0:0:
326,375,83285,6,0,B|363:259,1,90,6|0,0:0|0:0,0:0:0:0:
217,189,83566,1,2,0:0:0:0:
147,349,83706,1,0,0:0:0:0:
297,224,83846,2,0,P|305:180|290:138,1,90,2|0,0:0|0:0,0:0:0:0:
16,240,84126,2,0,P|7:283|22:325,1,90,2|0,0:0|0:0,0:0:0:0:
254,322,84407,5,2,0:0:0:0:
217,189,84547,1,0,0:0:0:0:
147,349,84687,1,2,0:0:0:0:
137,154,84827,1,0,0:0:0:0:
254,322,84967,1,2,0:0:0:0:
207,102,85108,1,0,0:0:0:0:
16,240,85248,2,0,P|7:283|22:325,1,90,2|0,0:0|0:0,0:0:0:0:
297,224,85528,6,0,B|404:237,1,90,2|0,0:0|0:0,0:0:0:0:
137,154,85809,1,2,0:0:0:0:
277,50,85949,1,0,0:0:0:0:
227,276,86089,2,0,B|214:383,1,90,2|0,0:0|0:0,0:0:0:0:
375,145,86369,2,0,B|388:252,1,90,2|0,0:0|0:0,0:0:0:0:
127,68,86650,5,2,0:0:0:0:
297,224,86790,1,0,0:0:0:0:
277,50,86930,1,2,0:0:0:0:
147,242,87070,1,0,0:0:0:0:
207,102,87210,2,0,B|220:209,1,90,2|0,0:0|0:0,0:0:0:0:
237,364,87491,2,0,B|224:257,1,90,2|0,0:0|0:0,0:0:0:0:
365,142,87771,6,0,P|429:149|472:192,1,90,2|0,0:0|0:0,0:0:0:0:
147,242,88052,2,0,P|83:235|40:192,1,90,2|0,0:0|0:0,0:0:0:0:
375,126,88332,6,0,P|439:133|482:176,1,90,2|0,0:0|0:0,0:0:0:0:
137,258,88612,2,0,P|73:251|30:208,1,90,2|0,0:0|0:0,0:0:0:0:
396,225,88893,6,0,B|381:314,1,90,2|0,0:0|0:0,0:0:0:0:
115,158,89173,2,0,B|131:70,1,90,2|0,0:0|0:0,0:0:0:0:
410,243,89453,6,0,B|395:332,1,90,2|0,0:0|0:0,0:0:0:0:
101,140,89734,2,0,B|117:52,1,90,2|0,0:0|0:0,0:0:0:0:
438,172,90014,6,0,B|409:350,1,180,6|2,0:0|0:0,0:0:0:0:
391,95,90435,1,0,0:0:0:0:
256,178,90575,2,0,B|345:171,1,90,6|0,0:0|0:0,0:0:0:0:
108,9,90855,2,0,B|18:15,1,90,6|0,0:0|0:0,0:0:0:0:
211,255,91136,5,6,0:0:0:0:
197,2,91276,2,0,B|166:179,1,180,0|0,0:0|0:0,0:0:0:0:
361,83,91696,2,0,B|341:195,1,90,2|0,0:0|0:0,0:0:0:0:
291,25,91977,2,0,P|326:-1|370:-6,1,90,2|0,0:0|0:0,0:0:0:0:
211,255,92257,5,2,0:0:0:0:
256,192,92397,12,2,96463,0:0:0:0:
256,160,96603,6,0,B|256:205,1,45
300,84,96743,6,0,P|341:68|385:73,1,90,14|0,0:0|0:0,0:0:0:0:
352,157,97023,1,2,0:0:0:0:
212,84,97164,2,0,P|170:68|126:73,1,90,8|2,0:0|0:0,0:0:0:0:
160,157,97444,1,0,0:0:0:0:
395,310,97584,2,0,B|412:221,1,90,14|0,0:0|0:0,0:0:0:0:
99,221,97865,6,0,B|117:310,1,90,14|0,0:0|0:0,0:0:0:0:
300,84,98145,1,2,0:0:0:0:
256,272,98285,2,0,B|256:376,1,90,12|2,0:0|0:0,0:0:0:0:
212,84,98566,1,0,0:0:0:0:
412,221,98706,2,0,B|395:310,1,90,14|0,0:0|0:0,0:0:0:0:
99,221,98986,6,0,B|99:151,1,45,2|0,0:0|0:0,0:0:0:0:
212,84,99126,5,0,0:0:0:0:
242,116,99196,1,0,0:0:0:0:
254,159,99266,1,2,0:0:0:0:
233,198,99336,1,0,0:0:0:0:
227,241,99407,1,0,0:0:0:0:
259,270,99477,1,0,0:0:0:0:
301,261,99547,5,2,0:0:0:0:
317,220,99617,1,0,0:0:0:0:
293,184,99687,1,0,0:0:0:0:
248,184,99757,1,0,0:0:0:0:
206,200,99827,1,2,0:0:0:0:
174,231,99897,1,0,0:0:0:0:
154,271,99967,1,0,0:0:0:0:
125,304,100037,1,0,0:0:0:0:
81,305,100107,5,2,0:0:0:0:
50,275,100177,1,0,0:0:0:0:
50,231,100247,1,0,0:0:0:0:
82,201,100318,1,0,0:0:0:0:
126,199,100388,1,2,0:0:0:0:
169,213,100458,1,0,0:0:0:0:
202,243,100528,1,0,0:0:0:0:
221,284,100598,1,0,0:0:0:0:
224,328,100668,5,2,0:0:0:0:
224,328,101229,5,6,0:0:0:0:
184,152,101369,1,8,0:0:0:0:
301,177,101509,1,2,0:0:0:0:
297,198,101579,1,0,0:0:0:0:
292,220,101649,1,8,0:0:0:0:
116,260,101790,1,2,0:0:0:0:
164,64,101930,1,8,0:0:0:0:
204,240,102070,1,2,0:0:0:0:
200,261,102140,1,0,0:0:0:0:
195,283,102210,1,8,0:0:0:0:
191,304,102280,1,0,0:0:0:0:
186,326,102351,6,0,B|125:347,1,45,2|0,0:0|0:0,0:0:0:0:
292,220,102491,2,0,B|353:241,1,45,8|0,0:0|0:0,0:0:0:0:
225,87,102631,1,2,0:0:0:0:
229,108,102701,1,0,0:0:0:0:
234,130,102771,2,0,B|295:109,1,45,8|0,0:0|0:0,0:0:0:0:
422,0,102911,6,0,B|379:14,1,45,2|0,0:0|0:0,0:0:0:0:
354,153,103052,2,0,B|397:139,1,45,8|0,0:0|0:0,0:0:0:0:
234,130,103192,1,2,0:0:0:0:
192,144,103262,1,0,0:0:0:0:
149,159,103332,1,8,0:0:0:0:
107,173,103402,1,0,0:0:0:0:
64,188,103472,6,0,B|75:127,1,45,2|0,0:0|0:0,0:0:0:0:
179,18,103612,2,0,B|190:78,1,45,8|0,0:0|0:0,0:0:0:0:
123,253,103752,1,2,0:0:0:0:
81,267,103823,1,0,0:0:0:0:
39,281,103893,2,0,B|-21:269,1,45,8|0,0:0|0:0,0:0:0:0:
207,225,104033,6,0,B|267:236,1,45,2|0,0:0|0:0,0:0:0:0:
333,18,104173,2,0,B|321:78,1,45,8|0,0:0|0:0,0:0:0:0:
106,165,104314,1,2,0:0:0:0:
114,209,104384,1,0,0:0:0:0:
123,253,104454,1,8,0:0:0:0:
131,297,104524,1,0,0:0:0:0:
140,341,104594,6,0,B|200:329,1,45,2|0,0:0|0:0,0:0:0:0:
207,225,104734,2,0,B|267:236,1,45,8|0,0:0|0:0,0:0:0:0:
274,341,104874,1,2,0:0:0:0:
278,363,104944,1,0,0:0:0:0:
282,384,105014,2,0,B|342:372,1,45,8|0,0:0|0:0,0:0:0:0:
360,198,105154,2,0,B|343:286,1,90,2|8,0:0|0:0,0:0:0:0:
106,164,105435,5,2,0:0:0:0:
122,123,105505,1,0,0:0:0:0:
157,95,105575,1,8,0:0:0:0:
201,88,105645,1,0,0:0:0:0:
243,102,105715,5,6,0:0:0:0:
379,32,105855,2,0,P|336:18|293:28,1,90,8|2,0:0|0:0,0:0:0:0:
194,177,106136,1,8,0:0:0:0:
422,110,106276,2,0,P|454:79|468:37,1,90,2|8,0:0|0:0,0:0:0:0:
194,177,106556,1,2,0:0:0:0:
203,220,106626,1,0,0:0:0:0:
233,253,106696,1,8,0:0:0:0:
333,108,106837,5,2,0:0:0:0:
330,93,106907,1,0,0:0:0:0:
327,78,106977,1,8,0:0:0:0:
324,63,107047,1,0,0:0:0:0:
298,101,107117,5,2,0:0:0:0:
264,94,107187,1,0,0:0:0:0:
229,88,107257,1,8,0:0:0:0:
195,81,107327,1,0,0:0:0:0:
161,74,107397,1,2,0:0:0:0:
126,68,107467,1,0,0:0:0:0:
92,61,107537,1,8,0:0:0:0:
58,54,107607,1,0,0:0:0:0:
100,105,107678,5,2,0:0:0:0:
109,149,107748,1,0,0:0:0:0:
118,193,107818,1,8,0:0:0:0:
127,237,107888,1,0,0:0:0:0:
107,277,107958,5,2,0:0:0:0:
140,247,108028,1,0,0:0:0:0:
181,229,108098,1,8,0:0:0:0:
226,223,108168,1,0,0:0:0:0:
270,230,108238,1,2,0:0:0:0:
310,250,108308,1,0,0:0:0:0:
327,290,108379,1,8,0:0:0:0:
306,329,108449,1,0,0:0:0:0:
264,338,108519,1,2,0:0:0:0:
229,311,108589,1,0,0:0:0:0:
228,268,108659,1,8,0:0:0:0:
260,238,108729,1,0,0:0:0:0:
299,219,108799,1,2,0:0:0:0:
314,178,108869,1,0,0:0:0:0:
296,138,108939,1,8,0:0:0:0:
255,122,109009,1,0,0:0:0:0:
214,139,109080,5,2,0:0:0:0:
441,78,109220,1,8,0:0:0:0:
208,155,109360,5,2,0:0:0:0:
435,94,109500,1,8,0:0:0:0:
120,233,109640,5,2,0:0:0:0:
298,77,109780,1,8,0:0:0:0:
114,249,109921,5,2,0:0:0:0:
291,92,110061,1,8,0:0:0:0:
122,338,110201,6,0,P|88:335|28:234,2,135,6|0|0,0:0|0:0|0:0,0:0:0:0:
390,338,110762,2,0,P|424:335|484:234,2,135,6|0|0,0:0|0:0|0:0,0:0:0:0:
140,124,111323,6,0,P|176:43|256:7,1,180,2|2,0:0|0:0,0:0:0:0:
371,124,111743,2,0,P|335:43|256:7,1,180,2|0,0:0|0:0,0:0:0:0:
256,208,112164,2,0,B|256:104,1,90,10|0,0:0|0:0,0:0:0:0:
166,343,112444,6,0,B|139:209|139:209|184:240,1,180,6|2,0:0|0:0,0:0:0:0:
346,343,112865,2,0,B|373:209|373:209|328:240,1,180,2|0,0:0|0:0,0:0:0:0:
256,118,113285,2,0,B|256:208,1,90,10|0,0:0|0:0,0:0:0:0:
346,343,113566,6,0,B|497:241,1,180,2|2,0:0|0:0,0:0:0:0:
256,298,113986,1,0,0:0:0:0:
256,298,114056,1,0,0:0:0:0:
256,298,114126,2,0,B|256:208,1,90,10|0,0:0|0:0,0:0:0:0:
166,343,114407,2,0,B|67:277,1,90,2|8,0:0|0:0,0:0:0:0:
122,46,114687,6,0,P|86:49|12:139,2,135,6|0|0,0:0|0:0|0:0,0:0:0:0:
390,46,115248,2,0,P|426:49|500:139,2,135,6|0|0,0:0|0:0|0:0,0:0:0:0:
256,280,115809,6,0,B|256:384,1,90,6|0,0:0|0:0,0:0:0:0:
213,47,116089,2,0,B|256:32|256:32|300:48,1,90,2|0,0:0|0:0,0:0:0:0:
158,250,116369,5,2,0:0:0:0:
162,191,116462,1,8,0:0:0:0:
199,145,116555,1,8,0:0:0:0:
256,127,116649,1,10,0:0:0:0:
312,145,116743,1,8,0:0:0:0:
349,191,116836,1,8,0:0:0:0:
353,250,116930,6,0,B|465:232,1,90,2|0,0:0|0:0,0:0:0:0:
158,250,117210,2,0,B|47:232,1,90,2|0,0:0|0:0,0:0:0:0:
393,328,117491,2,0,B|504:309,1,90,2|0,0:0|0:0,0:0:0:0:
119,328,117771,2,0,B|7:309,1,90,2|0,0:0|0:0,0:0:0:0:
399,76,118051,6,0,B|384:164,1,90,2|0,0:0|0:0,0:0:0:0:
113,76,118332,2,0,B|127:164,1,90,2|0,0:0|0:0,0:0:0:0:
482,44,118612,2,0,B|468:133,1,90,2|0,0:0|0:0,0:0:0:0:
29,44,118893,2,0,B|44:133,1,90,2|0,0:0|0:0,0:0:0:0:
445,265,119173,6,0,B|453:220,1,45,2|0,0:0|0:0,0:0:0:0:
406,31,119313,2,0,B|398:75,1,45,10|0,0:0|0:0,0:0:0:0:
210,325,119453,1,2,0:0:0:0:
167,337,119523,1,0,0:0:0:0:
123,330,119593,1,8,0:0:0:0:
87,304,119663,1,0,0:0:0:0:
66,265,119734,6,0,B|58:220,1,45,2|0,0:0|0:0,0:0:0:0:
106,31,119874,2,0,B|113:75,1,45,10|0,0:0|0:0,0:0:0:0:
301,325,120014,1,2,0:0:0:0:
344,337,120084,1,0,0:0:0:0:
388,330,120154,1,8,0:0:0:0:
424,304,120224,1,0,0:0:0:0:
445,265,120295,5,2,0:0:0:0:
421,209,120365,1,0,0:0:0:0:
372,172,120435,1,8,0:0:0:0:
311,166,120505,1,0,0:0:0:0:
255,192,120575,1,2,0:0:0:0:
200,217,120645,1,0,0:0:0:0:
139,211,120715,1,8,0:0:0:0:
90,174,120785,1,0,0:0:0:0:
66,118,120855,5,6,0:0:0:0:
403,57,120995,1,12,0:0:0:0:
109,327,121135,5,6,0:0:0:0:
445,265,121276,1,12,0:0:0:0:
196,148,121416,6,0,B|256:40|256:40|320:148|320:148|224:148,1,324.45
124,288,122537,2,0,B|160:228|160:228|352:228|352:228|388:288,1,332.64
256,316,123659,5,6,0:0:0:0:
313,52,123799,1,8,0:0:0:0:
36,222,123939,1,2,0:0:0:0:
294,140,124080,1,8,0:0:0:0:
17,310,124220,1,2,0:0:0:0:
74,46,124360,1,8,0:0:0:0:
256,316,124500,1,2,0:0:0:0:
302,313,124570,1,0,0:0:0:0:
341,287,124640,1,8,0:0:0:0:
362,246,124710,1,0,0:0:0:0:
360,200,124780,5,2,0:0:0:0:
36,222,124921,1,8,0:0:0:0:
379,112,125061,1,2,0:0:0:0:
55,134,125201,1,8,0:0:0:0:
398,24,125341,5,2,0:0:0:0:
256,316,125481,1,8,0:0:0:0:
74,46,125622,1,2,0:0:0:0:
111,20,125692,1,0,0:0:0:0:
158,17,125762,1,8,0:0:0:0:
200,39,125832,1,0,0:0:0:0:
226,78,125902,5,2,0:0:0:0:
17,310,126042,1,8,0:0:0:0:
74,46,126182,1,2,0:0:0:0:
256,316,126323,1,8,0:0:0:0:
313,52,126463,5,2,0:0:0:0:
171,344,126603,1,8,0:0:0:0:
226,78,126743,1,2,0:0:0:0:
322,375,126883,1,8,0:0:0:0:
398,24,127023,5,2,0:0:0:0:
141,107,127164,1,8,0:0:0:0:
396,309,127304,5,2,0:0:0:0:
313,52,127445,1,8,0:0:0:0:
111,307,127584,5,2,0:0:0:0:
113,22,127725,1,8,0:0:0:0:
322,375,127865,5,2,0:0:0:0:
364,361,127935,1,0,0:0:0:0:
407,347,128005,1,8,0:0:0:0:
450,333,128075,1,0,0:0:0:0:
493,319,128145,6,0,B|502:208,1,90,6|8,0:0|0:0,0:0:0:0:
357,142,128425,2,0,B|349:52,1,90,2|8,0:0|0:0,0:0:0:0:
155,142,128706,2,0,B|162:52,1,90,2|8,0:0|0:0,0:0:0:0:
18,319,128986,2,0,B|10:208,1,90,2|8,0:0|0:0,0:0:0:0:
366,281,129266,6,0,P|386:320|385:365,1,90,2|8,0:0|0:0,0:0:0:0:
78,168,129547,2,0,P|76:123|97:83,1,90,2|8,0:0|0:0,0:0:0:0:
414,83,129827,2,0,P|434:122|433:167,1,90,2|8,0:0|0:0,0:0:0:0:
126,365,130108,2,0,P|125:320|146:281,1,90,2|8,0:0|0:0,0:0:0:0:
357,142,130388,5,2,0:0:0:0:
203,340,130528,1,8,0:0:0:0:
279,115,130668,5,2,0:0:0:0:
279,314,130809,1,8,0:0:0:0:
341,60,130949,5,2,0:0:0:0:
218,261,131089,1,8,0:0:0:0:
263,33,131229,1,2,0:0:0:0:
307,26,131299,1,0,0:0:0:0:
352,19,131369,1,8,0:0:0:0:
396,13,131439,1,0,0:0:0:0:
441,6,131509,5,2,0:0:0:0:
368,300,131650,1,8,0:0:0:0:
263,33,131790,1,2,0:0:0:0:
190,327,131930,1,8,0:0:0:0:
85,60,132070,1,2,0:0:0:0:
12,354,132210,1,8,0:0:0:0:
315,218,132351,1,2,0:0:0:0:
359,211,132421,1,0,0:0:0:0:
404,204,132491,1,8,0:0:0:0:
448,198,132561,1,0,0:0:0:0:
493,191,132631,6,0,P|512:151|511:107,1,90,6|8,0:0|0:0,0:0:0:0:
228,196,132911,2,0,P|227:241|246:281,1,90,2|8,0:0|0:0,0:0:0:0:
390,115,133192,1,2,0:0:0:0:
418,293,133332,1,8,0:0:0:0:
141,174,133472,1,2,0:0:0:0:
147,130,133542,1,0,0:0:0:0:
154,86,133612,1,8,0:0:0:0:
161,41,133682,1,0,0:0:0:0:
167,0,133752,6,0,B|273:13,1,90,2|8,0:0|0:0,0:0:0:0:
127,263,134033,2,0,B|21:246,1,90,2|8,0:0|0:0,0:0:0:0:
309,156,134313,1,2,0:0:0:0:
337,334,134453,1,8,0:0:0:0:
25,337,134594,1,2,0:0:0:0:
31,293,134664,1,0,0:0:0:0:
38,249,134734,1,8,0:0:0:0:
45,204,134804,1,0,0:0:0:0:
51,161,134874,6,0,B|130:173,1,45,2|0,0:0|0:0,0:0:0:0:
337,334,135014,2,0,B|425:319,1,90,8|2,0:0|0:0,0:0:0:0:
242,71,135294,2,0,B|154:86,1,90,8|2,0:0|0:0,0:0:0:0:
0,330,135575,1,8,0:0:0:0:
28,295,135645,1,0,0:0:0:0:
66,272,135715,1,2,0:0:0:0:
110,263,135785,1,0,0:0:0:0:
155,268,135855,1,8,0:0:0:0:
195,288,135925,1,0,0:0:0:0:
226,320,135995,5,2,0:0:0:0:
331,57,136136,2,0,P|303:5|272:-13,1,90,8|2,0:0|0:0,0:0:0:0:
65,100,136416,1,8,0:0:0:0:
304,331,136556,2,0,P|340:304|358:264,1,90,2|8,0:0|0:0,0:0:0:0:
242,71,136837,1,2,0:0:0:0:
207,114,136907,1,0,0:0:0:0:
199,169,136977,1,8,0:0:0:0:
222,219,137047,1,0,0:0:0:0:
269,250,137117,5,6,0:0:0:0:
419,42,137257,1,8,0:0:0:0:
154,86,137397,1,2,0:0:0:0:
422,308,137537,1,8,0:0:0:0:
331,57,137678,1,2,0:0:0:0:
216,346,137818,1,8,0:0:0:0:
466,232,137958,1,2,0:0:0:0:
154,86,138098,1,8,0:0:0:0:
379,384,138238,5,2,0:0:0:0:
331,57,138379,1,8,0:0:0:0:
216,346,138519,1,2,0:0:0:0:
448,69,138660,1,8,0:0:0:0:
379,384,138799,5,2,0:0:0:0:
331,57,138939,1,8,0:0:0:0:
64,315,139080,1,2,0:0:0:0:
133,0,139221,1,8,0:0:0:0:
379,384,139360,5,6,0:0:0:0:
393,5,139500,1,8,0:0:0:0:
160,349,139640,5,2,0:0:0:0:
331,57,139780,1,8,0:0:0:0:
470,368,139921,5,2,0:0:0:0:
393,5,140061,1,8,0:0:0:0:
45,214,140201,5,2,0:0:0:0:
6,174,140271,1,0,0:0:0:0:
0,119,140341,1,8,0:0:0:0:
29,72,140411,1,0,0:0:0:0:
81,53,140481,5,6,0:0:0:0:
141,248,140622,1,8,0:0:0:0:
185,256,140692,1,0,0:0:0:0:
228,244,140762,1,2,0:0:0:0:
262,214,140832,1,0,0:0:0:0:
279,173,140902,1,8,0:0:0:0:
277,129,140972,1,0,0:0:0:0:
256,90,141042,5,2,0:0:0:0:
258,118,141112,1,0,0:0:0:0:
260,146,141182,1,8,0:0:0:0:
262,174,141252,1,0,0:0:0:0:
264,202,141323,1,2,0:0:0:0:
266,230,141392,1,0,0:0:0:0:
268,258,141462,1,8,0:0:0:0:
270,286,141532,1,0,0:0:0:0:
272,314,141603,6,0,P|309:350|370:363,1,90,2|0,0:0|0:0,0:0:0:0:
364,251,141883,1,2,0:0:0:0:
172,265,142023,2,0,B|62:273,1,90,8|2,0:0|0:0,0:0:0:0:
272,314,142304,1,0,0:0:0:0:
257,112,142444,2,0,B|264:202,1,90,10|0,0:0|0:0,0:0:0:0:
157,63,142724,5,2,0:0:0:0:
349,49,142865,2,0,B|438:42,1,90,0|2,0:0|0:0,0:0:0:0:
364,251,143145,1,8,0:0:0:0:
172,265,143285,2,0,B|165:175,1,90,2|0,0:0|0:0,0:0:0:0:
444,131,143566,2,0,B|451:221,1,90,10|0,0:0|0:0,0:0:0:0:
82,272,143846,6,0,B|75:182,1,90,2|0,0:0|0:0,0:0:0:0:
248,78,144126,1,2,0:0:0:0:
172,265,144266,2,0,B|165:175,1,90,8|2,0:0|0:0,0:0:0:0:
338,71,144547,1,0,0:0:0:0:
262,258,144687,2,0,B|255:168,1,90,10|0,0:0|0:0,0:0:0:0:
428,64,144968,5,2,0:0:0:0:
352,251,145108,2,0,B|345:161,1,90,0|2,0:0|0:0,0:0:0:0:
248,78,145388,1,8,0:0:0:0:
269,348,145528,5,2,0:0:0:0:
338,71,145668,1,0,0:0:0:0:
359,341,145809,1,10,0:0:0:0:
158,85,145949,1,0,0:0:0:0:
179,355,146089,5,10,0:0:0:0:
262,258,146229,1,0,0:0:0:0:
359,341,146369,1,2,0:0:0:0:
172,265,146509,5,8,0:0:0:0:
255,168,146649,1,2,0:0:0:0:
352,251,146789,1,0,0:0:0:0:
165,175,146930,5,10,0:0:0:0:
345,161,147070,1,0,0:0:0:0:
158,85,147210,5,10,0:0:0:0:
262,258,147351,1,0,0:0:0:0:
338,71,147491,1,2,0:0:0:0:
165,175,147631,5,8,0:0:0:0:
269,348,147772,1,2,0:0:0:0:
345,161,147912,1,0,0:0:0:0:
172,265,148052,5,10,0:0:0:0:
352,251,148192,1,0,0:0:0:0:
158,85,148332,5,10,0:0:0:0:
269,348,148472,1,0,0:0:0:0:
338,71,148612,1,2,0:0:0:0:
179,355,148752,5,8,0:0:0:0:
248,78,148893,1,2,0:0:0:0:
359,341,149032,1,0,0:0:0:0:
111,189,149173,5,10,0:0:0:0:
395,169,149314,1,0,0:0:0:0:
179,355,149453,5,10,0:0:0:0:
155,331,149523,1,0,0:0:0:0:
131,307,149593,1,0,0:0:0:0:
107,283,149664,1,0,0:0:0:0:
83,259,149733,1,2,0:0:0:0:
359,341,149874,1,8,0:0:0:0:
378,313,149944,1,0,0:0:0:0:
398,285,150014,1,2,0:0:0:0:
417,258,150084,1,0,0:0:0:0:
437,230,150154,1,0,0:0:0:0:
255,168,150294,2,0,B|262:258,1,90,14|0,0:0|0:0,0:0:0:0:
248,78,150575,6,0,P|199:98|170:140,1,90,2|0,0:0|0:0,0:0:0:0:
268,347,150855,2,0,P|317:327|346:285,1,90,10|0,0:0|0:0,0:0:0:0:
176,125,151136,2,0,B|85:132,1,90,2|0,0:0|0:0,0:0:0:0:
339,299,151416,2,0,B|429:292,1,90,10|0,0:0|0:0,0:0:0:0:
137,206,151696,6,0,B|47:213,1,90,2|0,0:0|0:0,0:0:0:0:
377,217,151977,2,0,B|415:135,1,90,10|0,0:0|0:0,0:0:0:0:
214,43,152257,2,0,B|175:124,1,90,2|0,0:0|0:0,0:0:0:0:
339,299,152537,2,0,B|429:292,1,90,10|0,0:0|0:0,0:0:0:0:
304,37,152818,5,2,0:0:0:0:
249,305,152958,2,0,P|259:342|311:386,1,90,8|2,0:0|0:0,0:0:0:0:
236,150,153238,2,0,P|198:140|134:163,1,90,0|2,0:0|0:0,0:0:0:0:
377,217,153519,2,0,P|404:189|416:122,1,90,8|2,0:0|0:0,0:0:0:0:
304,37,153799,1,0,0:0:0:0:
197,231,153939,6,0,B|212:357,1,90,2|0,0:0|0:0,0:0:0:0:
377,217,154220,2,0,B|362:343,1,90,10|0,0:0|0:0,0:0:0:0:
175,51,154500,2,0,B|186:141,1,90,2|0,0:0|0:0,0:0:0:0:
398,37,154780,2,0,B|387:126,1,90,10|0,0:0|0:0,0:0:0:0:
96,150,155061,6,0,B|7:161,1,90,2|0,0:0|0:0,0:0:0:0:
377,217,155341,2,0,B|466:227,1,90,10|0,0:0|0:0,0:0:0:0:
107,241,155622,2,0,B|18:252,1,90,2|0,0:0|0:0,0:0:0:0:
387,126,155902,2,0,B|476:136,1,90,10|0,0:0|0:0,0:0:0:0:
117,330,156182,5,2,0:0:0:0:
220,102,156323,1,0,0:0:0:0:
366,306,156463,2,0,B|455:316,1,90,10|0,0:0|0:0,0:0:0:0:
107,241,156743,2,0,B|18:252,1,90,10|0,0:0|0:0,0:0:0:0:
387,126,157023,2,0,B|476:136,1,90,10|0,0:0|0:0,0:0:0:0:
86,61,157304,5,2,0:0:0:0:
196,231,157444,2,0,B|285:220,1,90,8|2,0:0|0:0,0:0:0:0:
175,50,157724,1,0,0:0:0:0:
107,241,157865,1,2,0:0:0:0:
296,309,158005,2,0,B|285:219,1,90,8|2,0:0|0:0,0:0:0:0:
140,132,158285,1,0,0:0:0:0:
161,312,158425,5,2,0:0:0:0:
229,121,158566,1,8,0:0:0:0:
72,323,158706,2,0,B|-17:333,1,90,10|0,0:0|0:0,0:0:0:0:
140,132,158986,2,0,B|50:121,1,90,10|0,0:0|0:0,0:0:0:0:
318,110,159266,2,0,B|328:20,1,90,10|0,0:0|0:0,0:0:0:0:
340,288,159547,5,2,0:0:0:0:
382,296,159617,1,0,0:0:0:0:
417,269,159687,1,8,0:0:0:0:
419,226,159757,1,0,0:0:0:0:
388,196,159827,1,10,0:0:0:0:
345,199,159897,1,0,0:0:0:0:
302,214,159968,1,8,0:0:0:0:
258,221,160038,1,8,0:0:0:0:
213,217,160108,1,2,0:0:0:0:
170,205,160178,1,0,0:0:0:0:
136,177,160248,1,8,0:0:0:0:
128,134,160318,1,8,0:0:0:0:
152,97,160388,1,10,0:0:0:0:
194,84,160458,1,0,0:0:0:0:
233,103,160528,1,8,0:0:0:0:
254,143,160598,1,0,0:0:0:0:
256,187,160668,5,2,0:0:0:0:
56,162,160809,1,2,0:0:0:0:
358,67,160949,2,0,B|339:160,1,90,2|0,0:0|0:0,0:0:0:0:
154,317,161229,1,2,0:0:0:0:
158,294,161299,1,0,0:0:0:0:
163,272,161369,1,0,0:0:0:0:
167,250,161439,1,0,0:0:0:0:
172,228,161509,2,0,B|258:200,1,90,2|0,0:0|0:0,0:0:0:0:
154,317,161790,6,0,B|68:345,1,90,14|0,0:0|0:0,0:0:0:0:
191,140,162070,1,2,0:0:0:0:
221,376,162210,2,0,B|306:348,1,90,8|2,0:0|0:0,0:0:0:0:
172,228,162491,2,0,B|86:256,1,90,8|2,0:0|0:0,0:0:0:0:
391,319,162771,6,0,B|409:231,1,90,8|2,0:0|0:0,0:0:0:0:
271,110,163051,1,8,0:0:0:0:
323,262,163192,1,10,0:0:0:0:
359,80,163332,1,0,0:0:0:0:
253,201,163472,1,10,0:0:0:0:
289,19,163612,1,0,0:0:0:0:
429,141,163752,2,0,B|514:112,1,90,10|0,0:0|0:0,0:0:0:0:
183,139,164033,6,0,B|97:110,1,90,10|0,0:0|0:0,0:0:0:0:
271,110,164313,1,2,0:0:0:0:
235,292,164453,2,0,B|214:406,1,90,8|2,0:0|0:0,0:0:0:0:
81,199,164734,1,8,0:0:0:0:
253,201,164874,1,2,0:0:0:0:
46,378,165014,6,0,B|63:290,1,90,8|2,0:0|0:0,0:0:0:0:
183,139,165295,1,8,0:0:0:0:
323,263,165435,1,10,0:0:0:0:
271,110,165575,1,0,0:0:0:0:
235,292,165715,2,0,B|214:406,1,90,10|0,0:0|0:0,0:0:0:0:
339,174,165995,2,0,B|318:288,1,90,2|0,0:0|0:0,0:0:0:0:
201,48,166276,6,0,P|154:52|111:82,1,90,14|0,0:0|0:0,0:0:0:0:
165,230,166556,1,2,0:0:0:0:
271,110,166696,2,0,P|291:67|286:15,1,90,8|2,0:0|0:0,0:0:0:0:
76,207,166977,2,0,P|75:251|95:292,1,90,8|2,0:0|0:0,0:0:0:0:
249,211,167257,6,0,P|204:210|164:229,1,90,8|2,0:0|0:0,0:0:0:0:
201,48,167537,1,12,0:0:0:0:
339,174,167678,2,0,P|383:174|423:155,1,90,14|0,0:0|0:0,0:0:0:0:
112,25,167958,2,0,P|111:69|131:110,1,90,10|0,0:0|0:0,0:0:0:0:
361,86,168238,2,0,P|361:41|342:1,1,90,14|0,0:0|0:0,0:0:0:0:
164,229,168519,5,10,0:0:0:0:
361,86,168659,1,0,0:0:0:0:
84,186,168799,1,2,0:0:0:0:
441,129,168939,2,0,B|458:23,1,90,12|2,0:0|0:0,0:0:0:0:
161,138,169220,1,8,0:0:0:0:
411,305,169360,1,2,0:0:0:0:
361,86,169500,1,8,0:0:0:0:
212,358,169640,5,2,0:0:0:0:
441,129,169780,2,0,B|458:23,1,90,12|2,0:0|0:0,0:0:0:0:
161,138,170061,1,0,0:0:0:0:
411,305,170201,5,10,0:0:0:0:
255,92,170341,1,8,0:0:0:0:
212,358,170481,1,8,0:0:0:0:
455,40,170622,2,0,B|508:48,1,45,12|0,0:0|0:0,0:0:0:0:
