osu file format v14

[General]
AudioFilename: audio.mp3
AudioLeadIn: 0
PreviewTime: 13682
Countdown: 0
SampleSet: None
StackLeniency: 0.3
Mode: 0
LetterboxInBreaks: 0
WidescreenStoryboard: 1

[Editor]
DistanceSpacing: 1
BeatDivisor: 4
GridSize: 4
TimelineZoom: 2.2

[Metadata]
Title:HOPE
TitleUnicode:HOPE
Artist:BLUE ENCOUNT
ArtistUnicode:BLUE ENCOUNT
Creator:Monstrata
Version:INSANE
Source:
Tags:Mobile Suit Gundam IRON-BLOODED ORPHANS 機動戦士ガンダム 鉄血のオルフェンズ mikazuki augus orga itsuka snownino_ milan- corinn akitoshi shmiklak marvollo m_a_r_v_o_l_l_o
BeatmapID:1463237
BeatmapSetID:685622

[Difficulty]
HPDrainRate:6
CircleSize:4
OverallDifficulty:8
ApproachRate:9.3
SliderMultiplier:1.7
SliderTickRate:1

[Events]
//Background and Video events
0,0,"743390.jpg",0,0
//Break Periods
//Storyboard Layer 0 (Background)
//Storyboard Layer 1 (Fail)
//Storyboard Layer 2 (Pass)
//Storyboard Layer 3 (Foreground)
//Storyboard Sound Samples

[TimingPoints]
295,280.3738,4,3,1,70,1,0
295,-133.3333,4,3,1,70,0,0
4780,-100,4,3,1,70,0,0
17678,-166.6667,4,3,1,70,0,0
18098,-166.6667,4,3,1,70,0,0
18238,-100,4,3,1,70,0,0
42981,-100,4,3,1,5,0,0
43192,-100,4,3,1,70,0,0
43262,-100,4,3,1,5,0,0
43472,-100,4,3,1,70,0,0
43542,-100,4,3,1,5,0,0
43752,-100,4,3,1,70,0,0
43823,-100,4,3,1,5,0,0
44033,-166.6667,4,3,1,70,0,0
44173,-166.6667,4,3,1,20,0,0
44453,-166.6667,4,3,1,5,0,0
44594,-166.6667,4,3,1,70,0,0
44734,-166.6667,4,3,1,20,0,0
45014,-166.6667,4,3,1,5,0,0
45154,-166.6667,4,3,1,50,0,0
45575,-100,4,3,1,80,0,1
63098,-100,4,3,1,70,0,0
101229,-100,4,3,1,80,0,1
110201,-100,4,3,1,70,0,0
121416,-194.1748,4,3,1,70,0,0
121556,-194.1748,4,3,1,20,0,0
122397,-194.1748,4,3,1,5,0,0
122537,-189.3939,4,3,1,70,0,0
122678,-189.3939,4,3,1,20,0,0
123519,-189.3939,4,3,1,5,0,0
123659,-100,4,3,1,80,0,1
141603,-100,4,3,1,70,0,0
150575,-100,4,3,1,80,0,1
161790,-100,4,3,1,70,0,0
170692,-100,4,3,1,5,0,0

[Colours]
Combo1 : 128,64,0
Combo2 : 128,0,0
Combo3 : 0,64,0
Combo4 : 64,0,64

[HitObjects]
214,206,295,5,14,0:0:0:0:
289,172,435,1,0,0:0:0:0:
355,218,575,2,0,P|332:240|302:250,1,63.7500170230911,10|0,0:0|0:0,0:0:0:0:
428,184,855,2,0,P|435:214|430:245,1,63.7500170230911,2|0,0:0|0:0,0:0:0:0:
289,172,1136,1,10,0:0:0:0:
297,90,1276,1,0,0:0:0:0:
370,55,1416,6,0,P|377:85|372:116,1,63.7500170230911,10|0,0:0|0:0,0:0:0:0:
224,125,1696,2,0,P|216:94|221:63,1,63.7500170230911,2|0,0:0|0:0,0:0:0:0:
297,90,1977,1,10,0:0:0:0:
281,254,2117,1,8,0:0:0:0:
355,218,2257,2,0,L|431:226,1,63.7500170230911,2|0,0:0|0:0,0:0:0:0:
207,290,2537,5,10,0:0:0:0:
212,207,2678,1,0,0:0:0:0:
142,160,2818,2,0,P|130:189|130:221,1,63.7500170230911,10|0,0:0|0:0,0:0:0:0:
146,76,3098,2,0,P|114:80|87:96,1,63.7500170230911,2|0,0:0|0:0,0:0:0:0:
217,124,3379,5,10,0:0:0:0:
222,41,3519,1,0,0:0:0:0:
142,160,3659,2,0,P|130:189|130:221,1,63.7500170230911,14|0,0:0|0:0,0:0:0:0:
291,87,3939,2,0,P|302:57|302:25,1,63.7500170230911,14|0,0:0|0:0,0:0:0:0:
146,76,4220,2,0,L|93:71,1,31.8750085115455,2|0,0:0|0:0,0:0:0:0:
287,171,4360,2,0,L|340:176,1,31.8750085115455,0|0,0:0|0:0,0:0:0:0:
217,124,4500,5,2,0:0:0:0:
217,124,4780,6,0,L|187:311,1,170,14|2,0:0|0:0,0:0:0:0:
258,342,5201,2,0,L|274:241,1,85,8|2,0:0|0:0,0:0:0:0:
113,322,5481,2,0,P|137:357|176:375,1,85,8|2,0:0|0:0,0:0:0:0:
126,238,5762,6,0,L|46:268,1,85,8|2,0:0|0:0,0:0:0:0:
206,208,6042,1,8,0:0:0:0:
152,70,6182,2,0,L|139:154,1,85,10|0,0:0|0:0,0:0:0:0:
285,177,6463,2,0,L|298:93,1,85,10|0,0:0|0:0,0:0:0:0:
206,208,6743,1,10,0:0:0:0:
206,208,7023,6,0,P|257:258|306:261,2,85,10|0|2,0:0|0:0|0:0,0:0:0:0:
298,93,7444,2,0,L|285:177,1,85,8|2,0:0|0:0,0:0:0:0:
139,154,7724,2,0,L|152:70,1,85,8|2,0:0|0:0,0:0:0:0:
316,9,8005,6,0,P|353:28|378:63,1,85,8|2,0:0|0:0,0:0:0:0:
298,93,8285,1,8,0:0:0:0:
152,70,8425,2,0,L|68:56,1,85,10|0,0:0|0:0,0:0:0:0:
285,177,8706,2,0,L|368:190,1,85,10|0,0:0|0:0,0:0:0:0:
219,123,8986,2,0,P|201:162|205:203,1,85,2|0,0:0|0:0,0:0:0:0:
258,344,9266,6,0,L|284:175,1,170,14|2,0:0|0:0,0:0:0:0:
126,230,9687,2,0,L|142:332,1,85,8|2,0:0|0:0,0:0:0:0:
205,203,9967,2,0,L|191:119,1,85,8|2,0:0|0:0,0:0:0:0:
47,257,10248,6,0,L|63:359,1,85,8|2,0:0|0:0,0:0:0:0:
113,147,10528,1,8,0:0:0:0:
217,286,10668,2,0,P|255:269|282:234,1,85,10|0,0:0|0:0,0:0:0:0:
268,151,10949,2,0,P|230:168|203:203,1,85,10|0,0:0|0:0,0:0:0:0:
231,370,11229,1,10,0:0:0:0:
231,370,11509,6,0,L|130:359,2,85,10|0|2,0:0|0:0|0:0,0:0:0:0:
324,294,11930,2,0,L|315:379,1,85,8|2,0:0|0:0,0:0:0:0:
204,202,12210,1,12,0:0:0:0:
213,286,12350,1,2,0:0:0:0:
342,126,12491,1,12,0:0:0:0:
333,210,12631,5,2,0:0:0:0:
273,76,12771,1,8,0:0:0:0:
273,76,12841,1,0,0:0:0:0:
273,76,12911,2,0,P|311:46|361:42,1,85,10|0,0:0|0:0,0:0:0:0:
411,176,13192,1,10,0:0:0:0:
342,126,13332,1,0,0:0:0:0:
324,294,13472,5,10,0:0:0:0:
324,294,13752,6,0,P|271:283|225:298,1,85,2|0,0:0|0:0,0:0:0:0:
168,333,14033,2,0,L|161:375,3,42.5,2|0|8|0,0:0|0:0|0:0|0:0,0:0:0:0:
95,316,14313,2,0,L|88:358,3,42.5,2|0|0|0,0:0|0:0|0:0|0:0,0:0:0:0:
22,299,14594,2,0,L|15:341,3,42.5,10|0|0|0,0:0|0:0|0:0|0:0,0:0:0:0:
74,230,14874,6,0,L|67:187,3,42.5,10|0|0|0,0:0|0:0|0:0|0:0,0:0:0:0:
98,108,15154,2,0,L|136:89,3,42.5,2|0|8|0,0:0|0:0|0:0|0:0,0:0:0:0:
221,93,15435,2,0,L|250:123,3,42.5,2|0|0|0,0:0|0:0|0:0|0:0,0:0:0:0:
273,205,15715,2,0,L|253:242,3,42.5,10|0|0|0,0:0|0:0|0:0|0:0,0:0:0:0:
182,290,15996,6,0,L|140:282,3,42.5,10|0|0|0,0:0|0:0|0:0|0:0,0:0:0:0:
186,167,16276,2,0,L|179:209,3,42.5,2|0|0|0,0:0|0:0|0:0|0:0,0:0:0:0:
257,325,16556,1,10,0:0:0:0:
258,335,16626,1,0,0:0:0:0:
260,345,16696,1,0,0:0:0:0:
262,356,16766,1,0,0:0:0:0:
264,366,16837,2,0,P|304:378|345:370,1,85,14|0,0:0|0:0,0:0:0:0:
273,205,17117,5,10,0:0:0:0:
182,290,17257,1,8,0:0:0:0:
198,170,17397,1,10,0:0:0:0:
257,325,17537,1,8,0:0:0:0:
321,272,17678,2,0,P|395:247|459:291,1,152.999967315681,2|0,0:0|0:0,0:0:0:0:
384,333,18238,5,2,0:0:0:0:
396,159,18379,2,0,L|403:52,1,85,8|2,0:0|0:0,0:0:0:0:
242,233,18659,2,0,L|247:317,1,85,8|2,0:0|0:0,0:0:0:0:
319,196,18939,2,0,L|313:111,2,85,8|2|8,0:0|0:0|0:0,0:0:0:0:
165,270,19360,5,2,0:0:0:0:
177,183,19500,2,0,P|215:200|242:233,1,85,8|2,0:0|0:0,0:0:0:0:
152,356,19780,2,0,P|113:339|87:306,1,85,8|2,0:0|0:0,0:0:0:0:
165,270,20061,1,8,0:0:0:0:
238,322,20201,2,0,L|344:329,1,85,2|8,0:0|0:0,0:0:0:0:
406,332,20481,6,0,L|413:225,1,85,2|8,0:0|0:0,0:0:0:0:
326,244,20762,2,0,L|318:137,1,85,2|8,0:0|0:0,0:0:0:0:
238,322,21042,2,0,L|245:215,1,85,2|8,0:0|0:0,0:0:0:0:
158,234,21323,2,0,L|150:127,1,85,2|8,0:0|0:0,0:0:0:0:
77,107,21603,6,0,P|105:76|146:64,1,85,2|8,0:0|0:0,0:0:0:0:
219,106,21883,2,0,P|247:137|287:149,1,85,2|8,0:0|0:0,0:0:0:0:
361,20,22164,2,0,P|321:32|293:64,1,85,2|8,0:0|0:0,0:0:0:0:
367,104,22444,2,0,L|481:99,1,85,2|0,0:0|0:0,0:0:0:0:
496,171,22724,5,14,0:0:0:0:
456,246,22865,1,0,0:0:0:0:
371,248,23005,2,0,L|328:249,2,42.5,2|0|0,0:0|0:0|0:0,0:0:0:0:
274,184,23285,2,0,L|213:186,2,42.5,10|0|0,0:0|0:0|0:0,0:0:0:0:
323,114,23566,2,0,L|321:71,2,42.5,2|0|0,0:0|0:0|0:0,0:0:0:0:
185,74,23846,6,0,L|186:116,2,42.5,10|0|0,0:0|0:0|0:0,0:0:0:0:
151,190,24126,2,0,L|152:232,2,42.5,2|0|0,0:0|0:0|0:0,0:0:0:0:
254,308,24407,2,0,L|252:265,2,42.5,10|0|0,0:0|0:0|0:0,0:0:0:0:
169,319,24687,2,0,L|126:320,2,42.5,2|0|0,0:0|0:0|0:0,0:0:0:0:
330,355,24967,6,0,L|372:356,2,42.5,10|0|0,0:0|0:0|0:0,0:0:0:0:
356,213,25248,2,0,L|313:211,2,42.5,2|0|0,0:0|0:0|0:0,0:0:0:0:
169,319,25528,2,0,L|126:320,2,42.5,10|0|0,0:0|0:0|0:0,0:0:0:0:
143,177,25809,2,0,L|185:175,2,42.5,2|0|0,0:0|0:0|0:0,0:0:0:0:
254,308,26089,6,0,L|252:265,2,42.5,10|0|0,0:0|0:0|0:0,0:0:0:0:
258,76,26369,2,0,L|259:118,2,42.5,2|0|0,0:0|0:0|0:0,0:0:0:0:
169,319,26650,2,0,L|126:320,1,42.5,14|0,0:0|0:0,0:0:0:0:
61,274,26790,1,8,0:0:0:0:
59,259,26860,1,8,0:0:0:0:
58,245,26930,1,8,0:0:0:0:
57,231,27000,1,0,0:0:0:0:
56,217,27070,1,8,0:0:0:0:
55,203,27140,1,0,0:0:0:0:
54,189,27210,5,0,0:0:0:0:
125,142,27351,2,0,L|136:31,1,85,8|2,0:0|0:0,0:0:0:0:
194,191,27631,2,0,L|205:302,1,85,8|2,0:0|0:0,0:0:0:0:
263,143,27911,2,0,P|304:147|354:203,2,85,8|2|8,0:0|0:0|0:0,0:0:0:0:
274,227,28332,5,2,0:0:0:0:
418,201,28472,2,0,P|422:159|406:120,1,85,8|2,0:0|0:0,0:0:0:0:
252,62,28752,2,0,P|247:103|263:142,1,85,8|2,0:0|0:0,0:0:0:0:
329,92,29033,1,8,0:0:0:0:
175,31,29173,1,2,0:0:0:0:
175,31,29243,1,0,0:0:0:0:
175,31,29313,1,8,0:0:0:0:
181,164,29453,6,0,L|263:142,1,85,2|8,0:0|0:0,0:0:0:0:
120,104,29734,2,0,L|38:126,1,85,2|8,0:0|0:0,0:0:0:0:
160,248,30014,2,0,L|241:225,1,85,2|8,0:0|0:0,0:0:0:0:
99,187,30295,2,0,L|17:209,1,85,2|0,0:0|0:0,0:0:0:0:
138,330,30575,6,0,L|219:307,1,85,6|8,0:0|0:0,0:0:0:0:
260,319,30785,1,8,0:0:0:0:
260,319,30855,2,0,L|341:296,1,85,10|8,0:0|0:0,0:0:0:0:
362,213,31136,1,10,0:0:0:0:
300,153,31276,1,8,0:0:0:0:
279,236,31416,1,10,0:0:0:0:
217,176,31556,1,8,0:0:0:0:
196,259,31696,5,2,0:0:0:0:
238,93,31837,1,8,0:0:0:0:
238,93,32117,5,8,0:0:0:0:
402,46,32258,1,2,0:0:0:0:
402,46,32537,5,10,0:0:0:0:
360,211,32678,1,0,0:0:0:0:
329,131,32818,6,0,P|371:127|410:144,1,85,2|8,0:0|0:0,0:0:0:0:
444,224,33098,2,0,P|426:263|392:287,1,85,10|0,0:0|0:0,0:0:0:0:
305,276,33379,2,0,P|280:241|276:199,1,85,10|0,0:0|0:0,0:0:0:0:
360,211,33659,1,10,0:0:0:0:
360,211,33939,5,2,0:0:0:0:
298,51,34080,1,8,0:0:0:0:
298,51,34360,5,8,0:0:0:0:
128,24,34501,1,2,0:0:0:0:
128,24,34780,5,10,0:0:0:0:
190,184,34921,1,0,0:0:0:0:
267,219,35061,6,0,P|274:180|243:115,1,85,2|8,0:0|0:0,0:0:0:0:
181,99,35341,2,0,P|143:112|102:171,1,85,10|0,0:0|0:0,0:0:0:0:
120,233,35622,2,0,P|150:258|222:264,1,85,10|0,0:0|0:0,0:0:0:0:
190,184,35902,1,10,0:0:0:0:
190,184,36182,5,6,0:0:0:0:
50,282,36323,1,8,0:0:0:0:
50,282,36603,5,8,0:0:0:0:
204,354,36744,1,2,0:0:0:0:
204,354,37023,5,2,0:0:0:0:
343,256,37164,1,0,0:0:0:0:
271,209,37304,6,0,L|157:219,1,85,10|0,0:0|0:0,0:0:0:0:
181,301,37584,2,0,L|265:293,1,85,2|0,0:0|0:0,0:0:0:0:
355,201,37865,2,0,L|241:211,1,85,10|0,0:0|0:0,0:0:0:0:
265,293,38145,2,0,L|349:285,1,85,10|0,0:0|0:0,0:0:0:0:
360,116,38425,6,0,L|246:126,1,85,6|0,0:0|0:0,0:0:0:0:
180,88,38706,2,0,L|190:202,1,85,2|0,0:0|0:0,0:0:0:0:
152,268,38986,2,0,L|266:258,1,85,2|0,0:0|0:0,0:0:0:0:
332,296,39267,2,0,L|322:182,1,85,2|0,0:0|0:0,0:0:0:0:
100,199,39547,6,0,P|74:233|67:275,1,85,2|0,0:0|0:0,0:0:0:0:
263,347,39827,2,0,P|297:373|339:381,1,85,2|0,0:0|0:0,0:0:0:0:
411,184,40108,2,0,P|437:150|445:109,1,85,2|0,0:0|0:0,0:0:0:0:
248,36,40388,2,0,P|214:10|173:3,1,85,2|0,0:0|0:0,0:0:0:0:
256,192,40668,5,2,0:0:0:0:
277,190,40738,1,0,0:0:0:0:
297,184,40808,1,8,0:0:0:0:
315,173,40878,1,8,0:0:0:0:
331,158,40949,2,0,L|338:103,3,42.5,10|0|0|0,0:0|0:0|0:0|0:0,0:0:0:0:
343,33,41229,5,10,0:0:0:0:
321,34,41299,1,8,0:0:0:0:
301,40,41369,1,8,0:0:0:0:
283,51,41439,1,8,0:0:0:0:
268,67,41510,2,0,L|261:122,3,42.5,10|0|0|0,0:0|0:0|0:0|0:0,0:0:0:0:
194,155,41790,6,0,L|201:210,1,42.5,10|8,0:0|0:0,0:0:0:0:
268,243,41930,2,0,L|261:298,1,42.5,8|8,0:0|0:0,0:0:0:0:
199,341,42070,2,0,L|144:334,1,42.5,10|0,0:0|0:0,0:0:0:0:
111,267,42210,2,0,L|56:274,1,42.5,8|0,0:0|0:0,0:0:0:0:
2,357,42351,5,2,0:0:0:0:
22,362,42421,1,2,0:0:0:0:
43,362,42491,1,2,0:0:0:0:
63,357,42561,1,2,0:0:0:0:
82,346,42631,2,0,L|121:238,1,85,14|0,0:0|0:0,0:0:0:0:
268,243,42911,6,0,P|318:279|380:274,1,127.5,10|0,0:0|0:0,0:0:0:0:
268,243,43192,2,0,L|243:349,1,85,10|0,0:0|0:0,0:0:0:0:
244,141,43472,2,0,P|193:104|131:109,1,127.5,10|0,0:0|0:0,0:0:0:0:
244,141,43752,2,0,L|269:35,1,85,10|0,0:0|0:0,0:0:0:0:
230,188,45154,5,0,0:0:0:0:
230,188,45294,2,0,P|244:236|237:286,1,101.999978210454,6|8,0:0|0:0,0:0:0:0:
268,112,45715,6,0,L|378:104,1,85,2|8,0:0|0:0,0:0:0:0:
220,41,45995,1,2,0:0:0:0:
220,41,46066,1,0,0:0:0:0:
220,41,46136,1,8,0:0:0:0:
230,188,46276,5,2,0:0:0:0:
303,33,46416,1,8,0:0:0:0:
136,48,46556,2,0,P|161:100|203:125,1,85,2|8,0:0|0:0,0:0:0:0:
352,105,46837,1,2,0:0:0:0:
220,41,46977,1,8,0:0:0:0:
230,188,47117,1,2,0:0:0:0:
230,188,47187,1,0,0:0:0:0:
230,188,47257,1,8,0:0:0:0:
303,33,47397,6,0,P|362:18|417:42,1,85,2|8,0:0|0:0,0:0:0:0:
401,177,47678,1,2,0:0:0:0:
352,105,47818,1,8,0:0:0:0:
277,260,47958,1,2,0:0:0:0:
315,183,48098,1,8,0:0:0:0:
410,325,48238,1,2,0:0:0:0:
410,325,48309,1,0,0:0:0:0:
410,325,48379,1,8,0:0:0:0:
410,325,48449,1,0,0:0:0:0:
410,325,48519,6,0,L|519:311,1,85,2|8,0:0|0:0,0:0:0:0:
277,260,48799,2,0,L|192:270,1,85,2|8,0:0|0:0,0:0:0:0:
326,336,49080,1,2,0:0:0:0:
225,192,49220,1,8,0:0:0:0:
150,351,49360,1,2,0:0:0:0:
173,124,49500,1,8,0:0:0:0:
277,260,49640,6,0,L|361:249,1,85,2|8,0:0|0:0,0:0:0:0:
225,192,49921,2,0,L|192:270,1,85,2|8,0:0|0:0,0:0:0:0:
309,180,50201,2,0,L|257:112,1,85,2|8,0:0|0:0,0:0:0:0:
108,282,50481,2,0,L|159:349,1,85,2|8,0:0|0:0,0:0:0:0:
173,124,50762,6,0,L|89:135,1,85,2|8,0:0|0:0,0:0:0:0:
192,270,51042,2,0,L|225:192,1,85,2|8,0:0|0:0,0:0:0:0:
56,214,51323,2,0,L|107:281,1,85,2|8,0:0|0:0,0:0:0:0:
309,180,51603,1,2,0:0:0:0:
309,180,51673,1,0,0:0:0:0:
309,180,51743,1,8,0:0:0:0:
243,337,51883,5,2,0:0:0:0:
361,248,52023,1,8,0:0:0:0:
225,191,52164,1,2,0:0:0:0:
277,259,52304,1,8,0:0:0:0:
394,169,52444,2,0,P|427:194|445:244,1,85,2|8,0:0|0:0,0:0:0:0:
309,178,52724,1,2,0:0:0:0:
309,156,52794,1,0,0:0:0:0:
314,136,52864,1,8,0:0:0:0:
325,118,52934,1,0,0:0:0:0:
340,103,53005,6,0,P|383:84|452:106,1,85,2|8,0:0|0:0,0:0:0:0:
277,258,53285,2,0,P|238:275|196:272,1,85,2|8,0:0|0:0,0:0:0:0:
219,106,53566,2,0,L|225:191,1,85,2|8,0:0|0:0,0:0:0:0:
400,254,53846,1,2,0:0:0:0:
398,232,53916,1,0,0:0:0:0:
397,211,53986,1,8,0:0:0:0:
395,190,54056,1,0,0:0:0:0:
394,169,54126,6,0,L|513:187,1,85,2|8,0:0|0:0,0:0:0:0:
315,241,54407,2,0,L|231:228,1,85,2|8,0:0|0:0,0:0:0:0:
387,338,54687,2,0,L|400:254,1,85,2|8,0:0|0:0,0:0:0:0:
322,72,54967,1,2,0:0:0:0:
318,93,55037,1,0,0:0:0:0:
315,114,55107,1,8,0:0:0:0:
312,135,55177,1,0,0:0:0:0:
309,156,55248,6,0,L|224:169,1,85,2|8,0:0|0:0,0:0:0:0:
105,78,55528,2,0,L|190:91,1,85,2|8,0:0|0:0,0:0:0:0:
193,247,55809,1,2,0:0:0:0:
139,180,55949,1,8,0:0:0:0:
277,234,56089,1,2,0:0:0:0:
298,230,56159,1,0,0:0:0:0:
319,227,56229,1,8,0:0:0:0:
340,224,56299,1,0,0:0:0:0:
361,221,56369,6,0,L|374:136,1,85,2|8,0:0|0:0,0:0:0:0:
264,149,56650,2,0,L|251:64,1,85,2|8,0:0|0:0,0:0:0:0:
141,221,56930,2,0,L|154:136,1,85,2|8,0:0|0:0,0:0:0:0:
44,149,57210,1,2,0:0:0:0:
40,127,57280,1,0,0:0:0:0:
37,106,57350,1,8,0:0:0:0:
34,85,57420,1,0,0:0:0:0:
30,64,57491,6,0,P|69:46|116:51,1,85,2|8,0:0|0:0,0:0:0:0:
233,121,57771,2,0,P|194:138|153:136,1,85,2|8,0:0|0:0,0:0:0:0:
313,67,58052,2,0,P|354:64|393:81,1,85,2|8,0:0|0:0,0:0:0:0:
491,178,58332,1,2,0:0:0:0:
470,182,58402,1,0,0:0:0:0:
449,181,58472,1,8,0:0:0:0:
428,175,58542,1,0,0:0:0:0:
409,163,58612,6,0,L|427:285,1,85,2|8,0:0|0:0,0:0:0:0:
318,212,58893,2,0,L|300:334,1,85,2|8,0:0|0:0,0:0:0:0:
201,163,59173,2,0,L|213:247,1,85,2|8,0:0|0:0,0:0:0:0:
110,211,59453,1,2,0:0:0:0:
106,232,59523,1,0,0:0:0:0:
103,253,59593,1,8,0:0:0:0:
100,274,59663,1,0,0:0:0:0:
97,295,59734,6,0,P|54:294|15:309,1,85,2|8,0:0|0:0,0:0:0:0:
105,128,60014,2,0,P|105:86|90:47,1,85,2|8,0:0|0:0,0:0:0:0:
271,135,60294,2,0,P|313:135|352:120,1,85,2|8,0:0|0:0,0:0:0:0:
264,303,60575,1,2,0:0:0:0:
261,324,60645,1,0,0:0:0:0:
263,345,60715,1,8,0:0:0:0:
269,365,60785,1,0,0:0:0:0:
278,384,60855,6,0,L|364:375,1,85,6|8,0:0|0:0,0:0:0:0:
382,336,61066,1,0,0:0:0:0:
382,336,61136,2,0,L|424:331,1,42.5,2|0,0:0|0:0,0:0:0:0:
437,253,61276,2,0,L|472:228,1,42.5,8|0,0:0|0:0,0:0:0:0:
443,154,61416,1,2,0:0:0:0:
319,219,61556,2,0,P|328:178|358:149,1,85,8|2,0:0|0:0,0:0:0:0:
235,67,61837,1,8,0:0:0:0:
235,67,61907,1,0,0:0:0:0:
235,67,61977,6,0,P|275:79|316:68,1,85,6|8,0:0|0:0,0:0:0:0:
169,12,62257,1,2,0:0:0:0:
165,32,62327,1,0,0:0:0:0:
161,53,62397,1,8,0:0:0:0:
158,74,62467,1,0,0:0:0:0:
154,95,62537,2,0,L|112:103,1,42.5,2|0,0:0|0:0,0:0:0:0:
61,173,62678,2,0,L|19:164,1,42.5,8|0,0:0|0:0,0:0:0:0:
116,302,62818,5,2,0:0:0:0:
116,302,63098,6,0,L|220:324,1,85,2|0,0:0|0:0,0:0:0:0:
262,377,63379,2,0,L|366:355,1,85,2|0,0:0|0:0,0:0:0:0:
371,278,63659,1,2,0:0:0:0:
428,341,63799,1,0,0:0:0:0:
396,196,63939,2,0,P|336:197|298:233,1,85,2|0,0:0|0:0,0:0:0:0:
454,258,64220,6,0,P|483:205|470:154,1,85,2|0,0:0|0:0,0:0:0:0:
383,111,64500,2,0,L|397:203,1,85,2|0,0:0|0:0,0:0:0:0:
450,58,64780,1,2,0:0:0:0:
371,27,64921,1,0,0:0:0:0:
298,123,65061,2,0,L|390:109,1,85,2|0,0:0|0:0,0:0:0:0:
219,90,65341,5,2,0:0:0:0:
231,175,65481,1,0,0:0:0:0:
395,195,65622,2,0,L|383:111,1,85,2|0,0:0|0:0,0:0:0:0:
271,22,65902,1,2,0:0:0:0:
219,90,66042,1,0,0:0:0:0:
310,207,66182,2,0,L|297:122,1,85,2|0,0:0|0:0,0:0:0:0:
186,10,66463,5,2,0:0:0:0:
167,158,66603,1,0,0:0:0:0:
298,291,66743,2,0,L|310:206,1,85,6|0,0:0|0:0,0:0:0:0:
134,78,67023,2,0,P|93:67|51:75,1,85,6|0,0:0|0:0,0:0:0:0:
51,308,67304,2,0,P|93:316|134:305,1,85,6|0,0:0|0:0,0:0:0:0:
219,90,67584,5,6,0:0:0:0:
51,74,67724,2,0,L|62:167,1,85,0|2,0:0|0:0,0:0:0:0:
148,275,68005,2,0,L|138:191,1,85,0|2,0:0|0:0,0:0:0:0:
95,341,68285,1,0,0:0:0:0:
214,329,68425,2,0,L|298:319,1,85,2|0,0:0|0:0,0:0:0:0:
341,245,68706,5,2,0:0:0:0:
415,287,68846,2,0,L|425:372,1,85,0|2,0:0|0:0,0:0:0:0:
266,202,69126,2,0,L|256:117,1,85,0|2,0:0|0:0,0:0:0:0:
320,60,69407,1,0,0:0:0:0:
425,203,69547,2,0,L|415:287,1,85,2|0,0:0|0:0,0:0:0:0:
253,288,69827,5,2,0:0:0:0:
253,288,69967,1,0,0:0:0:0:
253,288,70108,2,0,L|243:372,1,85,2|0,0:0|0:0,0:0:0:0:
150,230,70388,5,2,0:0:0:0:
174,205,70528,1,0,0:0:0:0:
184,238,70668,2,0,L|174:322,1,85,2|0,0:0|0:0,0:0:0:0:
141,128,70949,5,2,0:0:0:0:
191,59,71089,1,0,0:0:0:0:
225,137,71229,2,0,L|215:221,1,85,2|0,0:0|0:0,0:0:0:0:
7,188,71509,5,2,0:0:0:0:
107,50,71650,1,0,0:0:0:0:
176,205,71790,2,0,L|166:289,1,85,2|0,0:0|0:0,0:0:0:0:
336,205,72070,6,0,L|346:289,1,85,6|0,0:0|0:0,0:0:0:0:
404,154,72351,1,2,0:0:0:0:
326,121,72491,1,0,0:0:0:0:
269,257,72631,1,2,0:0:0:0:
336,205,72771,1,0,0:0:0:0:
248,88,72911,2,0,L|258:172,1,85,2|0,0:0|0:0,0:0:0:0:
404,154,73192,5,2,0:0:0:0:
316,37,73332,1,0,0:0:0:0:
335,204,73472,2,0,P|368:231|410:239,1,85,2|0,0:0|0:0,0:0:0:0:
473,104,73752,1,2,0:0:0:0:
328,122,73893,1,0,0:0:0:0:
420,323,74033,2,0,L|410:239,1,85,2|0,0:0|0:0,0:0:0:0:
250,88,74313,6,0,L|166:98,1,85,2|0,0:0|0:0,0:0:0:0:
335,312,74594,2,0,L|419:322,1,85,6|0,0:0|0:0,0:0:0:0:
334,77,74874,2,0,L|344:-6,1,85,6|0,0:0|0:0,0:0:0:0:
251,301,75154,2,0,L|241:385,1,85,6|0,0:0|0:0,0:0:0:0:
503,332,75435,6,0,L|493:248,1,85,6|0,0:0|0:0,0:0:0:0:
334,77,75715,2,0,L|344:161,1,85,6|0,0:0|0:0,0:0:0:0:
166,311,75995,1,2,0:0:0:0:
148,321,76065,1,0,0:0:0:0:
128,327,76135,1,0,0:0:0:0:
107,326,76205,1,0,0:0:0:0:
86,320,76276,2,0,L|57:364,3,42.5,2|0|0|0,0:0|0:0|0:0|0:0,0:0:0:0:
120,251,76556,5,6,0:0:0:0:
251,301,76696,2,0,L|353:284,1,85,0|2,0:0|0:0,0:0:0:0:
342,201,76977,2,0,L|258:214,1,85,0|2,0:0|0:0,0:0:0:0:
349,114,77257,1,0,0:0:0:0:
413,252,77397,2,0,L|515:235,1,85,2|0,0:0|0:0,0:0:0:0:
432,100,77678,5,2,0:0:0:0:
342,201,77818,2,0,L|258:214,1,85,0|2,0:0|0:0,0:0:0:0:
156,117,78098,2,0,L|240:131,1,85,0|2,0:0|0:0,0:0:0:0:
90,240,78379,1,0,0:0:0:0:
72,103,78519,2,0,L|58:19,1,85,2|0,0:0|0:0,0:0:0:0:
174,227,78799,6,0,L|160:310,1,85,2|0,0:0|0:0,0:0:0:0:
351,310,79080,2,0,L|338:227,1,85,2|0,0:0|0:0,0:0:0:0:
146,59,79360,2,0,L|160:143,1,85,2|0,0:0|0:0,0:0:0:0:
352,143,79640,2,0,L|365:59,1,85,2|0,0:0|0:0,0:0:0:0:
260,2,79921,5,2,0:0:0:0:
213,225,80061,1,0,0:0:0:0:
213,225,80131,1,0,0:0:0:0:
213,225,80201,1,2,0:0:0:0:
275,168,80341,1,0,0:0:0:0:
132,199,80481,1,2,0:0:0:0:
232,308,80622,1,0,0:0:0:0:
194,142,80762,1,2,0:0:0:0:
151,282,80902,1,0,0:0:0:0:
338,327,81042,6,0,L|358:158,1,170,2|2,0:0|0:0,0:0:0:0:
325,79,81463,1,0,0:0:0:0:
240,99,81603,2,0,P|198:100|159:84,1,85,2|0,0:0|0:0,0:0:0:0:
103,148,81883,2,0,P|80:112|75:70,1,85,2|0,0:0|0:0,0:0:0:0:
193,227,82164,6,0,L|295:220,1,85,2|0,0:0|0:0,0:0:0:0:
113,316,82444,1,2,0:0:0:0:
108,232,82584,1,0,0:0:0:0:
108,232,82654,1,0,0:0:0:0:
108,232,82724,2,0,L|101:130,1,85,2|0,0:0|0:0,0:0:0:0:
197,311,83005,2,0,P|188:357|135:397,1,85,2|0,0:0|0:0,0:0:0:0:
28,299,83285,6,0,L|201:310,1,170,6|2,0:0|0:0,0:0:0:0:
256,249,83706,1,0,0:0:0:0:
204,182,83846,2,0,L|196:85,1,85,2|0,0:0|0:0,0:0:0:0:
314,97,84126,2,0,L|308:182,1,85,2|0,0:0|0:0,0:0:0:0:
314,310,84407,6,0,L|408:304,1,85,2|0,0:0|0:0,0:0:0:0:
256,249,84687,1,2,0:0:0:0:
255,371,84827,1,0,0:0:0:0:
393,219,84967,2,0,L|387:134,1,85,2|0,0:0|0:0,0:0:0:0:
197,97,85248,2,0,L|204:182,1,85,2|0,0:0|0:0,0:0:0:0:
314,310,85528,6,0,L|484:299,1,170,2|2,0:0|0:0,0:0:0:0:
480,213,85949,1,0,0:0:0:0:
387,134,86089,2,0,L|393:219,1,85,2|0,0:0|0:0,0:0:0:0:
244,259,86369,2,0,L|238:343,1,85,2|0,0:0|0:0,0:0:0:0:
104,87,86650,5,2,0:0:0:0:
180,48,86790,1,0,0:0:0:0:
243,179,86930,1,2,0:0:0:0:
248,96,87070,1,0,0:0:0:0:
167,218,87210,2,0,L|160:302,1,85,2|0,0:0|0:0,0:0:0:0:
351,302,87491,2,0,L|345:218,1,85,2|0,0:0|0:0,0:0:0:0:
151,136,87771,6,0,P|112:153|88:188,1,85,2|0,0:0|0:0,0:0:0:0:
200,296,88051,2,0,P|217:335|252:359,1,85,2|0,0:0|0:0,0:0:0:0:
360,247,88332,2,0,P|399:230|423:195,1,85,2|0,0:0|0:0,0:0:0:0:
311,87,88612,2,0,P|294:48|259:24,1,85,2|0,0:0|0:0,0:0:0:0:
73,104,88893,6,0,L|93:217,1,85,2|0,0:0|0:0,0:0:0:0:
168,375,89173,2,0,L|281:355,1,85,2|0,0:0|0:0,0:0:0:0:
439,280,89453,2,0,L|419:167,1,85,2|0,0:0|0:0,0:0:0:0:
344,9,89733,2,0,L|231:29,1,85,2|0,0:0|0:0,0:0:0:0:
87,187,90014,6,0,L|292:223,1,170,6|2,0:0|0:0,0:0:0:0:
237,132,90435,1,0,0:0:0:0:
106,294,90575,2,0,L|189:279,1,85,6|0,0:0|0:0,0:0:0:0:
320,146,90855,2,0,L|404:161,1,85,6|0,0:0|0:0,0:0:0:0:
271,301,91136,5,6,0:0:0:0:
237,132,91276,2,0,P|280:71|371:78,1,170,0|0,0:0|0:0,0:0:0:0:
433,240,91696,2,0,L|516:225,1,85,2|0,0:0|0:0,0:0:0:0:
320,146,91977,2,0,L|305:229,1,85,2|0,0:0|0:0,0:0:0:0:
447,323,92257,5,2,0:0:0:0:
256,192,92397,12,2,96463,0:0:0:0:
170,92,96603,5,0,0:0:0:0:
170,92,96673,1,0,0:0:0:0:
170,92,96743,6,0,L|150:3,2,85,14|0|2,0:0|0:0|0:0,0:0:0:0:
273,200,97164,2,0,P|339:150|421:159,1,170,8|0,0:0|0:0,0:0:0:0:
191,175,97584,2,0,L|171:264,1,85,14|0,0:0|0:0,0:0:0:0:
385,329,97865,6,0,L|366:246,2,85,14|0|2,0:0|0:0|0:0,0:0:0:0:
235,365,98285,2,0,L|275:182,1,170,12|0,0:0|0:0,0:0:0:0:
350,78,98706,2,0,P|359:119|348:160,1,85,14|0,0:0|0:0,0:0:0:0:
206,146,98986,6,0,L|146:131,1,42.5,2|0,0:0|0:0,0:0:0:0:
97,186,99126,1,0,0:0:0:0:
97,186,99196,1,0,0:0:0:0:
97,186,99266,2,0,L|37:171,3,42.5,2|0|0|0,0:0|0:0|0:0|0:0,0:0:0:0:
169,232,99547,1,2,0:0:0:0:
183,249,99617,1,0,0:0:0:0:
191,269,99687,1,0,0:0:0:0:
193,290,99757,1,0,0:0:0:0:
189,311,99827,2,0,L|230:321,3,42.5,2|0|0|0,0:0|0:0|0:0|0:0,0:0:0:0:
271,253,100108,5,2,0:0:0:0:
283,236,100178,1,0,0:0:0:0:
299,222,100248,1,0,0:0:0:0:
318,212,100318,1,0,0:0:0:0:
338,206,100388,1,2,0:0:0:0:
360,204,100458,1,0,0:0:0:0:
381,207,100528,1,0,0:0:0:0:
401,214,100598,1,0,0:0:0:0:
419,225,100668,6,0,P|403:287|493:216,1,297.5,2|0,0:0|0:0,0:0:0:0:
455,155,101229,5,6,0:0:0:0:
378,118,101369,2,0,L|295:137,1,85,8|2,0:0|0:0,0:0:0:0:
212,156,101650,1,8,0:0:0:0:
244,298,101790,2,0,L|269:217,1,85,2|8,0:0|0:0,0:0:0:0:
163,319,102070,1,2,0:0:0:0:
170,339,102140,1,0,0:0:0:0:
183,356,102210,1,8,0:0:0:0:
199,370,102280,1,0,0:0:0:0:
219,379,102351,6,0,L|302:360,1,85,2|8,0:0|0:0,0:0:0:0:
349,244,102631,2,0,L|345:287,3,42.5,2|0|8|0,0:0|0:0|0:0|0:0,0:0:0:0:
390,365,102911,2,0,L|473:384,1,85,2|8,0:0|0:0,0:0:0:0:
476,298,103192,1,2,0:0:0:0:
486,279,103262,1,0,0:0:0:0:
492,259,103332,1,8,0:0:0:0:
492,238,103402,1,0,0:0:0:0:
486,217,103472,6,0,P|469:168|484:122,1,85,2|8,0:0|0:0,0:0:0:0:
446,57,103752,2,0,L|484:39,3,42.5,2|0|8|0,0:0|0:0|0:0|0:0,0:0:0:0:
390,122,104033,2,0,P|348:127|309:111,1,85,2|8,0:0|0:0,0:0:0:0:
241,62,104313,1,2,0:0:0:0:
221,57,104383,1,0,0:0:0:0:
200,57,104453,1,8,0:0:0:0:
179,62,104523,1,0,0:0:0:0:
161,73,104594,6,0,L|177:180,1,85,2|8,0:0|0:0,0:0:0:0:
231,218,104874,2,0,L|299:218,3,42.5,2|0|8|0,0:0|0:0|0:0|0:0,0:0:0:0:
173,278,105154,2,0,L|161:363,1,85,2|8,0:0|0:0,0:0:0:0:
75,365,105435,1,2,0:0:0:0:
71,343,105505,1,0,0:0:0:0:
68,322,105575,1,8,0:0:0:0:
65,301,105645,1,0,0:0:0:0:
62,280,105715,5,6,0:0:0:0:
161,363,105855,2,0,L|280:363,1,85,8|2,0:0|0:0,0:0:0:0:
289,290,106136,1,8,0:0:0:0:
223,150,106276,2,0,L|223:235,1,85,2|8,0:0|0:0,0:0:0:0:
354,172,106556,1,2,0:0:0:0:
360,151,106626,1,0,0:0:0:0:
362,130,106696,1,8,0:0:0:0:
359,109,106766,1,0,0:0:0:0:
350,90,106837,6,0,L|341:39,3,42.5,2|0|8|0,0:0|0:0|0:0|0:0,0:0:0:0:
272,0,107117,2,0,L|221:9,3,42.5,2|0|8|0,0:0|0:0|0:0|0:0,0:0:0:0:
182,77,107397,2,0,L|191:128,3,42.5,2|0|8|0,0:0|0:0|0:0|0:0,0:0:0:0:
260,167,107678,2,0,L|311:158,3,42.5,2|0|8|0,0:0|0:0|0:0|0:0,0:0:0:0:
211,237,107958,6,0,L|220:288,3,42.5,2|0|8|0,0:0|0:0|0:0|0:0,0:0:0:0:
140,188,108238,2,0,L|89:197,3,42.5,2|0|8|0,0:0|0:0|0:0|0:0,0:0:0:0:
48,265,108519,2,0,L|56:307,3,42.5,2|0|8|0,0:0|0:0|0:0|0:0,0:0:0:0:
127,356,108799,2,0,L|169:349,3,42.5,2|0|8|0,0:0|0:0|0:0|0:0,0:0:0:0:
300,299,109080,5,2,0:0:0:0:
336,156,109220,1,8,0:0:0:0:
218,278,109360,1,2,0:0:0:0:
254,135,109500,1,8,0:0:0:0:
359,238,109640,5,2,0:0:0:0:
395,95,109780,1,8,0:0:0:0:
277,217,109920,1,2,0:0:0:0:
313,74,110060,1,8,0:0:0:0:
418,177,110201,6,0,P|471:136|471:54,2,127.5,6|0|0,0:0|0:0|0:0,0:0:0:0:
277,217,110762,2,0,P|224:258|224:340,2,127.5,6|0|0,0:0|0:0|0:0,0:0:0:0:
418,177,111323,6,0,B|445:236|445:236|422:346,1,170,2|2,0:0|0:0,0:0:0:0:
271,378,111743,2,0,B|250:276|250:276|277:217,1,170,2|0,0:0|0:0,0:0:0:0:
418,177,112164,2,0,L|520:188,1,85,10|0,0:0|0:0,0:0:0:0:
271,378,112444,6,0,L|91:358,1,170,6|2,0:0|0:0,0:0:0:0:
60,285,112865,1,2,0:0:0:0:
192,207,113005,2,0,L|285:217,1,85,0|0,0:0|0:0,0:0:0:0:
290,299,113285,2,0,L|205:289,1,85,10|0,0:0|0:0,0:0:0:0:
356,244,113566,6,0,L|525:225,1,170,2|2,0:0|0:0,0:0:0:0:
490,148,113986,1,0,0:0:0:0:
490,148,114056,1,0,0:0:0:0:
490,148,114126,1,10,0:0:0:0:
405,157,114266,2,0,L|392:38,1,85,0|2,0:0|0:0,0:0:0:0:
182,280,114687,6,0,L|196:134,2,127.5,6|0|0,0:0|0:0|0:0,0:0:0:0:
330,280,115248,2,0,L|313:129,2,127.5,6|0|0,0:0|0:0|0:0,0:0:0:0:
168,361,115809,6,0,L|46:366,1,85,6|0,0:0|0:0,0:0:0:0:
344,361,116089,2,0,L|466:366,1,85,2|0,0:0|0:0,0:0:0:0:
214,236,116369,2,0,L|206:301,2,56.6666666666667,2|8|8,0:0|0:0|0:0,0:0:0:0:
298,236,116650,2,0,L|305:301,2,56.6666666666667,10|8|8,0:0|0:0|0:0,0:0:0:0:
203,118,116930,6,0,L|214:221,1,85,2|0,0:0|0:0,0:0:0:0:
309,118,117210,2,0,L|297:221,1,85,2|0,0:0|0:0,0:0:0:0:
162,109,117491,6,0,L|186:191,1,85,2|0,0:0|0:0,0:0:0:0:
349,109,117771,2,0,L|325:191,1,85,2|0,0:0|0:0,0:0:0:0:
122,104,118051,6,0,L|160:180,1,85,2|0,0:0|0:0,0:0:0:0:
389,104,118332,2,0,L|351:180,1,85,2|0,0:0|0:0,0:0:0:0:
83,100,118612,6,0,L|134:169,1,85,2|0,0:0|0:0,0:0:0:0:
428,100,118893,2,0,L|377:169,1,85,2|0,0:0|0:0,0:0:0:0:
312,49,119173,6,0,L|305:114,1,42.5,2|0,0:0|0:0,0:0:0:0:
200,49,119313,2,0,L|208:114,1,42.5,10|0,0:0|0:0,0:0:0:0:
142,142,119453,2,0,L|71:142,3,42.5,2|0|8|0,0:0|0:0|0:0|0:0,0:0:0:0:
205,190,119734,6,0,L|201:232,1,42.5,2|0,0:0|0:0,0:0:0:0:
308,190,119874,2,0,L|313:232,1,42.5,10|0,0:0|0:0,0:0:0:0:
375,283,120014,2,0,L|446:283,3,42.5,2|0|8|0,0:0|0:0|0:0|0:0,0:0:0:0:
312,331,120294,6,0,L|305:396,1,42.5,2|0,0:0|0:0,0:0:0:0:
200,331,120435,2,0,L|208:396,1,42.5,8|0,0:0|0:0,0:0:0:0:
137,283,120575,2,0,L|66:283,1,42.5,2|0,0:0|0:0,0:0:0:0:
205,190,120715,2,0,L|201:232,1,42.5,8|0,0:0|0:0,0:0:0:0:
376,142,120855,6,0,L|447:142,1,42.5,6|0,0:0|0:0,0:0:0:0:
309,49,120995,2,0,L|314:91,1,42.5,12|0,0:0|0:0,0:0:0:0:
206,49,121136,2,0,L|202:91,1,42.5,6|0,0:0|0:0,0:0:0:0:
96,142,121276,2,0,L|138:142,1,42.5,12|0,0:0|0:0,0:0:0:0:
197,158,123659,5,6,0:0:0:0:
291,45,123799,2,0,L|276:128,1,85,8|2,0:0|0:0,0:0:0:0:
263,213,124080,1,8,0:0:0:0:
119,183,124220,2,0,P|154:160|196:157,1,85,2|8,0:0|0:0,0:0:0:0:
248,296,124500,1,2,0:0:0:0:
248,296,124570,1,0,0:0:0:0:
248,296,124640,1,8,0:0:0:0:
182,241,124780,5,2,0:0:0:0:
263,213,124921,1,8,0:0:0:0:
328,267,125061,2,0,P|384:258|416:227,1,85,2|8,0:0|0:0,0:0:0:0:
197,158,125342,1,2,0:0:0:0:
248,296,125481,1,8,0:0:0:0:
343,184,125622,1,2,0:0:0:0:
343,184,125692,1,0,0:0:0:0:
343,184,125762,1,8,0:0:0:0:
182,241,125902,6,0,P|161:293|172:337,1,85,2|8,0:0|0:0,0:0:0:0:
328,267,126182,1,2,0:0:0:0:
263,213,126323,1,8,0:0:0:0:
313,350,126463,1,2,0:0:0:0:
393,321,126603,1,8,0:0:0:0:
248,296,126743,1,2,0:0:0:0:
236,313,126813,1,0,0:0:0:0:
229,333,126883,1,8,0:0:0:0:
227,354,126953,1,0,0:0:0:0:
231,375,127023,6,0,L|129:364,1,85,2|8,0:0|0:0,0:0:0:0:
97,231,127304,2,0,L|182:241,1,85,2|8,0:0|0:0,0:0:0:0:
46,299,127584,1,2,0:0:0:0:
13,222,127724,1,8,0:0:0:0:
182,241,127865,1,2,0:0:0:0:
149,164,128005,1,8,0:0:0:0:
130,308,128145,6,0,P|178:326|226:312,1,85,6|8,0:0|0:0,0:0:0:0:
340,224,128425,2,0,P|302:207|260:212,1,85,2|8,0:0|0:0,0:0:0:0:
277,371,128706,2,0,P|294:333|289:291,1,85,2|8,0:0|0:0,0:0:0:0:
194,160,128986,2,0,P|176:208|190:256,1,85,2|8,0:0|0:0,0:0:0:0:
376,304,129266,6,0,L|475:293,1,85,2|8,0:0|0:0,0:0:0:0:
340,160,129547,2,0,L|439:171,1,85,2|8,0:0|0:0,0:0:0:0:
289,291,129827,2,0,L|278:390,1,85,2|8,0:0|0:0,0:0:0:0:
255,150,130108,1,2,0:0:0:0:
255,150,130178,1,0,0:0:0:0:
255,150,130248,1,8,0:0:0:0:
204,299,130388,6,0,L|119:309,1,85,2|8,0:0|0:0,0:0:0:0:
25,233,130668,2,0,L|34:318,1,85,2|8,0:0|0:0,0:0:0:0:
213,215,130949,2,0,L|203:299,1,85,2|8,0:0|0:0,0:0:0:0:
100,139,131229,1,2,0:0:0:0:
102,160,131299,1,0,0:0:0:0:
105,181,131369,1,8,0:0:0:0:
107,202,131439,1,0,0:0:0:0:
110,224,131509,6,0,L|25:233,1,85,2|8,0:0|0:0,0:0:0:0:
86,382,131790,2,0,L|171:373,1,85,2|8,0:0|0:0,0:0:0:0:
273,245,132070,2,0,L|357:254,1,85,2|8,0:0|0:0,0:0:0:0:
428,384,132351,1,2,0:0:0:0:
449,381,132421,1,0,0:0:0:0:
470,379,132491,1,8,0:0:0:0:
491,376,132561,1,0,0:0:0:0:
511,374,132631,6,0,P|528:335|522:294,1,85,6|8,0:0|0:0,0:0:0:0:
367,174,132911,2,0,P|350:212|356:253,1,85,2|8,0:0|0:0,0:0:0:0:
211,305,133192,2,0,P|227:343|221:384,1,85,2|8,0:0|0:0,0:0:0:0:
44,262,133472,1,2,0:0:0:0:
38,242,133542,1,0,0:0:0:0:
38,221,133612,1,8,0:0:0:0:
44,201,133682,1,0,0:0:0:0:
54,183,133752,6,0,L|151:175,1,85,2|8,0:0|0:0,0:0:0:0:
211,305,134033,2,0,L|308:297,1,85,2|8,0:0|0:0,0:0:0:0:
325,164,134313,1,2,0:0:0:0:
261,220,134453,1,8,0:0:0:0:
379,291,134594,1,2,0:0:0:0:
398,208,134734,1,8,0:0:0:0:
295,298,134874,6,0,P|322:352|369:375,1,85,2|8,0:0|0:0,0:0:0:0:
460,265,135154,2,0,P|514:238|537:191,1,85,2|8,0:0|0:0,0:0:0:0:
427,100,135435,2,0,P|400:46|353:23,1,85,2|8,0:0|0:0,0:0:0:0:
262,133,135715,1,2,0:0:0:0:
241,138,135785,1,0,0:0:0:0:
222,147,135855,1,8,0:0:0:0:
206,161,135925,1,0,0:0:0:0:
194,178,135995,6,0,L|203:267,1,85,2|8,0:0|0:0,0:0:0:0:
370,375,136276,2,0,L|379:291,1,85,2|8,0:0|0:0,0:0:0:0:
281,161,136556,2,0,L|290:250,1,85,2|8,0:0|0:0,0:0:0:0:
457,358,136837,1,2,0:0:0:0:
459,336,136907,1,0,0:0:0:0:
461,315,136977,1,8,0:0:0:0:
463,294,137047,1,0,0:0:0:0:
465,273,137117,6,0,L|456:188,1,85,6|8,0:0|0:0,0:0:0:0:
281,330,137397,2,0,L|289:245,1,85,2|8,0:0|0:0,0:0:0:0:
113,272,137678,2,0,L|105:188,1,85,2|8,0:0|0:0,0:0:0:0:
297,160,137958,1,2,0:0:0:0:
299,139,138028,1,0,0:0:0:0:
301,118,138098,1,8,0:0:0:0:
303,97,138168,1,0,0:0:0:0:
305,75,138238,6,0,P|348:73|385:93,1,85,2|8,0:0|0:0,0:0:0:0:
372,241,138519,2,0,P|374:284|354:321,1,85,2|8,0:0|0:0,0:0:0:0:
206,308,138799,2,0,P|163:310|126:290,1,85,2|8,0:0|0:0,0:0:0:0:
139,142,139080,2,0,P|137:99|157:62,1,85,2|8,0:0|0:0,0:0:0:0:
290,226,139360,5,6,0:0:0:0:
268,144,139500,1,8,0:0:0:0:
208,204,139640,1,2,0:0:0:0:
351,166,139780,1,8,0:0:0:0:
186,123,139921,1,2,0:0:0:0:
230,287,140061,1,8,0:0:0:0:
268,144,140201,1,2,0:0:0:0:
148,265,140341,1,8,0:0:0:0:
312,309,140481,6,0,L|423:289,1,85,6|8,0:0|0:0,0:0:0:0:
429,320,140692,1,0,0:0:0:0:
429,320,140762,2,0,L|540:300,1,85,2|8,0:0|0:0,0:0:0:0:
475,118,141042,1,2,0:0:0:0:
407,217,141182,1,8,0:0:0:0:
490,201,141323,1,2,0:0:0:0:
392,134,141463,1,8,0:0:0:0:
294,310,141603,6,0,L|499:272,1,170,2|2,0:0|0:0,0:0:0:0:
239,186,142023,2,0,L|444:223,1,170,8|0,0:0|0:0,0:0:0:0:
377,49,142444,2,0,L|391:133,1,85,10|0,0:0|0:0,0:0:0:0:
239,186,142724,6,0,L|253:102,1,85,2|0,0:0|0:0,0:0:0:0:
187,47,143005,1,2,0:0:0:0:
131,219,143145,2,0,P|212:208|272:264,1,170,8|0,0:0|0:0,0:0:0:0:
65,273,143566,2,0,L|50:189,1,85,10|0,0:0|0:0,0:0:0:0:
144,302,143846,6,0,B|176:336|176:336|313:337,1,170,2|2,0:0|0:0,0:0:0:0:
334,181,144266,2,0,B|300:213|300:213|299:350,1,170,8|0,0:0|0:0,0:0:0:0:
407,224,144687,2,0,L|407:100,1,85,10|0,0:0|0:0,0:0:0:0:
269,45,144967,6,0,L|268:129,2,85,2|0|2,0:0|0:0|0:0,0:0:0:0:
116,130,145388,2,0,P|194:97|271:132,1,170,8|0,0:0|0:0,0:0:0:0:
316,198,145809,1,10,0:0:0:0:
352,121,145949,1,0,0:0:0:0:
400,189,146089,6,0,P|388:244|355:273,2,85,10|0|2,0:0|0:0|0:0,0:0:0:0:
230,209,146509,2,0,P|246:248|280:274,2,85,8|2|0,0:0|0:0|0:0,0:0:0:0:
351,121,146930,2,0,P|396:106|438:115,1,85,10|0,0:0|0:0,0:0:0:0:
416,332,147210,6,0,P|371:347|329:338,2,85,10|0|2,0:0|0:0|0:0,0:0:0:0:
230,209,147631,2,0,P|188:202|148:217,2,85,8|2|0,0:0|0:0|0:0,0:0:0:0:
400,189,148051,2,0,P|388:244|355:273,1,85,10|0,0:0|0:0,0:0:0:0:
164,359,148332,6,0,P|169:317|195:284,2,85,10|0|2,0:0|0:0|0:0,0:0:0:0:
67,227,148752,2,0,P|106:211|148:217,2,85,8|2|0,0:0|0:0|0:0,0:0:0:0:
132,77,149173,2,0,P|165:102|181:141,1,85,10|0,0:0|0:0,0:0:0:0:
235,206,149453,5,10,0:0:0:0:
253,216,149523,1,0,0:0:0:0:
274,222,149593,1,0,0:0:0:0:
295,222,149663,1,0,0:0:0:0:
315,216,149733,1,2,0:0:0:0:
453,163,149874,1,8,0:0:0:0:
435,153,149944,1,0,0:0:0:0:
414,147,150014,1,2,0:0:0:0:
393,147,150084,1,0,0:0:0:0:
373,153,150154,1,0,0:0:0:0:
386,315,150294,2,0,L|403:232,1,85,14|0,0:0|0:0,0:0:0:0:
219,348,150575,6,0,L|302:331,1,85,2|0,0:0|0:0,0:0:0:0:
162,284,150855,2,0,L|78:300,1,85,10|0,0:0|0:0,0:0:0:0:
220,220,151136,2,0,L|303:236,1,85,2|0,0:0|0:0,0:0:0:0:
162,155,151416,2,0,L|78:171,1,85,10|0,0:0|0:0,0:0:0:0:
195,13,151696,6,0,P|219:48|220:90,1,85,2|0,0:0|0:0,0:0:0:0:
328,76,151977,2,0,P|303:110|303:152,1,85,10|0,0:0|0:0,0:0:0:0:
162,155,152257,2,0,P|200:172|221:208,1,85,2|0,0:0|0:0,0:0:0:0:
342,229,152537,2,0,P|303:246|282:282,1,85,10|0,0:0|0:0,0:0:0:0:
113,314,152818,6,0,L|150:223,1,85,2|8,0:0|0:0,0:0:0:0:
282,282,153098,2,0,P|353:307|420:226,1,170,2|2,0:0|0:0,0:0:0:0:
329,144,153519,2,0,L|345:256,1,85,8|2,0:0|0:0,0:0:0:0:
395,91,153799,1,0,0:0:0:0:
251,113,153939,6,0,L|267:226,1,85,2|0,0:0|0:0,0:0:0:0:
157,151,154220,2,0,L|141:263,1,85,10|0,0:0|0:0,0:0:0:0:
275,282,154500,2,0,L|287:366,1,85,2|0,0:0|0:0,0:0:0:0:
131,319,154780,2,0,L|47:307,1,85,10|0,0:0|0:0,0:0:0:0:
262,198,155061,6,0,P|299:178|321:141,1,85,2|0,0:0|0:0,0:0:0:0:
410,266,155341,2,0,P|411:224|391:188,1,85,10|0,0:0|0:0,0:0:0:0:
301,63,155622,2,0,P|299:104|320:141,1,85,2|0,0:0|0:0,0:0:0:0:
463,103,155902,2,0,P|464:61|443:24,1,85,10|0,0:0|0:0,0:0:0:0:
318,224,156182,5,2,0:0:0:0:
472,208,156323,1,0,0:0:0:0:
382,83,156463,2,0,L|377:188,1,85,10|0,0:0|0:0,0:0:0:0:
230,143,156743,2,0,L|235:248,1,85,10|0,0:0|0:0,0:0:0:0:
86,82,157023,2,0,L|82:167,1,85,10|0,0:0|0:0,0:0:0:0:
225,58,157304,6,0,P|274:70|310:124,2,85,2|8|2,0:0|0:0|0:0,0:0:0:0:
230,143,157724,1,0,0:0:0:0:
374,127,157865,2,0,P|382:86|369:47,2,85,2|8|2,0:0|0:0|0:0,0:0:0:0:
306,177,158285,1,0,0:0:0:0:
315,262,158425,6,0,P|346:289|387:297,1,85,2|8,0:0|0:0,0:0:0:0:
236,227,158706,2,0,P|196:240|168:272,1,85,10|0,0:0|0:0,0:0:0:0:
385,212,158986,1,10,0:0:0:0:
297,93,159126,1,0,0:0:0:0:
236,227,159266,2,0,L|243:325,1,85,10|0,0:0|0:0,0:0:0:0:
384,339,159547,6,0,L|388:279,3,42.5,2|0|8|0,0:0|0:0|0:0|0:0,0:0:0:0:
315,251,159827,2,0,L|310:191,3,42.5,10|0|8|8,0:0|0:0|0:0|0:0,0:0:0:0:
384,163,160108,2,0,L|388:103,3,42.5,2|0|8|8,0:0|0:0|0:0|0:0,0:0:0:0:
315,75,160388,2,0,L|310:15,3,42.5,10|0|8|0,0:0|0:0|0:0|0:0,0:0:0:0:
396,33,160668,6,0,L|500:20,1,85,2|2,0:0|0:0,0:0:0:0:
311,208,160949,2,0,L|226:218,1,85,2|0,0:0|0:0,0:0:0:0:
109,130,161229,1,2,0:0:0:0:
130,124,161299,1,0,0:0:0:0:
151,124,161369,1,0,0:0:0:0:
171,130,161439,1,0,0:0:0:0:
190,141,161509,2,0,L|274:130,1,85,2|0,0:0|0:0,0:0:0:0:
288,275,161790,6,0,L|100:298,1,170,14|2,0:0|0:0,0:0:0:0:
105,151,162211,2,0,L|206:138,1,85,8|2,0:0|0:0,0:0:0:0:
120,297,162491,2,0,P|85:271|69:232,1,85,8|2,0:0|0:0,0:0:0:0:
204,286,162772,6,0,L|171:364,1,85,8|2,0:0|0:0,0:0:0:0:
237,208,163052,1,8,0:0:0:0:
373,266,163192,2,0,L|288:276,1,85,10|0,0:0|0:0,0:0:0:0:
271,130,163473,2,0,L|355:119,1,85,10|0,0:0|0:0,0:0:0:0:
237,208,163753,1,10,0:0:0:0:
237,208,164033,6,0,P|188:155|187:106,2,85,10|0|2,0:0|0:0|0:0,0:0:0:0:
355,120,164454,2,0,L|270:130,1,85,8|2,0:0|0:0,0:0:0:0:
289,276,164734,2,0,L|373:265,1,85,8|2,0:0|0:0,0:0:0:0:
440,105,165015,6,0,P|422:67|388:41,1,85,8|2,0:0|0:0,0:0:0:0:
355,120,165295,1,8,0:0:0:0:
373,266,165435,2,0,L|384:350,1,85,10|0,0:0|0:0,0:0:0:0:
271,130,165716,2,0,L|260:46,1,85,10|0,0:0|0:0,0:0:0:0:
323,198,165996,2,0,P|283:214|242:209,1,85,2|0,0:0|0:0,0:0:0:0:
103,151,166276,6,0,L|272:130,1,170,14|2,0:0|0:0,0:0:0:0:
212,287,166697,2,0,L|110:267,1,85,8|2,0:0|0:0,0:0:0:0:
242,209,166977,2,0,L|325:225,1,85,8|2,0:0|0:0,0:0:0:0:
183,365,167258,6,0,L|81:345,1,85,8|2,0:0|0:0,0:0:0:0:
160,194,167538,1,12,0:0:0:0:
267,351,167678,2,0,L|368:331,1,85,14|0,0:0|0:0,0:0:0:0:
99,348,167958,2,0,L|15:364,1,85,10|0,0:0|0:0,0:0:0:0:
76,177,168239,1,14,0:0:0:0:
76,177,168519,6,0,L|83:278,2,85,10|0|2,0:0|0:0|0:0,0:0:0:0:
155,87,168940,2,0,L|69:93,1,85,12|2,0:0|0:0,0:0:0:0:
243,210,169220,1,8,0:0:0:0:
324,75,169360,2,0,P|310:35|279:6,1,85,2|8,0:0|0:0,0:0:0:0:
240,81,169641,5,2,0:0:0:0:
371,145,169780,2,0,P|402:108|408:58,1,85,12|2,0:0|0:0,0:0:0:0:
324,75,170061,1,0,0:0:0:0:
243,210,170201,1,10,0:0:0:0:
371,145,170342,1,8,0:0:0:0:
155,87,170481,1,8,0:0:0:0:
213,304,170622,1,12,0:0:0:0:
