osu file format v14

[General]
AudioFilename: audio.mp3
AudioLeadIn: 0
PreviewTime: 156517
Countdown: 0
SampleSet: Soft
StackLeniency: 0.2
Mode: 0
LetterboxInBreaks: 0
WidescreenStoryboard: 0

[Editor]
Bookmarks: 1370,20194,41370,60194,69605,88429,100194,119017,137841,156664,180194,199017,217841,236664
DistanceSpacing: 1
BeatDivisor: 4
GridSize: 32
TimelineZoom: 2

[Metadata]
Title:FREEDOM
TitleUnicode:FREEDOM
Artist:BLUE ENCOUNT
ArtistUnicode:BLUE ENCOUNT
Creator:Lumael
Version:NIGHTMARE
Source:バナナフィッシュ
Tags:banana fish opening
BeatmapID:1913749
BeatmapSetID:916355

[Difficulty]
HPDrainRate:6.5
CircleSize:4
OverallDifficulty:8
ApproachRate:9.2
SliderMultiplier:1.8
SliderTickRate:1

[Events]
//Background and Video events
0,0,"djcUO9WsP5UCSFr34bdSSVERlkk.jpg",0,0
//Break Periods
//Storyboard Layer 0 (Background)
//Storyboard Layer 1 (Fail)
//Storyboard Layer 2 (Pass)
//Storyboard Layer 3 (Foreground)
//Storyboard Sound Samples

[TimingPoints]
1370,294.117647058824,4,2,0,60,1,0
1370,-200,4,2,0,60,0,0
10781,-166.666666666667,4,2,0,60,0,0
15708,-166.666666666667,4,2,0,5,0,0
15781,-142.857142857143,4,2,0,60,0,0
16002,-142.857142857143,4,2,0,5,0,0
16075,-125,4,2,0,60,0,0
16296,-125,4,2,0,5,0,0
16370,-111.111111111111,4,2,0,60,0,0
16590,-111.111111111111,4,2,0,5,0,0
16664,-100,4,2,0,60,0,0
16884,-100,4,2,0,5,0,0
16958,-90.9090909090909,4,2,0,60,0,0
17178,-90.9090909090909,4,2,0,5,0,0
17252,-83.3333333333333,4,2,0,60,0,0
17472,-83.3333333333333,4,2,0,5,0,0
17546,-76.9230769230769,4,2,0,60,0,0
17767,-76.9230769230769,4,2,0,5,0,0
17840,-1000,4,2,0,60,0,0
17914,-1000,4,2,0,5,0,0
19017,-333.333333333333,4,2,0,60,0,0
19458,-333.333333333333,4,2,0,5,0,0
19605,-200,4,2,0,60,0,0
20046,-200,4,2,0,5,0,0
20193,-125,4,2,0,60,0,0
20487,-125,4,2,0,5,0,0
20634,-125,4,2,0,60,0,0
20928,-125,4,2,0,5,0,0
21075,-125,4,2,0,60,0,0
22399,-125,4,2,0,5,0,0
22546,-125,4,2,0,60,0,0
25193,-125,4,2,0,5,0,0
25340,-100,4,2,0,60,0,0
25634,-100,4,2,0,5,0,0
25781,-100,4,2,0,60,0,0
40193,-200,4,2,0,60,0,0
41370,-100,4,2,0,60,0,1
60194,-100,4,2,0,60,0,0
100194,-100,4,2,0,60,0,1
119017,-100,4,2,0,60,0,0
180194,-100,4,2,0,60,0,1
217841,-100,4,2,0,60,0,0

[Colours]
Combo1 : 188,131,131
Combo2 : 34,45,74
Combo3 : 201,71,74
Combo4 : 106,128,166

[HitObjects]
476,37,1370,6,2,L|461:172,1,135
414,116,1958,2,0,L|425:221,1,90,2|0,0:0|0:0,0:0:0:0:
474,255,2399,2,0,P|428:252|391:280,1,90,2|0,0:0|0:0,0:0:0:0:
449,321,2840,2,0,L|339:316,2,90,2|0|2,0:0|0:0|0:0,0:0:0:0:
114,357,3722,6,0,L|93:211,1,135,2|0,0:0|0:0,0:0:0:0:
22,215,4311,2,0,P|65:188|77:139,1,90,2|0,0:0|0:0,0:0:0:0:
26,101,4752,2,0,L|134:88,1,90,2|0,0:0|0:0,0:0:0:0:
101,19,5193,2,0,L|11:29,2,90,2|0|2,0:0|0:0|0:0,0:0:0:0:
265,140,6075,6,0,B|344:166|325:111|417:142,1,135,2|0,0:0|0:0,0:0:0:0:
434,74,6664,2,0,L|420:169,1,90,2|0,0:0|0:0,0:0:0:0:
348,159,7105,2,0,L|362:254,1,90,2|0,0:0|0:0,0:0:0:0:
430,265,7546,2,0,P|381:290|366:332,2,90,2|0|2,0:0|0:0|0:0,0:0:0:0:
228,362,8428,6,0,L|85:355,1,135,2|0,0:0|0:0,0:0:0:0:
20,355,9017,2,0,P|55:325|70:269,1,90,2|0,0:0|0:0,0:0:0:0:
37,220,9458,2,0,L|42:126,1,90,2|0,0:0|0:0,0:0:0:0:
113,136,9899,2,0,L|108:225,2,90,2|0|2,0:0|0:0|0:0,0:0:0:0:
367,30,10781,5,2,0:0:0:0:
383,217,10928,2,0,B|399:162|399:162|377:97,1,107.999996704102,2|0,0:0|0:0,0:0:0:0:
367,30,11370,2,0,P|417:77|461:74,1,107.999996704102,2|0,0:0|0:0,0:0:0:0:
512,14,11811,2,0,P|464:64|467:108,1,107.999996704102,2|0,0:0|0:0,0:0:0:0:
501,178,12252,2,0,L|485:285,2,107.999996704102,2|0|2,0:0|0:0|0:0,0:0:0:0:
346,364,13134,5,2,0:0:0:0:
165,346,13281,2,0,P|199:325|275:332,1,107.999996704102,2|0,0:0|0:0,0:0:0:0:
346,364,13722,2,0,L|334:242,1,107.999996704102,2|0,0:0|0:0,0:0:0:0:
255,223,14164,2,0,L|267:101,1,107.999996704102,2|0,0:0|0:0,0:0:0:0:
297,35,14605,2,0,P|266:60|187:52,2,107.999996704102,2|0|2,0:0|0:0|0:0,0:0:0:0:
494,137,15487,6,0,P|450:107|417:107,1,80.9999975280763,2|0,0:0|0:0,0:0:0:0:
373,178,15781,2,0,P|329:207|285:209,1,94.499997116089,2|0,0:0|0:0,0:0:0:0:
234,283,16075,2,0,P|190:253|133:253,1,108,2|0,0:0|0:0,0:0:0:0:
55,367,16370,2,0,L|37:213,1,121.499996292114,2|0,0:0|0:0,0:0:0:0:
151,117,16664,6,0,L|134:262,1,135,2|0,0:0|0:0,0:0:0:0:
258,369,16958,2,0,L|239:207,1,148.50000453186,2|0,0:0|0:0,0:0:0:0:
372,89,17252,2,0,L|353:254,1,161.999995056153,2|0,0:0|0:0,0:0:0:0:
489,370,17546,2,0,L|467:196,1,175.499991966248,2|0,0:0|0:0,0:0:0:0:
494,42,17840,6,0,B|477:67|477:67|453:76,1,54,2|0,0:0|0:0,0:0:0:0:
268,24,19017,6,0,P|300:45|318:85,1,80.9999975280763,2|0,0:0|0:0,0:0:0:0:
465,91,19605,2,0,P|421:112|390:205,1,135,2|0,0:0|0:0,0:0:0:0:
508,355,20193,6,0,B|492:321|492:321|370:344,1,144,6|0,0:0|0:0,0:0:0:0:
141,366,20634,2,0,B|175:350|175:350|150:217,1,144,6|0,0:0|0:0,0:0:0:0:
125,10,21075,1,6,0:0:0:0:
256,192,21149,12,0,22399,0:0:0:0:
366,326,22546,6,0,B|378:309|378:309|230:328,1,144,6|0,0:0|0:0,0:0:0:0:
56,348,22987,2,0,B|73:360|73:360|54:212,1,144,2|0,0:0|0:0,0:0:0:0:
182,86,23428,2,0,B|165:74|165:74|180:196,1,144,2|0,0:0|0:0,0:0:0:0:
393,129,23870,1,2,0:0:0:0:
287,148,24017,2,0,L|362:140,1,72,0|0,3:0|0:0,0:0:0:0:
453,340,24311,5,0,3:0:0:0:
250,319,24458,1,0,3:0:0:0:
45,296,24605,1,0,3:0:0:0:
453,339,24899,6,0,P|403:260|348:283,1,144,6|0,0:0|0:0,0:0:0:0:
168,372,25340,2,0,L|143:159,1,180,6|0,0:0|0:0,0:0:0:0:
125,10,25781,1,6,0:0:0:0:
256,192,25855,12,0,27105,0:0:0:0:
490,21,27252,6,0,P|451:66|452:118,1,90,6|0,0:0|0:0,0:0:0:0:
463,183,27546,1,0,0:0:0:0:
503,361,27693,2,0,P|466:338|404:342,1,90,2|0,0:0|0:0,0:0:0:0:
334,365,27987,1,0,0:0:0:0:
83,315,28134,2,0,P|113:284|175:274,1,90,2|0,0:0|0:0,0:0:0:0:
161,357,28428,5,0,1:0:0:0:
202,148,28575,1,0,3:0:0:0:
356,283,28722,1,0,1:0:0:0:
257,319,28870,1,0,3:0:0:0:
176,62,29017,1,0,1:0:0:0:
171,106,29090,1,0,1:0:0:0:
166,151,29164,1,0,1:0:0:0:
162,196,29237,1,0,1:0:0:0:
157,241,29311,1,0,1:0:0:0:
471,9,29605,6,0,L|486:120,1,90,6|0,0:0|0:0,0:0:0:0:
504,185,29899,1,0,1:0:0:0:
334,365,30046,2,0,L|346:275,1,90,2|0,0:0|0:0,0:0:0:0:
357,186,30340,1,0,0:0:0:0:
237,351,30487,1,2,1:2:0:0:
428,377,30634,1,0,0:0:0:0:
341,180,30781,6,0,L|328:269,1,90,2|0,0:0|0:0,0:0:0:0:
236,161,31075,1,0,1:0:0:0:
449,188,31222,1,2,0:0:0:0:
233,178,31370,1,0,0:0:0:0:
359,22,31517,1,0,0:0:0:0:
229,196,31664,2,0,P|187:208|135:194,1,90,2|0,1:2|0:0,0:0:0:0:
380,18,31958,6,0,L|364:114,1,90,2|0,0:0|0:0,0:0:0:0:
346,194,32252,1,0,1:0:0:0:
81,162,32399,2,0,L|97:258,1,90,2|0,0:0|0:0,0:0:0:0:
115,338,32693,1,0,0:0:0:0:
94,138,32840,1,2,1:2:0:0:
0,261,32987,1,0,0:0:0:0:
139,354,33134,5,2,0:0:0:0:
12,375,33281,2,0,L|102:360,1,90,0|0,0:0|1:0,0:0:0:0:
258,275,33575,1,2,0:0:0:0:
385,296,33722,2,0,L|295:281,1,90,0|0,0:0|0:0,0:0:0:0:
1,236,34017,6,0,L|150:209,1,135,2|0,1:2|0:0,0:0:0:0:
17,243,34311,6,0,L|32:116,1,90,4|0,0:0|0:0,0:0:0:0:
251,26,34605,1,0,1:0:0:0:
239,115,34752,2,0,L|228:204,1,90,2|0,0:0|1:0,0:0:0:0:
215,293,35046,1,0,0:0:0:0:
332,83,35193,1,2,1:2:0:0:
212,314,35340,1,0,0:0:0:0:
338,61,35487,6,0,L|427:71,1,90,2|0,1:2|0:0,0:0:0:0:
223,113,35781,1,0,1:0:0:0:
444,76,35928,1,2,0:0:0:0:
313,255,36075,1,0,1:0:0:0:
342,41,36222,1,0,0:0:0:0:
309,275,36370,1,2,1:2:0:0:
462,82,36517,1,0,0:0:0:0:
304,296,36664,6,0,L|214:285,1,90,6|0,1:2|0:0,0:0:0:0:
124,277,36958,1,0,3:0:0:0:
403,301,37105,2,0,L|389:192,1,90,2|0,1:2|0:0,0:0:0:0:
380,122,37399,1,0,3:0:0:0:
420,384,37546,2,0,L|330:373,1,90,2|0,1:2|0:0,0:0:0:0:
41,348,37840,5,2,1:0:0:0:
313,371,37987,1,2,1:0:0:0:
37,368,38281,5,2,1:0:0:0:
87,41,38428,1,2,1:0:0:0:
74,127,38575,1,0,3:0:0:0:
41,348,38722,2,0,L|202:362,1,135,2|0,0:0|0:0,0:0:0:0:
197,363,39017,5,2,0:0:0:0:
197,363,39164,1,2,0:0:0:0:
315,21,39458,5,2,0:0:0:0:
315,21,39605,1,2,0:0:0:0:
197,363,39899,5,2,0:0:0:0:
197,363,40046,1,2,0:0:0:0:
249,289,40193,5,0,0:0:0:0:
359,345,40340,2,0,P|307:343|267:310,2,90
463,263,41222,1,0,0:0:0:0:
439,59,41370,5,0,0:0:0:0:
439,59,41517,2,0,L|461:266,1,180
275,341,41958,2,0,P|300:288|351:264,1,90
489,384,42252,1,0,0:0:0:0:
353,343,42399,1,0,0:0:0:0:
131,381,42546,6,0,L|32:371,2,90
96,115,42987,1,0,0:0:0:0:
123,295,43134,1,0,0:0:0:0:
94,95,43281,1,0,0:0:0:0:
122,280,43428,2,0,L|221:270,1,90
500,360,43722,5,0,0:0:0:0:
500,360,43870,2,0,P|460:282|497:204,1,180
334,129,44311,1,0,0:0:0:0:
505,195,44458,1,0,0:0:0:0:
315,23,44605,2,0,L|333:123,1,90
246,362,44899,5,0,0:0:0:0:
278,218,45046,1,0,0:0:0:0:
246,362,45193,5,0,0:0:0:0:
198,142,45340,1,0,0:0:0:0:
246,362,45487,5,0,0:0:0:0:
125,62,45634,1,0,0:0:0:0:
278,218,45781,2,0,L|389:206,1,90
246,362,46075,5,0,0:0:0:0:
246,362,46222,2,0,L|47:351,1,180
48,85,46664,2,0,P|84:110|100:151,1,90
66,352,46958,2,0,P|81:310|118:285,1,90
282,112,47252,5,0,0:0:0:0:
282,112,47399,2,0,L|269:221,1,90
265,291,47693,1,0,0:0:0:0:
498,365,47840,2,0,L|487:275,2,90
