osu file format v14

[General]
AudioFilename: 08 - Moon Light Wave.mp3
AudioLeadIn: 0
PreviewTime: 45694
Countdown: 0
SampleSet: Soft
StackLeniency: 0.7
Mode: 0
LetterboxInBreaks: 1
WidescreenStoryboard: 0

[Editor]
Bookmarks: 115744
DistanceSpacing: 1
BeatDivisor: 4
GridSize: 4
TimelineZoom: 3.299999

[Metadata]
Title:MOON LIGHT WAVE
TitleUnicode:MOON LIGHT WAVE
Artist:BLOOD STAIN CHILD
ArtistUnicode:BLOOD STAIN CHILD
Creator:Silleth
Version:Normal
Source:
Tags:snepif winber1 Ettore Rigotti epsilon sophia melodic alternative metal everything will fade away moonlight
BeatmapID:673823
BeatmapSetID:296543

[Difficulty]
HPDrainRate:4
CircleSize:3.5
OverallDifficulty:5
ApproachRate:6
SliderMultiplier:1.3
SliderTickRate:1

[Events]
//Background and Video events
0,0,"BG.png",0,0
//Break Periods
2,55936,60836
2,132736,133436
//Storyboard Layer 0 (Background)
//Storyboard Layer 1 (Fail)
//Storyboard Layer 2 (Pass)
//Storyboard Layer 3 (Foreground)
//Storyboard Sound Samples

[TimingPoints]
686,300,4,2,2,80,1,0
4286,-100,4,2,2,80,0,0
5336,-100,4,2,1,80,0,0
17336,-100,4,2,1,65,0,0
23486,-100,4,2,1,70,0,0
24536,-100,4,2,2,80,0,0
46136,-100,4,2,2,80,0,1
55286,-100,4,2,3,80,0,1
55736,-100,4,2,2,80,0,0
84536,-100,4,2,2,80,0,1
103286,-100,4,2,2,80,0,1
103736,-100,4,2,2,80,0,0
113336,-100,4,2,2,80,0,1
113636,-100,4,2,1,80,0,1
118286,-100,4,2,2,80,0,1
118436,-100,4,2,1,80,0,1
119336,-100,4,2,2,80,0,1
119636,-100,4,2,1,80,0,1
120536,-100,4,2,2,80,0,1
120836,-100,4,2,1,80,0,1
122486,-100,4,2,3,80,0,1
123086,-100,4,2,1,80,0,1
125336,-100,4,2,2,80,0,1
125411,-100,4,2,1,80,0,1
127286,-100,4,2,2,80,0,1
128036,-100,4,2,1,80,0,1
132536,-100,4,2,2,80,0,0
134486,-100,4,2,2,70,0,0
134936,-100,4,2,2,80,0,1
153686,-100,4,2,2,80,0,1
154136,-100,4,2,2,80,0,0
160286,-100,4,2,2,25,0,0

[Colours]
Combo1 : 81,136,238
Combo2 : 243,78,123
Combo3 : 148,115,247
Combo4 : 236,119,196

[HitObjects]
252,304,536,6,0,P|192:296|104:292,1,130,2|2,0:0|0:0,0:0:0:0:
76,248,986,2,0,L|68:108,2,130,8|2|8,0:0|0:0|0:0,0:0:0:0:
184,176,1886,2,0,P|244:152|312:152,1,130,2|8,0:0|0:0,0:0:0:0:
272,276,2486,2,0,P|332:300|400:300,1,130,2|8,0:0|0:0,0:0:0:0:
452,268,2936,6,0,L|456:128,1,130,6|2,0:0|0:0,0:0:0:0:
456,72,3386,2,0,P|392:52|324:56,1,130,8|2,0:0|0:0,0:0:0:0:
200,72,3986,1,8,0:0:0:0:
84,132,4286,6,0,L|72:216,1,65,8|2,0:0|0:0,0:0:0:0:
184,268,4736,2,0,P|264:258|304:216,1,130,2|2,0:0|0:0,0:0:0:0:
420,184,5336,6,0,P|420:256|400:312,1,130,4|0,1:0|0:0,0:0:0:0:
356,356,5786,2,0,L|212:348,1,130,8|2,0:0|0:0,0:0:0:0:
96,332,6386,1,8,0:0:0:0:
152,216,6686,2,0,P|172:148|160:68,1,130,2|8,0:0|0:0,0:0:0:0:
112,56,7136,1,0,0:0:0:0:
240,28,7436,2,0,L|316:32,1,65,2|8,0:0|0:0,0:0:0:0:
368,48,7736,6,0,P|348:120|360:188,1,130,2|2,0:0|0:0,0:0:0:0:
416,196,8186,2,0,P|436:268|424:336,1,130,8|2,0:0|0:0,0:0:0:0:
300,340,8786,2,0,P|244:316|172:316,2,130,8|2|8,0:0|0:0|0:0,0:0:0:0:
364,360,9536,1,0,0:0:0:0:
416,240,9836,2,0,P|416:204|404:164,1,65,2|8,0:0|0:0,0:0:0:0:
344,184,10136,6,0,P|284:196|212:168,1,130,2|2,0:0|0:0,0:0:0:0:
172,128,10586,2,0,L|160:264,2,130,8|2|8,0:0|0:0|0:0,0:0:0:0:
180,64,11336,2,0,P|256:44|320:60,1,130,2|2,0:0|0:0,0:0:0:0:
356,96,11786,2,0,P|384:160|376:232,1,130,8|2,0:0|0:0,0:0:0:0:
352,276,12236,1,2,0:0:0:0:
244,348,12536,6,0,L|108:344,1,130,2|2,0:0|0:0,0:0:0:0:
64,300,12986,2,0,P|48:252|60:164,1,130,8|8,0:0|0:0,0:0:0:0:
180,212,13586,2,0,P|196:164|184:76,1,130,8|8,0:0|0:0,0:0:0:0:
308,40,14186,1,8,0:0:0:0:
420,104,14486,6,0,B|464:200|380:208|440:296,1,195,2|2,0:0|0:0,0:0:0:0:
256,192,15011,12,2,16136,0:0:0:0:
228,192,17336,6,0,P|300:192|360:152,1,130,4|2,1:0|0:0,0:0:0:0:
392,112,17786,2,0,L|400:272,1,130,8|2,0:0|0:0,0:0:0:0:
404,308,18236,1,2,0:0:0:0:
280,344,18536,2,0,L|140:352,1,130,0|2,0:0|0:0,0:0:0:0:
96,316,18986,2,0,P|80:272|76:188,1,130,8|2,0:0|0:0,0:0:0:0:
100,128,19436,2,0,L|240:136,1,130,2|2,0:0|0:0,0:0:0:0:
412,60,20186,6,0,L|276:52,1,130,8|2,0:0|0:0,0:0:0:0:
220,76,20636,2,0,P|204:144|216:204,2,130,2|0|2,0:0|0:0|0:0,0:0:0:0:
160,52,21386,2,0,P|96:88|60:140,1,130,8|2,0:0|0:0,0:0:0:0:
44,196,21836,1,4,0:0:0:0:
40,324,22136,6,0,P|120:328|208:248,1,195,4|8,0:0|0:0,0:0:0:0:
300,168,22886,2,0,L|304:252,2,65,2|2|8,0:0|0:0|0:0,0:0:0:0:
256,44,23486,6,0,B|206:80|163:21|106:72,1,130,2|8,0:0|0:0,0:0:0:0:
32,144,24086,2,0,B|81:180|124:121|181:172,1,130,2|8,0:0|0:0,0:0:0:0:
220,172,24536,6,0,L|228:312,1,130,6|2,0:0|0:0,0:0:0:0:
236,368,24986,2,0,P|300:336|372:340,2,130,8|2|8,0:0|0:0|0:0,0:0:0:0:
172,352,25736,2,0,P|107:350|50:320,1,130,2|2,0:0|0:0,0:0:0:0:
44,256,26186,2,0,L|40:100,2,130,8|8|8,0:0|0:0|0:0,0:0:0:0:
108,248,26936,1,6,0:0:0:0:
276,140,27386,6,0,P|228:136|152:96,2,130,8|2|8,0:0|0:0|0:0,0:0:0:0:
336,120,28136,2,0,P|380:100|472:112,1,130,0|2,0:0|0:0,0:0:0:0:
408,224,28736,2,0,L|404:364,1,130,2|2,0:0|0:0,0:0:0:0:
276,336,29336,2,0,P|188:304|132:308,1,130,2|2,0:0|0:0,0:0:0:0:
88,320,29786,6,0,L|80:172,1,130,8|2,0:0|0:0,0:0:0:0:
180,108,30386,2,0,L|188:256,1,130,8|2,0:0|0:0,0:0:0:0:
240,276,30836,2,0,P|312:280|372:248,1,130,2|0,0:0|0:0,0:0:0:0:
420,136,31436,1,2,0:0:0:0:
332,40,31736,2,0,P|228:36|192:56,1,130,2|2,0:0|0:0,0:0:0:0:
152,80,32186,6,0,L|140:228,2,130,8|2|8,0:0|0:0|0:0,0:0:0:0:
272,132,33086,2,0,P|272:200|296:264,1,130,2|8,0:0|0:0,0:0:0:0:
420,240,33686,2,0,P|420:172|396:108,1,130,2|8,0:0|0:0,0:0:0:0:
372,56,34136,6,0,P|304:40|168:88,1,195,6|8,0:0|0:0,0:0:0:0:
76,144,34886,2,0,L|88:288,1,130,8|8,0:0|0:0,0:0:0:0:
96,340,35336,2,0,P|152:292|220:288,1,130,2|2,0:0|0:0,0:0:0:0:
272,288,35786,2,0,P|335:277|381:233,2,130,8|8|2,0:0|0:0|0:0,0:0:0:0:
236,236,36536,6,0,L|228:96,1,130,6|8,0:0|0:0,0:0:0:0:
424,100,37286,2,0,P|436:172|420:228,1,130,8|2,0:0|0:0,0:0:0:0:
328,316,37886,2,0,P|256:276|76:288,1,260,2|8,0:0|0:0,0:0:0:0:
48,92,38936,2,0,L|256:84,1,195,2|2,0:0|0:0,0:0:0:0:
156,184,39686,6,0,B|303:176|303:176|352:140|352:64,2,260,8|2|8,0:0|0:0|0:0,0:0:0:0:
288,328,41336,2,0,P|204:352|136:336,1,130,2|8,0:0|0:0,0:0:0:0:
100,332,41786,1,2,0:0:0:0:
84,204,42086,6,0,P|196:144|320:172,1,260,8|2,0:0|0:0,0:0:0:0:
420,256,42986,1,2,0:0:0:0:
456,132,43286,2,0,P|404:92|340:64,1,130,8|2,0:0|0:0,0:0:0:0:
284,52,43736,6,0,L|124:56,1,130,2|8,0:0|0:0,0:0:0:0:
88,60,44186,1,2,0:0:0:0:
48,184,44486,2,0,L|52:336,1,130,8|8,0:0|0:0,0:0:0:0:
108,348,44936,6,0,P|172:344|276:268,1,195,4|8,2:0|0:0,0:0:0:0:
404,256,45686,2,0,L|408:324,1,65,8|8,0:0|0:0,0:0:0:0:
484,216,46136,6,0,P|460:188|368:172,1,130,6|2,0:0|0:0,0:0:0:0:
324,212,46586,2,0,L|316:68,1,130,8|2,0:0|0:0,0:0:0:0:
196,40,47186,1,8,0:0:0:0:
84,108,47486,2,0,L|84:244,1,130,2|8,0:0|0:0,0:0:0:0:
80,304,47936,2,0,P|152:316|220:296,1,130,0|2,0:0|0:0,0:0:0:0:
296,208,48536,6,0,P|224:196|156:216,1,130,6|2,0:0|0:0,0:0:0:0:
104,216,48986,2,0,P|80:160|84:80,2,130,8|2|8,0:0|0:0|0:0,0:0:0:0:
196,308,49886,2,0,L|344:300,1,130,2|8,0:0|0:0,0:0:0:0:
392,296,50336,2,0,P|424:224|416:176,1,130,0|2,0:0|0:0,0:0:0:0:
292,220,50936,6,0,P|272:156|288:96,1,130,6|2,0:0|0:0,0:0:0:0:
312,36,51386,2,0,L|172:32,2,130,8|2|8,0:0|0:0|0:0,0:0:0:0:
376,36,52136,6,0,L|388:176,1,130,6|2,0:0|0:0,0:0:0:0:
388,232,52586,2,0,P|316:216|260:232,1,130,8|2,0:0|0:0,0:0:0:0:
204,256,53036,1,2,0:0:0:0:
88,312,53336,6,0,P|68:240|80:180,1,130,6|2,0:0|0:0,0:0:0:0:
100,124,53786,2,0,L|240:112,2,130,8|8|8,0:0|0:0|0:0,0:0:0:0:
188,220,54686,2,0,L|328:208,1,130,8|8,0:0|0:0,0:0:0:0:
260,324,55286,2,0,L|400:312,1,130,8|8,0:0|0:0,0:0:0:0:
456,304,55736,1,6,0:0:0:0:
328,304,61886,6,0,B|332:272|328:248|328:248|344:232|344:232|344:212|352:176,1,130,4|0,0:0|0:0,0:0:0:0:
360,52,62486,2,0,P|284:40|228:44,1,130,8|8,0:0|0:0,0:0:0:0:
168,52,62936,6,0,L|164:200,1,130,6|2,0:0|0:0,0:0:0:0:
180,244,63386,2,0,P|244:216|308:216,2,130,8|8|8,0:0|0:0|0:0,0:0:0:0:
76,324,64286,2,0,P|60:256|68:168,1,130,2|8,0:0|0:0,0:0:0:0:
100,72,64886,2,0,L|172:68,1,65,8|8,0:0|0:0,0:0:0:0:
296,76,65336,6,0,P|308:156|240:256,1,195,6|8,0:0|0:0,0:0:0:0:
180,360,66086,2,0,L|256:356,1,65,2|2,0:0|0:0,0:0:0:0:
376,348,66536,2,0,P|392:300|396:216,1,130,2|2,0:0|0:0,0:0:0:0:
396,156,66986,2,0,L|264:148,1,130,8|2,0:0|0:0,0:0:0:0:
200,144,67436,1,2,0:0:0:0:
112,48,67736,2,0,L|244:40,1,130,2|2,0:0|0:0,0:0:0:0:
308,32,68186,6,0,P|328:120|316:176,1,130,8|2,0:0|0:0,0:0:0:0:
292,216,68636,1,2,0:0:0:0:
164,188,68936,2,0,P|144:276|156:332,1,130,2|2,0:0|0:0,0:0:0:0:
200,356,69386,2,0,L|340:348,2,130,8|2|8,0:0|0:0|0:0,0:0:0:0:
136,368,70136,1,4,0:0:0:0:
84,180,70586,6,0,P|148:168|196:112,1,130,8|2,0:0|0:0,0:0:0:0:
300,52,71186,1,8,0:0:0:0:
404,132,71486,1,2,0:0:0:0:
404,260,71786,2,0,P|352:344|208:324,1,260,8|8,0:0|0:0,0:0:0:0:
196,260,72536,6,0,L|188:112,1,130,6|2,0:0|0:0,0:0:0:0:
184,64,72986,2,0,P|112:44|52:56,2,130,8|8|8,0:0|0:0|0:0,0:0:0:0:
244,96,73736,2,0,P|316:116|376:104,1,130,2|2,0:0|0:0,0:0:0:0:
432,84,74186,2,0,L|448:224,2,130,8|8|2,0:0|0:0|0:0,0:0:0:0:
380,44,74936,6,0,P|316:32|248:40,1,130,6|8,0:0|0:0,0:0:0:0:
64,92,75686,2,0,B|128:216|4:220|88:352,2,260,8|0|8,0:0|0:0|0:0,0:0:0:0:
256,60,77336,2,0,P|348:88|444:40,1,195,2|2,0:0|0:0,0:0:0:0:
464,176,78086,6,0,L|460:316,1,130,8|2,0:0|0:0,0:0:0:0:
336,348,78686,2,0,P|280:288|168:280,1,195,0|2,0:0|0:0,0:0:0:0:
108,296,79286,2,0,L|100:152,1,130,8|8,0:0|0:0,0:0:0:0:
96,100,79736,2,0,P|168:72|232:84,1,130,6|2,0:0|0:0,0:0:0:0:
360,212,80486,6,0,L|364:64,1,130,8|2,0:0|0:0,0:0:0:0:
232,76,81086,2,0,P|184:184|236:324,1,260,0|8,0:0|0:0,0:0:0:0:
420,348,82136,2,0,L|424:200,1,130,2|8,0:0|0:0,0:0:0:0:
472,176,82586,2,0,L|476:32,2,130,2|8|8,0:0|0:0|0:0,0:0:0:0:
423,218,83336,6,0,P|331:234|227:162,1,195,6|2,0:0|0:0,0:0:0:0:
116,172,84086,2,0,L|124:248,1,65,8|8,0:0|0:0,0:0:0:0:
244,187,84536,6,0,L|235:50,1,130,6|2,0:0|0:0,0:0:0:0:
300,72,84986,2,0,P|372:92|432:72,2,130,8|2|8,0:0|0:0|0:0,0:0:0:0:
284,200,85886,2,0,P|356:180|416:200,1,130,2|8,0:0|0:0,0:0:0:0:
468,216,86336,2,0,L|464:352,1,130,0|2,0:0|0:0,0:0:0:0:
336,348,86936,6,0,P|240:364|124:348,1,195,6|8,0:0|0:0,0:0:0:0:
52,260,87686,1,2,0:0:0:0:
68,132,87986,1,8,0:0:0:0:
184,76,88286,2,0,L|188:220,1,130,2|8,0:0|0:0,0:0:0:0:
196,272,88736,2,0,P|276:272|332:240,1,130,0|2,0:0|0:0,0:0:0:0:
404,152,89336,6,0,L|420:356,1,195,6|8,0:0|0:0,0:0:0:0:
284,348,90086,2,0,L|272:212,1,130,2|8,0:0|0:0,0:0:0:0:
268,152,90536,6,0,P|200:136|136:156,1,130,6|2,0:0|0:0,0:0:0:0:
92,192,90986,2,0,L|84:40,2,130,8|2|8,0:0|0:0|0:0,0:0:0:0:
112,256,91736,6,0,P|204:260|280:188,1,195,6|8,0:0|0:0,0:0:0:0:
376,112,92486,2,0,P|400:180|384:248,1,130,8|8,0:0|0:0,0:0:0:0:
312,340,93086,2,0,P|224:352|172:336,1,130,8|8,0:0|0:0,0:0:0:0:
96,248,93686,2,0,L|88:104,1,130,8|8,0:0|0:0,0:0:0:0:
84,52,94136,1,6,0:0:0:0:
280,44,94586,6,0,L|272:192,1,130,8|8,0:0|0:0,0:0:0:0:
320,296,95186,1,8,0:0:0:0:
200,348,95486,2,0,P|116:344|68:308,1,130,8|8,0:0|0:0,0:0:0:0:
44,196,96086,2,0,P|128:200|176:236,1,130,8|8,0:0|0:0,0:0:0:0:
224,248,96536,6,0,P|332:252|404:196,1,195,6|8,0:0|0:0,0:0:0:0:
396,72,97286,1,8,0:0:0:0:
272,28,97586,1,8,0:0:0:0:
148,72,97886,2,0,L|136:208,1,130,8|8,0:0|0:0,0:0:0:0:
124,332,98486,2,0,P|240:340|272:328,1,130,8|8,0:0|0:0,0:0:0:0:
312,312,98936,6,0,L|308:156,1,130,6|2,0:0|0:0,0:0:0:0:
304,116,99386,2,0,P|184:84|112:100,1,195,8|2,0:0|0:0,0:0:0:0:
100,228,100136,2,0,P|220:260|292:244,1,195,2|8,0:0|0:0,0:0:0:0:
404,184,100886,2,0,L|400:332,1,130,2|8,0:0|0:0,0:0:0:0:
348,348,101336,6,0,L|208:340,1,130,6|2,0:0|0:0,0:0:0:0:
152,332,101786,2,0,P|136:264|148:192,1,130,8|8,0:0|0:0,0:0:0:0:
224,104,102386,1,8,0:0:0:0:
336,168,102686,1,8,0:0:0:0:
312,296,102986,1,8,0:0:0:0:
184,324,103286,2,0,P|120:304|72:256,1,130,2|2,0:0|0:0,0:0:0:0:
56,200,103736,5,6,0:0:0:0:
256,192,104936,5,2,0:0:0:0:
256,192,105011,12,6,106136,0:0:0:0:
256,192,107336,5,2,0:0:0:0:
256,192,107411,12,6,108536,0:0:0:0:
256,192,109736,5,2,0:0:0:0:
256,192,109811,12,6,110936,0:0:0:0:
168,56,112136,6,0,P|236:20|352:68,1,195,6|2,0:0|0:0,0:0:0:0:
256,156,112886,2,0,L|256:236,1,65,8|8,0:0|0:0,0:0:0:0:
212,344,113336,6,0,P|144:328|100:272,1,130,6|2,0:0|0:0,0:0:0:0:
96,220,113786,2,0,L|92:80,1,130,12|6,0:0|0:0,0:0:0:0:
212,40,114386,1,12,0:0:0:0:
340,72,114686,2,0,P|364:184|348:224,1,130,6|8,0:0|0:0,0:0:0:0:
236,160,115286,2,0,P|212:272|228:312,1,130,2|8,0:0|0:0,0:0:0:0:
256,336,115736,6,0,L|396:332,1,130,6|2,0:0|0:0,0:0:0:0:
440,296,116186,2,0,L|452:160,1,130,12|6,0:0|0:0,0:0:0:0:
380,56,116786,1,12,0:0:0:0:
268,120,117086,2,0,P|196:112|140:72,1,130,2|12,0:0|0:0,0:0:0:0:
28,136,117686,2,0,P|56:200|60:264,1,130,2|12,0:0|0:0,0:0:0:0:
64,324,118136,6,0,L|216:316,1,130,2|4,0:0|0:0,0:0:0:0:
260,316,118586,2,0,P|336:332|408:324,2,130,12|6|12,0:0|0:0|0:0,0:0:0:0:
216,268,119336,6,0,L|220:124,1,130,6|2,0:0|0:0,0:0:0:0:
156,156,119786,2,0,P|104:184|16:176,2,130,12|6|12,0:0|0:0|0:0,0:0:0:0:
220,140,120536,6,0,P|280:124|356:140,1,130,6|2,0:0|0:0,0:0:0:0:
360,200,120986,2,0,L|356:352,2,130,12|12|12,0:0|0:0|0:0,0:0:0:0:
388,144,121736,2,0,P|460:136|524:92,2,130,6|6|6,0:0|0:0|0:0,0:0:0:0:
132,104,122936,6,0,P|124:180|128:236,1,130,6|2,0:0|0:0,0:0:0:0:
136,300,123386,2,0,P|204:292|280:292,1,130,12|12,0:0|0:0,0:0:0:0:
372,220,123986,1,12,0:0:0:0:
344,92,124286,2,0,L|200:84,1,130,12|12,0:0|0:0,0:0:0:0:
84,96,124886,2,0,P|72:184|80:248,1,130,6|6,0:0|0:0,0:0:0:0:
100,284,125336,6,0,P|172:292|236:264,1,130,6|2,0:0|0:0,0:0:0:0:
280,236,125786,2,0,P|364:248|412:284,2,130,12|12|12,0:0|0:0|0:0,0:0:0:0:
172,164,126686,2,0,L|160:24,1,130,12|12,0:0|0:0,0:0:0:0:
292,20,127286,2,0,L|304:160,1,130,2|2,0:0|0:0,0:0:0:0:
308,216,127736,6,0,P|316:296|336:344,1,130,6|2,0:0|0:0,0:0:0:0:
272,360,128186,2,0,P|208:328|148:320,2,130,8|2|8,0:0|0:0|0:0,0:0:0:0:
334,341,128936,2,0,P|366:337|402:329,1,65,2|4,0:0|0:0,0:0:0:0:
428,204,129386,2,0,L|432:60,2,130,12|6|8,0:0|0:0|0:0,0:0:0:0:
384,248,130136,6,0,P|332:236|252:232,1,130,6|2,0:0|0:0,0:0:0:0:
192,252,130586,2,0,L|180:116,1,130,12|12,0:0|0:0,0:0:0:0:
256,16,131186,1,12,0:0:0:0:
331,122,131486,2,0,L|320:252,1,130,12|12,0:0|0:0,0:0:0:0:
208,320,132086,2,0,P|168:328|80:292,1,130,6|2,0:0|0:0,0:0:0:0:
48,248,132536,5,6,0:0:0:0:
224,260,134486,6,0,L|217:195,2,65,8|8|8,0:0|0:0|0:0,0:0:0:0:
248,320,134936,6,0,P|320:324|376:296,1,130,6|2,0:0|0:0,0:0:0:0:
396,240,135386,2,0,L|408:96,1,130,8|2,0:0|0:0,0:0:0:0:
292,48,135986,1,8,0:0:0:0:
224,160,136286,2,0,P|152:164|96:136,1,130,2|8,0:0|0:0,0:0:0:0:
40,120,136736,2,0,P|28:192|28:256,1,130,2|2,0:0|0:0,0:0:0:0:
120,340,137336,6,0,L|264:336,1,130,4|2,0:0|0:0,0:0:0:0:
316,324,137786,2,0,P|324:224|316:180,1,130,8|2,0:0|0:0,0:0:0:0:
200,140,138386,1,8,0:0:0:0:
92,212,138686,2,0,P|84:112|92:68,1,130,2|8,0:0|0:0,0:0:0:0:
124,28,139136,2,0,L|268:36,1,130,2|2,0:0|0:0,0:0:0:0:
344,132,139736,6,0,P|348:204|364:276,1,130,6|2,0:0|0:0,0:0:0:0:
376,324,140186,2,0,L|240:316,2,130,8|2|8,0:0|0:0|0:0,0:0:0:0:
440,328,140936,2,0,P|452:264|455:199,1,130,6|2,0:0|0:0,0:0:0:0:
392,188,141386,2,0,P|388:112|404:36,2,130,8|2|8,0:0|0:0|0:0,0:0:0:0:
372,248,142136,6,0,L|228:232,1,130,6|2,0:0|0:0,0:0:0:0:
180,224,142586,2,0,P|172:300|184:360,1,130,8|8,0:0|0:0,0:0:0:0:
308,324,143186,1,8,0:0:0:0:
432,288,143486,2,0,P|441:223|433:159,1,130,8|8,0:0|0:0,0:0:0:0:
352,56,144086,2,0,P|280:48|220:60,1,130,8|8,0:0|0:0,0:0:0:0:
164,84,144536,2,0,P|164:160|156:224,1,130,6|2,0:0|0:0,0:0:0:0:
144,276,144986,6,0,L|-4:264,2,130,8|8|8,0:0|0:0|0:0,0:0:0:0:
244,196,145886,2,0,L|392:184,1,130,8|8,0:0|0:0,0:0:0:0:
476,264,146486,2,0,P|492:192|476:128,1,130,8|8,0:0|0:0,0:0:0:0:
444,84,146936,6,0,P|356:80|300:80,1,130,6|2,0:0|0:0,0:0:0:0:
256,108,147386,2,0,P|180:100|120:56,1,130,8|8,0:0|0:0,0:0:0:0:
28,144,147986,1,8,0:0:0:0:
36,272,148286,2,0,P|112:280|172:324,1,130,8|8,0:0|0:0,0:0:0:0:
208,348,148736,2,0,L|352:336,1,130,2|2,0:0|0:0,0:0:0:0:
420,236,149336,6,0,L|428:76,1,130,6|2,0:0|0:0,0:0:0:0:
360,112,149786,2,0,P|304:116|180:52,1,195,8|2,0:0|0:0,0:0:0:0:
116,168,150536,2,0,P|172:216|204:276,1,130,6|2,0:0|0:0,0:0:0:0:
224,324,150986,2,0,L|372:316,2,130,8|2|8,0:0|0:0|0:0,0:0:0:0:
188,268,151736,6,0,L|40:260,1,130,6|2,0:0|0:0,0:0:0:0:
40,200,152186,2,0,P|36:144|56:68,1,130,8|8,0:0|0:0,0:0:0:0:
176,28,152786,1,8,0:0:0:0:
296,80,153086,2,0,P|312:142|309:207,1,130,8|8,0:0|0:0,0:0:0:0:
180,184,153686,2,0,P|163:246|166:311,1,130,2|2,0:0|0:0,0:0:0:0:
220,348,154136,6,0,L|372:332,1,130,6|8,0:0|0:0,0:0:0:0:
404,300,154586,2,0,P|416:248|396:164,2,130,2|8|2,0:0|0:0|0:0,0:0:0:0:
344,272,155336,2,0,P|304:240|224:224,1,130,2|8,0:0|0:0,0:0:0:0:
164,228,155786,1,2,0:0:0:0:
164,96,156086,2,0,P|228:68|300:72,1,130,8|2,0:0|0:0,0:0:0:0:
348,92,156536,6,0,L|356:228,1,130,2|8,0:0|0:0,0:0:0:0:
360,288,156986,1,2,0:0:0:0:
236,332,157286,2,0,P|160:332|104:300,1,130,8|2,0:0|0:0,0:0:0:0:
76,252,157736,2,0,L|72:112,1,130,2|8,0:0|0:0,0:0:0:0:
72,56,158186,1,2,0:0:0:0:
180,128,158486,6,0,L|184:212,2,65,8|8|2,0:0|0:0|0:0,0:0:0:0:
180,64,158936,1,8,0:0:0:0:
256,192,159011,12,0,160286,0:0:0:0:
