osu file format v14

[General]
AudioFilename: 08 - Moon Light Wave.mp3
AudioLeadIn: 0
PreviewTime: 45694
Countdown: 0
SampleSet: Soft
StackLeniency: 0.7
Mode: 0
LetterboxInBreaks: 1
WidescreenStoryboard: 0

[Editor]
Bookmarks: 28744
DistanceSpacing: 0.5
BeatDivisor: 4
GridSize: 4
TimelineZoom: 4.399998

[Metadata]
Title:MOON LIGHT WAVE
TitleUnicode:MOON LIGHT WAVE
Artist:BLOOD STAIN CHILD
ArtistUnicode:BLOOD STAIN CHILD
Creator:Silleth
Version:Insane
Source:
Tags:snepif winber1 Ettore Rigotti epsilon sophia melodic alternative metal everything will fade away moonlight
BeatmapID:676512
BeatmapSetID:296543

[Difficulty]
HPDrainRate:6
CircleSize:4
OverallDifficulty:7.5
ApproachRate:9
SliderMultiplier:1.8
SliderTickRate:1

[Events]
//Background and Video events
0,0,"BG.png",0,0
//Break Periods
2,132736,133886
//Storyboard Layer 0 (Background)
//Storyboard Layer 1 (Fail)
//Storyboard Layer 2 (Pass)
//Storyboard Layer 3 (Foreground)
//Storyboard Sound Samples

[TimingPoints]
686,300,4,2,2,80,1,0
4286,-71.4285714285714,4,2,2,80,0,0
5336,-90.9090909090909,4,2,1,80,0,0
7736,-90.9090909090909,4,2,2,80,0,0
8036,-90.9090909090909,4,2,1,80,0,0
14486,-90.9090909090909,4,2,2,80,0,0
15011,-90.9090909090909,4,2,1,80,0,0
16136,-100,4,2,3,80,0,0
17336,-133.333333333333,4,2,1,65,0,0
17636,-133.333333333333,4,2,1,70,0,0
23486,-86.9565217391306,4,2,1,70,0,0
24086,-105.263157894737,4,2,1,70,0,0
24536,-83.3333333333333,4,2,2,80,0,0
24836,-83.3333333333333,4,2,1,80,0,0
24986,-100,4,2,1,80,0,0
26936,-100,4,2,2,80,0,0
27236,-100,4,2,1,80,0,0
31436,-100,4,2,2,65,0,0
31586,-100,4,2,1,80,0,0
34136,-83.3333333333333,4,2,2,80,0,0
34436,-76.9230769230769,4,2,1,80,0,0
36536,-125,4,2,2,80,0,0
36836,-125,4,2,1,80,0,0
46136,-76.9230769230769,4,2,2,80,0,1
46436,-86.9565217391304,4,2,1,80,0,1
48536,-76.9230769230769,4,2,2,80,0,1
48836,-76.9230769230769,4,2,1,80,0,1
48986,-86.9565217391304,4,2,1,80,0,1
50786,-117.647058823529,4,2,1,80,0,1
50936,-76.9230769230769,4,2,2,80,0,1
51236,-86.9565217391304,4,2,1,80,0,1
51986,-117.647058823529,4,2,1,80,0,1
52136,-76.9230769230769,4,2,2,80,0,1
52436,-86.9565217391304,4,2,1,80,0,1
53336,-76.9230769230769,4,2,2,80,0,1
53636,-76.9230769230769,4,2,1,80,0,1
55286,-76.9230769230769,4,2,3,80,0,1
55736,-100,4,2,2,80,0,0
56036,-125,4,2,1,70,0,0
61886,-83.3333333333333,4,2,1,80,0,0
62486,-90.9090909090909,4,2,1,80,0,0
62936,-76.9230769230769,4,2,2,80,0,0
63236,-76.9230769230769,4,2,1,80,0,0
63386,-83.3333333333333,4,2,1,80,0,0
64136,-76.9230769230769,4,2,2,80,0,0
64436,-83.3333333333333,4,2,1,80,0,0
65336,-100,4,2,2,80,0,0
65636,-100,4,2,1,80,0,0
72536,-83.3333333333333,4,2,2,80,0,0
72836,-83.3333333333333,4,2,1,80,0,0
74636,-83.3333333333333,4,2,2,80,0,0
74936,-111.111111111111,4,2,2,80,0,0
75236,-111.111111111111,4,2,1,80,0,0
79736,-111.111111111111,4,2,2,80,0,0
80036,-111.111111111111,4,2,1,80,0,0
83336,-90.9090909090908,4,2,1,80,0,0
84536,-76.9230769230769,4,2,2,80,0,1
84836,-86.9565217391304,4,2,1,80,0,1
86936,-76.9230769230769,4,2,2,80,0,1
87236,-86.9565217391304,4,2,1,80,0,1
89186,-117.647058823529,4,2,1,80,0,1
89336,-76.9230769230769,4,2,2,80,0,1
89636,-86.9565217391304,4,2,1,80,0,1
90386,-117.647058823529,4,2,1,80,0,1
90536,-76.9230769230769,4,2,2,80,0,1
90836,-86.9565217391304,4,2,1,80,0,1
91736,-76.9230769230769,4,2,2,80,0,1
92036,-76.9230769230769,4,2,1,80,0,1
93686,-76.9230769230769,4,2,3,80,0,1
94136,-142.857142857143,4,2,2,80,0,1
94436,-76.9230769230769,4,2,1,80,0,1
96086,-76.9230769230769,4,2,3,80,0,1
96536,-125,4,2,2,80,0,1
96836,-76.9230769230769,4,2,1,80,0,1
98486,-76.9230769230769,4,2,3,80,0,1
98936,-125,4,2,2,80,0,1
99236,-76.9230769230769,4,2,1,80,0,1
100136,-125,4,2,2,80,0,1
100436,-76.9230769230769,4,2,1,80,0,1
101336,-125,4,2,2,80,0,1
101636,-76.9230769230769,4,2,1,80,0,1
103286,-76.9230769230769,4,2,2,80,0,1
103736,-125,4,2,2,80,0,0
110936,-200,4,2,2,80,0,0
111236,-100,4,2,1,80,0,0
113336,-80,4,2,2,80,0,1
113636,-80,4,2,1,80,0,1
118286,-80,4,2,2,80,0,1
118436,-80,4,2,1,80,0,1
119336,-80,4,2,2,80,0,1
119636,-80,4,2,1,80,0,1
120536,-80,4,2,2,80,0,1
120836,-80,4,2,1,80,0,1
122486,-80,4,2,3,80,0,1
123086,-80,4,2,1,80,0,1
125336,-80,4,2,2,80,0,1
125411,-80,4,2,1,80,0,1
127286,-80,4,2,2,80,0,1
128036,-80,4,2,1,80,0,1
128186,-100,4,2,1,80,0,1
130586,-80,4,2,1,80,0,1
132536,-100,4,2,2,80,0,0
134486,-100,4,2,2,70,0,0
134936,-71.4285714285714,4,2,2,80,0,1
135236,-80,4,2,1,80,0,1
137336,-80,4,2,2,80,0,1
137636,-80,4,2,1,80,0,1
139586,-117.647058823529,4,2,1,80,0,1
139736,-74.0740740740741,4,2,2,80,0,1
140036,-80,4,2,1,80,0,1
140786,-117.647058823529,4,2,1,80,0,1
140936,-74.0740740740741,4,2,2,80,0,1
141236,-80,4,2,1,80,0,1
142136,-74.0740740740741,4,2,2,80,0,1
142436,-74.0740740740741,4,2,1,80,0,1
144086,-74.0740740740741,4,2,3,80,0,1
144536,-111.111111111111,4,2,2,80,0,1
144836,-71.4285714285714,4,2,1,80,0,1
146486,-71.4285714285714,4,2,3,80,0,1
146936,-111.111111111111,4,2,2,80,0,1
147236,-71.4285714285714,4,2,1,80,0,1
148886,-71.4285714285714,4,2,3,80,0,1
149336,-111.111111111111,4,2,2,80,0,1
149636,-76.9230769230769,4,2,1,80,0,1
150536,-111.111111111111,4,2,2,80,0,1
150836,-111.111111111111,4,2,1,80,0,1
150986,-76.9230769230769,4,2,1,80,0,1
151736,-111.111111111111,4,2,2,80,0,1
152186,-76.9230769230769,4,2,1,80,0,1
153686,-76.9230769230769,4,2,2,80,0,1
154136,-100,4,2,2,80,0,0
154436,-100,4,2,1,80,0,0
158936,-100,4,2,2,80,0,0
160286,-100,4,2,2,25,0,0

[Colours]
Combo1 : 81,136,238
Combo2 : 243,78,123
Combo3 : 148,115,247
Combo4 : 236,119,196

[HitObjects]
340,344,536,6,0,P|276:300|168:312,1,180,2|2,0:0|0:0,0:0:0:0:
312,188,986,2,0,P|224:197|149:150,1,180,8|2,0:0|0:0,0:0:0:0:
52,244,1436,2,0,L|48:152,1,90,2|8,0:0|0:0,0:0:0:0:
224,56,1736,2,0,P|272:48|332:20,2,90,0|2|2,0:0|0:0|0:0,0:0:0:0:
192,200,2186,2,0,P|188:268|204:308,1,90,8|0,0:0|0:0,0:0:0:0:
256,356,2486,1,2,0:0:0:0:
256,356,2636,1,2,0:0:0:0:
304,264,2786,1,8,0:0:0:0:
448,312,2936,6,0,P|472:228|428:136,1,180,6|2,0:0|0:0,0:0:0:0:
236,108,3386,2,0,L|328:100,1,90,8|0,0:0|0:0,0:0:0:0:
152,200,3686,2,0,P|100:192|60:164,1,90,2|2,0:0|0:0,0:0:0:0:
32,92,3986,1,8,0:0:0:0:
160,24,4136,1,2,0:0:0:0:
217,174,4286,6,0,L|224:300,1,125.999996154785,8|2,0:0|0:0,0:0:0:0:
217,174,4736,2,0,P|332:196|416:92,1,251.999992309571,2|2,0:0|0:0,0:0:0:0:
216,172,5336,6,0,P|134:222|42:195,1,198.000006042481,4|0,1:0|0:0,0:0:0:0:
196,324,5786,1,8,0:0:0:0:
292,304,5936,1,0,0:0:0:0:
388,288,6086,2,0,L|381:189,1,99.0000030212403,2|2,0:0|0:0,0:0:0:0:
232,48,6386,1,8,0:0:0:0:
232,48,6536,1,0,0:0:0:0:
144,92,6686,2,0,L|136:196,1,99.0000030212403,2|2,0:0|0:0,0:0:0:0:
124,288,6986,1,8,0:0:0:0:
60,64,7136,2,0,L|276:52,1,198.000006042481,0|2,0:0|0:0,0:0:0:0:
356,40,7586,1,8,0:0:0:0:
184,172,7736,6,0,P|164:276|224:352,1,198.000006042481,6|2,0:0|0:0,0:0:0:0:
320,284,8186,2,0,L|432:276,1,99.0000030212403,8|0,0:0|0:0,0:0:0:0:
280,60,8486,2,0,L|272:184,1,99.0000030212403,2|2,0:0|0:0,0:0:0:0:
168,244,8786,2,0,L|56:236,1,99.0000030212403,8|0,0:0|0:0,0:0:0:0:
160,344,9086,2,0,P|240:312|264:192,1,198.000006042481,2|8,0:0|0:0,0:0:0:0:
352,344,9536,2,0,P|359:291|364:228,1,99.0000030212403,0|2,0:0|0:0,0:0:0:0:
232,92,9836,1,2,0:0:0:0:
328,72,9986,1,8,0:0:0:0:
392,148,10136,6,0,P|332:228|236:220,1,198.000006042481,2|2,0:0|0:0,0:0:0:0:
84,104,10586,2,0,L|88:216,1,99.0000030212403,8|0,0:0|0:0,0:0:0:0:
292,244,10886,2,0,L|288:356,1,99.0000030212403,2|2,0:0|0:0,0:0:0:0:
224,168,11186,1,8,0:0:0:0:
292,248,11336,2,0,P|372:260|460:164,1,198.000006042481,2|2,0:0|0:0,0:0:0:0:
264,340,11786,2,0,L|152:324,1,99.0000030212403,8|0,0:0|0:0,0:0:0:0:
224,148,12086,2,0,L|116:156,1,99.0000030212403,2|2,0:0|0:0,0:0:0:0:
68,80,12386,1,8,0:0:0:0:
288,60,12536,6,0,P|320:168|272:244,1,198.000006042481,2|2,0:0|0:0,0:0:0:0:
424,80,12986,2,0,P|427:136|440:204,1,99.0000030212403,8|0,0:0|0:0,0:0:0:0:
328,276,13286,2,0,L|232:240,1,99.0000030212403,8|2,0:0|0:0,0:0:0:0:
148,44,13586,2,0,P|144:100|132:168,1,99.0000030212403,8|2,0:0|0:0,0:0:0:0:
112,280,13886,5,8,0:0:0:0:
116,296,14036,1,2,0:0:0:0:
252,184,14186,5,8,0:0:0:0:
268,172,14336,1,2,0:0:0:0:
144,156,14486,5,2,0:0:0:0:
212,296,14636,1,2,0:0:0:0:
64,200,14786,1,2,0:0:0:0:
216,112,14936,1,2,0:0:0:0:
256,192,15011,12,2,16136,0:0:0:0:
348,136,16436,5,2,0:0:0:0:
316,220,16586,2,0,L|328:320,1,90,8|2,0:0|0:0,0:0:0:0:
124,176,16886,2,0,L|112:76,1,90,10|2,0:0|0:0,0:0:0:0:
52,272,17186,1,8,0:0:0:0:
188,280,17336,6,0,P|224:236|228:140,1,135.000005149842,4|2,1:0|0:0,0:0:0:0:
48,52,17786,2,0,L|56:200,1,135.000005149842,8|2,0:0|0:0,0:0:0:0:
68,272,18236,1,2,0:0:0:0:
156,155,18386,2,0,L|160:88,1,67.5000025749208,8|0,0:0|0:0,0:0:0:0:
256,44,18686,2,0,L|268:124,1,67.5000025749208,2|2,0:0|0:0,0:0:0:0:
292,256,18986,2,0,P|360:216|428:224,1,135.000005149842,8|2,0:0|0:0,0:0:0:0:
244,336,19436,2,0,L|164:328,1,67.5000025749208,2|8,0:0|0:0,0:0:0:0:
68,232,19736,2,0,L|212:216,1,135.000005149842,2|2,0:0|0:0,0:0:0:0:
288,204,20186,5,8,0:0:0:0:
288,204,20486,2,0,L|296:128,1,67.5000025749208,2|2,0:0|0:0,0:0:0:0:
256,56,20786,1,8,0:0:0:0:
196,128,20936,1,0,0:0:0:0:
160,48,21086,2,0,L|80:44,1,67.5000025749208,2|2,0:0|0:0,0:0:0:0:
32,152,21386,2,0,L|112:156,1,67.5000025749208,8|0,0:0|0:0,0:0:0:0:
208,164,21686,5,2,0:0:0:0:
192,336,21836,1,4,0:0:0:0:
304,252,21986,1,2,0:0:0:0:
104,236,22136,2,0,L|100:80,1,135.000005149842,4|2,0:0|0:0,0:0:0:0:
320,96,22586,6,0,P|253:100|190:77,1,135.000005149842,8|2,0:0|0:0,0:0:0:0:
404,56,23036,1,2,0:0:0:0:
396,144,23186,2,0,L|404:228,1,67.5000025749208,8|0,0:0|0:0,0:0:0:0:
336,327,23486,6,0,B|276:367|202:327|182:283|182:283|112:320|60:264,1,310.500005922318,2|0,0:0|0:0,0:0:0:0:
288,164,24086,2,0,L|277:248,2,85.4999977169037,2|2|8,0:0|0:0|0:0,0:0:0:0:
184,164,24536,6,0,P|112:156|48:36,1,215.999993408203,6|2,0:0|0:0,0:0:0:0:
284,120,24986,2,0,L|288:228,1,90,8|0,0:0|0:0,0:0:0:0:
112,332,25286,2,0,L|108:224,1,90,2|2,0:0|0:0,0:0:0:0:
184,164,25586,1,8,0:0:0:0:
324,332,25736,2,0,P|376:280|364:156,1,180,2|2,0:0|0:0,0:0:0:0:
144,84,26186,6,0,L|136:196,1,90,8|2,0:0|0:0,0:0:0:0:
240,344,26486,1,8,0:0:0:0:
231,214,26636,1,2,0:0:0:0:
368,260,26786,1,8,0:0:0:0:
344,124,26936,6,0,L|160:108,1,180,6|2,0:0|0:0,0:0:0:0:
220,304,27386,2,0,L|232:208,1,90,8|0,0:0|0:0,0:0:0:0:
124,360,27686,2,0,P|80:356|32:320,1,90,2|2,0:0|0:0,0:0:0:0:
128,88,27986,1,8,0:0:0:0:
196,184,28136,2,0,P|232:180|280:140,1,90,0|2,0:0|0:0,0:0:0:0:
376,260,28436,2,0,L|368:364,1,90,2|8,0:0|0:0,0:0:0:0:
120,280,28736,2,0,L|128:176,1,90,0|2,0:0|0:0,0:0:0:0:
212,120,29036,1,2,0:0:0:0:
126,190,29186,1,8,0:0:0:0:
236,232,29336,2,0,P|304:220|352:124,1,180,2|2,0:0|0:0,0:0:0:0:
126,190,29786,6,0,P|104:244|112:288,1,90,8|0,0:0|0:0,0:0:0:0:
212,120,30086,2,0,P|213:75|193:35,1,90,2|2,0:0|0:0,0:0:0:0:
236,232,30386,1,8,0:0:0:0:
332,256,30536,2,0,P|388:248|416:224,1,90,0|2,0:0|0:0,0:0:0:0:
432,44,30836,2,0,L|440:152,1,90,2|8,0:0|0:0,0:0:0:0:
232,164,31136,2,0,L|224:272,1,90,0|2,0:0|0:0,0:0:0:0:
332,92,31436,1,2,0:0:0:0:
136,84,31586,1,8,0:0:0:0:
332,92,31736,2,0,P|364:180|328:260,1,180,2|2,0:0|0:0,0:0:0:0:
96,308,32186,6,0,L|88:196,1,90,8|0,0:0|0:0,0:0:0:0:
216,236,32486,2,0,L|236:128,1,90,2|2,0:0|0:0,0:0:0:0:
288,340,32786,2,0,P|352:340|384:320,1,90,8|0,0:0|0:0,0:0:0:0:
448,164,33086,2,0,L|464:268,1,90,2|2,0:0|0:0,0:0:0:0:
328,132,33386,2,0,L|148:117,1,180,8|2,0:0|0:0,0:0:0:0:
60,144,33836,1,2,0:0:0:0:
60,144,33986,1,8,0:0:0:0:
204,232,34136,6,0,P|240:160|200:32,1,215.999993408203,6|2,0:0|0:0,0:0:0:0:
56,140,34586,2,0,L|60:256,1,116.999994644165,8|2,0:0|0:0,0:0:0:0:
272,332,34886,2,0,L|276:216,1,116.999994644165,8|2,0:0|0:0,0:0:0:0:
284,112,35186,1,8,0:0:0:0:
160,256,35336,2,0,P|96:240|60:80,1,233.999989288331,2|2,0:0|0:0,0:0:0:0:
252,24,35786,2,0,L|244:152,1,116.999994644165,8|2,0:0|0:0,0:0:0:0:
348,344,36086,5,8,0:0:0:0:
244,232,36236,1,2,0:0:0:0:
456,220,36386,1,2,0:0:0:0:
340,112,36536,6,0,P|276:88|192:92,1,144,6|8,0:0|0:0,0:0:0:0:
428,64,36986,2,0,P|432:104|440:148,1,72,2|2,0:0|0:0,0:0:0:0:
368,204,37286,2,0,P|364:276|352:352,1,144,8|2,0:0|0:0,0:0:0:0:
300,132,37736,2,0,P|388:116|456:116,1,144,2|2,0:0|0:0,0:0:0:0:
276,220,38186,2,0,P|204:217|133:203,2,144,2|8|2,0:0|0:0|0:0,0:0:0:0:
420,152,38936,6,0,L|432:300,1,144,2|2,0:0|0:0,0:0:0:0:
344,348,39386,2,0,P|280:348|204:276,2,144,2|8|2,0:0|0:0|0:0,0:0:0:0:
124,264,40136,2,0,P|184:216|268:224,1,144,2|8,0:0|0:0,0:0:0:0:
64,328,40586,2,0,P|40:296|36:256,1,72,2|2,0:0|0:0,0:0:0:0:
40,164,40886,1,8,0:0:0:0:
84,72,41036,1,2,0:0:0:0:
184,64,41186,1,8,0:0:0:0:
248,140,41336,6,0,P|324:132|416:120,1,144,2|8,0:0|0:0,0:0:0:0:
168,164,41786,2,0,P|164:204|164:248,1,72,2|2,0:0|0:0,0:0:0:0:
391,123,42086,2,0,P|399:203|399:275,1,144,8|2,0:0|0:0,0:0:0:0:
328,52,42536,2,0,P|392:36|472:72,1,144,2|2,0:0|0:0,0:0:0:0:
256,112,42986,2,0,P|216:100|192:72,1,72,2|2,0:0|0:0,0:0:0:0:
344,148,43286,2,0,P|360:212|324:292,1,144,8|2,0:0|0:0,0:0:0:0:
124,212,43736,6,0,L|292:204,1,144,2|8,0:0|0:0,0:0:0:0:
312,48,44186,2,0,P|280:64|232:80,1,72,2|2,0:0|0:0,0:0:0:0:
368,192,44486,2,0,L|384:276,1,72,8|2,0:0|0:0,0:0:0:0:
272,348,44786,1,8,0:0:0:0:
140,280,44936,1,4,2:0:0:0:
124,288,45011,1,0,0:0:0:0:
112,296,45086,6,0,L|100:248,3,36,4|0|6|0,2:0|0:0|0:0|0:0,0:0:0:0:
92,212,45386,1,12,0:0:0:0:
136,216,45461,1,0,0:0:0:0:
176,196,45536,1,6,0:0:0:0:
196,156,45611,1,2,0:0:0:0:
196,112,45686,5,8,0:0:0:0:
392,160,45836,1,8,0:0:0:0:
392,160,46136,6,0,P|316:156|256:24,1,233.999989288331,6|2,0:0|0:0,0:0:0:0:
148,88,46586,2,0,P|144:142|136:204,1,103.500001974106,8|0,0:0|0:0,0:0:0:0:
152,292,46886,1,2,0:0:0:0:
252,260,47036,1,2,0:0:0:0:
304,348,47186,2,0,P|359:340|424:328,1,103.500001974106,8|0,0:0|0:0,0:0:0:0:
424,128,47486,6,0,P|373:118|321:111,1,103.500001974106,2|2,0:0|0:0,0:0:0:0:
220,120,47786,1,8,0:0:0:0:
264,216,47936,2,0,P|224:240|144:232,1,103.500001974106,0|2,0:0|0:0,0:0:0:0:
80,188,48236,1,2,0:0:0:0:
160,124,48386,1,8,0:0:0:0:
124,312,48536,6,0,P|224:308|276:180,1,233.999989288331,6|2,0:0|0:0,0:0:0:0:
384,204,48986,2,0,L|392:92,1,103.500001974106,8|0,0:0|0:0,0:0:0:0:
160,100,49286,2,0,L|167:203,1,103.500001974106,2|2,0:0|0:0,0:0:0:0:
208,300,49586,1,8,0:0:0:0:
208,300,49736,1,0,0:0:0:0:
376,308,49886,6,0,P|424:272|440:224,1,103.500001974106,2|2,0:0|0:0,0:0:0:0:
428,128,50186,1,8,0:0:0:0:
240,212,50336,2,0,P|148:180|120:76,1,207.000003948212,0|2,0:0|0:0,0:0:0:0:
308,56,50786,1,8,0:0:0:0:
118,82,50936,6,0,B|104:336,1,233.999989288331,6|2,0:0|0:0,0:0:0:0:
288,360,51386,2,0,P|388:344|436:236,1,207.000003948212,8|2,0:0|0:0,0:0:0:0:
412,156,51836,1,2,0:0:0:0:
412,156,51986,1,8,0:0:0:0:
224,220,52136,6,0,P|120:212|68:96,1,233.999989288331,6|2,0:0|0:0,0:0:0:0:
316,104,52586,2,0,L|300:332,1,207.000003948212,8|2,0:0|0:0,0:0:0:0:
200,336,53036,1,2,0:0:0:0:
116,276,53186,1,8,0:0:0:0:
180,112,53336,6,0,B|232:128|292:100|292:100|340:128|340:128|372:108|412:116,1,233.999989288331,6|2,0:0|0:0,0:0:0:0:
400,224,53786,2,0,L|388:352,1,116.999994644165,8|2,0:0|0:0,0:0:0:0:
252,136,54086,2,0,L|358:86,1,116.999994644165,8|2,0:0|0:0,0:0:0:0:
264,308,54386,2,0,L|168:239,1,116.999994644165,8|2,0:0|0:0,0:0:0:0:
152,48,54686,5,8,0:0:0:0:
268,156,54836,1,2,0:0:0:0:
380,44,54986,2,0,P|388:96|372:160,1,116.999994644165,8|2,0:0|0:0,0:0:0:0:
280,92,55286,5,8,0:0:0:0:
248,284,55436,1,2,0:0:0:0:
408,184,55586,1,8,0:0:0:0:
188,168,55736,6,0,B|144:168|108:160|108:160|92:172|92:172|52:160|4:160,1,180,6|2,0:0|0:0,0:0:0:0:
188,168,56186,5,2,0:0:0:0:
208,244,56486,1,2,0:0:0:0:
272,288,56786,1,2,0:0:0:0:
352,276,57086,1,2,0:0:0:0:
408,216,57386,1,2,0:0:0:0:
396,136,57686,5,2,0:0:0:0:
204,176,57836,2,0,L|196:80,2,72,6|0|4,0:0|0:0|0:0,0:0:0:0:
396,136,58286,1,2,0:0:0:0:
344,196,58586,5,2,0:0:0:0:
264,216,58886,1,2,0:0:0:0:
192,180,59186,1,2,0:0:0:0:
176,104,59486,1,2,0:0:0:0:
188,28,59786,2,0,L|180:184,1,144,2|2,0:0|0:0,0:0:0:0:
172,296,60236,5,4,0:0:0:0:
272,228,60386,1,2,0:0:0:0:
320,340,60536,2,0,P|392:348|444:292,1,144,4|2,0:0|0:0,0:0:0:0:
460,224,60986,5,2,0:0:0:0:
384,200,61286,1,2,0:0:0:0:
308,220,61586,1,2,0:0:0:0:
232,200,61886,6,0,P|160:220|244:144,1,323.999990112305,4|2,0:0|0:0,0:0:0:0:
312,248,62486,2,0,L|298:368,1,99.0000030212403,8|2,0:0|0:0,0:0:0:0:
236,188,62786,1,8,0:0:0:0:
244,172,62861,1,2,0:0:0:0:
256,160,62936,6,0,P|348:144|404:264,1,233.999989288331,6|2,0:0|0:0,0:0:0:0:
196,232,63386,2,0,P|140:220|104:176,1,107.999996704102,8|2,0:0|0:0,0:0:0:0:
288,248,63686,2,0,P|296:316|272:364,1,107.999996704102,8|2,0:0|0:0,0:0:0:0:
172,348,63986,1,8,0:0:0:0:
392,360,64136,6,0,B|416:280|377:203|377:203|416:220|452:212,1,233.999989288331,6|2,0:0|0:0,0:0:0:0:
424,24,64586,2,0,L|420:144,1,107.999996704102,8|2,0:0|0:0,0:0:0:0:
276,212,64886,5,8,0:0:0:0:
260,56,65036,1,8,0:0:0:0:
260,56,65336,6,0,P|176:108|96:76,1,180,6|2,0:0|0:0,0:0:0:0:
80,240,65786,2,0,P|164:188|244:220,1,180,8|2,0:0|0:0,0:0:0:0:
312,272,66236,1,2,0:0:0:0:
408,248,66386,2,0,L|404:352,1,90,8|0,0:0|0:0,0:0:0:0:
332,176,66686,2,0,P|388:144|428:144,1,90,2|2,0:0|0:0,0:0:0:0:
312,272,66986,2,0,P|236:304|140:264,1,180,8|2,0:0|0:0,0:0:0:0:
88,192,67436,1,2,0:0:0:0:
88,192,67586,1,8,0:0:0:0:
108,348,67736,6,0,L|300:336,1,180,2|2,0:0|0:0,0:0:0:0:
236,152,68186,2,0,L|232:252,1,90,8|0,0:0|0:0,0:0:0:0:
404,328,68486,1,2,0:0:0:0:
404,328,68636,2,0,L|408:228,1,90,2|8,0:0|0:0,0:0:0:0:
352,92,68936,2,0,P|304:52|260:44,1,90,0|2,0:0|0:0,0:0:0:0:
120,56,69236,1,2,0:0:0:0:
56,124,69386,2,0,L|60:228,1,90,8|0,0:0|0:0,0:0:0:0:
80,308,69686,1,2,0:0:0:0:
172,340,69836,1,6,0:0:0:0:
252,280,69986,1,8,0:0:0:0:
244,180,70136,6,0,P|296:164|400:236,1,180,6|2,0:0|0:0,0:0:0:0:
152,184,70586,2,0,P|164:132|192:104,1,90,8|0,0:0|0:0,0:0:0:0:
296,248,70886,2,0,P|254:263|210:255,1,90,2|2,0:0|0:0,0:0:0:0:
400,252,71186,2,0,P|392:302|392:356,1,90,8|0,0:0|0:0,0:0:0:0:
348,168,71486,1,2,0:0:0:0:
348,168,71636,1,2,0:0:0:0:
400,252,71786,2,0,P|444:200|420:88,1,180,8|2,0:0|0:0,0:0:0:0:
204,116,72236,1,2,0:0:0:0:
392,84,72386,1,8,0:0:0:0:
204,140,72536,6,0,P|256:224|372:204,1,215.999993408203,6|2,0:0|0:0,0:0:0:0:
124,200,72986,2,0,P|64:192|12:200,1,107.999996704102,8|2,0:0|0:0,0:0:0:0:
280,260,73286,2,0,P|336:252|384:228,1,107.999996704102,8|2,0:0|0:0,0:0:0:0:
448,144,73586,1,8,0:0:0:0:
208,128,73736,6,0,L|200:352,1,215.999993408203,2|2,0:0|0:0,0:0:0:0:
408,244,74186,2,0,L|296:232,1,107.999996704102,8|2,0:0|0:0,0:0:0:0:
140,180,74486,1,8,0:0:0:0:
248,164,74636,1,2,0:0:0:0:
356,144,74786,1,2,0:0:0:0:
248,128,74936,6,0,B|248:164|256:184|256:184|240:204|240:204|256:240|252:288,1,161.999995056153,6|8,0:0|0:0,0:0:0:0:
304,344,75386,2,0,P|328:304|328:256,1,80.9999975280763,2|2,0:0|0:0,0:0:0:0:
168,256,75686,2,0,P|132:208|128:100,1,161.999995056153,8|2,0:0|0:0,0:0:0:0:
264,68,76136,2,0,P|300:116|304:224,1,161.999995056153,2|2,0:0|0:0,0:0:0:0:
232,264,76586,2,0,P|233:300|240:348,1,80.9999975280763,2|0,0:0|0:0,0:0:0:0:
148,220,76886,2,0,P|108:304|44:348,1,161.999995056153,8|2,0:0|0:0,0:0:0:0:
264,188,77336,6,0,L|280:372,1,161.999995056153,2|2,0:0|0:0,0:0:0:0:
356,144,77786,2,0,P|288:96|188:112,2,161.999995056153,2|8|2,0:0|0:0|0:0,0:0:0:0:
316,268,78536,2,0,P|236:270|172:223,1,161.999995056153,2|8,0:0|0:0,0:0:0:0:
132,144,78986,1,2,0:0:0:0:
156,56,79136,1,2,0:0:0:0:
232,108,79286,5,8,0:0:0:0:
104,136,79436,1,2,0:0:0:0:
224,144,79586,1,8,0:0:0:0:
96,104,79736,6,0,B|80:164|80:164|96:176|96:176|88:220|104:264,1,161.999995056153,6|2,0:0|0:0,0:0:0:0:
120,344,80186,2,0,P|172:340|204:328,1,80.9999975280763,2|0,0:0|0:0,0:0:0:0:
344,204,80486,2,0,P|268:196|190:231,1,161.999995056153,8|2,0:0|0:0,0:0:0:0:
420,260,80936,2,0,P|464:176|448:100,1,161.999995056153,2|2,0:0|0:0,0:0:0:0:
396,32,81386,2,0,L|500:16,1,80.9999975280763,2|0,0:0|0:0,0:0:0:0:
356,120,81686,2,0,L|188:112,1,161.999995056153,8|2,0:0|0:0,0:0:0:0:
132,184,82136,6,0,P|108:92|136:36,1,161.999995056153,2|8,0:0|0:0,0:0:0:0:
204,240,82586,2,0,P|204:288|188:332,1,80.9999975280763,2|2,0:0|0:0,0:0:0:0:
296,104,82886,2,0,P|336:144|348:176,2,80.9999975280763,8|2|8,0:0|0:0|0:0,0:0:0:0:
88,228,83336,6,0,P|200:236|256:180,1,198.000006042481,6|6,0:0|0:0,0:0:0:0:
252,104,83711,1,0,0:0:0:0:
252,104,83786,2,0,B|258:227|258:227|276:256,1,148.50000453186,6|0,0:0|0:0,0:0:0:0:
340,284,84086,5,8,0:0:0:0:
80,224,84236,1,8,0:0:0:0:
80,224,84536,6,0,P|192:256|264:172,1,233.999989288331,6|2,0:0|0:0,0:0:0:0:
164,32,84986,1,8,0:0:0:0:
92,104,85136,1,0,0:0:0:0:
164,176,85286,2,0,L|152:296,1,103.500001974106,2|2,0:0|0:0,0:0:0:0:
344,336,85586,2,0,L|332:216,1,103.500001974106,8|0,0:0|0:0,0:0:0:0:
288,80,85886,6,0,P|356:60|404:72,1,103.500001974106,2|2,0:0|0:0,0:0:0:0:
232,152,86186,1,8,0:0:0:0:
232,152,86336,2,0,P|180:155|133:137,1,103.500001974106,0|2,0:0|0:0,0:0:0:0:
72,56,86636,1,2,0:0:0:0:
72,56,86786,1,8,0:0:0:0:
52,240,86936,6,0,L|296:256,1,233.999989288331,6|2,0:0|0:0,0:0:0:0:
404,160,87386,2,0,P|416:228|400:276,1,103.500001974106,8|0,0:0|0:0,0:0:0:0:
228,56,87686,2,0,P|216:124|232:172,1,103.500001974106,2|2,0:0|0:0,0:0:0:0:
284,240,87986,1,8,0:0:0:0:
388,256,88136,1,0,0:0:0:0:
460,180,88286,2,0,L|452:60,1,103.500001974106,2|2,0:0|0:0,0:0:0:0:
196,196,88586,1,8,0:0:0:0:
196,196,88736,2,0,P|292:203|356:112,1,207.000003948212,0|2,0:0|0:0,0:0:0:0:
224,24,89186,1,8,0:0:0:0:
196,220,89336,6,0,P|299:228|368:129,1,233.999989288331,6|2,0:0|0:0,0:0:0:0:
68,112,89786,2,0,L|60:336,1,207.000003948212,8|2,0:0|0:0,0:0:0:0:
160,344,90236,1,2,0:0:0:0:
216,172,90386,1,8,0:0:0:0:
216,172,90536,6,0,P|112:163|44:262,1,233.999989288331,6|2,0:0|0:0,0:0:0:0:
356,244,90986,2,0,L|364:20,1,207.000003948212,8|2,0:0|0:0,0:0:0:0:
128,44,91436,1,2,0:0:0:0:
240,116,91586,1,8,0:0:0:0:
68,164,91736,6,0,P|148:241|255:211,1,233.999989288331,6|2,0:0|0:0,0:0:0:0:
376,124,92186,2,0,P|332:80|272:64,1,116.999994644165,8|2,0:0|0:0,0:0:0:0:
139,264,92486,2,0,P|128:207|144:152,1,116.999994644165,8|2,0:0|0:0,0:0:0:0:
379,291,92786,2,0,P|336:329|280:344,1,116.999994644165,8|2,0:0|0:0,0:0:0:0:
280,84,93086,2,0,L|272:212,1,116.999994644165,8|2,0:0|0:0,0:0:0:0:
55,332,93386,2,0,L|48:216,1,116.999994644165,8|2,0:0|0:0,0:0:0:0:
128,128,93686,1,8,0:0:0:0:
192,316,93836,1,2,0:0:0:0:
344,204,93986,1,8,0:0:0:0:
140,232,94136,6,0,B|180:224|200:228|200:228|212:216|212:216|240:220|276:208,1,125.999996154785,6|2,0:0|0:0,0:0:0:0:
128,248,94586,6,0,L|260:232,1,116.999994644165,8|2,0:0|0:0,0:0:0:0:
336,84,94886,1,8,0:0:0:0:
336,84,95036,1,2,0:0:0:0:
448,220,95186,2,0,P|456:288|440:340,1,116.999994644165,8|2,0:0|0:0,0:0:0:0:
240,164,95486,6,0,P|232:224|248:284,1,116.999994644165,8|2,0:0|0:0,0:0:0:0:
368,64,95786,1,8,0:0:0:0:
368,64,95936,2,0,L|248:56,1,116.999994644165,2|8,0:0|0:0,0:0:0:0:
72,112,96236,5,2,0:0:0:0:
276,80,96386,1,8,0:0:0:0:
64,144,96536,6,0,B|62:176|71:203|71:203|58:222|58:222|68:249|67:286,1,144,6|2,0:0|0:0,0:0:0:0:
40,156,96986,6,0,L|36:280,1,116.999994644165,8|2,0:0|0:0,0:0:0:0:
252,72,97286,2,0,P|188:48|124:48,1,116.999994644165,8|2,0:0|0:0,0:0:0:0:
200,248,97586,2,0,P|258:243|312:221,1,116.999994644165,8|2,0:0|0:0,0:0:0:0:
392,152,97886,5,8,0:0:0:0:
368,48,98036,1,2,0:0:0:0:
248,160,98186,2,0,L|264:40,1,116.999994644165,8|2,0:0|0:0,0:0:0:0:
456,188,98486,5,8,0:0:0:0:
240,192,98636,1,2,0:0:0:0:
452,160,98786,1,8,0:0:0:0:
232,220,98936,6,0,B|228:260|236:280|236:280|220:304|220:304|236:324|228:372,1,144,6|2,0:0|0:0,0:0:0:0:
356,216,99386,6,0,P|272:184|128:176,1,233.999989288331,8|2,0:0|0:0,0:0:0:0:
40,236,99836,2,0,L|32:104,1,116.999994644165,2|8,0:0|0:0,0:0:0:0:
224,200,100136,6,0,B|264:198|282:187|282:187|308:200|308:200|326:181|375:182,1,144,2|2,0:0|0:0,0:0:0:0:
224,200,100586,6,0,P|288:192|352:32,1,233.999989288331,8|2,0:0|0:0,0:0:0:0:
252,52,101036,2,0,L|116:32,1,116.999994644165,2|8,0:0|0:0,0:0:0:0:
72,148,101336,6,0,B|76:188|68:208|68:208|84:232|84:232|68:252|76:300,1,144,6|2,0:0|0:0,0:0:0:0:
236,316,101786,5,8,0:0:0:0:
236,316,101936,1,2,0:0:0:0:
352,208,102086,5,8,0:0:0:0:
352,208,102236,1,2,0:0:0:0:
408,356,102386,5,8,0:0:0:0:
408,356,102536,1,2,0:0:0:0:
340,200,102686,6,0,L|344:324,1,116.999994644165,8|2,0:0|0:0,0:0:0:0:
264,112,102986,2,0,P|332:88|388:92,1,116.999994644165,8|2,0:0|0:0,0:0:0:0:
224,220,103286,5,2,0:0:0:0:
64,192,103436,1,2,0:0:0:0:
184,92,103586,1,2,0:0:0:0:
168,312,103736,1,6,0:0:0:0:
256,192,103811,12,2,104936,0:0:0:0:
352,128,105236,5,2,0:0:0:0:
340,252,105386,2,0,L|332:348,1,72,8|2,0:0|0:0,0:0:0:0:
168,196,105686,2,0,L|260:184,2,72,8|2|8,0:0|0:0|0:0,0:0:0:0:
236,72,106136,1,6,0:0:0:0:
256,192,106211,12,2,107336,0:0:0:0:
268,308,107636,6,0,P|200:312|136:248,1,144,8|2,0:0|0:0,0:0:0:0:
224,152,108086,2,0,P|228:208|220:236,1,72,8|2,0:0|0:0,0:0:0:0:
124,104,108386,1,8,0:0:0:0:
300,72,108536,1,6,0:0:0:0:
256,192,108611,12,2,109736,0:0:0:0:
368,344,110036,6,0,L|376:188,1,144,8|2,0:0|0:0,0:0:0:0:
344,120,110486,1,8,0:0:0:0:
188,52,110636,1,2,0:0:0:0:
300,40,110786,1,8,0:0:0:0:
172,144,110936,6,0,P|112:136|84:112,1,90,6|2,0:0|0:0,0:0:0:0:
276,224,111386,6,0,P|284:272|272:324,1,90,8|2,0:0|0:0,0:0:0:0:
400,136,111686,2,0,P|432:176|448:224,2,90,8|2|8,0:0|0:0|0:0,0:0:0:0:
268,52,112136,1,6,0:0:0:0:
268,80,112211,1,0,0:0:0:0:
268,104,112286,6,0,L|260:152,3,45,6|0|2|0,0:0|0:0|0:0|0:0,0:0:0:0:
248,192,112586,1,12,0:0:0:0:
224,204,112661,1,0,0:0:0:0:
196,208,112736,1,6,0:0:0:0:
168,204,112811,1,0,0:0:0:0:
144,192,112886,5,8,0:0:0:0:
376,220,113036,1,10,0:0:0:0:
144,192,113336,6,0,L|384:220,1,225,6|2,0:0|0:0,0:0:0:0:
424,320,113786,1,12,0:0:0:0:
392,332,113861,1,0,0:0:0:0:
360,332,113936,1,0,0:0:0:0:
328,320,114011,1,0,0:0:0:0:
300,300,114086,2,0,L|304:240,3,56.25,6|0|2|0,0:0|0:0|0:0|0:0,0:0:0:0:
374,177,114386,2,0,P|392:204|410:249,1,56.25,12|0,0:0|0:0,0:0:0:0:
296,152,114536,2,0,P|304:128|336:84,1,56.25
232,208,114686,6,0,P|172:208|124:172,1,112.5,6|2,0:0|0:0,0:0:0:0:
48,92,114986,2,0,L|36:328,1,225,8|2,0:0|0:0,0:0:0:0:
172,272,115436,2,0,P|172:220|160:152,1,112.5,6|8,0:0|0:0,0:0:0:0:
280,348,115736,6,0,P|364:332|400:192,1,225,6|6,0:0|0:0,0:0:0:0:
356,84,116186,1,12,0:0:0:0:
264,180,116336,1,4,0:0:0:0:
428,204,116486,1,2,0:0:0:0:
352,60,116636,1,6,0:0:0:0:
248,184,116786,1,8,0:0:0:0:
440,216,116936,6,0,L|448:96,1,112.5,4|2,0:0|0:0,0:0:0:0:
216,60,117236,2,0,L|224:180,1,112.5,6|8,0:0|0:0,0:0:0:0:
72,272,117536,1,0,0:0:0:0:
184,280,117686,1,2,0:0:0:0:
68,284,117836,1,2,0:0:0:0:
184,272,117986,2,0,L|312:260,1,112.5,12|2,0:0|0:0,0:0:0:0:
372,68,118286,6,0,L|380:192,1,112.5,6|4,0:0|0:0,0:0:0:0:
408,288,118586,1,12,0:0:0:0:
408,288,118736,1,6,0:0:0:0:
220,192,118886,2,0,L|224:76,2,112.5,2|4|8,0:0|0:0|0:0,0:0:0:0:
148,280,119336,6,0,P|264:296|332:188,1,225,6|2,0:0|0:0,0:0:0:0:
444,264,119786,1,12,0:0:0:0:
444,264,119936,1,4,0:0:0:0:
432,152,120086,2,0,L|440:36,2,112.5,2|6|8,0:0|0:0|0:0,0:0:0:0:
280,348,120536,6,0,P|164:356|100:260,1,225,6|2,0:0|0:0,0:0:0:0:
108,152,120986,1,12,0:0:0:0:
108,152,121136,1,6,0:0:0:0:
228,188,121286,2,0,L|240:76,1,112.5,8|4,0:0|0:0,0:0:0:0:
304,276,121586,1,8,0:0:0:0:
304,276,121736,6,0,P|364:268|412:232,1,112.5,6|8,0:0|0:0,0:0:0:0:
136,200,122036,2,0,L|132:324,1,112.5,6|8,0:0|0:0,0:0:0:0:
248,352,122336,5,6,0:0:0:0:
364,208,122486,1,10,0:0:0:0:
364,208,122636,1,8,0:0:0:0:
248,236,122786,1,8,0:0:0:0:
432,316,122936,6,0,P|424:288|424:260,1,56.25,2|0,0:0|0:0,0:0:0:0:
476,208,123086,2,0,P|479:182|476:148,1,56.25,6|0,0:0|0:0,0:0:0:0:
464,72,123236,1,2,0:0:0:0:
428,88,123311,1,0,0:0:0:0:
392,104,123386,2,0,L|336:96,3,56.25,12|0|2|0,0:0|0:0|0:0|0:0,0:0:0:0:
288,160,123686,5,12,0:0:0:0:
248,168,123761,1,0,0:0:0:0:
212,156,123836,1,2,0:0:0:0:
188,128,123911,1,0,0:0:0:0:
176,92,123986,2,0,L|180:32,3,56.25,12|0|2|0,0:0|0:0|0:0|0:0,0:0:0:0:
96,108,124286,6,0,P|68:96|40:72,3,56.25,12|0|2|0,0:0|0:0|0:0|0:0,0:0:0:0:
148,180,124586,2,0,P|124:208|92:224,3,56.25,12|0|2|0,0:0|0:0|0:0|0:0,0:0:0:0:
224,216,124886,2,0,P|224:244|240:280,3,56.25,6|0|2|0,0:0|0:0|0:0|0:0,0:0:0:0:
216,132,125186,5,6,0:0:0:0:
240,136,125261,1,0,0:0:0:0:
264,136,125336,1,6,0:0:0:0:
284,128,125411,1,0,0:0:0:0:
304,116,125486,1,4,0:0:0:0:
320,100,125561,1,0,0:0:0:0:
328,80,125636,5,2,0:0:0:0:
340,100,125711,1,0,0:0:0:0:
360,112,125786,1,12,0:0:0:0:
384,116,125861,1,0,0:0:0:0:
408,112,125936,2,0,L|416:184,1,56.25,2|0,0:0|0:0,0:0:0:0:
392,248,126086,2,0,P|424:248|460:236,1,56.25,12|0,0:0|0:0,0:0:0:0:
336,192,126236,2,0,P|304:192|268:204,1,56.25,2|0,0:0|0:0,0:0:0:0:
316,268,126386,2,0,L|312:348,5,56.25,12|0|2|0|12|0,0:0|0:0|0:0|0:0|0:0|0:0,0:0:0:0:
308,356,126836,6,0,L|192:344,2,112.5,2|12|2,0:0|0:0|0:0,0:0:0:0:
56,176,127286,2,0,L|180:160,2,112.5,2|2|2,0:0|0:0|0:0,0:0:0:0:
200,256,127736,6,0,P|304:212|300:96,1,225,6|2,0:0|0:0,0:0:0:0:
64,72,128186,2,0,L|56:260,1,180,8|2,0:0|0:0,0:0:0:0:
120,328,128636,1,2,0:0:0:0:
212,292,128786,1,8,0:0:0:0:
296,344,128936,6,0,L|404:332,1,90,2|4,0:0|0:0,0:0:0:0:
224,160,129236,1,2,0:0:0:0:
224,160,129386,2,0,L|313:169,1,90,12|0,0:0|0:0,0:0:0:0:
80,228,129686,1,6,0:0:0:0:
80,228,129836,2,0,L|72:116,1,90,6|8,0:0|0:0,0:0:0:0:
172,44,130136,1,6,0:0:0:0:
300,84,130286,2,0,L|292:196,1,90,4|2,0:0|0:0,0:0:0:0:
288,344,130586,6,0,P|364:340|400:304,1,112.5,8|6,0:0|0:0,0:0:0:0:
352,132,130886,1,8,0:0:0:0:
352,132,131036,2,0,P|276:136|240:172,1,112.5,6|8,0:0|0:0,0:0:0:0:
172,240,131336,1,6,0:0:0:0:
64,208,131486,2,0,L|60:72,1,112.5,8|6,0:0|0:0,0:0:0:0:
264,160,131786,2,0,L|268:24,1,112.5,12|2,0:0|0:0,0:0:0:0:
260,252,132086,5,6,0:0:0:0:
384,96,132236,1,2,0:0:0:0:
180,152,132386,1,2,0:0:0:0:
372,228,132536,1,6,0:0:0:0:
324,116,134486,5,8,0:0:0:0:
308,240,134636,1,8,0:0:0:0:
328,96,134786,1,8,0:0:0:0:
308,256,134936,6,0,P|232:304|108:208,1,251.999992309571,6|2,0:0|0:0,0:0:0:0:
104,112,135386,1,8,0:0:0:0:
188,40,135536,1,0,0:0:0:0:
216,148,135686,2,0,P|284:136|320:80,1,112.5,2|2,0:0|0:0,0:0:0:0:
104,112,135986,2,0,L|96:248,1,112.5,8|0,0:0|0:0,0:0:0:0:
276,232,136286,2,0,L|284:364,1,112.5,2|2,0:0|0:0,0:0:0:0:
188,184,136586,1,8,0:0:0:0:
188,184,136736,2,0,P|240:144|300:144,1,112.5,0|2,0:0|0:0,0:0:0:0:
392,176,137036,1,2,0:0:0:0:
392,176,137186,1,8,0:0:0:0:
168,276,137336,6,0,P|112:232|140:92,1,225,4|2,0:0|0:0,0:0:0:0:
328,156,137786,2,0,L|316:28,1,112.5,8|0,0:0|0:0,0:0:0:0:
264,284,138086,2,0,P|316:312|392:300,1,112.5,2|2,0:0|0:0,0:0:0:0:
212,112,138386,2,0,P|156:111|107:138,1,112.5,8|0,0:0|0:0,0:0:0:0:
60,256,138686,1,2,0:0:0:0:
100,360,138836,1,2,0:0:0:0:
212,344,138986,1,8,0:0:0:0:
212,344,139136,2,0,L|204:216,1,112.5,0|2,0:0|0:0,0:0:0:0:
192,120,139436,1,2,0:0:0:0:
296,172,139586,1,8,0:0:0:0:
76,116,139736,6,0,P|156:28|288:56,1,243.000000926971,6|2,0:0|0:0,0:0:0:0:
428,208,140186,2,0,P|359:283|245:259,1,225,8|2,0:0|0:0,0:0:0:0:
176,176,140636,1,2,0:0:0:0:
176,176,140786,1,8,0:0:0:0:
344,80,140936,6,0,P|396:196|340:304,1,243.000000926971,6|2,0:0|0:0,0:0:0:0:
164,352,141386,2,0,P|118:250|167:155,1,225,8|2,0:0|0:0,0:0:0:0:
260,92,141836,1,2,0:0:0:0:
284,200,141986,1,8,0:0:0:0:
80,52,142136,6,0,L|336:36,1,243.000000926971,6|2,0:0|0:0,0:0:0:0:
436,172,142586,2,0,P|472:128|508:40,1,121.500000463486,8|2,0:0|0:0,0:0:0:0:
264,200,142886,2,0,P|288:260|322:306,1,121.500000463486,8|2,0:0|0:0,0:0:0:0:
344,112,143186,1,8,0:0:0:0:
232,64,143336,1,2,0:0:0:0:
136,136,143486,6,0,P|128:208|144:268,1,121.500000463486,8|2,0:0|0:0,0:0:0:0:
376,248,143786,2,0,P|384:176|368:116,1,121.500000463486,8|2,0:0|0:0,0:0:0:0:
256,96,144086,1,8,0:0:0:0:
224,308,144236,1,2,0:0:0:0:
368,152,144386,1,8,0:0:0:0:
144,204,144536,6,0,B|184:184|212:196|212:196|228:172|228:172|264:180|304:164,1,161.999995056153,6|2,0:0|0:0,0:0:0:0:
289,168,144986,6,0,P|280:240|300:308,1,125.999996154785,8|2,0:0|0:0,0:0:0:0:
464,204,145286,2,0,P|473:132|453:64,1,125.999996154785,8|2,0:0|0:0,0:0:0:0:
344,28,145586,1,8,0:0:0:0:
232,84,145736,1,2,0:0:0:0:
116,36,145886,2,0,L|104:180,1,125.999996154785,8|2,0:0|0:0,0:0:0:0:
348,232,146186,2,0,L|360:88,1,125.999996154785,8|2,0:0|0:0,0:0:0:0:
232,84,146486,5,8,0:0:0:0:
212,224,146636,1,2,0:0:0:0:
358,106,146786,1,8,0:0:0:0:
128,52,146936,6,0,B|132:100|112:124|112:124|124:140|124:140|108:164|112:216,1,161.999995056153,6|2,0:0|0:0,0:0:0:0:
127,51,147386,6,0,P|192:32|260:40,1,125.999996154785,8|2,0:0|0:0,0:0:0:0:
400,140,147686,2,0,P|335:159|267:151,1,125.999996154785,8|2,0:0|0:0,0:0:0:0:
152,176,147986,1,8,0:0:0:0:
140,300,148136,1,2,0:0:0:0:
256,352,148286,2,0,P|320:348|400:336,1,125.999996154785,8|2,0:0|0:0,0:0:0:0:
316,116,148586,2,0,L|308:248,1,125.999996154785,8|2,0:0|0:0,0:0:0:0:
196,304,148886,5,8,0:0:0:0:
88,196,149036,1,2,0:0:0:0:
192,80,149186,1,8,0:0:0:0:
76,196,149336,6,0,B|125:211|150:192|150:192|168:205|168:205|199:195|241:209,1,161.999995056153,6|2,0:0|0:0,0:0:0:0:
236,200,149786,6,0,P|342:238|426:166,1,233.999989288331,8|2,0:0|0:0,0:0:0:0:
328,64,150236,1,2,0:0:0:0:
328,64,150386,1,8,0:0:0:0:
236,176,150536,6,0,B|236:220|220:244|220:244|240:260|240:260|224:284|228:340,1,161.999995056153,6|2,0:0|0:0,0:0:0:0:
344,144,150986,6,0,P|284:80|144:120,1,233.999989288331,8|2,0:0|0:0,0:0:0:0:
100,212,151436,1,2,0:0:0:0:
100,212,151586,1,8,0:0:0:0:
240,192,151736,6,0,B|240:236|256:260|256:260|236:276|236:276|252:300|248:356,1,161.999995056153,6|2,0:0|0:0,0:0:0:0:
352,184,152186,6,0,P|332:116|276:68,1,116.999994644165,8|2,0:0|0:0,0:0:0:0:
112,60,152486,2,0,L|116:192,1,116.999994644165,8|2,0:0|0:0,0:0:0:0:
208,304,152786,5,8,0:0:0:0:
208,304,152936,1,2,0:0:0:0:
240,136,153086,5,8,0:0:0:0:
240,136,153236,1,2,0:0:0:0:
380,232,153386,2,0,P|445:227|488:184,1,116.999994644165,8|2,0:0|0:0,0:0:0:0:
240,136,153686,5,2,0:0:0:0:
212,308,153836,1,2,0:0:0:0:
380,232,153986,1,2,0:0:0:0:
124,216,154136,6,0,L|312:228,1,180,6|8,0:0|0:0,0:0:0:0:
412,248,154586,2,0,P|416:188|400:148,1,90,2|0,0:0|0:0,0:0:0:0:
320,116,154886,2,0,P|392:64|480:96,1,180,8|2,0:0|0:0,0:0:0:0:
312,212,155336,2,0,P|228:236|158:184,1,180,2|8,0:0|0:0,0:0:0:0:
60,160,155786,2,0,L|48:264,1,90,2|2,0:0|0:0,0:0:0:0:
128,88,156086,6,0,L|332:72,1,180,8|2,0:0|0:0,0:0:0:0:
240,208,156536,2,0,P|324:172|432:184,1,180,2|8,0:0|0:0,0:0:0:0:
188,280,156986,2,0,P|140:256|120:224,1,90,2|2,0:0|0:0,0:0:0:0:
272,316,157286,2,0,L|284:116,1,180,8|2,0:0|0:0,0:0:0:0:
196,72,157736,2,0,P|256:40|372:72,1,180,2|8,0:0|0:0,0:0:0:0:
144,148,158186,2,0,P|88:120|64:88,1,90,2|2,0:0|0:0,0:0:0:0:
248,160,158486,5,8,0:0:0:0:
260,356,158636,1,8,0:0:0:0:
152,264,158786,1,2,0:0:0:0:
388,248,158936,1,6,0:0:0:0:
256,192,159011,12,0,160286,0:0:0:0:
