osu file format v14

[General]
AudioFilename: 08 - Moon Light Wave.mp3
AudioLeadIn: 0
PreviewTime: 45694
Countdown: 0
SampleSet: Soft
StackLeniency: 0.7
Mode: 0
LetterboxInBreaks: 1
WidescreenStoryboard: 0

[Editor]
Bookmarks: 28744
DistanceSpacing: 0.8
BeatDivisor: 4
GridSize: 4
TimelineZoom: 3.499999

[Metadata]
Title:MOON LIGHT WAVE
TitleUnicode:MOON LIGHT WAVE
Artist:BLOOD STAIN CHILD
ArtistUnicode:BLOOD STAIN CHILD
Creator:Silleth
Version:Extra
Source:
Tags:snepif winber1 Ettore Rigotti epsilon sophia melodic alternative metal everything will fade away moonlight
BeatmapID:1041934
BeatmapSetID:296543

[Difficulty]
HPDrainRate:6
CircleSize:4
OverallDifficulty:8
ApproachRate:9.3
SliderMultiplier:1.9
SliderTickRate:1

[Events]
//Background and Video events
0,0,"BG.png",0,0
//Break Periods
//Storyboard Layer 0 (Background)
//Storyboard Layer 1 (Fail)
//Storyboard Layer 2 (Pass)
//Storyboard Layer 3 (Foreground)
//Storyboard Sound Samples

[TimingPoints]
686,300,4,2,2,80,1,0
4286,-71.4285714285714,4,2,2,80,0,0
5336,-90.9090909090909,4,2,1,80,0,0
7736,-90.9090909090909,4,2,2,80,0,0
8036,-90.9090909090909,4,2,1,80,0,0
14486,-90.9090909090909,4,2,2,80,0,0
15011,-90.9090909090909,4,2,1,80,0,0
16136,-100,4,2,3,80,0,0
17336,-133.333333333333,4,2,1,65,0,0
17636,-133.333333333333,4,2,1,70,0,0
23486,-86.9565217391306,4,2,1,70,0,0
24086,-105.263157894737,4,2,1,70,0,0
24536,-83.3333333333333,4,2,2,80,0,0
24836,-83.3333333333333,4,2,1,80,0,0
24986,-100,4,2,1,80,0,0
26936,-100,4,2,2,80,0,0
27236,-100,4,2,1,80,0,0
31436,-100,4,2,2,65,0,0
31586,-100,4,2,1,80,0,0
34136,-83.3333333333333,4,2,2,80,0,0
34436,-76.9230769230769,4,2,1,80,0,0
36536,-125,4,2,2,80,0,0
36836,-125,4,2,1,80,0,0
46136,-76.9230769230769,4,2,2,80,0,1
46436,-86.9565217391304,4,2,1,80,0,1
48536,-76.9230769230769,4,2,2,80,0,1
48836,-76.9230769230769,4,2,1,80,0,1
48986,-86.9565217391304,4,2,1,80,0,1
50786,-117.647058823529,4,2,1,80,0,1
50936,-76.9230769230769,4,2,2,80,0,1
51236,-86.9565217391304,4,2,1,80,0,1
51986,-117.647058823529,4,2,1,80,0,1
52136,-76.9230769230769,4,2,2,80,0,1
52436,-86.9565217391304,4,2,1,80,0,1
53336,-76.9230769230769,4,2,2,80,0,1
53636,-76.9230769230769,4,2,1,80,0,1
55286,-76.9230769230769,4,2,3,80,0,1
55736,-100,4,2,2,80,0,0
56036,-125,4,2,1,70,0,0
61886,-83.3333333333333,4,2,1,80,0,0
62486,-90.9090909090909,4,2,1,80,0,0
62936,-76.9230769230769,4,2,2,80,0,0
63236,-76.9230769230769,4,2,1,80,0,0
63386,-83.3333333333333,4,2,1,80,0,0
64136,-76.9230769230769,4,2,2,80,0,0
64436,-83.3333333333333,4,2,1,80,0,0
65336,-100,4,2,2,80,0,0
65636,-100,4,2,1,80,0,0
72536,-83.3333333333333,4,2,2,80,0,0
72836,-83.3333333333333,4,2,1,80,0,0
74636,-83.3333333333333,4,2,2,80,0,0
74936,-111.111111111111,4,2,2,80,0,0
75236,-111.111111111111,4,2,1,80,0,0
79736,-111.111111111111,4,2,2,80,0,0
80036,-111.111111111111,4,2,1,80,0,0
83336,-90.9090909090908,4,2,1,80,0,0
84536,-76.9230769230769,4,2,2,80,0,1
84836,-86.9565217391304,4,2,1,80,0,1
86936,-76.9230769230769,4,2,2,80,0,1
87236,-86.9565217391304,4,2,1,80,0,1
89186,-117.647058823529,4,2,1,80,0,1
89336,-76.9230769230769,4,2,2,80,0,1
89636,-86.9565217391304,4,2,1,80,0,1
90386,-117.647058823529,4,2,1,80,0,1
90536,-76.9230769230769,4,2,2,80,0,1
90836,-86.9565217391304,4,2,1,80,0,1
91736,-76.9230769230769,4,2,2,80,0,1
92036,-76.9230769230769,4,2,1,80,0,1
93686,-76.9230769230769,4,2,3,80,0,1
94136,-142.857142857143,4,2,2,80,0,1
94436,-76.9230769230769,4,2,1,80,0,1
96086,-76.9230769230769,4,2,3,80,0,1
96536,-125,4,2,2,80,0,1
96836,-76.9230769230769,4,2,1,80,0,1
98486,-76.9230769230769,4,2,3,80,0,1
98936,-125,4,2,2,80,0,1
99236,-76.9230769230769,4,2,1,80,0,1
100136,-125,4,2,2,80,0,1
100436,-76.9230769230769,4,2,1,80,0,1
101336,-125,4,2,2,80,0,1
101636,-76.9230769230769,4,2,1,80,0,1
103286,-76.9230769230769,4,2,2,80,0,1
103736,-125,4,2,2,80,0,0
110936,-200,4,2,2,80,0,0
111236,-100,4,2,1,80,0,0
113336,-80,4,2,2,80,0,1
113636,-80,4,2,1,80,0,1
118286,-80,4,2,2,80,0,1
118436,-80,4,2,1,80,0,1
119336,-80,4,2,2,80,0,1
119636,-80,4,2,1,80,0,1
120536,-80,4,2,2,80,0,1
120836,-80,4,2,1,80,0,1
122486,-80,4,2,3,80,0,1
123086,-80,4,2,1,80,0,1
125336,-80,4,2,2,80,0,1
125411,-80,4,2,1,80,0,1
127286,-80,4,2,2,80,0,1
128036,-80,4,2,1,80,0,1
128186,-100,4,2,1,80,0,1
130586,-80,4,2,1,80,0,1
132536,-200,4,2,2,80,0,0
132986,-100,4,2,2,80,0,0
134486,-100,4,2,2,70,0,0
134936,-71.4285714285714,4,2,2,80,0,1
135236,-80,4,2,1,80,0,1
137336,-80,4,2,2,80,0,1
137636,-80,4,2,1,80,0,1
139586,-117.647058823529,4,2,1,80,0,1
139736,-74.0740740740741,4,2,2,80,0,1
140036,-80,4,2,1,80,0,1
140786,-117.647058823529,4,2,1,80,0,1
140936,-74.0740740740741,4,2,2,80,0,1
141236,-80,4,2,1,80,0,1
142136,-74.0740740740741,4,2,2,80,0,1
142436,-74.0740740740741,4,2,1,80,0,1
144086,-74.0740740740741,4,2,3,80,0,1
144536,-111.111111111111,4,2,2,80,0,1
144836,-71.4285714285714,4,2,1,80,0,1
146486,-71.4285714285714,4,2,3,80,0,1
146936,-111.111111111111,4,2,2,80,0,1
147236,-71.4285714285714,4,2,1,80,0,1
148886,-71.4285714285714,4,2,3,80,0,1
149336,-111.111111111111,4,2,2,80,0,1
149636,-76.9230769230769,4,2,1,80,0,1
150536,-111.111111111111,4,2,2,80,0,1
150836,-111.111111111111,4,2,1,80,0,1
150986,-76.9230769230769,4,2,1,80,0,1
151736,-111.111111111111,4,2,2,80,0,1
152186,-76.9230769230769,4,2,1,80,0,1
153686,-76.9230769230769,4,2,2,80,0,1
154136,-100,4,2,2,80,0,0
154436,-100,4,2,1,80,0,0
158936,-100,4,2,2,80,0,0
160286,-100,4,2,2,25,0,0

[Colours]
Combo1 : 81,136,238
Combo2 : 243,78,123
Combo3 : 148,115,247
Combo4 : 236,119,196

[HitObjects]
412,304,536,6,0,P|368:248|240:248,1,190,2|2,0:0|0:0,0:0:0:0:
76,320,986,2,0,L|68:116,1,190,8|2,0:0|0:0,0:0:0:0:
204,44,1436,1,2,0:0:0:0:
352,108,1586,1,8,0:0:0:0:
220,204,1736,2,0,P|220:264|332:340,1,190,0|2,0:0|0:0,0:0:0:0:
376,120,2186,2,0,L|368:232,1,95,8|0,0:0|0:0,0:0:0:0:
260,92,2486,1,2,0:0:0:0:
492,116,2636,1,2,0:0:0:0:
260,92,2786,1,8,0:0:0:0:
260,92,2936,6,0,P|176:100|104:216,1,190,6|2,0:0|0:0,0:0:0:0:
224,360,3386,2,0,L|212:244,1,95,8|0,0:0|0:0,0:0:0:0:
202,85,3686,5,2,0:0:0:0:
414,175,3836,1,2,0:0:0:0:
272,207,3986,1,8,0:0:0:0:
430,42,4136,1,2,0:0:0:0:
209,160,4286,5,8,0:0:0:0:
406,313,4436,2,0,B|359:317|320:305|320:305|304:325|304:325|264:313|202:313,1,199.499993911743,2|0,0:0|0:0,0:0:0:0:
172,232,4736,6,0,B|220:236|260:224|260:224|276:244|276:244|312:216|376:244,1,199.499993911743,2|0,0:0|0:0,0:0:0:0:
404,144,5036,6,0,B|356:148|316:136|316:136|300:156|300:156|264:128|200:156,1,199.499993911743,2|0,0:0|0:0,0:0:0:0:
218,148,5336,6,0,P|108:132|96:24,1,209.000006378174,4|0,1:0|0:0,0:0:0:0:
344,48,5786,1,8,0:0:0:0:
412,152,5936,1,0,0:0:0:0:
316,236,6086,2,0,L|328:352,1,104.500003189087,2|2,0:0|0:0,0:0:0:0:
204,176,6386,1,8,0:0:0:0:
412,152,6536,1,0,0:0:0:0:
204,176,6686,6,0,P|156:180|96:192,1,104.500003189087,2|2,0:0|0:0,0:0:0:0:
32,272,6986,1,8,0:0:0:0:
200,356,7136,2,0,P|248:352|308:340,1,104.500003189087,0|2,0:0|0:0,0:0:0:0:
396,176,7436,1,2,0:0:0:0:
408,336,7586,1,8,0:0:0:0:
260,252,7736,6,0,P|228:200|276:60,1,209.000006378174,6|2,0:0|0:0,0:0:0:0:
472,140,8186,2,0,L|460:256,1,104.500003189087,8|0,0:0|0:0,0:0:0:0:
284,352,8486,1,2,0:0:0:0:
264,164,8636,1,2,0:0:0:0:
376,240,8786,1,8,0:0:0:0:
204,272,8936,1,0,0:0:0:0:
48,216,9086,6,0,L|54:111,1,104.500003189087,2|2,0:0|0:0,0:0:0:0:
100,332,9386,1,8,0:0:0:0:
144,76,9536,2,0,P|204:56|256:72,1,104.500003189087,0|2,0:0|0:0,0:0:0:0:
312,256,9836,1,2,0:0:0:0:
204,172,9986,1,8,0:0:0:0:
428,140,10136,6,0,L|412:356,1,209.000006378174,2|2,0:0|0:0,0:0:0:0:
152,284,10586,2,0,L|260:300,1,104.500003189087,8|0,0:0|0:0,0:0:0:0:
292,120,10886,2,0,P|240:132|184:136,1,104.500003189087,2|2,0:0|0:0,0:0:0:0:
64,144,11186,1,8,0:0:0:0:
344,232,11336,6,0,P|408:172|388:48,1,209.000006378174,2|2,0:0|0:0,0:0:0:0:
144,76,11786,2,0,L|164:188,1,104.500003189087,8|0,0:0|0:0,0:0:0:0:
196,300,12086,1,2,0:0:0:0:
280,148,12236,1,2,0:0:0:0:
56,208,12386,1,8,0:0:0:0:
280,148,12536,6,0,P|392:184|476:92,1,209.000006378174,2|2,0:0|0:0,0:0:0:0:
152,64,12986,5,8,0:0:0:0:
136,252,13136,1,0,0:0:0:0:
280,148,13286,5,8,0:0:0:0:
48,144,13436,1,2,0:0:0:0:
204,288,13586,5,8,0:0:0:0:
216,64,13736,1,2,0:0:0:0:
108,208,13886,5,8,0:0:0:0:
328,216,14036,1,2,0:0:0:0:
232,60,14186,2,0,L|224:180,1,104.500003189087,8|2,0:0|0:0,0:0:0:0:
332,120,14486,5,2,0:0:0:0:
120,120,14636,1,2,0:0:0:0:
352,92,14786,1,2,0:0:0:0:
108,144,14936,1,2,0:0:0:0:
256,192,15011,12,2,16136,0:0:0:0:
396,332,16436,5,2,0:0:0:0:
288,292,16586,2,0,L|292:184,1,95,8|2,0:0|0:0,0:0:0:0:
200,80,16886,1,10,0:0:0:0:
392,80,17036,1,2,0:0:0:0:
208,192,17186,1,8,0:0:0:0:
376,200,17336,6,0,P|436:196|488:104,1,142.500005435944,4|2,1:0|0:0,0:0:0:0:
264,32,17786,2,0,L|272:120,1,71.2500027179719,8|0,0:0|0:0,0:0:0:0:
256,284,18086,1,2,0:0:0:0:
176,240,18236,2,0,P|124:228|80:232,1,71.2500027179719,2|8,0:0|0:0,0:0:0:0:
340,276,18536,2,0,P|384:260|416:216,1,71.2500027179719,0|0,0:0|0:0,0:0:0:0:
396,48,18836,1,2,0:0:0:0:
316,96,18986,2,0,L|308:172,1,71.2500027179719,8|0,0:0|0:0,0:0:0:0:
280,320,19286,1,2,0:0:0:0:
184,344,19436,1,2,0:0:0:0:
56,236,19586,1,8,0:0:0:0:
156,240,19736,6,0,P|192:204|192:104,1,142.500005435944,2|2,0:0|0:0,0:0:0:0:
44,40,20186,2,0,L|124:32,1,71.2500027179719,8|0,0:0|0:0,0:0:0:0:
296,144,20486,1,2,0:0:0:0:
240,228,20636,2,0,L|160:224,1,71.2500027179719,2|8,0:0|0:0,0:0:0:0:
276,48,20936,2,0,L|347:51,1,71.2500027179719,0|2,0:0|0:0,0:0:0:0:
432,172,21236,1,2,0:0:0:0:
360,240,21386,2,0,P|360:296|376:332,1,71.2500027179719,8|0,0:0|0:0,0:0:0:0:
288,172,21686,5,2,0:0:0:0:
96,96,21836,1,4,0:0:0:0:
260,40,21986,1,2,0:0:0:0:
156,208,22136,6,0,P|148:292|180:348,1,142.500005435944,4|2,0:0|0:0,0:0:0:0:
420,344,22586,2,0,P|432:308|436:256,1,71.2500027179719,8|0,0:0|0:0,0:0:0:0:
288,48,22886,2,0,P|296:96|320:136,1,71.2500027179719,2|2,0:0|0:0,0:0:0:0:
380,184,23186,1,8,0:0:0:0:
408,88,23336,1,0,0:0:0:0:
336,276,23486,6,0,P|232:304|108:144,1,327.750006251335,4|2,0:0|0:0,0:0:0:0:
240,84,24086,6,0,L|256:176,1,90.2499975900651,8|2,0:0|0:0,0:0:0:0:
416,316,24386,1,8,0:0:0:0:
416,316,24536,6,0,L|432:80,1,227.999993041992,6|2,0:0|0:0,0:0:0:0:
180,40,24986,2,0,L|292:28,1,95,8|0,0:0|0:0,0:0:0:0:
172,216,25286,1,2,0:0:0:0:
68,112,25436,1,2,0:0:0:0:
252,160,25586,1,8,0:0:0:0:
116,312,25736,6,0,P|256:308|292:252,1,190,2|2,0:0|0:0,0:0:0:0:
432,112,26186,2,0,L|444:220,1,95,8|2,0:0|0:0,0:0:0:0:
228,264,26486,1,8,0:0:0:0:
360,252,26636,1,2,0:0:0:0:
304,356,26786,1,8,0:0:0:0:
360,252,26936,6,0,P|324:176|224:148,1,190,6|2,0:0|0:0,0:0:0:0:
60,204,27386,2,0,L|52:92,1,95,8|0,0:0|0:0,0:0:0:0:
272,36,27686,2,0,L|268:144,1,95,2|2,0:0|0:0,0:0:0:0:
268,312,27986,1,8,0:0:0:0:
156,340,28136,2,0,P|108:308|96:252,1,95,0|2,0:0|0:0,0:0:0:0:
208,48,28436,2,0,P|208:100|176:144,1,95,2|8,0:0|0:0,0:0:0:0:
76,164,28736,1,0,0:0:0:0:
288,264,28886,2,0,L|304:152,1,95,2|2,0:0|0:0,0:0:0:0:
360,72,29186,1,8,0:0:0:0:
392,320,29336,6,0,P|332:360|220:336,1,190,2|2,0:0|0:0,0:0:0:0:
72,164,29786,2,0,L|68:272,1,95,8|0,0:0|0:0,0:0:0:0:
216,88,30086,2,0,P|180:40|144:24,1,95,2|2,0:0|0:0,0:0:0:0:
248,236,30386,1,8,0:0:0:0:
356,200,30536,2,0,P|400:168|416:120,1,95,0|2,0:0|0:0,0:0:0:0:
124,160,30836,2,0,L|136:260,1,95,2|8,0:0|0:0,0:0:0:0:
240,332,31136,1,0,0:0:0:0:
368,196,31286,5,2,0:0:0:0:
232,184,31436,1,2,2:0:0:0:
372,296,31586,1,8,0:0:0:0:
472,156,31736,6,0,P|472:104|368:16,1,190,2|2,0:0|0:0,0:0:0:0:
180,84,32186,2,0,L|192:196,1,95,8|0,0:0|0:0,0:0:0:0:
212,332,32486,1,2,0:0:0:0:
88,240,32636,1,2,0:0:0:0:
304,216,32786,2,0,P|356:236|388:268,1,95,8|0,0:0|0:0,0:0:0:0:
272,68,33086,2,0,P|328:44|368:44,1,95,2|2,0:0|0:0,0:0:0:0:
128,108,33386,2,0,P|80:72|64:32,1,95,8|0,0:0|0:0,0:0:0:0:
208,248,33686,5,2,0:0:0:0:
400,288,33836,1,2,0:0:0:0:
208,344,33986,1,8,0:0:0:0:
360,200,34136,6,0,P|344:88|228:60,1,227.999993041992,6|2,0:0|0:0,0:0:0:0:
104,128,34586,1,8,0:0:0:0:
72,288,34736,1,2,0:0:0:0:
256,256,34886,1,8,0:0:0:0:
40,192,35036,1,2,0:0:0:0:
280,148,35186,1,8,0:0:0:0:
168,112,35336,6,0,L|156:360,1,246.999988693238,2|2,0:0|0:0,0:0:0:0:
324,344,35786,1,8,0:0:0:0:
424,268,35936,1,2,0:0:0:0:
260,220,36086,1,8,0:0:0:0:
260,220,36161,1,0,0:0:0:0:
260,220,36236,1,2,0:0:0:0:
352,112,36386,1,2,0:0:0:0:
324,344,36536,6,0,P|232:348|184:300,1,152,6|8,0:0|0:0,0:0:0:0:
68,224,36986,2,0,L|56:320,1,76,2|2,0:0|0:0,0:0:0:0:
176,200,37286,2,0,P|168:148|92:76,1,152,8|2,0:0|0:0,0:0:0:0:
264,244,37736,2,0,P|312:240|428:220,1,152,2|2,0:0|0:0,0:0:0:0:
464,72,38186,2,0,P|416:76|300:96,2,152,2|8|2,0:0|0:0|0:0,0:0:0:0:
188,24,38936,6,0,P|176:112|192:192,1,152,2|2,0:0|0:0,0:0:0:0:
220,268,39386,2,0,L|304:260,1,76,2|0,0:0|0:0,0:0:0:0:
140,340,39686,2,0,P|116:260|72:196,1,152,8|2,0:0|0:0,0:0:0:0:
156,84,40136,6,0,P|196:104|316:112,1,152,2|8,0:0|0:0,0:0:0:0:
400,96,40586,1,2,0:0:0:0:
476,160,40736,1,2,0:0:0:0:
384,192,40886,5,8,0:0:0:0:
484,60,41036,1,2,0:0:0:0:
316,52,41186,1,8,0:0:0:0:
388,204,41336,6,0,L|376:364,1,152,2|8,0:0|0:0,0:0:0:0:
212,296,41786,2,0,P|196:244|196:200,1,76,2|2,0:0|0:0,0:0:0:0:
112,164,42086,2,0,P|105:252|68:316,1,152,8|2,0:0|0:0,0:0:0:0:
56,72,42536,2,0,P|136:68|204:104,1,152,2|2,0:0|0:0,0:0:0:0:
276,160,42986,2,0,P|351:165|418:132,2,152,2|8|2,0:0|0:0|0:0,0:0:0:0:
184,192,43736,6,0,P|164:276|192:344,1,152,2|8,0:0|0:0,0:0:0:0:
284,348,44186,2,0,L|368:336,1,76,2|2,0:0|0:0,0:0:0:0:
436,272,44486,1,8,0:0:0:0:
328,112,44636,1,2,0:0:0:0:
512,176,44786,1,8,0:0:0:0:
336,240,44936,5,4,2:0:0:0:
308,244,45011,1,0,0:0:0:0:
280,244,45086,1,0,2:0:0:0:
252,240,45161,1,0,0:0:0:0:
228,232,45236,1,6,0:0:0:0:
204,216,45311,1,0,0:0:0:0:
188,196,45386,2,0,L|172:248,1,38,12|0,0:0|0:0,0:0:0:0:
96,276,45536,2,0,L|93:238,1,38,6|2,0:0|0:0,0:0:0:0:
112,144,45686,5,8,0:0:0:0:
392,120,45836,1,8,0:0:0:0:
392,120,46136,6,0,P|360:64|188:68,1,246.999988693238,6|2,0:0|0:0,0:0:0:0:
156,292,46586,1,8,0:0:0:0:
80,188,46736,1,0,0:0:0:0:
208,164,46886,2,0,L|336:176,1,109.250002083778,2|2,0:0|0:0,0:0:0:0:
484,100,47186,1,8,0:0:0:0:
440,224,47336,1,0,0:0:0:0:
344,80,47486,2,0,P|292:52|228:60,1,109.250002083778,2|2,0:0|0:0,0:0:0:0:
168,244,47786,1,8,0:0:0:0:
288,272,47936,2,0,L|276:144,1,109.250002083778,0|2,0:0|0:0,0:0:0:0:
184,112,48236,1,2,0:0:0:0:
356,220,48386,1,8,0:0:0:0:
156,292,48536,6,0,P|76:252|96:92,1,246.999988693238,6|2,0:0|0:0,0:0:0:0:
248,116,48986,2,0,L|236:240,1,109.250002083778,8|0,0:0|0:0,0:0:0:0:
332,80,49286,1,2,0:0:0:0:
172,60,49436,1,2,0:0:0:0:
344,196,49586,2,0,P|412:180|440:132,1,109.250002083778,8|0,0:0|0:0,0:0:0:0:
172,60,49886,2,0,P|118:66|81:105,1,109.250002083778,2|2,0:0|0:0,0:0:0:0:
48,236,50186,1,8,0:0:0:0:
248,212,50336,2,0,L|236:336,1,109.250002083778,0|2,0:0|0:0,0:0:0:0:
344,200,50636,1,2,0:0:0:0:
200,104,50786,1,8,0:0:0:0:
360,36,50936,6,0,P|468:64|504:200,1,246.999988693238,6|0,0:0|0:0,0:0:0:0:
368,352,51386,2,0,L|360:216,1,109.250002083778,8|0,0:0|0:0,0:0:0:0:
216,112,51686,1,2,0:0:0:0:
192,268,51836,1,2,0:0:0:0:
328,156,51986,1,8,0:0:0:0:
112,128,52136,6,0,P|36:204|80:324,1,246.999988693238,6|0,0:0|0:0,0:0:0:0:
248,96,52586,2,0,P|224:36|156:16,1,109.250002083778,8|0,0:0|0:0,0:0:0:0:
272,224,52886,1,2,0:0:0:0:
444,204,53036,1,2,0:0:0:0:
344,92,53186,1,8,0:0:0:0:
356,300,53336,6,0,P|272:324|160:228,1,246.999988693238,6|2,0:0|0:0,0:0:0:0:
256,96,53786,5,8,0:0:0:0:
72,88,53936,1,2,0:0:0:0:
296,200,54086,5,8,0:0:0:0:
112,192,54236,1,2,0:0:0:0:
192,324,54386,6,0,L|200:188,1,123.499994346619,8|2,0:0|0:0,0:0:0:0:
304,88,54686,5,8,0:0:0:0:
104,252,54836,1,2,0:0:0:0:
280,264,54986,5,8,0:0:0:0:
176,116,55136,1,2,0:0:0:0:
364,188,55286,5,2,0:0:0:0:
152,224,55436,1,8,0:0:0:0:
264,312,55586,1,2,0:0:0:0:
272,52,55736,6,0,B|272:96|256:120|256:120|272:144|272:144|244:192|260:252,1,190,6|2,0:0|0:0,0:0:0:0:
336,288,56186,5,2,0:0:0:0:
432,264,56486,1,2,0:0:0:0:
476,176,56786,1,2,0:0:0:0:
432,88,57086,1,2,0:0:0:0:
340,56,57386,1,2,0:0:0:0:
248,96,57686,1,2,0:0:0:0:
232,264,57836,2,0,P|223:223|228:164,1,76,6|0,0:0|0:0,0:0:0:0:
248,96,58136,1,4,0:0:0:0:
232,264,58286,5,2,0:0:0:0:
160,332,58586,1,2,0:0:0:0:
64,312,58886,1,2,0:0:0:0:
12,228,59186,1,2,0:0:0:0:
28,132,59486,1,2,0:0:0:0:
108,76,59786,1,2,0:0:0:0:
208,84,60086,2,0,L|200:172,1,76,2|4,0:0|0:0,0:0:0:0:
192,256,60386,5,2,0:0:0:0:
440,272,60536,2,0,L|268:260,1,152,4|2,0:0|0:0,0:0:0:0:
192,256,60986,5,2,0:0:0:0:
100,220,61286,1,2,0:0:0:0:
88,120,61586,1,2,0:0:0:0:
152,48,61886,6,0,B|268:-12|268:112|376:44,1,227.999993041992,4|0,0:0|0:0,0:0:0:0:
444,275,62336,1,2,0:0:0:0:
264,146,62486,1,8,0:0:0:0:
472,149,62636,1,2,0:0:0:0:
311,276,62786,1,8,0:0:0:0:
220,80,62936,6,0,P|148:128|164:292,1,246.999988693238,6|2,0:0|0:0,0:0:0:0:
324,352,63386,2,0,L|460:340,1,113.999996520996,8|2,0:0|0:0,0:0:0:0:
277,113,63686,2,0,L|141:125,1,113.999996520996,8|2,0:0|0:0,0:0:0:0:
128,252,63986,1,8,0:0:0:0:
428,196,64136,6,0,P|440:128|308:0,1,246.999988693238,6|2,0:0|0:0,0:0:0:0:
176,52,64586,2,0,L|192:176,1,113.999996520996,8|2,0:0|0:0,0:0:0:0:
216,300,64886,5,8,0:0:0:0:
360,128,65036,1,8,0:0:0:0:
360,128,65336,6,0,P|284:60|192:84,1,190,6|2,0:0|0:0,0:0:0:0:
112,144,65786,2,0,L|120:256,1,95,8|0,0:0|0:0,0:0:0:0:
256,328,66086,1,2,0:0:0:0:
380,344,66236,2,0,P|432:328|472:280,1,95,2|8,0:0|0:0,0:0:0:0:
448,84,66536,1,0,0:0:0:0:
328,120,66686,2,0,L|320:224,1,95,2|2,0:0|0:0,0:0:0:0:
152,304,66986,2,0,P|96:284|64:240,1,95,8|0,0:0|0:0,0:0:0:0:
104,64,67286,5,2,0:0:0:0:
228,56,67436,1,2,0:0:0:0:
172,168,67586,1,8,0:0:0:0:
228,56,67736,6,0,P|308:48|384:136,1,190,2|2,0:0|0:0,0:0:0:0:
368,304,68186,2,0,L|480:284,1,95,8|0,0:0|0:0,0:0:0:0:
220,164,68486,1,2,0:0:0:0:
124,244,68636,2,0,P|124:320|136:364,1,95,2|8,0:0|0:0,0:0:0:0:
220,164,68936,1,0,0:0:0:0:
336,204,69086,2,0,L|352:96,1,95,2|2,0:0|0:0,0:0:0:0:
185,23,69386,2,0,P|138:26|96:48,1,95,8|0,0:0|0:0,0:0:0:0:
76,224,69686,5,2,0:0:0:0:
304,204,69836,1,6,0:0:0:0:
196,344,69986,1,8,0:0:0:0:
184,124,70136,6,0,P|232:80|360:76,1,190,6|2,0:0|0:0,0:0:0:0:
436,308,70586,2,0,L|448:200,1,95,8|0,0:0|0:0,0:0:0:0:
272,60,70886,2,0,L|284:180,1,95,2|2,0:0|0:0,0:0:0:0:
192,332,71186,2,0,P|140:348|84:336,1,95,8|0,0:0|0:0,0:0:0:0:
84,180,71486,2,0,P|136:164|192:176,1,95,2|2,0:0|0:0,0:0:0:0:
344,244,71786,2,0,L|348:136,1,95,8|0,0:0|0:0,0:0:0:0:
352,24,72086,5,2,0:0:0:0:
456,144,72236,1,2,0:0:0:0:
256,204,72386,1,8,0:0:0:0:
424,332,72536,6,0,P|356:368|196:340,1,227.999993041992,6|2,0:0|0:0,0:0:0:0:
112,128,72986,5,8,0:0:0:0:
100,276,73136,1,2,0:0:0:0:
220,60,73286,5,8,0:0:0:0:
248,240,73436,1,2,0:0:0:0:
348,120,73586,1,8,0:0:0:0:
100,156,73736,2,0,P|56:256|148:368,1,227.999993041992,2|2,0:0|0:0,0:0:0:0:
404,296,74186,5,8,0:0:0:0:
256,276,74336,1,2,0:0:0:0:
464,188,74486,5,8,0:0:0:0:
196,200,74636,1,2,0:0:0:0:
344,88,74786,1,2,0:0:0:0:
352,352,74936,6,0,B|356:304|368:288|368:288|348:264|348:264|364:228|348:168,1,170.999994781494,6|8,0:0|0:0,0:0:0:0:
344,88,75386,2,0,P|392:68|432:68,1,85.4999973907472,2|2,0:0|0:0,0:0:0:0:
252,152,75686,2,0,P|188:136|132:32,1,170.999994781494,8|2,0:0|0:0,0:0:0:0:
52,160,76136,2,0,L|40:348,1,170.999994781494,2|2,0:0|0:0,0:0:0:0:
308,280,76586,2,0,P|240:264|124:256,2,170.999994781494,2|8|2,0:0|0:0|0:0,0:0:0:0:
404,312,77336,6,0,L|393:141,1,170.999994781494,2|2,0:0|0:0,0:0:0:0:
264,36,77786,2,0,L|256:136,1,85.4999973907472,2|0,0:0|0:0,0:0:0:0:
168,144,78086,2,0,P|248:216|328:196,1,170.999994781494,8|2,0:0|0:0,0:0:0:0:
400,188,78536,2,0,P|320:116|240:136,1,170.999994781494,2|8,0:0|0:0,0:0:0:0:
196,212,78986,1,2,0:0:0:0:
216,320,79136,1,2,0:0:0:0:
304,252,79286,5,8,0:0:0:0:
116,200,79436,1,2,0:0:0:0:
263,122,79586,1,8,0:0:0:0:
36,104,79736,6,0,L|44:288,1,170.999994781494,6|2,0:0|0:0,0:0:0:0:
116,360,80186,2,0,P|176:352|208:328,1,85.4999973907472,2|0,0:0|0:0,0:0:0:0:
228,232,80486,2,0,P|284:188|388:208,1,170.999994781494,8|2,0:0|0:0,0:0:0:0:
468,268,80936,2,0,L|484:92,1,170.999994781494,2|2,0:0|0:0,0:0:0:0:
376,64,81386,2,0,P|320:92|208:64,2,170.999994781494,2|8|2,0:0|0:0|0:0,0:0:0:0:
120,32,82136,2,0,P|112:108|88:216,1,170.999994781494,2|8,0:0|0:0,0:0:0:0:
136,304,82586,2,0,L|252:296,1,85.4999973907472,2|2,0:0|0:0,0:0:0:0:
276,212,82886,5,8,0:0:0:0:
272,52,83036,1,2,0:0:0:0:
412,124,83186,1,8,0:0:0:0:
164,160,83336,5,6,0:0:0:0:
140,184,83411,1,0,0:0:0:0:
124,216,83486,1,4,0:0:0:0:
116,252,83561,1,0,0:0:0:0:
120,288,83636,1,6,0:0:0:0:
136,320,83711,1,0,0:0:0:0:
160,348,83786,2,0,L|228:340,1,52.2500015945435,6|0,0:0|0:0,0:0:0:0:
272,248,83936,2,0,L|204:240,1,52.2500015945435,6|2,0:0|0:0,0:0:0:0:
352,256,84086,5,8,0:0:0:0:
336,52,84236,1,8,0:0:0:0:
336,52,84536,6,0,P|240:28|148:136,1,246.999988693238,6|2,0:0|0:0,0:0:0:0:
200,312,84986,1,8,0:0:0:0:
260,196,85136,1,0,0:0:0:0:
344,300,85286,2,0,L|480:308,1,109.250002083778,2|2,0:0|0:0,0:0:0:0:
440,52,85586,1,8,0:0:0:0:
456,184,85736,1,0,0:0:0:0:
328,136,85886,6,0,P|300:80|312:20,1,109.250002083778,2|2,0:0|0:0,0:0:0:0:
440,52,86186,1,8,0:0:0:0:
268,216,86336,2,0,P|208:200|172:152,1,109.250002083778,0|2,0:0|0:0,0:0:0:0:
84,40,86636,1,2,0:0:0:0:
96,208,86786,1,8,0:0:0:0:
260,120,86936,6,0,P|336:220|292:328,1,246.999988693238,6|2,0:0|0:0,0:0:0:0:
72,340,87386,2,0,L|208:336,1,109.250002083778,8|0,0:0|0:0,0:0:0:0:
388,324,87686,1,2,0:0:0:0:
312,220,87836,1,2,0:0:0:0:
444,200,87986,2,0,P|456:136|440:80,1,109.250002083778,8|0,0:0|0:0,0:0:0:0:
176,80,88286,5,2,0:0:0:0:
304,60,88436,1,2,0:0:0:0:
176,112,88586,2,0,L|164:232,1,109.250002083778,8|0,0:0|0:0,0:0:0:0:
156,336,88886,1,2,0:0:0:0:
60,188,89036,1,2,0:0:0:0:
252,188,89186,1,8,0:0:0:0:
52,188,89336,6,0,P|56:92|192:24,1,246.999988693238,6|0,0:0|0:0,0:0:0:0:
248,172,89786,2,0,L|240:300,1,109.250002083778,8|0,0:0|0:0,0:0:0:0:
356,140,90086,1,2,0:0:0:0:
168,112,90236,1,2,0:0:0:0:
344,44,90386,1,8,0:0:0:0:
360,232,90536,6,0,P|424:208|452:28,1,246.999988693238,6|0,0:0|0:0,0:0:0:0:
234,47,90986,2,0,L|346:43,1,109.250002083778,8|0,0:0|0:0,0:0:0:0:
212,168,91286,1,2,0:0:0:0:
76,152,91436,1,2,0:0:0:0:
144,304,91586,1,8,0:0:0:0:
280,312,91736,6,0,P|344:288|360:112,1,246.999988693238,6|2,0:0|0:0,0:0:0:0:
160,52,92186,2,0,L|168:192,1,123.499994346619,8|2,0:0|0:0,0:0:0:0:
304,108,92486,5,8,0:0:0:0:
276,272,92636,1,2,0:0:0:0:
116,160,92786,5,8,0:0:0:0:
152,312,92936,1,2,0:0:0:0:
344,224,93086,6,0,L|208:212,1,123.499994346619,8|2,0:0|0:0,0:0:0:0:
220,112,93386,1,8,0:0:0:0:
240,304,93536,1,2,0:0:0:0:
128,136,93686,5,2,0:0:0:0:
368,164,93836,1,8,0:0:0:0:
128,152,93986,1,2,0:0:0:0:
368,144,94136,6,0,B|368:172|380:196|380:196|364:228|364:228|368:244|372:292,1,132.999995941162,6|2,0:0|0:0,0:0:0:0:
368,276,94586,6,0,P|304:264|232:264,1,123.499994346619,8|2,0:0|0:0,0:0:0:0:
64,304,94886,2,0,L|60:172,1,123.499994346619,8|2,0:0|0:0,0:0:0:0:
224,56,95186,2,0,L|220:179,1,123.499994346619,8|2,0:0|0:0,0:0:0:0:
376,352,95486,2,0,L|372:228,1,123.499994346619,8|2,0:0|0:0,0:0:0:0:
372,44,95786,2,0,P|440:48|492:96,1,123.499994346619,8|2,0:0|0:0,0:0:0:0:
436,260,96086,5,8,0:0:0:0:
244,208,96236,1,2,0:0:0:0:
444,176,96386,1,8,0:0:0:0:
268,284,96536,6,0,B|232:280|204:300|204:300|188:284|188:284|164:308|120:296,1,152,6|2,0:0|0:0,0:0:0:0:
28,124,96986,6,0,L|20:272,1,123.499994346619,8|2,0:0|0:0,0:0:0:0:
240,96,97286,2,0,P|208:32|144:8,1,123.499994346619,8|2,0:0|0:0,0:0:0:0:
176,252,97586,2,0,P|252:264|300:240,1,123.499994346619,8|2,0:0|0:0,0:0:0:0:
416,80,97886,2,0,L|408:212,1,123.499994346619,8|2,0:0|0:0,0:0:0:0:
344,348,98186,2,0,P|272:328|244:280,1,123.499994346619,8|2,0:0|0:0,0:0:0:0:
164,80,98486,5,8,0:0:0:0:
140,300,98636,1,2,0:0:0:0:
192,80,98786,1,8,0:0:0:0:
172,304,98936,6,0,B|172:272|184:252|184:252|172:228|172:228|192:196|188:152,1,152,6|2,0:0|0:0,0:0:0:0:
332,220,99386,6,0,P|446:193|480:80,1,246.999988693238,8|2,0:0|0:0,0:0:0:0:
188,64,99836,1,2,0:0:0:0:
364,28,99986,1,8,0:0:0:0:
172,84,100136,6,0,P|160:148|176:232,1,152,2|2,0:0|0:0,0:0:0:0:
288,352,100586,6,0,P|216:272|84:288,1,246.999988693238,8|2,0:0|0:0,0:0:0:0:
84,100,101036,1,2,0:0:0:0:
304,80,101186,1,8,0:0:0:0:
84,100,101336,6,0,B|120:108|148:88|148:88|168:100|168:100|196:84|240:88,1,152,6|2,0:0|0:0,0:0:0:0:
392,172,101786,2,0,P|400:240|384:308,1,123.499994346619,8|2,0:0|0:0,0:0:0:0:
208,336,102086,5,8,0:0:0:0:
180,160,102236,1,2,0:0:0:0:
304,248,102386,5,8,0:0:0:0:
320,68,102536,1,2,0:0:0:0:
444,160,102686,6,0,L|296:152,1,123.499994346619,8|2,0:0|0:0,0:0:0:0:
144,232,102986,5,8,0:0:0:0:
356,196,103136,1,2,0:0:0:0:
228,96,103286,5,2,0:0:0:0:
264,300,103436,1,2,0:0:0:0:
252,100,103586,1,2,0:0:0:0:
236,296,103736,5,6,0:0:0:0:
256,192,103811,12,2,104936,0:0:0:0:
372,144,105236,5,2,0:0:0:0:
280,212,105386,2,0,P|272:252|272:316,1,76,8|2,0:0|0:0,0:0:0:0:
108,72,105686,2,0,L|116:176,1,76,8|2,0:0|0:0,0:0:0:0:
132,288,105986,1,8,0:0:0:0:
232,120,106136,1,6,0:0:0:0:
256,192,106211,12,2,107336,0:0:0:0:
196,312,107636,6,0,L|200:148,1,152,8|2,0:0|0:0,0:0:0:0:
316,72,108086,2,0,P|288:32|248:16,1,76,8|2,0:0|0:0,0:0:0:0:
76,148,108386,1,8,0:0:0:0:
308,248,108536,1,6,0:0:0:0:
256,192,108611,12,2,109736,0:0:0:0:
340,340,110036,5,8,0:0:0:0:
288,240,110186,2,0,P|248:212|200:208,1,76,0|2,0:0|0:0,0:0:0:0:
104,308,110486,2,0,L|96:212,1,76,8|2,0:0|0:0,0:0:0:0:
152,56,110786,1,8,0:0:0:0:
262,210,110936,6,0,P|318:206|362:170,1,95,6|2,0:0|0:0,0:0:0:0:
448,24,111386,2,0,L|456:128,1,95,8|2,0:0|0:0,0:0:0:0:
152,160,111686,2,0,L|148:268,1,95,8|2,0:0|0:0,0:0:0:0:
288,308,111986,1,8,0:0:0:0:
288,96,112136,5,6,0:0:0:0:
260,68,112211,1,0,0:0:0:0:
224,52,112286,1,2,0:0:0:0:
188,52,112361,1,0,0:0:0:0:
152,64,112436,1,0,0:0:0:0:
120,84,112511,1,0,0:0:0:0:
96,116,112586,1,12,0:0:0:0:
84,152,112661,1,0,0:0:0:0:
80,188,112736,1,6,0:0:0:0:
88,224,112811,1,0,0:0:0:0:
108,256,112886,5,8,0:0:0:0:
384,232,113036,1,8,0:0:0:0:
384,232,113336,6,0,P|332:324|204:316,1,237.5,6|2,0:0|0:0,0:0:0:0:
180,300,113711,1,0,0:0:0:0:
152,268,113786,1,12,0:0:0:0:
140,228,113861,1,0,0:0:0:0:
140,188,113936,1,0,0:0:0:0:
152,148,114011,1,0,0:0:0:0:
184,120,114086,2,0,L|252:128,1,59.375,6|0,0:0|0:0,0:0:0:0:
384,72,114236,2,0,L|316:80,1,59.375,2|0,0:0|0:0,0:0:0:0:
192,108,114386,2,0,L|260:116,1,59.375,12|0,0:0|0:0,0:0:0:0:
392,64,114536,2,0,L|324:72,1,59.375,0|0,0:0|0:0,0:0:0:0:
324,168,114686,6,0,P|312:240|328:296,1,118.75,6|2,0:0|0:0,0:0:0:0:
440,128,114986,2,0,P|364:68|212:100,1,237.5,8|2,0:0|0:0,0:0:0:0:
128,264,115436,1,6,0:0:0:0:
244,196,115586,1,8,0:0:0:0:
256,336,115736,6,0,P|348:360|448:256,1,237.5,6|6,0:0|0:0,0:0:0:0:
372,108,116186,1,12,0:0:0:0:
244,192,116336,1,4,0:0:0:0:
436,228,116486,1,2,0:0:0:0:
284,72,116636,1,6,0:0:0:0:
316,288,116786,1,8,0:0:0:0:
504,164,116936,2,0,L|380:156,1,118.75,4|2,0:0|0:0,0:0:0:0:
124,228,117236,2,0,L|248:220,1,118.75,6|8,0:0|0:0,0:0:0:0:
344,160,117536,1,0,0:0:0:0:
420,252,117686,6,0,P|428:324|404:376,1,118.75,2|2,0:0|0:0,0:0:0:0:
288,204,117986,1,12,0:0:0:0:
480,164,118136,1,2,0:0:0:0:
380,20,118286,6,0,P|364:84|368:156,1,118.75,6|4,0:0|0:0,0:0:0:0:
230,260,118586,1,12,0:0:0:0:
230,260,118736,1,6,0:0:0:0:
101,113,118886,1,2,0:0:0:0:
283,148,119036,1,4,0:0:0:0:
104,235,119186,1,8,0:0:0:0:
209,61,119336,6,0,P|276:36|400:136,1,237.5,6|2,0:0|0:0,0:0:0:0:
428,260,119786,1,12,0:0:0:0:
428,260,119936,1,4,0:0:0:0:
276,116,120086,1,2,0:0:0:0:
432,156,120236,1,6,0:0:0:0:
228,228,120386,1,8,0:0:0:0:
380,360,120536,6,0,P|296:304|168:344,1,237.5,6|2,0:0|0:0,0:0:0:0:
152,88,120986,5,12,0:0:0:0:
328,72,121136,1,6,0:0:0:0:
140,184,121286,5,8,0:0:0:0:
320,192,121436,1,4,0:0:0:0:
152,300,121586,5,8,0:0:0:0:
336,304,121736,2,0,L|472:312,1,118.75,6|8,0:0|0:0,0:0:0:0:
224,104,122036,2,0,L|88:96,1,118.75,6|8,0:0|0:0,0:0:0:0:
140,216,122336,1,2,0:0:0:0:
352,192,122486,5,10,0:0:0:0:
136,196,122636,1,8,0:0:0:0:
356,216,122786,1,8,0:0:0:0:
132,168,122936,6,0,L|148:104,1,59.375,2|0,0:0|0:0,0:0:0:0:
176,28,123086,1,12,0:0:0:0:
216,20,123161,1,0,0:0:0:0:
256,24,123236,1,2,0:0:0:0:
296,36,123311,1,0,0:0:0:0:
328,60,123386,1,12,0:0:0:0:
352,96,123461,1,0,0:0:0:0:
356,136,123536,1,2,0:0:0:0:
348,176,123611,1,0,0:0:0:0:
328,212,123686,5,12,0:0:0:0:
292,180,123761,1,0,0:0:0:0:
248,168,123836,1,2,0:0:0:0:
200,172,123911,1,0,0:0:0:0:
164,204,123986,1,12,0:0:0:0:
148,248,124061,1,0,0:0:0:0:
152,296,124136,1,2,0:0:0:0:
180,336,124211,1,0,0:0:0:0:
224,356,124286,2,0,L|240:296,1,59.375,12|0,0:0|0:0,0:0:0:0:
304,348,124436,5,2,0:0:0:0:
352,340,124511,1,0,0:0:0:0:
380,304,124586,1,12,0:0:0:0:
392,256,124661,1,0,0:0:0:0:
380,212,124736,1,2,0:0:0:0:
340,184,124811,1,0,0:0:0:0:
292,180,124886,2,0,L|280:120,1,59.375,6|0,0:0|0:0,0:0:0:0:
268,44,125036,5,0,0:0:0:0:
312,24,125111,1,0,0:0:0:0:
360,24,125186,1,6,0:0:0:0:
404,44,125261,1,0,0:0:0:0:
428,76,125336,2,0,L|424:144,1,59.375,6|0,0:0|0:0,0:0:0:0:
412,208,125486,5,4,0:0:0:0:
380,244,125561,1,0,0:0:0:0:
336,264,125636,1,2,0:0:0:0:
288,260,125711,1,0,0:0:0:0:
244,240,125786,2,0,L|236:172,1,59.375,12|0,0:0|0:0,0:0:0:0:
228,104,125936,5,2,0:0:0:0:
264,72,126011,1,0,0:0:0:0:
308,60,126086,1,12,0:0:0:0:
356,64,126161,1,0,0:0:0:0:
396,88,126236,2,0,L|404:28,1,59.375,2|0,0:0|0:0,0:0:0:0:
460,132,126386,5,12,0:0:0:0:
456,180,126461,1,0,0:0:0:0:
452,228,126536,1,2,0:0:0:0:
448,276,126611,1,0,0:0:0:0:
444,324,126686,6,0,P|416:324|380:316,1,59.375,12|0,0:0|0:0,0:0:0:0:
316,216,126836,2,0,L|324:288,1,59.375,2|0,0:0|0:0,0:0:0:0:
272,336,126986,2,0,P|243:342|162:275,1,118.75,12|2,0:0|0:0,0:0:0:0:
120,168,127286,1,2,0:0:0:0:
316,80,127436,1,2,0:0:0:0:
176,52,127586,1,2,0:0:0:0:
328,212,127736,6,0,P|396:220|484:80,1,237.5,6|2,0:0|0:0,0:0:0:0:
176,52,128186,2,0,L|164:244,1,190,8|2,0:0|0:0,0:0:0:0:
260,336,128636,1,2,0:0:0:0:
324,208,128786,1,8,0:0:0:0:
436,292,128936,1,2,0:0:0:0:
436,292,129086,5,4,0:0:0:0:
348,92,129236,1,2,0:0:0:0:
204,204,129386,2,0,P|140:192|100:144,1,95,12|0,0:0|0:0,0:0:0:0:
440,32,129686,2,0,P|448:88|428:140,1,95,6|6,0:0|0:0,0:0:0:0:
348,248,129986,1,8,0:0:0:0:
148,144,130136,2,0,P|136:216|160:264,1,95,6|4,0:0|0:0,0:0:0:0:
224,332,130436,1,2,0:0:0:0:
256,168,130586,5,8,0:0:0:0:
440,216,130736,1,6,0:0:0:0:
180,100,130886,5,8,0:0:0:0:
368,88,131036,1,6,0:0:0:0:
156,252,131186,5,8,0:0:0:0:
344,232,131336,1,6,0:0:0:0:
236,76,131486,1,8,0:0:0:0:
256,312,131636,1,6,0:0:0:0:
112,176,131786,6,0,L|240:164,1,118.75,12|2,0:0|0:0,0:0:0:0:
408,156,132086,1,6,0:0:0:0:
292,340,132236,1,2,0:0:0:0:
308,116,132386,1,2,0:0:0:0:
416,272,132536,6,0,B|394:272|372:264|372:264|355:274|355:274|325:248|280:256,1,142.5,6|0,0:0|0:0,0:0:0:0:
140,264,134486,5,8,0:0:0:0:
352,244,134636,1,8,0:0:0:0:
124,272,134786,1,8,0:0:0:0:
364,252,134936,6,0,P|424:216|372:40,1,265.999991882324,6|0,0:0|0:0,0:0:0:0:
144,68,135386,1,8,0:0:0:0:
268,140,135536,1,0,0:0:0:0:
144,212,135686,2,0,P|136:280|160:332,1,118.75,2|2,0:0|0:0,0:0:0:0:
400,288,135986,1,8,0:0:0:0:
260,264,136136,1,0,0:0:0:0:
356,160,136286,6,0,P|380:92|360:24,1,118.75,2|2,0:0|0:0,0:0:0:0:
148,28,136586,1,8,0:0:0:0:
80,152,136736,2,0,L|88:288,1,118.75,0|2,0:0|0:0,0:0:0:0:
360,136,137036,1,2,0:0:0:0:
184,108,137186,1,8,0:0:0:0:
384,260,137336,6,0,P|344:320|188:316,1,237.5,4|2,0:0|0:0,0:0:0:0:
88,164,137786,2,0,L|76:304,1,118.75,8|0,0:0|0:0,0:0:0:0:
200,32,138086,1,2,0:0:0:0:
80,152,138236,1,2,0:0:0:0:
208,260,138386,2,0,P|276:252|316:204,1,118.75,8|0,0:0|0:0,0:0:0:0:
420,32,138686,6,0,L|432:156,1,118.75,2|2,0:0|0:0,0:0:0:0:
332,328,138986,1,8,0:0:0:0:
188,340,139136,2,0,L|196:204,1,118.75,0|2,0:0|0:0,0:0:0:0:
208,28,139436,1,2,0:0:0:0:
52,132,139586,1,8,0:0:0:0:
296,248,139736,6,0,P|388:232|420:64,1,256.50000097847,6|0,0:0|0:0,0:0:0:0:
132,216,140186,2,0,P|136:292|164:332,1,118.75,8|0,0:0|0:0,0:0:0:0:
300,48,140486,1,2,0:0:0:0:
296,200,140636,1,2,0:0:0:0:
468,92,140786,1,8,0:0:0:0:
372,344,140936,6,0,P|280:360|188:236,1,256.50000097847,6|0,0:0|0:0,0:0:0:0:
192,48,141386,2,0,L|64:32,1,118.75,8|0,0:0|0:0,0:0:0:0:
200,168,141686,1,2,0:0:0:0:
408,148,141836,1,2,0:0:0:0:
320,304,141986,1,8,0:0:0:0:
300,56,142136,6,0,P|388:36|520:152,1,256.50000097847,6|2,0:0|0:0,0:0:0:0:
416,332,142586,2,0,L|424:188,1,128.250000489235,8|2,0:0|0:0,0:0:0:0:
176,144,142886,5,8,0:0:0:0:
356,128,143036,1,2,0:0:0:0:
140,256,143186,5,8,0:0:0:0:
316,284,143336,1,2,0:0:0:0:
260,88,143486,5,8,0:0:0:0:
220,288,143636,1,2,0:0:0:0:
380,204,143786,1,8,0:0:0:0:
152,144,143936,1,2,0:0:0:0:
356,80,144086,5,8,0:0:0:0:
140,152,144236,1,2,0:0:0:0:
384,216,144386,1,8,0:0:0:0:
240,296,144536,6,0,B|220:264|240:232|240:232|224:212|224:212|248:184|244:132,1,170.999994781494,6|2,0:0|0:0,0:0:0:0:
368,36,144986,6,0,P|424:80|432:152,1,132.999995941162,8|2,0:0|0:0,0:0:0:0:
376,352,145286,2,0,L|240:344,1,132.999995941162,8|2,0:0|0:0,0:0:0:0:
52,272,145586,2,0,P|68:204|124:164,1,132.999995941162,8|2,0:0|0:0,0:0:0:0:
384,40,145886,2,0,L|252:48,1,132.999995941162,8|2,0:0|0:0,0:0:0:0:
116,136,146186,1,8,0:0:0:0:
260,208,146336,2,0,P|276:280|240:344,1,132.999995941162,2|8,0:0|0:0,0:0:0:0:
108,336,146636,1,2,0:0:0:0:
132,120,146786,1,8,0:0:0:0:
84,340,146936,6,0,P|44:280|60:168,1,170.999994781494,6|2,0:0|0:0,0:0:0:0:
256,168,147386,6,0,L|240:36,1,132.999995941162,8|2,0:0|0:0,0:0:0:0:
340,336,147686,2,0,P|408:324|448:264,1,132.999995941162,8|2,0:0|0:0,0:0:0:0:
116,224,147986,2,0,P|100:308|132:360,1,132.999995941162,8|2,0:0|0:0,0:0:0:0:
368,184,148286,2,0,L|384:48,1,132.999995941162,8|2,0:0|0:0,0:0:0:0:
164,44,148586,1,8,0:0:0:0:
52,156,148736,2,0,L|68:312,1,132.999995941162,2|8,0:0|0:0,0:0:0:0:
380,324,149036,1,2,0:0:0:0:
188,292,149186,1,8,0:0:0:0:
396,324,149336,6,0,B|408:300|404:260|404:260|424:240|424:240|416:204|436:156,1,170.999994781494,6|2,0:0|0:0,0:0:0:0:
308,44,149786,6,0,P|228:36|136:168,1,246.999988693238,8|2,0:0|0:0,0:0:0:0:
288,332,150236,1,2,0:0:0:0:
264,148,150386,1,8,0:0:0:0:
424,248,150536,6,0,B|380:248|360:232|360:232|328:252|328:252|304:240|248:240,1,170.999994781494,6|2,0:0|0:0,0:0:0:0:
76,228,150986,6,0,P|144:200|164:40,1,246.999988693238,8|2,0:0|0:0,0:0:0:0:
344,72,151436,1,2,0:0:0:0:
268,244,151586,1,8,0:0:0:0:
360,72,151736,6,0,B|360:104|376:124|376:124|356:168|356:168|376:204|372:272,1,170.999994781494,6|2,0:0|0:0,0:0:0:0:
236,352,152186,6,0,P|168:348|120:300,1,123.499994346619,8|2,0:0|0:0,0:0:0:0:
100,36,152486,2,0,L|92:160,1,123.499994346619,8|2,0:0|0:0,0:0:0:0:
240,248,152786,2,0,P|312:256|368:208,1,123.499994346619,8|2,0:0|0:0,0:0:0:0:
480,32,153086,2,0,L|488:168,1,123.499994346619,8|2,0:0|0:0,0:0:0:0:
244,344,153386,2,0,L|251:220,1,123.499994346619,8|2,0:0|0:0,0:0:0:0:
264,28,153686,5,2,0:0:0:0:
136,144,153836,1,2,0:0:0:0:
360,224,153986,1,2,0:0:0:0:
148,324,154136,6,0,P|224:356|320:312,1,190,6|8,0:0|0:0,0:0:0:0:
396,72,154586,2,0,P|400:124|420:168,1,95,2|0,0:0|0:0,0:0:0:0:
296,100,154886,6,0,P|256:56|116:48,1,190,8|2,0:0|0:0,0:0:0:0:
164,336,155336,2,0,L|184:144,1,190,2|8,0:0|0:0,0:0:0:0:
392,96,155786,2,0,P|364:36|320:16,1,95,2|2,0:0|0:0,0:0:0:0:
72,164,156086,2,0,L|176:172,1,95,8|0,0:0|0:0,0:0:0:0:
308,180,156386,1,2,0:0:0:0:
264,316,156536,2,0,P|376:296|448:356,1,190,2|8,0:0|0:0,0:0:0:0:
156,357,156986,2,0,P|145:311|144:264,1,95,2|2,0:0|0:0,0:0:0:0:
200,116,157286,6,0,P|160:72|24:76,1,190,8|2,0:0|0:0,0:0:0:0:
300,232,157736,2,0,P|391:242|463:183,1,190,2|8,0:0|0:0,0:0:0:0:
264,40,158186,2,0,L|256:144,1,95,2|2,0:0|0:0,0:0:0:0:
248,356,158486,5,8,0:0:0:0:
268,144,158636,1,8,0:0:0:0:
136,256,158786,1,2,0:0:0:0:
428,272,158936,1,6,0:0:0:0:
256,192,159011,12,0,160286,0:0:0:0:
