osu file format v14

[General]
AudioFilename: 08 - Moon Light Wave.mp3
AudioLeadIn: 0
PreviewTime: 45694
Countdown: 0
SampleSet: Soft
StackLeniency: 0.7
Mode: 0
LetterboxInBreaks: 1
WidescreenStoryboard: 0

[Editor]
DistanceSpacing: 0.9
BeatDivisor: 4
GridSize: 4
TimelineZoom: 4.399998

[Metadata]
Title:MOON LIGHT WAVE
TitleUnicode:MOON LIGHT WAVE
Artist:BLOOD STAIN CHILD
ArtistUnicode:BLOOD STAIN CHILD
Creator:Silleth
Version:Effulgence
Source:
Tags:snepif winber1 Ettore Rigotti epsilon sophia melodic alternative metal everything will fade away moonlight
BeatmapID:665787
BeatmapSetID:296543

[Difficulty]
HPDrainRate:6
CircleSize:4.1
OverallDifficulty:9
ApproachRate:9.5
SliderMultiplier:2
SliderTickRate:1

[Events]
//Background and Video events
0,0,"BG.png",0,0
//Break Periods
//Storyboard Layer 0 (Background)
//Storyboard Layer 1 (Fail)
//Storyboard Layer 2 (Pass)
//Storyboard Layer 3 (Foreground)
//Storyboard Sound Samples

[TimingPoints]
686,300,4,2,2,80,1,0
4286,-71.4285714285714,4,2,2,80,0,0
5336,-90.9090909090909,4,2,1,80,0,0
7736,-90.9090909090909,4,2,2,80,0,0
8036,-90.9090909090909,4,2,1,80,0,0
14486,-90.9090909090909,4,2,2,80,0,0
15011,-90.9090909090909,4,2,1,80,0,0
16136,-100,4,2,3,80,0,0
17336,-133.333333333333,4,2,1,65,0,0
17636,-133.333333333333,4,2,1,70,0,0
23486,-79.9999999999999,4,2,1,70,0,0
24536,-83.3333333333333,4,2,2,80,0,0
24836,-83.3333333333333,4,2,1,80,0,0
24986,-100,4,2,1,80,0,0
26936,-100,4,2,2,80,0,0
27236,-100,4,2,1,80,0,0
31436,-100,4,2,2,65,0,0
31586,-100,4,2,1,80,0,0
34136,-76.9230769230769,4,2,2,80,0,0
34436,-76.9230769230769,4,2,1,80,0,0
36536,-125,4,2,2,80,0,0
36836,-125,4,2,1,80,0,0
46136,-76.9230769230769,4,2,2,80,0,1
46436,-86.9565217391304,4,2,1,80,0,1
48536,-76.9230769230769,4,2,2,80,0,1
48836,-76.9230769230769,4,2,1,80,0,1
48986,-86.9565217391304,4,2,1,80,0,1
50786,-117.647058823529,4,2,1,80,0,1
50936,-76.9230769230769,4,2,2,80,0,1
51236,-86.9565217391304,4,2,1,80,0,1
51986,-117.647058823529,4,2,1,80,0,1
52136,-76.9230769230769,4,2,2,80,0,1
52436,-86.9565217391304,4,2,1,80,0,1
53336,-76.9230769230769,4,2,2,80,0,1
53636,-76.9230769230769,4,2,1,80,0,1
55286,-76.9230769230769,4,2,3,80,0,1
55736,-100,4,2,2,80,0,0
56036,-125,4,2,1,70,0,0
61886,-83.3333333333333,4,2,1,80,0,0
62486,-90.9090909090909,4,2,1,80,0,0
62936,-76.9230769230769,4,2,2,80,0,0
63236,-76.9230769230769,4,2,1,80,0,0
63386,-83.3333333333333,4,2,1,80,0,0
64136,-76.9230769230769,4,2,2,80,0,0
64436,-83.3333333333333,4,2,1,80,0,0
65336,-100,4,2,2,80,0,0
65636,-100,4,2,1,80,0,0
72536,-83.3333333333333,4,2,2,80,0,0
72836,-83.3333333333333,4,2,1,80,0,0
74636,-83.3333333333333,4,2,2,80,0,0
74936,-111.111111111111,4,2,2,80,0,0
75236,-111.111111111111,4,2,1,80,0,0
79736,-111.111111111111,4,2,2,80,0,0
80036,-111.111111111111,4,2,1,80,0,0
84536,-76.9230769230769,4,2,2,80,0,1
84836,-86.9565217391304,4,2,1,80,0,1
86936,-76.9230769230769,4,2,2,80,0,1
87236,-86.9565217391304,4,2,1,80,0,1
89186,-117.647058823529,4,2,1,80,0,1
89336,-76.9230769230769,4,2,2,80,0,1
89636,-86.9565217391304,4,2,1,80,0,1
90386,-117.647058823529,4,2,1,80,0,1
90536,-76.9230769230769,4,2,2,80,0,1
90836,-86.9565217391304,4,2,1,80,0,1
91736,-76.9230769230769,4,2,2,80,0,1
92036,-76.9230769230769,4,2,1,80,0,1
93686,-76.9230769230769,4,2,3,80,0,1
94136,-142.857142857143,4,2,2,80,0,1
94436,-76.9230769230769,4,2,1,80,0,1
96086,-76.9230769230769,4,2,3,80,0,1
96536,-125,4,2,2,80,0,1
96836,-76.9230769230769,4,2,1,80,0,1
98486,-76.9230769230769,4,2,3,80,0,1
98936,-125,4,2,2,80,0,1
99236,-76.9230769230769,4,2,1,80,0,1
100136,-125,4,2,2,80,0,1
100436,-76.9230769230769,4,2,1,80,0,1
101336,-125,4,2,2,80,0,1
101636,-76.9230769230769,4,2,1,80,0,1
103286,-76.9230769230769,4,2,2,80,0,1
103736,-125,4,2,2,80,0,0
110936,-200,4,2,2,80,0,0
111236,-100,4,2,1,80,0,0
113336,-80,4,2,2,80,0,1
113636,-80,4,2,1,80,0,1
118286,-80,4,2,2,80,0,1
118436,-80,4,2,1,80,0,1
119336,-80,4,2,2,80,0,1
119636,-80,4,2,1,80,0,1
120536,-80,4,2,2,80,0,1
120836,-80,4,2,1,80,0,1
122486,-80,4,2,3,80,0,1
123086,-80,4,2,1,80,0,1
125336,-80,4,2,2,80,0,1
125411,-80,4,2,1,80,0,1
127286,-80,4,2,2,80,0,1
128036,-80,4,2,1,80,0,1
128186,-100,4,2,1,80,0,1
130586,-80,4,2,1,80,0,1
132536,-200,4,2,2,80,0,0
132986,-100,4,2,2,80,0,0
134486,-100,4,2,2,70,0,0
134936,-71.4285714285714,4,2,2,80,0,1
135236,-80,4,2,1,80,0,1
137336,-80,4,2,2,80,0,1
137636,-80,4,2,1,80,0,1
139586,-117.647058823529,4,2,1,80,0,1
139736,-74.0740740740741,4,2,2,80,0,1
140036,-80,4,2,1,80,0,1
140786,-117.647058823529,4,2,1,80,0,1
140936,-74.0740740740741,4,2,2,80,0,1
141236,-80,4,2,1,80,0,1
142136,-74.0740740740741,4,2,2,80,0,1
142436,-74.0740740740741,4,2,1,80,0,1
144086,-74.0740740740741,4,2,3,80,0,1
144536,-111.111111111111,4,2,2,80,0,1
144836,-71.4285714285714,4,2,1,80,0,1
146486,-71.4285714285714,4,2,3,80,0,1
146936,-111.111111111111,4,2,2,80,0,1
147236,-71.4285714285714,4,2,1,80,0,1
148886,-71.4285714285714,4,2,3,80,0,1
149336,-111.111111111111,4,2,2,80,0,1
149636,-76.9230769230769,4,2,1,80,0,1
150536,-111.111111111111,4,2,2,80,0,1
150836,-111.111111111111,4,2,1,80,0,1
150986,-76.9230769230769,4,2,1,80,0,1
151736,-111.111111111111,4,2,2,80,0,1
152186,-76.9230769230769,4,2,1,80,0,1
153686,-76.9230769230769,4,2,2,80,0,1
154136,-100,4,2,2,80,0,0
154436,-100,4,2,1,80,0,0
158936,-100,4,2,2,80,0,0
160286,-100,4,2,2,25,0,0

[Colours]
Combo1 : 81,136,238
Combo2 : 243,78,123
Combo3 : 148,115,247
Combo4 : 236,119,196

[HitObjects]
451,129,536,6,0,B|473:214|432:275|432:275|384:268,1,200,6|2,0:0|0:0,0:0:0:0:
228,68,986,2,0,L|332:60,1,100,8|0,0:0|0:0,0:0:0:0:
144,248,1286,1,2,0:0:0:0:
108,56,1436,1,2,0:0:0:0:
252,164,1586,1,8,0:0:0:0:
40,216,1736,1,0,0:0:0:0:
40,216,1886,6,0,L|36:108,1,100,2|2,0:0|0:0,0:0:0:0:
260,48,2186,2,0,L|256:148,1,100,8|0,0:0|0:0,0:0:0:0:
236,360,2486,1,2,0:0:0:0:
344,268,2636,1,2,0:0:0:0:
136,268,2786,1,8,0:0:0:0:
436,268,2936,6,0,P|384:188|272:204,1,200,6|2,0:0|0:0,0:0:0:0:
100,348,3386,2,0,P|144:352|196:332,1,100,8|0,0:0|0:0,0:0:0:0:
228,96,3686,1,2,0:0:0:0:
80,224,3836,1,2,0:0:0:0:
260,248,3986,1,8,0:0:0:0:
124,96,4136,1,2,0:0:0:0:
160,304,4286,5,8,0:0:0:0:
372,244,4436,2,0,B|459:199|439:117|439:117|392:155,1,209.999993591309,2|0,0:0|0:0,0:0:0:0:
372,244,4736,6,0,B|363:341|443:368|443:368|436:308,1,209.999993591309,2|0,0:0|0:0,0:0:0:0:
372,244,5036,6,0,B|293:185|228:238|228:238|283:264,1,209.999993591309,2|0,0:0|0:0,0:0:0:0:
372,244,5336,6,0,P|440:160|392:48,1,220.000006713867,4|0,1:0|0:0,0:0:0:0:
264,248,5786,1,8,0:0:0:0:
224,80,5936,1,0,0:0:0:0:
76,152,6086,2,0,L|72:264,1,110.000003356934,2|2,0:0|0:0,0:0:0:0:
280,236,6386,1,8,0:0:0:0:
224,40,6536,1,0,0:0:0:0:
80,168,6686,6,0,P|132:172|196:156,1,110.000003356934,2|2,0:0|0:0,0:0:0:0:
376,120,6986,1,8,0:0:0:0:
296,316,7136,1,0,0:0:0:0:
472,300,7286,2,0,L|464:168,1,110.000003356934,2|2,0:0|0:0,0:0:0:0:
372,44,7586,1,8,0:0:0:0:
372,352,7736,6,0,P|264:356|168:288,1,220.000006713867,6|2,0:0|0:0,0:0:0:0:
88,84,8186,1,8,0:0:0:0:
288,240,8336,1,0,0:0:0:0:
56,224,8486,1,2,0:0:0:0:
288,120,8636,1,2,0:0:0:0:
172,360,8786,2,0,L|176:228,1,110.000003356934,8|0,0:0|0:0,0:0:0:0:
184,104,9086,5,2,0:0:0:0:
336,248,9236,1,2,0:0:0:0:
416,56,9386,2,0,L|296:48,1,110.000003356934,8|0,0:0|0:0,0:0:0:0:
452,308,9686,2,0,L|464:184,1,110.000003356934,2|2,0:0|0:0,0:0:0:0:
268,348,9986,1,8,0:0:0:0:
120,184,10136,6,0,P|240:152|348:164,1,220.000006713867,2|2,0:0|0:0,0:0:0:0:
88,216,10586,2,0,L|80:104,1,110.000003356934,8|0,0:0|0:0,0:0:0:0:
240,16,10886,1,2,0:0:0:0:
308,232,11036,1,2,0:0:0:0:
156,128,11186,1,8,0:0:0:0:
392,64,11336,6,0,P|416:160|408:296,1,220.000006713867,2|2,0:0|0:0,0:0:0:0:
416,40,11786,2,0,L|296:32,1,110.000003356934,8|0,0:0|0:0,0:0:0:0:
72,132,12086,1,2,0:0:0:0:
304,188,12236,1,2,0:0:0:0:
184,16,12386,1,8,0:0:0:0:
144,284,12536,2,0,P|240:324|372:288,1,220.000006713867,2|2,0:0|0:0,0:0:0:0:
112,272,12986,6,0,L|104:148,1,110.000003356934,8|0,0:0|0:0,0:0:0:0:
332,40,13286,5,8,0:0:0:0:
312,244,13436,1,2,0:0:0:0:
204,136,13586,5,8,0:0:0:0:
240,356,13736,1,2,0:0:0:0:
428,144,13886,5,8,0:0:0:0:
144,100,14036,1,2,0:0:0:0:
260,284,14186,5,8,0:0:0:0:
292,40,14336,1,2,0:0:0:0:
72,220,14486,5,2,0:0:0:0:
372,148,14636,1,2,0:0:0:0:
156,36,14786,1,2,0:0:0:0:
172,348,14936,1,2,0:0:0:0:
256,192,15011,12,0,15986,0:0:0:0:
252,232,16136,6,0,P|360:224|400:124,1,200,2|2,0:0|0:0,0:0:0:0:
184,84,16586,1,8,0:0:0:0:
168,312,16736,1,2,0:0:0:0:
380,168,16886,1,10,0:0:0:0:
144,188,17036,1,2,0:0:0:0:
380,144,17186,1,8,0:0:0:0:
152,212,17336,6,0,P|83:211|32:148,1,150.000005722046,4|2,1:0|0:0,0:0:0:0:
328,192,17786,2,0,P|336:236|332:280,1,75.0000028610231,8|0,0:0|0:0,0:0:0:0:
276,352,18086,1,2,0:0:0:0:
172,368,18236,2,0,L|72:360,1,75.0000028610231,2|8,0:0|0:0,0:0:0:0:
376,200,18536,1,0,0:0:0:0:
388,304,18685,6,0,P|386:342|375:377,1,75.0000028610231,2|2,0:0|0:0,0:0:0:0:
188,176,18986,2,0,P|176:216|176:268,1,75.0000028610231,8|0,0:0|0:0,0:0:0:0:
272,136,19286,1,2,0:0:0:0:
216,48,19436,1,2,0:0:0:0:
112,48,19586,1,8,0:0:0:0:
48,132,19736,2,0,B|8:196|42:260|42:260|32:280,1,150.000005722046,2|2,0:0|0:0,0:0:0:0:
324,40,20186,6,0,P|336:104|336:128,1,75.0000028610231,8|0,0:0|0:0,0:0:0:0:
224,264,20486,1,2,0:0:0:0:
124,236,20636,2,0,L|120:148,1,75.0000028610231,2|8,0:0|0:0,0:0:0:0:
232,352,20936,2,0,P|272:356|320:332,1,75.0000028610231,0|2,0:0|0:0,0:0:0:0:
376,236,21236,1,2,0:0:0:0:
468,348,21386,2,0,L|476:260,1,75.0000028610231,8|0,0:0|0:0,0:0:0:0:
488,144,21686,5,2,0:0:0:0:
248,172,21836,1,4,0:0:0:0:
492,124,21986,1,2,0:0:0:0:
236,176,22136,2,0,B|228:64|228:64|244:4,1,150.000005722046,4|2,0:0|0:0,0:0:0:0:
248,284,22586,6,0,P|196:280|152:260,1,75.0000028610231,8|0,0:0|0:0,0:0:0:0:
400,156,22886,2,0,L|404:252,1,75.0000028610231,2|2,0:0|0:0,0:0:0:0:
412,324,23186,1,8,0:0:0:0:
412,324,23336,1,0,0:0:0:0:
488,88,23486,6,0,B|440:16|336:24|300:88|294:126|294:126|248:72|176:108,1,375,4|2,0:0|0:0,0:0:0:0:
216,312,24086,2,0,L|223:187,1,125,8|2,0:0|0:0,0:0:0:0:
396,132,24386,1,8,0:0:0:0:
304,348,24536,6,0,P|188:344|140:224,1,239.999992675781,6|2,0:0|0:0,0:0:0:0:
312,52,24986,2,0,L|315:151,1,100,8|0,0:0|0:0,0:0:0:0:
260,332,25286,1,2,0:0:0:0:
48,252,25436,1,2,0:0:0:0:
228,116,25586,1,8,0:0:0:0:
152,316,25736,6,0,L|136:116,1,200,2|2,0:0|0:0,0:0:0:0:
440,104,26186,1,8,0:0:0:0:
232,72,26336,1,2,0:0:0:0:
364,300,26486,1,8,0:0:0:0:
116,304,26636,1,2,0:0:0:0:
380,296,26786,1,8,0:0:0:0:
400,284,26861,1,0,0:0:0:0:
424,272,26936,6,0,P|460:188|428:68,1,200,6|2,0:0|0:0,0:0:0:0:
204,328,27386,2,0,P|152:320|104:308,1,100,8|0,0:0|0:0,0:0:0:0:
304,140,27686,2,0,P|308:189|304:239,1,100,2|2,0:0|0:0,0:0:0:0:
216,44,27986,1,8,0:0:0:0:
84,76,28136,2,0,L|76:192,1,100,0|2,0:0|0:0,0:0:0:0:
240,352,28436,2,0,L|352:348,1,100,2|8,0:0|0:0,0:0:0:0:
172,172,28736,1,0,0:0:0:0:
24,328,28886,2,0,L|20:220,1,100,2|2,0:0|0:0,0:0:0:0:
264,24,29186,1,8,0:0:0:0:
376,104,29336,2,0,P|408:196|360:280,1,200,2|2,0:0|0:0,0:0:0:0:
152,196,29786,6,0,L|264:192,1,100,8|0,0:0|0:0,0:0:0:0:
488,192,30086,2,0,L|484:300,1,100,2|2,0:0|0:0,0:0:0:0:
384,76,30386,1,8,0:0:0:0:
248,160,30536,2,0,L|253:268,1,100,0|2,0:0|0:0,0:0:0:0:
72,80,30836,2,0,P|136:68|180:72,1,100,2|8,0:0|0:0,0:0:0:0:
312,124,31136,1,0,0:0:0:0:
232,360,31286,5,2,0:0:0:0:
388,192,31436,1,2,2:0:0:0:
156,264,31586,1,8,0:0:0:0:
375,320,31736,2,0,B|439:252|395:163|395:163|383:208,1,200,2|2,0:0|0:0,0:0:0:0:
248,336,32186,2,0,L|148:328,1,100,8|0,0:0|0:0,0:0:0:0:
136,76,32486,5,2,0:0:0:0:
12,232,32636,1,2,0:0:0:0:
180,348,32786,2,0,L|280:348,1,100,8|0,0:0|0:0,0:0:0:0:
424,240,33086,5,2,0:0:0:0:
316,96,33236,1,2,0:0:0:0:
204,236,33386,2,0,L|304:229,1,100,8|0,0:0|0:0,0:0:0:0:
68,64,33686,5,2,0:0:0:0:
192,220,33836,1,2,0:0:0:0:
288,36,33986,1,8,0:0:0:0:
380,184,34136,6,0,B|436:296|332:360|332:360|344:284,1,259.999988098145,6|2,0:0|0:0,0:0:0:0:
352,24,34586,1,8,0:0:0:0:
280,240,34736,1,2,0:0:0:0:
172,84,34886,1,8,0:0:0:0:
476,116,35036,1,2,0:0:0:0:
320,16,35186,1,8,0:0:0:0:
320,16,35336,6,0,L|292:288,1,259.999988098145,2|2,0:0|0:0,0:0:0:0:
40,332,35786,2,0,L|32:196,1,129.999994049073,8|2,0:0|0:0,0:0:0:0:
56,116,36011,1,2,0:0:0:0:
56,116,36086,1,8,0:0:0:0:
312,60,36236,1,2,0:0:0:0:
192,320,36386,1,2,0:0:0:0:
160,28,36536,6,0,L|152:204,1,160,6|8,0:0|0:0,0:0:0:0:
276,332,36986,1,2,0:0:0:0:
276,332,37136,1,2,0:0:0:0:
276,332,37286,2,0,P|360:348|424:304,1,160,8|2,0:0|0:0,0:0:0:0:
208,264,37736,2,0,P|124:248|60:288,1,160,2|2,0:0|0:0,0:0:0:0:
296,240,38186,6,0,L|300:144,1,80,2|2,0:0|0:0,0:0:0:0:
71,190,38486,2,0,L|64:352,1,160,8|2,0:0|0:0,0:0:0:0:
296,240,38936,2,0,L|304:68,1,160,2|2,0:0|0:0,0:0:0:0:
260,328,39386,2,0,P|304:332|352:320,1,80,2|0,0:0|0:0,0:0:0:0:
172,96,39686,2,0,P|88:88|24:124,1,160,8|2,0:0|0:0,0:0:0:0:
252,156,40136,2,0,P|336:164|400:124,1,160,2|8,0:0|0:0,0:0:0:0:
160,192,40586,5,2,0:0:0:0:
236,144,40736,1,2,0:0:0:0:
304,204,40886,1,8,0:0:0:0:
248,48,41036,1,2,0:0:0:0:
292,280,41186,1,8,0:0:0:0:
488,144,41336,6,0,L|328:132,1,160,2|8,0:0|0:0,0:0:0:0:
152,280,41786,2,0,P|204:272|236:248,1,80,2|2,0:0|0:0,0:0:0:0:
88,208,42086,2,0,P|64:300|92:360,1,160,8|2,0:0|0:0,0:0:0:0:
180,188,42536,2,0,P|207:113|184:40,1,160,2|2,0:0|0:0,0:0:0:0:
152,280,42986,2,0,L|236:272,1,80,2|2,0:0|0:0,0:0:0:0:
432,176,43286,2,0,P|352:188|272:124,1,160,8|2,0:0|0:0,0:0:0:0:
368,92,43736,6,0,L|364:252,1,160,2|8,0:0|0:0,0:0:0:0:
204,336,44186,1,2,0:0:0:0:
60,148,44336,1,2,0:0:0:0:
280,204,44486,1,8,0:0:0:0:
56,308,44636,1,2,0:0:0:0:
176,72,44786,1,8,0:0:0:0:
140,280,44936,6,0,L|132:220,1,40,4|0,2:0|0:0,0:0:0:0:
252,124,45086,2,0,P|248:156|248:184,1,40,0|0,2:0|0:0,0:0:0:0:
292,304,45236,2,0,L|348:288,1,40.4999987640381,6|0,0:0|0:0,0:0:0:0:
388,144,45386,2,0,L|432:160,1,40,12|0,0:0|0:0,0:0:0:0:
456,288,45536,1,6,0:0:0:0:
458,275,45611,1,2,0:0:0:0:
460,260,45686,5,8,0:0:0:0:
73,335,45836,1,8,0:0:0:0:
73,335,46136,6,0,P|12:248|88:128,1,259.999988098145,6|2,0:0|0:0,0:0:0:0:
360,208,46586,1,8,0:0:0:0:
228,20,46736,1,0,0:0:0:0:
132,216,46886,2,0,L|136:344,1,115.000002193451,2|2,0:0|0:0,0:0:0:0:
368,344,47186,1,8,0:0:0:0:
456,160,47336,1,0,0:0:0:0:
456,160,47486,6,0,P|404:140|340:148,1,115.000002193451,2|2,0:0|0:0,0:0:0:0:
156,276,47786,1,8,0:0:0:0:
368,360,47936,2,0,L|384:240,1,115.000002193451,0|2,0:0|0:0,0:0:0:0:
208,56,48236,1,2,0:0:0:0:
208,56,48386,1,8,0:0:0:0:
56,280,48536,6,0,P|168:296|256:180,1,259.999988098145,6|2,0:0|0:0,0:0:0:0:
400,184,48986,2,0,L|392:308,1,115.000002193451,8|0,0:0|0:0,0:0:0:0:
184,236,49286,1,2,0:0:0:0:
496,164,49436,1,2,0:0:0:0:
276,24,49586,2,0,L|284:152,1,115.000002193451,8|0,0:0|0:0,0:0:0:0:
456,192,49886,5,2,0:0:0:0:
200,264,50036,1,2,0:0:0:0:
444,368,50186,1,8,0:0:0:0:
196,268,50336,2,0,L|192:140,1,115.000002193451,0|2,0:0|0:0,0:0:0:0:
312,40,50636,1,2,0:0:0:0:
348,304,50786,2,0,L|352:352,1,42.5000008106232,8|0,0:0|0:0,0:0:0:0:
420,164,50936,6,0,L|288:140,1,129.999994049073,6|0,0:0|0:0,0:0:0:0:
120,312,51236,1,0,0:0:0:0:
40,128,51386,2,0,P|28:69|44:13,1,115.000002193451,8|0,0:0|0:0,0:0:0:0:
104,320,51686,1,2,0:0:0:0:
312,256,51836,1,2,0:0:0:0:
104,320,51986,2,0,L|48:308,1,42.5000008106232,8|0,0:0|0:0,0:0:0:0:
240,320,52136,6,0,P|300:328|360:280,1,129.999994049073,6|2,0:0|0:0,0:0:0:0:
456,84,52436,1,0,0:0:0:0:
236,40,52586,2,0,L|244:172,1,115.000002193451,8|0,0:0|0:0,0:0:0:0:
312,340,52886,1,2,0:0:0:0:
320,76,53036,1,2,0:0:0:0:
476,208,53186,1,8,0:0:0:0:
132,232,53336,6,0,L|409:210,1,259.999988098145,6|2,0:0|0:0,0:0:0:0:
240,12,53786,2,0,L|236:141,1,129.999994049073,8|2,0:0|0:0,0:0:0:0:
456,208,54086,5,8,0:0:0:0:
204,264,54236,1,2,0:0:0:0:
360,72,54386,5,8,0:0:0:0:
408,368,54536,1,2,0:0:0:0:
460,72,54686,5,8,0:0:0:0:
264,364,54836,1,2,0:0:0:0:
192,112,54986,5,8,0:0:0:0:
488,284,55136,1,2,0:0:0:0:
88,232,55286,5,2,0:0:0:0:
492,152,55436,1,8,0:0:0:0:
256,16,55586,1,2,0:0:0:0:
292,360,55736,6,0,B|284:308|300:276|300:276|280:248|280:248|296:216|284:156,1,200,6|2,0:0|0:0,0:0:0:0:
180,48,56186,6,0,L|304:40,1,120,2|0,0:0|0:0,0:0:0:0:
164,60,56486,1,2,0:0:0:0:
192,156,56786,2,0,L|68:148,1,120,2|0,0:0|0:0,0:0:0:0:
208,168,57086,1,2,0:0:0:0:
176,264,57386,2,0,L|300:256,1,120,2|0,0:0|0:0,0:0:0:0:
160,276,57686,5,2,0:0:0:0:
328,68,57836,1,2,0:0:0:0:
328,68,58136,1,4,0:0:0:0:
412,328,58286,5,2,0:0:0:0:
396,332,58586,2,0,B|400:232|400:232|416:248,1,120,2|0,0:0|0:0,0:0:0:0:
416,344,58886,1,2,0:0:0:0:
256,244,59186,2,0,B|252:144|252:144|236:160,1,120,2|0,0:0|0:0,0:0:0:0:
236,256,59486,1,2,0:0:0:0:
92,312,59786,2,0,B|96:212|96:212|112:228,1,120,2|0,0:0|0:0,0:0:0:0:
112,324,60086,5,2,0:0:0:0:
188,76,60236,1,4,0:0:0:0:
244,284,60386,1,2,0:0:0:0:
188,76,60536,2,0,B|264:60|264:60|304:76|304:76|360:64,1,160,4|2,0:0|0:0,0:0:0:0:
342,67,60986,6,0,B|332:152|332:152|348:192,1,120,2|0,0:0|0:0,0:0:0:0:
360,56,61286,1,2,0:0:0:0:
128,112,61586,2,0,B|138:196|138:196|122:236,1,120,2|0,0:0|0:0,0:0:0:0:
110,100,61886,6,0,B|100:144|100:144|136:352|136:352|52:264,1,359.999989013672,4|2,0:0|0:0,0:0:0:0:
268,164,62486,1,8,0:0:0:0:
500,248,62636,1,2,0:0:0:0:
268,204,62786,1,8,0:0:0:0:
266,231,62861,1,2,0:0:0:0:
266,263,62936,6,0,P|398:291|486:203,1,259.999988098145,6|2,0:0|0:0,0:0:0:0:
156,224,63386,2,0,L|148:344,1,119.999996337891,8|2,0:0|0:0,0:0:0:0:
240,140,63686,2,0,P|304:144|372:128,1,119.999996337891,8|2,0:0|0:0,0:0:0:0:
472,92,63986,1,8,0:0:0:0:
156,48,64136,6,0,P|96:192|148:284,1,259.999988098145,6|2,0:0|0:0,0:0:0:0:
360,204,64586,2,0,L|216:188,1,119.999996337891,8|2,0:0|0:0,0:0:0:0:
372,24,64886,1,8,0:0:0:0:
416,360,65036,1,8,0:0:0:0:
416,360,65336,6,0,P|334:308|242:340,1,200,6|2,0:0|0:0,0:0:0:0:
72,244,65786,2,0,L|77:358,1,100,8|0,0:0|0:0,0:0:0:0:
200,204,66086,1,2,0:0:0:0:
136,84,66236,1,2,0:0:0:0:
136,84,66386,2,0,L|24:72,1,100,8|0,0:0|0:0,0:0:0:0:
204,204,66686,5,2,0:0:0:0:
232,44,66836,1,2,0:0:0:0:
368,108,66986,2,0,L|480:96,1,100,8|0,0:0|0:0,0:0:0:0:
236,36,67286,1,2,0:0:0:0:
184,272,67436,1,2,0:0:0:0:
56,136,67586,1,8,0:0:0:0:
184,272,67736,2,0,P|279:254|312:144,1,200,2|2,0:0|0:0,0:0:0:0:
444,332,68186,6,0,L|448:212,1,100,8|0,0:0|0:0,0:0:0:0:
220,68,68486,1,2,0:0:0:0:
220,68,68636,2,0,L|216:188,1,100,2|8,0:0|0:0,0:0:0:0:
460,344,68936,2,0,L|464:224,1,100,0|2,0:0|0:0,0:0:0:0:
416,80,69236,1,2,0:0:0:0:
212,168,69386,1,8,0:0:0:0:
424,224,69536,1,0,0:0:0:0:
296,20,69686,5,2,0:0:0:0:
276,264,69836,1,6,0:0:0:0:
312,20,69986,1,8,0:0:0:0:
264,284,70136,6,0,P|176:296|100:220,1,200,6|2,0:0|0:0,0:0:0:0:
364,236,70586,2,0,L|376:352,1,100,8|0,0:0|0:0,0:0:0:0:
304,16,70886,1,2,0:0:0:0:
196,168,71036,1,2,0:0:0:0:
380,248,71186,2,0,L|488:232,1,100,8|0,0:0|0:0,0:0:0:0:
416,32,71486,5,2,0:0:0:0:
292,164,71636,1,2,0:0:0:0:
164,36,71786,2,0,L|148:152,1,100,8|0,0:0|0:0,0:0:0:0:
372,308,72086,5,2,0:0:0:0:
240,216,72236,1,2,0:0:0:0:
492,96,72386,1,8,0:0:0:0:
248,40,72536,6,0,P|308:156|420:136,1,239.999992675781,6|2,0:0|0:0,0:0:0:0:
140,56,72986,1,8,0:0:0:0:
168,268,73136,1,2,0:0:0:0:
332,216,73286,1,8,0:0:0:0:
52,136,73436,1,2,0:0:0:0:
340,52,73586,1,8,0:0:0:0:
456,296,73736,6,0,P|360:332|240:260,1,239.999992675781,2|2,0:0|0:0,0:0:0:0:
80,84,74186,2,0,L|76:216,1,119.999996337891,8|2,0:0|0:0,0:0:0:0:
204,372,74486,1,8,0:0:0:0:
224,48,74636,1,2,0:0:0:0:
36,268,74786,1,2,0:0:0:0:
344,224,74936,6,0,B|408:208|484:212|484:212|436:188,1,179.999994506836,6|8,0:0|0:0,0:0:0:0:
280,132,75386,1,2,0:0:0:0:
280,132,75536,1,2,0:0:0:0:
280,132,75686,2,0,B|220:116|140:120|140:120|188:96,1,179.999994506836,8|2,0:0|0:0,0:0:0:0:
364,64,76136,2,0,P|388:141|335:231,1,179.999994506836,2|2,0:0|0:0,0:0:0:0:
258,253,76586,2,0,P|184:200|88:232,2,179.999994506836,2|8|2,0:0|0:0|0:0,0:0:0:0:
167,301,77336,6,0,P|240:356|336:324,1,179.999994506836,2|2,0:0|0:0,0:0:0:0:
440,268,77786,2,0,L|444:368,1,89.9999972534181,2|0,0:0|0:0,0:0:0:0:
348,240,78086,2,0,L|360:48,1,179.999994506836,8|2,0:0|0:0,0:0:0:0:
432,112,78536,2,0,P|340:144|276:96,1,179.999994506836,2|8,0:0|0:0,0:0:0:0:
208,44,78986,1,2,0:0:0:0:
144,108,79136,1,2,0:0:0:0:
120,20,79286,5,8,0:0:0:0:
252,216,79436,1,2,0:0:0:0:
16,232,79586,1,8,0:0:0:0:
120,20,79736,6,0,B|148:80|80:124|128:204,1,179.999994506836,6|2,0:0|0:0,0:0:0:0:
218,286,80186,2,0,P|174:295|132:284,1,89.9999972534181,2|0,0:0|0:0,0:0:0:0:
276,220,80486,2,0,P|308:300|252:376,1,179.999994506836,8|2,0:0|0:0,0:0:0:0:
196,204,80936,2,0,P|164:124|220:48,1,179.999994506836,2|2,0:0|0:0,0:0:0:0:
252,132,81386,2,0,P|292:96|304:44,1,89.9999972534181,2|0,0:0|0:0,0:0:0:0:
168,124,81686,2,0,L|176:320,1,179.999994506836,8|2,0:0|0:0,0:0:0:0:
244,364,82136,2,0,B|292:308|380:328|380:328|324:368,1,179.999994506836,2|8,0:0|0:0,0:0:0:0:
80,368,82586,2,0,L|72:276,1,89.9999972534181,2|2,0:0|0:0,0:0:0:0:
56,148,82886,5,8,0:0:0:0:
280,44,83036,1,2,0:0:0:0:
256,292,83186,1,8,0:0:0:0:
144,84,83336,6,0,L|148:144,1,44.999998626709,6|0,0:0|0:0,0:0:0:0:
388,40,83486,2,0,L|385:84,1,44.999998626709,4|0,0:0|0:0,0:0:0:0:
124,68,83636,2,0,L|128:128,1,44.999998626709,6|0,0:0|0:0,0:0:0:0:
404,24,83786,2,0,L|401:68,1,44.999998626709,6|0,0:0|0:0,0:0:0:0:
388,208,83936,1,6,0:0:0:0:
387,225,84011,1,2,0:0:0:0:
385,242,84086,5,8,0:0:0:0:
24,181,84236,1,8,0:0:0:0:
24,180,84536,6,0,P|84:272|220:216,1,259.999988098145,6|2,0:0|0:0,0:0:0:0:
336,52,84986,1,8,0:0:0:0:
440,308,85136,2,0,L|448:184,1,115.000002193451,0|2,0:0|0:0,0:0:0:0:
336,52,85436,1,2,0:0:0:0:
136,224,85586,2,0,P|68:224|16:192,1,115.000002193451,8|0,0:0|0:0,0:0:0:0:
336,52,85886,6,0,L|340:168,1,115.000002193451,2|2,0:0|0:0,0:0:0:0:
144,336,86186,1,8,0:0:0:0:
260,100,86336,1,0,0:0:0:0:
360,340,86486,2,0,P|420:332|464:292,1,115.000002193451,2|2,0:0|0:0,0:0:0:0:
460,24,86786,1,8,0:0:0:0:
280,268,86936,6,0,P|220:296|68:200,1,259.999988098145,6|2,0:0|0:0,0:0:0:0:
216,32,87386,2,0,L|224:160,1,115.000002193451,8|0,0:0|0:0,0:0:0:0:
232,348,87686,1,2,0:0:0:0:
404,180,87836,1,2,0:0:0:0:
96,156,87986,2,0,L|104:284,1,115.000002193451,8|0,0:0|0:0,0:0:0:0:
236,364,88286,5,2,0:0:0:0:
328,136,88436,1,2,0:0:0:0:
476,336,88586,2,0,L|492:208,1,115.000002193451,8|0,0:0|0:0,0:0:0:0:
204,124,88886,1,2,0:0:0:0:
472,60,89036,1,2,0:0:0:0:
176,140,89186,2,0,L|172:204,1,42.5000008106232,8|0,0:0|0:0,0:0:0:0:
372,72,89336,6,0,P|244:36|232:44,1,129.999994049073,6|2,0:0|0:0,0:0:0:0:
36,80,89636,1,0,0:0:0:0:
160,260,89786,2,0,L|148:380,1,115.000002193451,8|0,0:0|0:0,0:0:0:0:
220,120,90086,1,2,0:0:0:0:
308,332,90236,1,2,0:0:0:0:
440,128,90386,2,0,L|432:84,1,42.5000008106232,8|0,0:0|0:0,0:0:0:0:
476,256,90536,6,0,P|415:274|357:247,1,129.999994049073,6|2,0:0|0:0,0:0:0:0:
212,68,90836,1,0,0:0:0:0:
56,236,90986,2,0,L|40:116,1,115.000002193451,8|0,0:0|0:0,0:0:0:0:
172,328,91286,1,2,0:0:0:0:
380,168,91436,1,2,0:0:0:0:
156,68,91586,1,8,0:0:0:0:
364,296,91736,6,0,P|484:240|476:84,1,259.999988098145,6|2,0:0|0:0,0:0:0:0:
176,32,92186,2,8,L|180:164,1,129.999994049073,8|2,0:0|0:0,0:0:0:0:
312,336,92486,5,8,0:0:0:0:
412,56,92636,1,2,0:0:0:0:
144,168,92786,5,8,0:0:0:0:
464,244,92936,1,2,0:0:0:0:
304,8,93086,5,8,0:0:0:0:
228,336,93236,1,2,0:0:0:0:
472,112,93386,5,8,0:0:0:0:
144,132,93536,1,2,0:0:0:0:
324,248,93686,5,2,0:0:0:0:
288,32,93836,1,8,0:0:0:0:
328,260,93986,1,2,0:0:0:0:
428,56,94136,6,0,L|424:216,1,139.999995727539,6|2,0:0|0:0,0:0:0:0:
408,44,94586,6,0,L|404:176,1,129.999994049073,8|2,0:0|0:0,0:0:0:0:
188,360,94886,2,0,L|184:228,1,129.999994049073,8|2,0:0|0:0,0:0:0:0:
72,64,95186,2,0,P|128:28|204:32,1,129.999994049073,8|2,0:0|0:0,0:0:0:0:
444,312,95486,2,0,P|360:288|328:244,1,129.999994049073,8|2,0:0|0:0,0:0:0:0:
168,104,95786,2,0,P|144:160|160:236,1,129.999994049073,8|2,0:0|0:0,0:0:0:0:
432,16,96086,5,8,0:0:0:0:
154,226,96236,1,2,0:0:0:0:
488,224,96386,1,8,0:0:0:0:
240,36,96536,6,0,B|208:44|176:32|176:32|148:56|148:56|128:48|64:48,1,160,6|2,0:0|0:0,0:0:0:0:
240,36,96986,6,0,L|248:172,1,129.999994049073,8|2,0:0|0:0,0:0:0:0:
420,336,97286,2,0,L|288:324,1,129.999994049073,8|2,0:0|0:0,0:0:0:0:
84,68,97586,2,0,B|144:44|144:44|216:56,1,129.999994049073,8|2,0:0|0:0,0:0:0:0:
236,288,97886,2,0,B|176:312|176:312|104:300,1,129.999994049073,8|2,0:0|0:0,0:0:0:0:
398,54,98186,2,0,L|386:202,1,129.999994049073,8|2,0:0|0:0,0:0:0:0:
120,120,98486,5,8,0:0:0:0:
388,184,98636,1,2,0:0:0:0:
48,336,98786,1,8,0:0:0:0:
348,368,98936,6,0,B|344:312|344:312|324:288|324:288|328:260|320:208,1,160,6|2,0:0|0:0,0:0:0:0:
420,56,99386,6,0,P|304:6|196:69,1,259.999988098145,8|2,0:0|0:0,0:0:0:0:
140,288,99836,1,2,0:0:0:0:
308,196,99986,1,8,0:0:0:0:
196,68,100136,6,0,L|200:228,1,160,2|2,0:0|0:0,0:0:0:0:
92,328,100586,6,0,P|207:377|315:314,1,259.999988098145,8|2,0:0|0:0,0:0:0:0:
380,144,101036,1,2,0:0:0:0:
216,16,101186,1,8,0:0:0:0:
132,260,101336,6,0,B|136:192|136:192|120:164|120:164|124:96,1,160,6|2,0:0|0:0,0:0:0:0:
344,24,101786,5,8,0:0:0:0:
120,176,101936,1,2,0:0:0:0:
372,188,102086,5,8,0:0:0:0:
100,368,102236,1,2,0:0:0:0:
280,144,102386,5,8,0:0:0:0:
24,80,102536,1,2,0:0:0:0:
272,336,102686,5,8,0:0:0:0:
184,44,102836,1,2,0:0:0:0:
0,216,102986,5,8,0:0:0:0:
240,364,103136,1,2,0:0:0:0:
364,44,103286,5,2,0:0:0:0:
384,376,103436,1,2,0:0:0:0:
144,180,103586,1,2,0:0:0:0:
488,216,103736,5,6,0:0:0:0:
256,192,103811,12,0,104786,0:0:0:0:
488,216,104936,6,0,L|296:208,1,160,2|2,0:0|0:0,0:0:0:0:
260,112,105386,2,0,P|256:68|264:32,1,80,8|2,0:0|0:0,0:0:0:0:
208,212,105686,2,0,P|168:240|108:240,1,80,8|2,0:0|0:0,0:0:0:0:
20,236,105986,1,8,0:0:0:0:
240,360,106136,5,6,0:0:0:0:
256,192,106211,12,0,107186,0:0:0:0:
248,352,107336,6,0,L|251:192,1,160,2|8,0:0|0:0,0:0:0:0:
316,84,107786,2,0,P|360:84|400:100,1,80,2|2,0:0|0:0,0:0:0:0:
112,200,108086,1,8,0:0:0:0:
316,84,108236,1,2,0:0:0:0:
164,64,108386,1,8,0:0:0:0:
328,232,108536,5,6,0:0:0:0:
256,192,108611,12,0,109586,0:0:0:0:
323,102,109736,6,0,L|328:280,1,160,2|8,0:0|0:0,0:0:0:0:
148,192,110186,2,0,P|192:196|252:188,1,80,2|2,0:0|0:0,0:0:0:0:
64,112,110486,1,8,0:0:0:0:
24,308,110636,1,2,0:0:0:0:
200,248,110786,1,8,0:0:0:0:
64,112,110936,6,0,L|72:220,1,100,6|2,0:0|0:0,0:0:0:0:
224,352,111386,1,8,0:0:0:0:
448,188,111536,1,2,0:0:0:0:
144,168,111686,1,8,0:0:0:0:
300,36,111836,1,2,0:0:0:0:
356,328,111986,1,8,0:0:0:0:
472,176,112136,6,0,L|464:240,1,50,6|0,0:0|0:0,0:0:0:0:
268,192,112286,2,0,L|236:148,1,50,2|0,0:0|0:0,0:0:0:0:
340,28,112436,2,0,P|363:18|387:12,1,50
384,160,112586,1,12,0:0:0:0:
380,208,112661,1,0,0:0:0:0:
376,256,112736,1,6,0:0:0:0:
372,304,112811,1,0,0:0:0:0:
368,352,112886,5,8,0:0:0:0:
32,264,113036,1,8,0:0:0:0:
32,264,113336,6,0,P|124:176|232:228,1,250,6|2,0:0|0:0,0:0:0:0:
260,264,113711,1,0,0:0:0:0:
308,292,113786,1,12,0:0:0:0:
364,304,113861,1,0,0:0:0:0:
416,288,113936,1,0,0:0:0:0:
456,248,114011,1,0,0:0:0:0:
468,196,114086,6,0,L|464:128,1,62.5,6|0,0:0|0:0,0:0:0:0:
224,24,114236,2,0,L|221:87,1,62.5,2|0,0:0|0:0,0:0:0:0:
492,184,114386,2,0,L|488:116,1,62.5,12|0,0:0|0:0,0:0:0:0:
204,16,114536,2,0,L|201:79,1,62.5
356,216,114686,6,0,L|352:91,1,125,6|2,0:0|0:0,0:0:0:0:
444,300,114986,2,0,P|356:240|212:284,1,250,8|2,0:0|0:0,0:0:0:0:
56,344,115436,1,6,0:0:0:0:
96,72,115586,1,8,0:0:0:0:
304,248,115736,2,0,L|300:124,1,125,6|0,0:0|0:0,0:0:0:0:
500,128,116036,5,6,0:0:0:0:
180,188,116186,1,12,0:0:0:0:
504,148,116336,1,4,0:0:0:0:
172,160,116486,5,2,0:0:0:0:
440,320,116636,1,6,0:0:0:0:
300,40,116786,1,8,0:0:0:0:
200,332,116936,5,4,0:0:0:0:
420,188,117086,1,2,0:0:0:0:
68,128,117236,1,6,0:0:0:0:
264,20,117386,2,0,L|260:148,1,125,8|0,0:0|0:0,0:0:0:0:
292,356,117686,5,2,0:0:0:0:
100,112,117836,1,2,0:0:0:0:
400,152,117986,1,12,0:0:0:0:
112,316,118136,1,2,0:0:0:0:
280,68,118286,5,6,0:0:0:0:
280,68,118436,1,4,0:0:0:0:
344,308,118586,1,12,0:0:0:0:
108,232,118736,1,6,0:0:0:0:
280,64,118886,2,0,P|343:59|416:56,2,125,2|4|8,0:0|0:0|0:0,0:0:0:0:
116,312,119336,6,0,P|232:316|304:204,1,250,6|2,0:0|0:0,0:0:0:0:
156,64,119786,1,12,0:0:0:0:
232,356,119936,1,4,0:0:0:0:
408,88,120086,1,2,0:0:0:0:
64,208,120236,2,0,P|68:276|76:348,1,125,6|8,0:0|0:0,0:0:0:0:
197,59,120536,6,0,P|272:140|208:264,1,250,6|2,0:0|0:0,0:0:0:0:
112,324,120986,5,12,0:0:0:0:
304,68,121136,1,6,0:0:0:0:
320,304,121286,5,8,0:0:0:0:
84,112,121436,1,4,0:0:0:0:
96,344,121586,5,8,0:0:0:0:
324,44,121736,1,6,0:0:0:0:
340,320,121886,5,8,0:0:0:0:
48,72,122036,1,6,0:0:0:0:
64,360,122186,5,8,0:0:0:0:
344,24,122336,1,2,0:0:0:0:
28,60,122486,5,10,0:0:0:0:
296,228,122636,1,8,0:0:0:0:
120,192,122786,1,8,0:0:0:0:
452,206,122936,2,0,L|456:144,1,62.5,2|0,0:0|0:0,0:0:0:0:
460,64,123086,5,12,0:0:0:0:
428,68,123161,1,0,0:0:0:0:
400,84,123236,1,2,0:0:0:0:
380,108,123311,1,0,0:0:0:0:
372,136,123386,1,12,0:0:0:0:
372,168,123461,1,0,0:0:0:0:
380,196,123536,1,2,0:0:0:0:
400,220,123611,1,0,0:0:0:0:
424,240,123686,5,12,0:0:0:0:
376,228,123761,1,0,0:0:0:0:
340,264,123836,1,2,0:0:0:0:
308,304,123911,1,0,0:0:0:0:
260,312,123986,1,12,0:0:0:0:
212,296,124061,1,0,0:0:0:0:
184,256,124136,1,2,0:0:0:0:
184,208,124211,1,0,0:0:0:0:
212,168,124286,5,12,0:0:0:0:
160,200,124361,1,0,0:0:0:0:
96,192,124436,1,2,0:0:0:0:
60,140,124511,1,0,0:0:0:0:
72,80,124586,1,12,0:0:0:0:
128,48,124661,1,0,0:0:0:0:
188,64,124736,1,2,0:0:0:0:
200,124,124811,1,0,0:0:0:0:
248,164,124886,1,6,0:0:0:0:
312,156,124961,1,0,0:0:0:0:
348,112,125036,1,0,0:0:0:0:
340,48,125111,1,0,0:0:0:0:
296,16,125186,5,6,0:0:0:0:
312,88,125261,1,0,0:0:0:0:
380,120,125336,1,6,0:0:0:0:
456,112,125411,1,0,0:0:0:0:
496,48,125486,2,0,L|508:116,1,62.5,4|0,0:0|0:0,0:0:0:0:
408,316,125636,5,2,0:0:0:0:
348,308,125711,1,0,0:0:0:0:
288,288,125786,2,0,L|292:212,1,62.5,12|0,0:0|0:0,0:0:0:0:
260,52,125936,1,2,0:0:0:0:
208,16,126011,1,0,0:0:0:0:
144,12,126086,1,12,0:0:0:0:
84,32,126161,1,0,0:0:0:0:
40,76,126236,2,0,L|28:156,1,62.5,2|0,0:0|0:0,0:0:0:0:
16,284,126386,6,0,P|34:309|58:329,1,62.5,12|0,0:0|0:0,0:0:0:0:
200,288,126536,2,0,P|204:260|216:224,1,62.5,2|0,0:0|0:0,0:0:0:0:
376,236,126686,2,0,P|385:265|390:296,1,62.5,12|0,0:0|0:0,0:0:0:0:
272,72,126836,2,0,P|296:60|336:56,1,62.5,2|0,0:0|0:0,0:0:0:0:
480,88,126986,6,0,L|476:216,1,125,12|2,0:0|0:0,0:0:0:0:
80,352,127286,1,2,0:0:0:0:
416,308,127436,1,2,0:0:0:0:
68,160,127586,1,2,0:0:0:0:
400,112,127736,6,0,P|316:32|188:68,1,250,6|2,0:0|0:0,0:0:0:0:
272,352,128186,2,0,L|472:340,1,200,8|2,0:0|0:0,0:0:0:0:
144,256,128636,1,2,0:0:0:0:
144,256,128786,1,8,0:0:0:0:
307,148,128936,2,0,P|312:200|320:248,1,100,2|4,0:0|0:0,0:0:0:0:
152,44,129236,2,0,P|147:95|139:143,1,100,2|12,0:0|0:0,0:0:0:0:
392,28,129536,2,0,L|272:20,1,100,0|6,0:0|0:0,0:0:0:0:
468,144,129836,1,6,0:0:0:0:
360,244,129986,6,0,L|353:343,1,100,8|6,0:0|0:0,0:0:0:0:
468,144,130286,1,4,0:0:0:0:
208,164,130436,1,2,0:0:0:0:
468,144,130586,6,0,L|328:132,1,125,8|6,0:0|0:0,0:0:0:0:
140,344,130886,2,0,L|280:332,1,125,8|6,0:0|0:0,0:0:0:0:
428,64,131186,5,8,0:0:0:0:
184,316,131336,1,6,0:0:0:0:
192,48,131486,1,8,0:0:0:0:
464,260,131636,1,6,0:0:0:0:
312,24,131786,5,12,0:0:0:0:
256,360,131936,1,2,0:0:0:0:
84,124,132086,1,6,0:0:0:0:
456,200,132236,1,2,0:0:0:0:
176,280,132386,1,2,0:0:0:0:
438,50,132536,6,0,B|436:80|424:100|424:100|448:136|448:136|432:160|432:204,1,150,6|0,0:0|0:0,0:0:0:0:
428,196,134486,5,8,0:0:0:0:
140,156,134636,1,8,0:0:0:0:
448,192,134786,1,8,0:0:0:0:
152,128,134936,6,0,P|220:40|368:84,1,279.999991455078,6|0,0:0|0:0,0:0:0:0:
444,300,135386,1,8,0:0:0:0:
88,336,135536,1,0,0:0:0:0:
264,144,135686,2,0,L|256:276,1,125,2|2,0:0|0:0,0:0:0:0:
280,20,135986,1,8,0:0:0:0:
440,160,136136,1,0,0:0:0:0:
176,220,136286,6,0,P|104:208|52:156,1,125,2|2,0:0|0:0,0:0:0:0:
432,180,136586,1,8,0:0:0:0:
196,352,136736,2,0,P|136:364|64:348,1,125,0|2,0:0|0:0,0:0:0:0:
104,24,137036,1,2,0:0:0:0:
104,24,137186,1,8,0:0:0:0:
64,236,137336,6,0,P|124:248|252:120,1,250,4|2,0:0|0:0,0:0:0:0:
424,52,137786,2,0,L|420:176,1,125,8|0,0:0|0:0,0:0:0:0:
400,356,138086,1,2,0:0:0:0:
240,84,138236,1,2,0:0:0:0:
184,352,138386,2,0,P|124:352|60:308,1,125,8|0,0:0|0:0,0:0:0:0:
100,132,138686,5,2,0:0:0:0:
404,88,138836,1,2,0:0:0:0:
172,296,138986,1,8,0:0:0:0:
304,28,139136,1,0,0:0:0:0:
472,224,139286,2,0,B|464:356,1,125,2|2,0:0|0:0,0:0:0:0:
240,232,139586,2,0,L|236:160,1,42.5000008106232,8|0,0:0|0:0,0:0:0:0:
72,40,139736,6,0,L|60:184,1,135.000000514984,6|2,0:0|0:0,0:0:0:0:
280,320,140036,1,0,0:0:0:0:
460,144,140186,2,0,L|472:16,1,125,8|0,0:0|0:0,0:0:0:0:
268,64,140486,1,2,0:0:0:0:
328,332,140636,1,2,0:0:0:0:
92,204,140786,2,0,L|152:200,1,42.5000008106232,8|0,0:0|0:0,0:0:0:0:
472,200,140936,6,0,L|332:184,1,135.000000514984,6|2,0:0|0:0,0:0:0:0:
152,48,141236,1,0,0:0:0:0:
52,252,141386,2,0,P|48:320|72:388,1,125,8|0,0:0|0:0,0:0:0:0:
376,248,141686,1,2,0:0:0:0:
128,112,141836,1,2,0:0:0:0:
360,12,141986,1,8,0:0:0:0:
272,288,142136,6,0,P|176:312|72:184,1,270.000001029968,6|2,0:0|0:0,0:0:0:0:
420,188,142586,2,0,L|427:322,1,135.000000514984,8|2,0:0|0:0,0:0:0:0:
128,256,142886,5,8,0:0:0:0:
304,24,143036,1,2,0:0:0:0:
440,260,143186,5,8,0:0:0:0:
136,80,143336,1,2,0:0:0:0:
408,80,143486,5,8,0:0:0:0:
256,344,143636,1,2,0:0:0:0:
80,164,143786,5,8,0:0:0:0:
492,120,143936,1,2,0:0:0:0:
136,304,144086,5,8,0:0:0:0:
288,16,144236,1,2,0:0:0:0:
408,316,144386,1,8,0:0:0:0:
280,52,144536,6,0,B|272:104|292:136|292:136|276:160|276:160|292:192|288:248,1,179.999994506836,6|2,0:0|0:0,0:0:0:0:
248,32,144986,6,0,L|252:172,1,139.999995727539,8|2,0:0|0:0,0:0:0:0:
236,356,145286,1,8,0:0:0:0:
448,104,145436,1,2,0:0:0:0:
128,152,145586,1,8,0:0:0:0:
428,304,145736,1,2,0:0:0:0:
300,44,145886,6,0,L|296:184,1,139.999995727539,8|2,0:0|0:0,0:0:0:0:
160,360,146186,1,8,0:0:0:0:
52,168,146336,1,2,0:0:0:0:
220,48,146486,5,8,0:0:0:0:
156,360,146636,1,2,0:0:0:0:
432,260,146786,1,8,0:0:0:0:
52,168,146936,6,0,P|44:80|120:32,1,179.999994506836,6|2,0:0|0:0,0:0:0:0:
52,168,147386,6,0,L|196:152,1,139.999995727539,8|2,0:0|0:0,0:0:0:0:
396,48,147686,1,8,0:0:0:0:
360,348,147836,1,2,0:0:0:0:
191,152,147986,1,8,0:0:0:0:
512,128,148136,1,2,0:0:0:0:
348,352,148286,6,0,L|356:208,1,139.999995727539,8|2,0:0|0:0,0:0:0:0:
92,124,148586,2,0,L|84:264,1,139.999995727539,8|2,0:0|0:0,0:0:0:0:
116,16,148886,1,8,0:0:0:0:
448,132,149036,1,2,0:0:0:0:
84,263,149186,1,8,0:0:0:0:
256,36,149336,6,0,B|260:88|252:112|252:112|268:136|268:136|256:172|264:216,1,179.999994506836,6|2,0:0|0:0,0:0:0:0:
256,36,149786,6,0,P|328:16|396:32,1,129.999994049073,8|0,0:0|0:0,0:0:0:0:
296,244,150086,1,2,0:0:0:0:
208,320,150236,1,2,0:0:0:0:
96,304,150386,1,8,0:0:0:0:
32,208,150536,6,0,P|12:136|48:24,1,179.999994506836,6|2,0:0|0:0,0:0:0:0:
376,112,150986,2,0,B|256:144|256:144|112:120,1,259.999988098145,8|2,0:0|0:0,0:0:0:0:
152,344,151436,1,2,0:0:0:0:
232,56,151586,1,8,0:0:0:0:
352,272,151736,6,0,P|448:248|472:172,1,179.999994506836,6|2,0:0|0:0,0:0:0:0:
132,44,152186,6,0,P|196:28|264:16,1,129.999994049073,8|2,0:0|0:0,0:0:0:0:
424,232,152486,2,0,P|360:220|296:204,1,129.999994049073,8|2,0:0|0:0,0:0:0:0:
86,257,152786,1,8,0:0:0:0:
271,60,152936,1,2,0:0:0:0:
281,345,153086,1,8,0:0:0:0:
115,79,153236,1,2,0:0:0:0:
409,207,153386,5,8,0:0:0:0:
154,365,153536,1,2,0:0:0:0:
174,0,153686,1,2,0:0:0:0:
438,85,153836,1,2,0:0:0:0:
51,227,153986,1,2,0:0:0:0:
400,332,154136,6,0,B|396:288|416:252|416:252|384:216|384:216|376:188|392:144,1,200,6|8,0:0|0:0,0:0:0:0:
432,56,154586,1,2,0:0:0:0:
432,56,154661,1,2,0:0:0:0:
432,56,154736,1,2,0:0:0:0:
276,128,154886,2,0,P|208:136|92:60,1,200,8|2,0:0|0:0,0:0:0:0:
308,40,155336,2,0,L|320:260,1,200,2|8,0:0|0:0,0:0:0:0:
332,340,155786,1,2,0:0:0:0:
332,340,155861,1,2,0:0:0:0:
332,340,155936,1,2,0:0:0:0:
284,208,156086,6,0,P|240:168|96:168,1,200,8|2,0:0|0:0,0:0:0:0:
200,304,156536,2,0,L|404:292,1,200,2|8,0:0|0:0,0:0:0:0:
428,56,156986,1,2,0:0:0:0:
416,156,157136,1,2,0:0:0:0:
320,180,157286,2,0,B|244:160|244:160|196:184|196:184|112:168,1,200,8|2,0:0|0:0,0:0:0:0:
344,100,157736,2,0,P|344:216|348:304,1,200,2|8,0:0|0:0,0:0:0:0:
148,340,158186,1,2,0:0:0:0:
148,340,158261,1,2,0:0:0:0:
148,340,158336,1,2,0:0:0:0:
208,32,158486,5,8,0:0:0:0:
148,340,158636,1,8,0:0:0:0:
404,164,158786,1,2,0:0:0:0:
48,196,158936,1,6,0:0:0:0:
256,192,159011,12,0,160286,0:0:0:0:
