osu file format v14

[General]
AudioFilename: 08 - Moon Light Wave.mp3
AudioLeadIn: 0
PreviewTime: 45694
Countdown: 0
SampleSet: Soft
StackLeniency: 0.7
Mode: 0
LetterboxInBreaks: 1
WidescreenStoryboard: 0

[Editor]
Bookmarks: 115744
DistanceSpacing: 1
BeatDivisor: 4
GridSize: 4
TimelineZoom: 3.299999

[Metadata]
Title:MOON LIGHT WAVE
TitleUnicode:MOON LIGHT WAVE
Artist:BLOOD STAIN CHILD
ArtistUnicode:BLOOD STAIN CHILD
Creator:Silleth
Version:Easy
Source:
Tags:snepif winber1 Ettore Rigotti epsilon sophia melodic alternative metal everything will fade away moonlight
BeatmapID:674624
BeatmapSetID:296543

[Difficulty]
HPDrainRate:3
CircleSize:2.8
OverallDifficulty:3.5
ApproachRate:4
SliderMultiplier:1
SliderTickRate:1

[Events]
//Background and Video events
0,0,"BG.png",0,0
//Break Periods
2,5536,13616
2,55935,60566
2,132735,133616
//Storyboard Layer 0 (Background)
//Storyboard Layer 1 (Fail)
//Storyboard Layer 2 (Pass)
//Storyboard Layer 3 (Foreground)
//Storyboard Sound Samples

[TimingPoints]
686,300,4,2,2,80,1,0
4286,-100,4,2,2,80,0,0
5336,-100,4,2,1,80,0,0
17336,-100,4,2,1,65,0,0
23486,-100,4,2,1,70,0,0
24536,-100,4,2,2,80,0,0
46136,-100,4,2,2,80,0,1
55286,-100,4,2,3,80,0,1
55736,-100,4,2,2,80,0,0
84536,-100,4,2,2,80,0,1
103286,-100,4,2,2,80,0,1
103736,-100,4,2,2,80,0,0
113336,-100,4,2,2,80,0,1
113636,-100,4,2,1,80,0,1
118286,-100,4,2,2,80,0,1
118436,-100,4,2,1,80,0,1
119336,-100,4,2,2,80,0,1
119636,-100,4,2,1,80,0,1
120536,-100,4,2,2,80,0,1
120836,-100,4,2,1,80,0,1
122486,-100,4,2,3,80,0,1
123086,-100,4,2,1,80,0,1
125336,-100,4,2,2,80,0,1
125411,-100,4,2,1,80,0,1
127286,-100,4,2,2,80,0,1
128936,-100,4,2,1,80,0,1
132536,-100,4,2,2,80,0,0
134486,-100,4,2,2,70,0,0
134936,-100,4,2,2,80,0,1
153686,-100,4,2,2,80,0,1
154136,-100,4,2,2,80,0,0
160286,-100,4,2,2,25,0,0

[Colours]
Combo1 : 81,136,238
Combo2 : 243,78,123
Combo3 : 148,115,247
Combo4 : 236,119,196

[HitObjects]
284,304,536,6,0,L|448:292,2,150,2|8|2,0:0|0:0|0:0,0:0:0:0:
184,292,1736,2,0,P|132:256|116:156,1,150,2|8,0:0|0:0,0:0:0:0:
212,192,2486,6,0,P|260:152|264:48,2,150,2|6|8,0:0|0:0|0:0,0:0:0:0:
111,175,3686,2,0,L|107:291,1,100,2|8,0:0|0:0,0:0:0:0:
192,328,4286,5,8,0:0:0:0:
340,312,4736,2,0,P|360:260|356:204,2,100,2|2|4,0:0|0:0|1:0,0:0:0:0:
256,192,14936,12,2,16136,0:0:0:0:
392,316,17336,6,0,P|316:320|232:288,1,150,4|8,1:0|0:0,0:0:0:0:
164,240,18086,2,0,L|172:68,2,150,2|0|8,0:0|0:0|0:0,0:0:0:0:
264,232,19286,1,2,0:0:0:0:
404,284,19736,2,0,P|432:232|420:124,1,150,2|8,0:0|0:0,0:0:0:0:
348,84,20486,6,0,L|228:72,1,100,2|8,0:0|0:0,0:0:0:0:
148,88,21086,2,0,P|140:156|140:200,1,100,0|8,0:0|0:0,0:0:0:0:
128,288,21686,2,0,P|232:288|288:256,2,150,2|4|8,0:0|0:0|0:0,0:0:0:0:
52,216,22886,6,0,L|48:96,1,100,2|8,0:0|0:0,0:0:0:0:
132,48,23486,2,0,L|352:56,1,200,2|2,0:0|0:0,0:0:0:0:
432,168,24536,6,0,P|436:241|390:297,1,150,6|10,0:0|0:0,0:0:0:0:
284,296,25286,2,0,P|235:229|252:156,2,150,2|2|8,0:0|0:0|0:0,0:0:0:0:
340,212,26486,2,0,L|340:56,1,150,8|6,0:0|0:0,0:0:0:0:
192,44,27386,6,0,P|132:48|88:84,1,100,8|2,0:0|0:0,0:0:0:0:
60,160,27986,1,8,0:0:0:0:
148,208,28286,2,0,L|156:320,1,100,2|8,0:0|0:0,0:0:0:0:
244,352,28886,2,0,P|324:352|376:284,1,150,0|2,0:0|0:0,0:0:0:0:
296,176,29786,6,0,L|284:276,2,100,8|2|8,0:0|0:0|0:0,0:0:0:0:
268,80,30686,2,0,P|208:68|156:68,1,100,2|8,0:0|0:0,0:0:0:0:
72,88,31286,1,0,0:0:0:0:
100,236,31736,2,0,P|200:232|256:204,1,150,2|8,0:0|0:0,0:0:0:0:
296,128,32486,5,2,0:0:0:0:
396,136,32786,1,8,0:0:0:0:
428,232,33086,2,0,P|384:324|232:328,1,250,2|0,0:0|0:0,0:0:0:0:
164,284,34136,6,0,L|160:120,1,150,6|8,0:0|0:0,0:0:0:0:
220,52,34886,2,0,P|292:96|372:92,2,150,8|2|8,0:0|0:0|0:0,0:0:0:0:
120,48,36086,2,0,P|92:136|104:200,1,150,8|6,0:0|0:0,0:0:0:0:
328,300,37286,6,0,B|228:256|208:340|124:284,2,200,8|0|8,0:0|0:0|0:0,0:0:0:0:
408,172,38936,2,0,P|324:140|248:140,1,150,2|2,0:0|0:0,0:0:0:0:
200,216,39686,2,0,P|160:120|220:44,2,200,8|0|8,0:0|0:0|0:0,0:0:0:0:
328,296,41336,2,0,P|372:220|344:148,1,150,2|2,0:0|0:0,0:0:0:0:
300,80,42086,6,0,L|192:68,1,100,8|0,0:0|0:0,0:0:0:0:
112,112,42686,2,0,B|76:216|156:236|104:320,2,200,0|8|0,0:0|0:0|0:0,0:0:0:0:
308,68,44486,2,0,L|472:88,2,150,8|4|8,0:0|2:0|0:0,0:0:0:0:
212,92,45686,2,0,L|204:156,1,50,8|8,0:0|0:0,0:0:0:0:
216,240,46136,6,0,P|284:252|368:208,1,150,6|8,0:0|0:0,0:0:0:0:
388,124,46886,1,2,0:0:0:0:
328,44,47186,1,8,0:0:0:0:
228,40,47486,2,0,P|200:128|208:208,1,150,2|0,0:0|0:0,0:0:0:0:
252,272,48236,1,2,0:0:0:0:
352,272,48536,6,0,P|378:194|372:116,1,150,6|8,0:0|0:0,0:0:0:0:
304,56,49286,2,0,L|188:52,1,100,2|8,0:0|0:0,0:0:0:0:
164,144,49886,2,0,L|276:148,1,100,2|8,0:0|0:0,0:0:0:0:
360,172,50486,1,2,0:0:0:0:
336,320,50936,6,0,P|272:352|184:328,2,150,6|8|0,0:0|0:0|0:0,0:0:0:0:
260,256,52136,2,0,P|324:220|408:248,2,150,6|8|2,0:0|0:0|0:0,0:0:0:0:
164,280,53336,6,0,L|156:112,1,150,6|8,0:0|0:0,0:0:0:0:
228,60,54086,1,8,0:0:0:0:
328,64,54386,1,8,0:0:0:0:
391,137,54686,6,0,L|395:253,1,100,8|8,0:0|0:0,0:0:0:0:
348,324,55286,2,0,P|248:336|184:312,1,150,8|6,0:0|0:0,0:0:0:0:
136,280,61886,6,0,B|208:232|252:320|340:252,1,200,4|8,0:0|0:0,0:0:0:0:
364,116,62936,6,0,P|300:96|208:92,1,150,6|8,0:0|0:0,0:0:0:0:
124,124,63686,2,0,P|104:212|112:236,1,100,8|8,0:0|0:0,0:0:0:0:
180,288,64286,2,0,B|212:240|200:184|200:184|248:196|300:180,1,200,2|8,0:0|0:0,0:0:0:0:
380,76,65336,6,0,P|324:64|224:68,1,150,6|8,0:0|0:0,0:0:0:0:
140,108,66086,2,0,P|140:168|136:224,1,100,2|8,0:0|0:0,0:0:0:0:
152,308,66686,2,0,P|212:300|268:300,1,100,0|8,0:0|0:0,0:0:0:0:
352,312,67286,1,2,0:0:0:0:
404,172,67736,6,0,P|324:168|248:180,1,150,2|8,0:0|0:0,0:0:0:0:
156,164,68486,2,0,L|152:48,1,100,2|8,0:0|0:0,0:0:0:0:
252,52,69086,2,0,P|308:68|360:64,1,100,0|8,0:0|0:0,0:0:0:0:
448,72,69686,1,2,0:0:0:0:
452,220,70136,6,0,P|420:284|344:312,1,150,6|8,0:0|0:0,0:0:0:0:
248,312,70886,1,2,0:0:0:0:
152,332,71186,1,8,0:0:0:0:
68,280,71486,2,0,B|56:228|72:192|72:192|56:164|56:164|64:72,1,200,2|0,0:0|0:0,0:0:0:0:
212,68,72536,6,0,P|268:84|376:64,1,150,6|8,0:0|0:0,0:0:0:0:
444,120,73286,2,0,L|440:288,2,150,8|2|8,0:0|0:0|0:0,0:0:0:0:
356,172,74486,2,0,P|280:208|208:184,1,150,8|6,0:0|0:0,0:0:0:0:
464,292,75686,6,0,B|488:192|416:176|460:84,2,200,8|0|8,0:0|0:0|0:0,0:0:0:0:
320,336,77336,2,0,P|240:352|160:320,1,150,2|2,0:0|0:0,0:0:0:0:
108,260,78086,6,0,B|152:232|192:232|236:252|236:252|244:228|280:200,2,200,8|0|8,0:0|0:0|0:0,0:0:0:0:
100,108,79736,2,0,L|272:104,1,150,6|0,0:0|0:0,0:0:0:0:
348,96,80486,6,0,B|344:148|376:192|376:192|356:228|356:228|348:304,2,200,8|0|8,0:0|0:0|0:0,0:0:0:0:
204,48,82136,2,0,P|136:104|144:268,1,250,2|8,0:0|0:0,0:0:0:0:
280,300,83336,6,0,L|288:132,1,150,6|6,0:0|0:0,0:0:0:0:
192,112,84086,2,0,L|188:180,1,50,8|8,0:0|0:0,0:0:0:0:
172,260,84536,6,0,P|96:268|32:224,1,150,6|8,0:0|0:0,0:0:0:0:
32,128,85286,1,2,0:0:0:0:
92,48,85586,1,8,0:0:0:0:
192,44,85886,2,0,P|256:120|316:132,1,150,2|0,0:0|0:0,0:0:0:0:
400,148,86636,1,2,0:0:0:0:
452,236,86936,6,0,P|388:312|328:324,1,150,6|8,0:0|0:0,0:0:0:0:
244,312,87686,2,0,L|136:304,1,100,2|8,0:0|0:0,0:0:0:0:
88,224,88286,1,2,0:0:0:0:
184,196,88586,2,0,P|268:176|312:108,1,150,8|2,0:0|0:0,0:0:0:0:
404,128,89336,6,0,L|396:300,2,150,6|8|0,0:0|0:0|0:0,0:0:0:0:
312,88,90536,2,0,L|304:260,2,150,6|8|0,0:0|0:0|0:0,0:0:0:0:
216,112,91736,6,0,P|144:136|60:108,1,150,6|8,0:0|0:0,0:0:0:0:
36,212,92486,2,0,P|68:268|72:304,1,100,8|8,0:0|0:0,0:0:0:0:
164,340,93086,1,8,0:0:0:0:
264,332,93386,1,8,0:0:0:0:
344,268,93686,2,0,L|352:104,1,150,8|6,0:0|0:0,0:0:0:0:
208,68,94586,6,0,L|200:184,1,100,8|8,0:0|0:0,0:0:0:0:
200,268,95186,1,8,0:0:0:0:
276,332,95486,2,0,P|336:320|380:288,1,100,8|8,0:0|0:0,0:0:0:0:
428,216,96086,1,2,0:0:0:0:
288,168,96536,6,0,P|220:160|152:92,1,150,6|8,0:0|0:0,0:0:0:0:
60,120,97286,1,8,0:0:0:0:
36,216,97586,1,8,0:0:0:0:
72,308,97886,2,0,P|126:300|184:292,1,100,8|8,0:0|0:0,0:0:0:0:
272,284,98486,1,8,0:0:0:0:
380,180,98936,6,0,P|416:244|412:332,1,150,6|8,0:0|0:0,0:0:0:0:
320,352,99686,1,2,0:0:0:0:
172,340,100136,6,0,L|164:184,1,150,6|8,0:0|0:0,0:0:0:0:
164,88,100886,1,2,0:0:0:0:
292,168,101336,6,0,P|360:200|444:172,1,150,6|8,0:0|0:0,0:0:0:0:
372,96,102086,2,0,P|324:72|260:72,1,100,8|8,0:0|0:0,0:0:0:0:
184,104,102686,2,0,P|160:168|160:204,1,100,8|8,0:0|0:0,0:0:0:0:
184,296,103286,2,0,P|280:308|340:284,1,150,2|6,0:0|0:0,0:0:0:0:
356,80,104936,5,2,0:0:0:0:
256,192,105086,12,6,106136,0:0:0:0:
156,80,107336,5,2,0:0:0:0:
256,192,107486,12,6,108536,0:0:0:0:
256,264,109736,5,2,0:0:0:0:
256,192,109886,12,6,112136,0:0:0:0:
228,80,112886,5,8,0:0:0:0:
236,228,113336,6,0,P|184:284|96:280,1,150,6|12,0:0|0:0,0:0:0:0:
44,216,114086,2,0,L|52:112,1,100,6|12,0:0|0:0,0:0:0:0:
120,40,114686,2,0,B|212:0|240:76|324:28,1,200,6|2,0:0|0:0,0:0:0:0:
412,148,115736,6,0,L|404:308,1,150,6|12,0:0|0:0,0:0:0:0:
312,336,116486,2,0,P|220:332|200:320,1,100,6|12,0:0|0:0,0:0:0:0:
136,272,117086,1,2,0:0:0:0:
208,204,117386,2,0,P|156:148|24:168,1,200,12|12,0:0|0:0,0:0:0:0:
104,240,118286,6,0,L|108:356,1,100,0|12,0:0|0:0,0:0:0:0:
208,356,118886,2,0,P|280:352|368:304,1,150,2|6,0:0|0:0,0:0:0:0:
404,180,119786,5,12,0:0:0:0:
316,228,120086,2,0,P|228:224|172:176,1,150,2|6,0:0|0:0,0:0:0:0:
40,236,120986,6,0,L|36:120,1,100,12|8,0:0|0:0,0:0:0:0:
112,72,121586,1,8,0:0:0:0:
212,88,121886,2,0,P|284:88|320:72,1,100,0|8,0:0|0:0,0:0:0:0:
408,60,122486,2,0,L|404:216,1,150,0|6,0:0|0:0,0:0:0:0:
256,192,123086,12,4,126686,0:0:0:0:
360,300,127736,6,0,B|264:236|220:340|120:256,1,250,6|2,0:0|0:0,0:0:0:0:
88,112,128936,2,0,L|252:100,1,150,2|12,0:0|0:0,0:0:0:0:
336,104,129686,1,6,0:0:0:0:
360,252,130136,6,0,P|272:280|200:264,1,150,6|8,0:0|0:0,0:0:0:0:
136,208,130886,2,0,L|132:96,1,100,8|8,0:0|0:0,0:0:0:0:
224,64,131486,2,0,L|228:184,1,100,8|12,0:0|0:0,0:0:0:0:
276,252,132086,2,0,P|356:260|432:220,1,150,6|6,0:0|0:0,0:0:0:0:
108,232,134936,6,0,L|96:72,1,150,6|8,0:0|0:0,0:0:0:0:
192,52,135686,2,0,P|248:64|300:60,1,100,2|8,0:0|0:0,0:0:0:0:
388,88,136286,2,0,L|376:256,1,150,2|2,0:0|0:0,0:0:0:0:
300,304,137036,1,2,0:0:0:0:
204,332,137336,6,0,P|204:260|276:208,1,150,4|8,0:0|0:0,0:0:0:0:
284,116,138086,2,0,L|168:104,1,100,2|8,0:0|0:0,0:0:0:0:
84,112,138686,2,0,L|76:280,1,150,2|2,0:0|0:0,0:0:0:0:
148,332,139436,1,2,0:0:0:0:
248,348,139736,6,0,P|316:336|392:280,2,150,6|8|0,0:0|0:0|0:0,0:0:0:0:
200,260,140936,2,0,P|132:248|56:192,2,150,6|8|0,0:0|0:0|0:0,0:0:0:0:
288,216,142136,6,0,L|292:56,1,150,6|8,0:0|0:0,0:0:0:0:
196,40,142886,1,8,0:0:0:0:
112,96,143186,1,8,0:0:0:0:
72,188,143486,2,0,P|68:260|72:296,1,100,8|8,0:0|0:0,0:0:0:0:
160,328,144086,2,0,P|268:324|312:292,1,150,8|6,0:0|0:0,0:0:0:0:
384,180,144986,5,8,0:0:0:0:
288,152,145286,2,0,L|280:36,1,100,8|8,0:0|0:0,0:0:0:0:
184,64,145886,2,0,L|192:184,1,100,8|8,0:0|0:0,0:0:0:0:
212,260,146486,2,0,P|280:284|372:256,1,150,8|6,0:0|0:0,0:0:0:0:
392,124,147386,6,0,P|372:92|308:60,1,100,8|8,0:0|0:0,0:0:0:0:
232,112,147986,1,8,0:0:0:0:
132,108,148286,2,0,L|124:224,1,100,8|8,0:0|0:0,0:0:0:0:
136,308,148886,2,0,P|212:328|292:292,1,150,0|6,0:0|0:0,0:0:0:0:
272,156,149786,6,0,P|204:132|132:160,1,150,8|2,0:0|0:0,0:0:0:0:
204,228,150536,2,0,B|204:332|204:332|224:364|252:368,2,150,6|8|0,0:0|0:0|0:0,0:0:0:0:
304,248,151736,6,0,P|300:188|216:132,1,150,6|8,0:0|0:0,0:0:0:0:
132,140,152486,2,0,L|128:256,1,100,8|8,0:0|0:0,0:0:0:0:
172,332,153086,2,0,L|288:324,1,100,8|8,0:0|0:0,0:0:0:0:
372,320,153686,2,0,P|396:256|388:160,1,150,2|6,0:0|0:0,0:0:0:0:
152,248,154886,6,0,P|136:176|152:88,2,150,8|2|2,0:0|0:0|0:0,0:0:0:0:
228,316,156086,2,0,L|392:296,2,150,8|2|2,0:0|0:0|0:0,0:0:0:0:
248,216,157286,2,0,L|412:196,2,150,8|2|2,0:0|0:0|0:0,0:0:0:0:
148,224,158486,2,0,P|152:144|132:64,1,150,8|6,0:0|0:0,0:0:0:0:
256,192,159086,12,0,160286,0:0:0:0:
