osu file format v14

[General]
AudioFilename: audio.mp3
AudioLeadIn: 0
PreviewTime: 46314
Countdown: 0
SampleSet: Soft
StackLeniency: 0.6
Mode: 0
LetterboxInBreaks: 0
WidescreenStoryboard: 1

[Editor]
Bookmarks: 46981
DistanceSpacing: 0.6
BeatDivisor: 4
GridSize: 32
TimelineZoom: 2.2

[Metadata]
Title:POP SHOVE-IT FEAT. TOFUKU
TitleUnicode:POP SHOVE-IT FEAT. TOFUKU
Artist:BLOOD CODE
ArtistUnicode:BLOOD CODE
Creator:Hobbes2
Version:Insane
Source:
Tags:FA Featured Artist english electronic Drum and Bass dnb Gero chill skate edm hardstyle trap hardcore future bass
BeatmapID:2686932
BeatmapSetID:1294825

[Difficulty]
HPDrainRate:5
CircleSize:3.5
OverallDifficulty:7.5
ApproachRate:8.8
SliderMultiplier:1.4
SliderTickRate:1

[Events]
//Background and Video events
0,0,"blood code.jpg",0,0
//Break Periods
//Storyboard Layer 0 (Background)
//Storyboard Layer 1 (Fail)
//Storyboard Layer 2 (Pass)
//Storyboard Layer 3 (Foreground)
//Storyboard Layer 4 (Overlay)
//Storyboard Sound Samples

[TimingPoints]
1648,333.333333333333,4,2,0,70,1,0
1648,-125,4,2,0,70,0,0
12314,-117.64705882353,4,2,0,70,0,0
17647,-117.64705882353,4,2,0,60,0,0
18981,-117.64705882353,4,2,0,70,0,0
20314,-117.64705882353,4,2,0,80,0,0
21647,-117.64705882353,4,2,0,60,0,0
22981,-95.2380952380952,4,2,0,70,0,0
33647,-86.9565217391304,4,2,0,70,0,0
44981,-83.3333333333333,4,2,0,70,0,0
46981,-76.9230769230769,4,2,0,85,0,0
57647,-71.4285714285714,4,2,0,85,0,0
68314,-100,4,2,0,70,0,0
68981,333.333333333333,4,2,0,70,1,0
68981,-95.2380952380952,4,2,0,70,0,0
87647,-86.9565217391304,4,2,0,70,0,0
98647,333.333333333333,4,2,0,70,1,0
98647,-100,4,2,0,70,0,0
103980,-100,4,2,0,60,0,0
105314,-100,4,2,0,70,0,0
106647,-100,4,2,0,80,0,0
107980,-100,4,2,0,60,0,0
108813,333.333333333333,4,2,0,70,1,0
108813,-83.3333333333333,4,2,0,70,0,0
110813,333.333333333333,4,2,0,70,1,0
110813,-76.9230769230769,4,2,0,85,0,0
121479,-71.4285714285714,4,2,0,85,0,0
133479,-76.9230769230769,4,2,0,85,0,0
144479,333.333333333333,4,2,0,70,1,0
144479,-83.3333333333333,4,2,0,70,0,0
146479,333.333333333333,4,2,0,70,1,0
146479,-76.9230769230769,4,2,0,85,0,0
157812,333.333333333333,4,2,0,70,1,0
157812,-71.4285714285714,4,2,0,85,0,0
163145,-100,4,2,0,70,0,0
164478,-71.4285714285714,4,2,0,85,0,0
175145,-133.333333333333,4,2,0,70,0,0
175770,-66.6666666666667,4,2,0,85,0,0
176311,-100,4,2,0,70,0,0
176645,-71.4285714285714,4,2,0,85,0,0
181478,-133.333333333333,4,2,0,70,0,0
182145,333.333333333333,4,2,0,70,1,0
182145,-125,4,2,0,70,0,0

[Colours]
Combo1 : 255,160,115
Combo2 : 138,255,255
Combo3 : 255,192,130
Combo4 : 138,197,255

[HitObjects]
128,192,1648,5,2,0:1:0:0:
256,128,2147,1,2,0:0:0:0:
384,192,2647,1,2,0:0:0:0:
192,192,2981,5,2,0:0:0:0:
256,128,3314,1,2,0:0:0:0:
320,192,3647,1,2,0:0:0:0:
96,32,4314,5,2,0:0:0:0:
416,32,4814,1,2,0:0:0:0:
96,128,5314,1,2,0:0:0:0:
416,128,5814,1,2,0:0:0:0:
192,192,6314,5,2,0:0:0:0:
320,192,6647,1,2,0:0:0:0:
96,288,6981,5,2,0:0:0:0:
96,192,7314,1,2,0:0:0:0:
96,96,7647,1,2,0:0:0:0:
256,192,7981,5,2,0:0:0:0:
416,288,8314,5,2,0:0:0:0:
416,192,8647,1,2,0:0:0:0:
416,96,8980,1,2,0:0:0:0:
64,32,9647,5,2,0:0:0:0:
256,192,10147,1,2,0:0:0:0:
448,352,10647,1,2,0:0:0:0:
256,192,11147,1,2,0:0:0:0:
256,96,11647,5,2,0:0:0:0:
256,288,11981,1,8,0:1:0:0:
256,384,12147,1,8,0:1:0:0:
256,288,12314,6,0,P|324:254|380:248,1,119.000002269745,8|0,0:1|0:0,0:0:0:0:
439,187,12814,2,0,P|371:153|315:147,1,119.000002269745,2|0,3:2|0:0,0:0:0:0:
268,72,13314,1,2,3:2:0:0:
80,104,13647,6,0,P|108:190|118:246,1,119.000002269745,2|0,3:2|0:0,0:0:0:0:
41,280,14147,2,0,P|127:252|183:242,1,119.000002269745,2|0,3:2|0:0,0:0:0:0:
235,296,14647,1,8,3:1:0:0:
320,254,14814,1,8,3:1:0:0:
396,343,14981,6,0,P|454:327|460:258,1,119.000002269745,8|0,3:1|0:0,0:0:0:0:
418,192,15481,2,0,P|427:125|435:65,1,119.000002269745,2|0,3:2|0:0,0:0:0:0:
364,9,15981,2,0,P|297:18|237:26,1,119.000002269745,2|0,3:2|0:0,0:0:0:0:
170,83,16481,2,0,P|106:63|103:62,1,59.5000011348725,2|0,3:2|0:0,0:0:0:0:
18,75,16814,1,0,0:0:0:0:
18,75,16981,2,0,P|30:134|33:151,1,59.5000011348725,2|0,3:2|0:0,0:0:0:0:
111,181,17314,2,0,P|99:240|96:257,1,59.5000011348725,8|8,3:1|3:1,0:0:0:0:
160,320,17647,5,10,3:1:0:0:
256,384,17814,1,8,0:1:0:0:
352,320,17981,1,8,0:1:0:0:
256,288,18147,2,0,L|256:224,1,59.5000011348725,10|8,3:1|0:1,0:0:0:0:
256,128,18481,1,8,0:1:0:0:
256,128,18647,2,0,L|256:64,1,59.5000011348725,10|8,3:1|0:1,0:0:0:0:
352,160,18981,5,10,3:1:0:0:
256,224,19147,1,8,0:1:0:0:
160,160,19314,1,8,0:1:0:0:
256,320,19481,2,0,L|256:384,1,59.5000011348725,10|8,3:1|0:1,0:0:0:0:
256,224,19814,1,8,0:1:0:0:
352,288,19981,1,10,3:1:0:0:
160,288,20147,1,8,0:1:0:0:
352,192,20314,6,0,L|426:177,1,59.5000011348725,10|8,3:1|0:1,0:0:0:0:
256,96,20647,1,8,0:1:0:0:
160,192,20814,2,0,L|86:177,1,59.5000011348725,10|8,3:1|0:1,0:0:0:0:
256,96,21147,1,8,0:1:0:0:
256,320,21314,1,10,3:1:0:0:
256,192,21481,1,8,0:1:0:0:
256,320,21647,6,0,L|256:384,1,59.5000011348725,2|2,0:0|0:0,0:0:0:0:
75,131,22981,6,0,P|110:74|205:60,1,146.999995513916,6|0,3:2|0:0,0:0:0:0:
257,115,23481,1,0,3:0:0:0:
329,53,23647,2,0,P|372:62|421:77,1,73.4999977569581,8|8,0:1|0:1,0:0:0:0:
436,159,23981,2,0,P|393:168|344:183,1,73.4999977569581,0|8,3:0|0:1,0:0:0:0:
322,297,24314,6,0,P|273:321|192:270,1,146.999995513916,2|0,3:2|0:0,0:0:0:0:
161,191,24814,1,0,3:0:0:0:
229,124,24981,1,8,0:1:0:0:
229,124,25147,1,8,0:1:0:0:
76,159,25314,2,0,P|12:143|-27:135,1,73.4999977569581,2|2,0:3|0:3,0:0:0:0:
0,306,25647,6,0,L|115:284,1,110.249996635437,2|0,3:2|0:0,0:0:0:0:
132,295,25981,1,0,0:0:0:0:
206,354,26147,2,0,P|253:342|279:308,1,73.4999977569581,0|8,3:0|0:1,0:0:0:0:
257,229,26481,1,8,0:1:0:0:
348,255,26647,2,0,P|361:198|372:162,1,73.4999977569581,0|8,3:0|0:1,0:0:0:0:
438,121,26981,5,2,3:2:0:0:
438,121,27147,1,2,0:0:0:0:
376,47,27314,1,2,0:0:0:0:
376,47,27481,1,2,0:0:0:0:
55,26,28314,5,2,3:2:0:0:
55,26,28814,1,0,3:0:0:0:
124,91,28981,2,0,L|196:77,1,73.4999977569581,8|8,0:1|0:1,0:0:0:0:
89,180,29314,2,0,L|3:164,1,73.4999977569581,0|8,3:0|0:1,0:0:0:0:
21,313,29647,5,2,3:2:0:0:
112,284,29814,1,2,0:0:0:0:
21,313,29981,1,0,3:0:0:0:
112,284,30148,1,0,3:0:0:0:
180,350,30314,2,0,P|202:301|218:272,1,73.4999977569581,8|8,0:1|0:1,0:0:0:0:
303,256,30647,2,0,P|281:207|265:178,1,73.4999977569581,2|2,0:3|0:0,0:0:0:0:
304,46,30981,6,0,B|417:13|417:13|461:40,1,146.999995513916,2|0,3:2|0:0,0:0:0:0:
500,104,31481,2,0,P|505:159|513:205,1,73.4999977569581,0|8,3:0|0:1,0:0:0:0:
446,250,31814,1,8,0:1:0:0:
497,330,31981,1,0,3:0:0:0:
401,330,32147,1,8,0:1:0:0:
379,189,32314,6,0,P|328:203|294:208,1,73.4999977569581,2|0,3:2|0:0,0:0:0:0:
184,80,33314,5,2,0:3:0:0:
96,25,33481,1,2,0:3:0:0:
184,80,33647,6,0,P|244:61|288:54,1,80.5000015354157,6|2,3:2|0:3,0:0:0:0:
364,35,33981,2,0,L|375:1,4,20.1250003838539,2|2|2|2|2,0:3|0:3|0:3|0:3|0:3,0:0:0:0:
407,130,34314,2,0,L|391:239,1,80.5000015354157,8|8,0:1|0:1,0:0:0:0:
455,295,34647,1,2,3:0:0:0:
376,364,34814,1,2,0:3:0:0:
287,307,34981,6,0,P|235:300|178:293,1,80.5000015354157,2|2,3:2|0:3,0:0:0:0:
186,294,35231,1,2,0:3:0:0:
166,292,35314,1,2,0:3:0:0:
146,290,35397,1,2,0:3:0:0:
125,288,35481,1,2,0:3:0:0:
42,336,35647,2,0,P|24:272|12:235,1,80.5000015354157,8|8,0:1|0:1,0:0:0:0:
120,123,35981,2,0,P|108:162|98:201,1,80.5000015354157,2|2,0:3|0:3,0:0:0:0:
35,59,36314,6,0,P|126:84|201:42,1,161.000003070831,2|2,3:2|0:3,0:0:0:0:
264,5,36814,1,2,0:3:0:0:
339,65,36981,2,0,P|345:117|351:165,1,80.5000015354157,8|8,0:1|0:1,0:0:0:0:
278,212,37314,1,2,3:0:0:0:
319,299,37481,1,2,0:3:0:0:
242,356,37647,6,0,P|180:346|133:336,1,80.5000015354157,2|2,3:2|0:3,0:0:0:0:
149,327,37897,1,2,0:3:0:0:
135,311,37981,1,2,0:3:0:0:
196,236,38147,1,2,0:0:0:0:
132,162,38314,2,0,P|71:174|30:179,1,80.5000015354157,8|8,0:1|0:1,0:0:0:0:
9,90,38647,1,8,0:1:0:0:
77,21,38814,1,8,0:1:0:0:
163,63,38981,6,0,P|229:49|275:49,1,80.5000015354157,8|2,0:1|0:3,0:0:0:0:
356,11,39314,1,2,0:3:0:0:
356,11,39397,1,2,0:3:0:0:
356,11,39481,2,0,P|360:83|364:177,1,161.000003070831,8|2,0:1|0:3,0:0:0:0:
456,198,39981,2,0,P|444:259|439:307,1,80.5000015354157,8|2,0:1|0:3,0:0:0:0:
334,359,40314,6,0,P|269:374|228:359,1,80.5000015354157,8|2,0:1|0:3,0:0:0:0:
243,356,40564,1,2,0:3:0:0:
234,337,40647,1,2,0:3:0:0:
237,317,40731,1,2,0:3:0:0:
248,300,40814,2,0,P|326:292|391:365,1,161.000003070831,8|2,0:1|0:3,0:0:0:0:
450,262,41314,2,0,P|457:200|459:157,1,80.5000015354157,8|8,0:1|0:1,0:0:0:0:
442,169,41564,1,2,0:3:0:0:
426,156,41647,6,0,B|360:168|360:168|327:152,1,80.5000015354157,8|2,0:1|0:3,0:0:0:0:
346,59,41981,1,2,0:3:0:0:
346,59,42064,1,2,0:3:0:0:
346,59,42147,2,0,L|235:36,1,80.5000015354157,8|2,0:1|0:3,0:0:0:0:
168,89,42481,1,2,0:3:0:0:
94,27,42647,2,0,P|69:73|74:113,1,80.5000015354157,8|2,0:1|0:3,0:0:0:0:
131,175,42981,1,8,0:1:0:0:
310,358,43647,6,0,L|402:335,1,80.5000015354157,4|4,0:3|0:3,0:0:0:0:
202,358,43981,2,0,L|110:335,1,80.5000015354157,4|4,0:3|0:3,0:0:0:0:
256,288,44314,1,2,0:0:0:0:
256,288,44981,6,0,L|256:36,2,251.999992309571,4|4|4,1:3|1:3|1:3,0:0:0:0:
104,148,46981,6,0,L|214:130,1,90.9999958343508,6|2,1:2|0:3,0:0:0:0:
282,69,47314,2,0,L|371:83,1,90.9999958343508,8|2,0:0|0:3,0:0:0:0:
512,112,47647,1,2,0:3:0:0:
450,15,47814,1,0,1:0:0:0:
472,186,47981,2,0,P|462:247|458:304,1,90.9999958343508,8|2,0:0|0:3,0:0:0:0:
508,374,48314,5,2,1:2:0:0:
358,260,48481,1,2,0:3:0:0:
358,260,48564,1,2,0:3:0:0:
358,260,48647,2,0,P|275:289|152:300,1,181.999991668702,8|2,0:0|0:0,0:0:0:0:
96,232,49147,1,2,1:2:0:0:
45,329,49314,1,8,0:0:0:0:
37,160,49481,1,2,0:3:0:0:
37,160,49564,1,2,0:3:0:0:
37,160,49647,6,0,B|59:37|59:37|111:0,1,181.999991668702,2|8,1:2|0:0,0:0:0:0:
197,63,50147,1,2,0:3:0:0:
289,5,50314,2,0,P|363:12|377:54,1,90.9999958343508,2|0,0:3|1:0,0:0:0:0:
412,191,50647,1,8,0:0:0:0:
331,99,50814,1,2,0:3:0:0:
236,185,50981,6,0,P|249:266|259:313,1,90.9999958343508,2|2,1:2|0:3,0:0:0:0:
244,296,51231,1,2,0:3:0:0:
238,317,51314,1,8,0:0:0:0:
333,370,51481,1,2,0:3:0:0:
410,294,51647,2,0,P|484:315|523:323,1,90.9999958343508,2|0,0:3|1:0,0:0:0:0:
445,201,51981,1,8,0:0:0:0:
292,289,52147,1,2,0:3:0:0:
292,289,52231,1,2,0:3:0:0:
292,289,52314,6,0,P|226:258|107:239,1,181.999991668702,2|8,1:2|0:0,0:0:0:0:
40,162,52814,1,2,0:3:0:0:
100,331,52981,2,0,P|39:362|-13:369,1,90.9999958343508,2|0,0:3|1:0,0:0:0:0:
119,239,53314,1,8,0:0:0:0:
252,291,53481,1,2,0:3:0:0:
370,190,53647,5,2,1:2:0:0:
296,136,53814,1,2,0:3:0:0:
296,136,53897,1,2,0:3:0:0:
296,136,53981,2,0,P|361:151|403:130,1,90.9999958343508,8|2,0:0|0:3,0:0:0:0:
342,32,54314,2,0,P|277:17|235:38,1,90.9999958343508,2|0,0:3|1:0,0:0:0:0:
169,104,54647,1,8,0:0:0:0:
80,25,54814,1,2,0:3:0:0:
80,25,54897,1,2,0:3:0:0:
80,25,54981,5,2,1:2:0:0:
6,138,55147,1,0,1:0:0:0:
133,206,55314,2,0,P|205:195|245:187,1,90.9999958343508,8|0,0:0|1:0,0:0:0:0:
109,114,55647,5,0,1:0:0:0:
141,302,55814,1,0,1:0:0:0:
303,297,55981,2,0,P|314:225|322:185,1,90.9999958343508,8|0,0:0|1:0,0:0:0:0:
398,103,56314,5,0,3:0:0:0:
419,97,56397,1,0,3:0:0:0:
441,91,56481,1,0,3:0:0:0:
463,85,56564,1,0,3:0:0:0:
485,81,56647,2,0,L|497:138,3,45.4999979171754,0|0|0|0,3:0|3:0|3:0|3:0,0:0:0:0:
476,175,56981,2,0,L|488:232,3,45.4999979171754,0|0|0|0,3:0|3:0|3:0|3:0,0:0:0:0:
460,264,57314,2,0,L|472:321,3,45.4999979171754,0|0|0|0,3:0|3:0|3:0|3:0,0:0:0:0:
431,349,57647,5,2,3:1:0:0:
327,305,57814,1,2,0:1:0:0:
247,362,57981,2,0,B|202:355|202:355|191:358|191:358|122:342,1,97.9999970092774,2|0,0:0|3:0,0:0:0:0:
87,273,58314,6,0,B|80:228|80:228|83:217|83:217|67:148,1,97.9999970092774,10|0,0:1|0:0,0:0:0:0:
183,134,58647,1,2,0:0:0:0:
70,285,58814,2,0,B|63:240|63:240|66:229|66:229|50:160,1,97.9999970092774,10|0,0:1|0:0,0:0:0:0:
53,297,59147,1,2,0:1:0:0:
247,362,59314,6,0,B|202:355|202:355|191:358|191:358|122:342,1,97.9999970092774,8|0,0:1|0:0,0:0:0:0:
163,180,59647,2,0,B|208:173|208:173|219:176|219:176|288:160,1,97.9999970092774,2|0,0:1|0:0,0:0:0:0:
333,74,59981,5,2,0:0:0:0:
411,160,60147,1,2,0:0:0:0:
499,82,60314,6,0,B|506:127|506:127|503:138|503:138|519:207,1,97.9999970092774,2|2,3:2|0:2,0:0:0:0:
349,261,60647,2,0,B|394:268|394:268|405:265|405:265|445:275,1,97.9999970092774,2|0,0:1|0:0,0:0:0:0:
411,160,60981,1,8,0:1:0:0:
338,280,61147,1,2,0:1:0:0:
512,177,61314,1,2,0:0:0:0:
326,298,61481,2,0,B|371:305|371:305|382:302|382:302|421:311,1,97.9999970092774,2|0,0:1|0:0,0:0:0:0:
317,315,61814,1,2,3:1:0:0:
426,214,61981,2,0,L|408:110,1,97.9999970092774,8|2,3:1|0:3,0:0:0:0:
308,63,62314,6,0,P|321:17|330:-13,2,65.3333313395183,8|8|8,0:1|0:3|0:3,0:0:0:0:
232,90,62647,2,0,P|219:44|210:14,2,65.3333313395183,8|8|8,0:1|0:3|0:3,0:0:0:0:
169,138,62981,6,0,P|157:206|259:277,1,195.999994018555,4|0,0:3|0:0,0:0:0:0:
325,352,63481,2,0,P|373:348|432:341,1,97.9999970092774,4|8,0:3|0:0,0:0:0:0:
508,241,63814,1,2,0:0:0:0:
508,241,63897,1,0,0:0:0:0:
508,241,63981,6,0,B|493:93|493:93|433:49,1,195.999994018555,4|0,0:3|0:0,0:0:0:0:
360,11,64481,1,2,0:1:0:0:
290,93,64647,2,0,P|219:66|180:60,1,97.9999970092774,2|0,0:0|0:0,0:0:0:0:
48,144,64981,2,0,P|70:192|88:298,1,146.999995513916,10|0,0:1|0:0,0:0:0:0:
70,301,65314,2,0,P|126:348|193:295,1,146.999995513916,2|0,0:1|0:0,0:0:0:0:
199,298,65647,6,0,P|273:288|323:283,1,97.9999970092774,8|0,0:1|0:0,0:0:0:0:
317,273,65897,1,8,0:1:0:0:
338,260,65981,1,8,0:1:0:0:
419,313,66147,1,8,0:1:0:0:
402,171,66314,6,0,P|328:161|278:156,1,97.9999970092774,8|0,0:1|0:0,0:0:0:0:
284,146,66564,1,8,0:1:0:0:
263,133,66648,1,10,0:1:0:0:
347,51,66814,1,10,0:1:0:0:
249,2,66981,5,8,3:1:0:0:
225,8,67064,1,8,0:1:0:0:
201,14,67147,1,8,0:1:0:0:
177,20,67231,1,8,0:1:0:0:
153,26,67314,2,0,L|71:17,3,48.9999985046387,8|8|8|8,3:1|0:1|0:1|0:1,0:0:0:0:
76,40,67647,6,0,L|69:80,16,24.4999992523194,2|2|2|2|2|2|2|2|2|2|2|2|2|2|2|2|2,0:3|0:3|0:3|0:3|0:3|0:3|0:3|0:3|0:3|0:3|0:3|0:3|0:3|0:3|0:3|0:3|0:0,0:0:0:0:
282,40,68981,6,0,P|318:147|319:189,1,146.999995513916,6|2,3:2|0:3,0:0:0:0:
308,194,69397,1,2,0:3:0:0:
297,209,69481,1,0,3:0:0:0:
362,277,69647,6,0,P|420:269|444:269,1,73.4999977569581,8|8,0:1|0:1,0:0:0:0:
394,375,69981,2,0,P|336:367|312:367,1,73.4999977569581,2|2,0:3|0:3,0:0:0:0:
254,297,70314,1,2,3:2:0:0:
182,360,70481,1,2,0:3:0:0:
182,360,70564,1,2,0:3:0:0:
182,360,70647,1,2,0:3:0:0:
98,313,70814,1,2,0:3:0:0:
173,254,70981,6,0,L|162:168,1,73.4999977569581,8|8,0:1|0:1,0:0:0:0:
71,155,71314,2,0,L|82:69,1,73.4999977569581,8|8,0:1|0:1,0:0:0:0:
187,26,71647,6,0,L|353:5,1,146.999995513916,8|2,0:1|0:3,0:0:0:0:
347,18,72064,1,2,0:3:0:0:
357,32,72147,2,0,P|343:83|338:126,1,73.4999977569581,8|2,0:1|0:3,0:0:0:0:
403,175,72481,1,2,0:3:0:0:
342,248,72647,2,0,P|276:230|248:227,1,73.4999977569581,8|2,0:1|0:3,0:0:0:0:
354,343,72981,6,0,P|420:325|448:322,1,73.4999977569581,8|2,0:1|0:3,0:0:0:0:
434,308,73231,1,2,0:3:0:0:
443,292,73314,1,2,0:3:0:0:
452,276,73397,1,2,0:3:0:0:
461,260,73481,1,8,0:1:0:0:
422,173,73647,2,0,L|431:71,1,73.4999977569581,2|2,0:3|0:3,0:0:0:0:
365,26,73981,1,8,0:1:0:0:
257,81,74147,1,8,0:1:0:0:
257,81,74231,1,2,0:3:0:0:
257,81,74314,6,0,P|194:63|152:54,1,73.4999977569581,8|2,0:1|0:3,0:0:0:0:
63,160,74647,1,2,0:3:0:0:
63,160,74731,1,2,0:3:0:0:
62,159,74814,6,0,P|97:149|133:140,2,73.4999977569581,8|2|2,0:1|0:3|0:3,0:0:0:0:
10,240,75314,2,0,P|12:286|15:336,1,73.4999977569581,8|2,0:1|0:3,0:0:0:0:
92,367,75647,1,8,0:1:0:0:
256,192,75814,12,0,76647,0:0:0:0:
148,279,76980,6,0,P|227:253|307:247,1,146.999995513916,6|0,3:2|0:0,0:0:0:0:
365,187,77480,1,0,3:0:0:0:
450,229,77647,2,0,P|464:274|470:322,1,73.4999977569581,8|8,0:1|0:1,0:0:0:0:
365,187,77980,2,0,P|371:150|383:116,1,73.4999977569581,0|8,3:0|0:1,0:0:0:0:
463,63,78314,5,2,3:2:0:0:
387,5,78480,1,0,0:0:0:0:
302,50,78647,2,0,P|239:36|203:34,1,73.4999977569581,0|0,0:0|3:0,0:0:0:0:
162,102,78980,1,8,0:1:0:0:
94,33,79147,1,8,0:1:0:0:
30,104,79314,2,0,P|32:156|36:197,1,73.4999977569581,2|2,0:3|0:3,0:0:0:0:
16,292,79647,6,0,P|81:309|149:263,1,146.999995513916,2|0,3:2|0:0,0:0:0:0:
193,186,80147,2,0,P|240:175|291:163,1,73.4999977569581,0|8,3:0|0:1,0:0:0:0:
337,106,80480,1,8,0:1:0:0:
412,164,80647,2,0,P|401:211|389:262,1,73.4999977569581,0|8,3:0|0:1,0:0:0:0:
442,318,80980,5,2,3:2:0:0:
442,318,81147,1,2,0:0:0:0:
364,373,81314,1,2,0:0:0:0:
364,373,81480,1,2,0:0:0:0:
287,316,81647,5,2,0:0:0:0:
286,242,81814,1,2,0:0:0:0:
79,29,82314,5,2,3:2:0:0:
79,29,82647,1,0,0:0:0:0:
167,64,82814,2,0,P|231:50|262:49,1,73.4999977569581,0|8,3:0|0:1,0:0:0:0:
326,11,83147,1,8,0:1:0:0:
402,68,83314,2,0,P|390:114|384:146,1,73.4999977569581,0|8,3:0|0:1,0:0:0:0:
496,226,83647,6,0,B|501:288|506:355|506:355|474:378,1,146.999995513916,2|0,3:2|3:0,0:0:0:0:
400,335,84147,1,0,3:0:0:0:
314,377,84314,2,0,L|237:372,1,73.4999977569581,8|8,0:1|0:1,0:0:0:0:
162,316,84647,2,0,L|88:320,1,73.4999977569581,2|2,0:3|0:0,0:0:0:0:
19,223,84980,6,0,B|44:134|-7:161|24:75,1,146.999995513916,2|0,3:2|0:0,0:0:0:0:
101,25,85480,1,0,3:0:0:0:
181,76,85647,2,0,P|195:133|200:155,1,73.4999977569581,8|8,0:1|0:1,0:0:0:0:
301,29,85980,2,0,P|292:64|283:100,1,73.4999977569581,0|8,3:0|0:1,0:0:0:0:
346,211,86314,6,0,P|395:209|425:168,1,73.4999977569581,2|0,3:2|0:0,0:0:0:0:
208,341,87314,5,2,0:3:0:0:
114,360,87480,1,2,0:3:0:0:
208,341,87647,6,0,P|202:282|193:250,1,80.5000015354157,6|2,3:2|0:3,0:0:0:0:
93,240,87980,2,0,L|62:238,4,20.1250003838539,2|2|2|2|2,0:3|0:3|0:3|0:3|0:3,0:0:0:0:
156,155,88314,2,0,P|211:144|244:132,1,80.5000015354157,8|8,0:1|0:1,0:0:0:0:
298,53,88647,1,2,3:0:0:0:
205,4,88814,1,2,0:3:0:0:
62,79,88980,6,0,P|57:131|52:184,1,80.5000015354157,2|2,3:2|0:3,0:0:0:0:
51,179,89230,1,2,0:3:0:0:
48,199,89314,1,2,0:3:0:0:
45,218,89397,1,2,0:3:0:0:
42,237,89480,1,2,0:3:0:0:
103,321,89647,2,0,P|154:304|195:294,1,80.5000015354157,8|8,0:1|0:1,0:0:0:0:
299,225,89980,2,0,P|261:212|223:202,1,80.5000015354157,2|2,0:3|0:3,0:0:0:0:
210,186,90230,1,2,0:3:0:0:
197,170,90314,6,0,P|202:96|284:89,1,161.000003070831,2|2,3:2|0:3,0:0:0:0:
355,152,90814,1,2,0:3:0:0:
442,95,90980,2,0,P|454:150|464:201,1,80.5000015354157,8|8,0:1|0:1,0:0:0:0:
413,269,91314,2,0,P|401:324|391:375,1,80.5000015354157,2|2,3:0|0:3,0:0:0:0:
294,373,91647,5,2,3:2:0:0:
226,292,91814,1,2,0:3:0:0:
226,292,91897,1,2,0:3:0:0:
226,292,91980,1,2,0:3:0:0:
130,335,92147,1,2,0:0:0:0:
49,267,92314,6,0,L|62:176,1,80.5000015354157,8|8,0:1|0:1,0:0:0:0:
157,148,92647,2,0,L|144:57,1,80.5000015354157,8|8,0:1|0:1,0:0:0:0:
276,0,92980,6,0,L|445:12,1,161.000003070831,8|2,0:1|0:3,0:0:0:0:
446,28,93397,1,2,0:3:0:0:
455,45,93480,2,0,P|434:109|433:135,1,80.5000015354157,8|2,0:1|0:3,0:0:0:0:
500,202,93814,1,2,0:3:0:0:
424,285,93980,2,0,P|360:269|317:266,1,80.5000015354157,8|2,0:1|0:3,0:0:0:0:
282,183,94314,5,8,0:1:0:0:
376,97,94480,1,2,0:3:0:0:
376,97,94564,1,2,0:3:0:0:
376,97,94647,1,2,0:3:0:0:
376,97,94730,1,2,0:3:0:0:
376,97,94814,2,0,P|385:155|388:194,1,80.5000015354157,8|2,0:1|0:3,0:0:0:0:
473,235,95147,1,2,0:3:0:0:
399,309,95314,1,8,0:1:0:0:
297,284,95480,1,8,0:1:0:0:
297,284,95564,1,2,0:3:0:0:
297,284,95647,6,0,P|202:290|184:293,2,80.5000015354157,8|2|2,0:1|0:3|0:3,0:0:0:0:
371,210,96147,2,0,P|430:200|470:187,1,80.5000015354157,8|2,0:1|0:3,0:0:0:0:
467,90,96480,1,2,0:3:0:0:
390,17,96647,2,0,P|373:64|364:98,1,80.5000015354157,8|2,0:1|0:3,0:0:0:0:
280,31,96980,5,8,0:1:0:0:
256,192,97147,12,0,98314,0:0:0:0:
179,185,98647,6,0,L|255:175,1,70,0|0,3:0|0:0,0:0:0:0:
289,94,98980,2,0,L|375:109,1,70,2|8,0:0|0:1,0:0:0:0:
465,276,99647,6,0,L|455:352,1,70,8|0,0:1|0:0,0:0:0:0:
371,379,99980,2,0,L|355:298,1,70,8|0,0:1|0:0,0:0:0:0:
298,240,100313,1,0,0:0:0:0:
158,357,100647,6,0,P|99:369|63:368,1,70,2|0,0:0|0:0,0:0:0:0:
21,308,100980,2,0,P|9:249|10:213,1,70,8|8,0:1|0:1,0:0:0:0:
45,155,101313,6,0,P|104:143|140:144,1,70,8|0,0:1|0:0,0:0:0:0:
182,204,101646,2,0,P|194:263|193:299,1,70,2|8,0:0|0:1,0:0:0:0:
453,359,102313,2,0,P|456:324|465:290,1,70,8|0,0:1|0:0,0:0:0:0:
512,180,102647,6,0,P|490:103|422:69,1,140,8|0,0:1|0:0,0:0:0:0:
365,23,103147,2,0,P|283:45|215:45,1,140,8|0,0:1|0:0,0:0:0:0:
147,3,103647,1,8,0:1:0:0:
74,57,103813,1,8,0:1:0:0:
24,133,103980,6,0,L|42:217,1,70,10|8,0:1|0:1,0:0:0:0:
10,288,104313,1,8,0:1:0:0:
124,275,104480,2,0,L|106:359,1,70,10|8,0:1|0:1,0:0:0:0:
10,288,104813,1,8,0:1:0:0:
129,181,104980,2,0,P|180:176|217:168,1,70,10|8,0:1|0:1,0:0:0:0:
262,74,105313,5,10,0:1:0:0:
334,161,105480,1,8,0:1:0:0:
365,36,105647,1,8,0:1:0:0:
353,174,105813,2,0,P|342:233|337:265,1,70,10|8,0:1|0:1,0:0:0:0:
399,311,106146,1,8,0:1:0:0:
298,377,106313,2,0,P|246:368|202:361,1,70,10|8,0:1|0:1,0:0:0:0:
144,331,106646,5,10,0:1:0:0:
227,240,106813,1,8,0:1:0:0:
89,260,106980,1,10,0:1:0:0:
172,169,107146,1,8,0:1:0:0:
61,162,107313,5,10,0:1:0:0:
144,71,107480,1,8,0:1:0:0:
6,91,107647,1,10,0:1:0:0:
89,0,107813,1,8,0:1:0:0:
237,74,107980,6,0,P|294:69|333:65,1,70,2|2,0:0|0:0,0:0:0:0:
348,245,108480,2,0,P|382:248|417:251,1,70,2|0,0:0|0:0,0:0:0:0:
480,352,108813,6,0,L|194:352,2,251.999992309571,4|4|4,1:3|1:3|1:3,0:0:0:0:
259,47,110813,6,0,P|237:127|232:171,1,90.9999958343508,6|2,1:2|0:3,0:0:0:0:
151,204,111146,2,0,P|173:284|178:328,1,90.9999958343508,8|2,0:0|0:3,0:0:0:0:
101,373,111479,2,0,P|48:378|14:339,1,90.9999958343508,2|0,0:3|1:0,0:0:0:0:
58,229,111813,1,8,0:0:0:0:
3,134,111979,1,2,0:3:0:0:
165,186,112146,5,2,1:2:0:0:
110,91,112313,1,2,0:3:0:0:
110,91,112396,1,2,0:3:0:0:
110,91,112479,2,0,P|179:72|288:16,1,181.999991668702,8|2,0:0|0:0,0:0:0:0:
355,99,112979,1,2,1:2:0:0:
440,13,113146,1,8,0:0:0:0:
487,147,113313,1,2,0:3:0:0:
487,147,113396,1,2,0:3:0:0:
487,147,113479,6,0,P|492:228|502:339,1,181.999991668702,2|8,1:2|0:0,0:0:0:0:
367,379,113979,1,2,0:3:0:0:
251,247,114146,2,0,P|296:248|331:274,1,90.9999958343508,2|0,0:3|1:0,0:0:0:0:
190,339,114479,1,8,0:0:0:0:
229,152,114646,1,2,0:3:0:0:
346,305,114813,5,2,1:2:0:0:
410,214,114979,1,2,0:3:0:0:
410,214,115063,1,2,0:3:0:0:
410,214,115146,2,0,P|505:192|528:190,1,90.9999958343508,8|2,0:0|0:3,0:0:0:0:
510,33,115479,1,2,0:3:0:0:
424,105,115646,1,0,1:0:0:0:
341,2,115813,1,8,0:0:0:0:
274,114,115979,1,2,0:3:0:0:
274,114,116063,1,2,0:3:0:0:
274,114,116146,5,2,1:2:0:0:
347,194,116313,1,2,0:3:0:0:
270,271,116479,2,0,P|192:256|140:253,1,90.9999958343508,8|2,0:0|0:3,0:0:0:0:
121,347,116813,2,0,P|67:327|50:280,1,90.9999958343508,2|0,0:3|1:0,0:0:0:0:
85,195,117146,1,8,0:0:0:0:
36,97,117313,1,2,0:3:0:0:
134,49,117479,5,2,1:2:0:0:
120,217,117646,1,2,0:3:0:0:
120,217,117729,1,2,0:3:0:0:
120,217,117813,2,0,L|226:194,1,90.9999958343508,8|2,0:0|0:3,0:0:0:0:
309,325,118146,2,0,L|221:306,1,90.9999958343508,2|0,0:3|1:0,0:0:0:0:
309,223,118479,1,8,0:0:0:0:
339,349,118646,1,2,0:3:0:0:
339,349,118729,1,2,0:3:0:0:
339,349,118812,5,2,1:2:0:0:
459,318,118979,1,0,1:0:0:0:
418,194,119146,2,0,P|420:132|429:81,1,90.9999958343508,8|0,0:0|1:0,0:0:0:0:
310,37,119479,1,0,1:0:0:0:
247,141,119646,1,0,1:0:0:0:
333,246,119812,2,0,P|394:231|447:225,1,90.9999958343508,8|0,0:0|1:0,0:0:0:0:
311,357,120146,5,0,3:0:0:0:
288,361,120229,1,0,3:0:0:0:
266,360,120312,1,0,3:0:0:0:
244,354,120395,1,0,3:0:0:0:
221,344,120479,2,0,L|225:287,3,45.4999979171754,0|0|0|0,3:0|3:0|3:0|3:0,0:0:0:0:
187,264,120812,2,0,L|183:207,3,45.4999979171754,0|0|0|0,3:0|3:0|3:0|3:0,0:0:0:0:
149,181,121146,1,0,3:0:0:0:
153,158,121229,1,0,3:0:0:0:
157,135,121312,1,0,3:0:0:0:
161,112,121396,1,0,3:0:0:0:
167,88,121479,5,2,3:1:0:0:
271,43,121646,1,2,0:1:0:0:
310,152,121812,2,0,B|317:197|317:197|314:208|314:208|330:277,1,97.9999970092774,2|0,0:0|3:0,0:0:0:0:
437,203,122146,6,0,B|427:242|427:242|430:253|430:253|423:298,1,97.9999970092774,10|0,0:1|0:0,0:0:0:0:
310,152,122479,1,2,0:0:0:0:
456,207,122646,2,0,B|446:246|446:246|449:257|449:257|442:302,1,97.9999970092774,10|0,0:1|0:0,0:0:0:0:
475,211,122979,1,2,0:1:0:0:
310,152,123146,6,0,B|317:197|317:197|314:208|314:208|330:277,1,97.9999970092774,8|0,0:1|0:0,0:0:0:0:
240,331,123479,2,0,B|195:324|195:324|184:327|184:327|115:311,1,97.9999970092774,2|0,0:1|0:0,0:0:0:0:
201,214,123812,5,2,0:0:0:0:
114,134,123979,1,2,0:0:0:0:
179,36,124146,6,0,B|224:29|224:29|235:32|235:32|304:16,1,97.9999970092774,2|2,3:2|0:2,0:0:0:0:
358,186,124479,2,0,B|365:141|365:141|362:130|362:130|372:90,1,97.9999970092774,2|0,0:1|0:0,0:0:0:0:
257,124,124813,1,8,0:1:0:0:
377,197,124979,1,2,0:1:0:0:
274,23,125146,1,2,0:0:0:0:
395,209,125313,2,0,B|402:164|402:164|399:153|399:153|408:114,1,97.9999970092774,2|0,0:1|0:0,0:0:0:0:
412,218,125646,1,2,3:1:0:0:
311,109,125813,2,0,L|207:127,1,97.9999970092774,8|2,3:1|0:3,0:0:0:0:
105,79,126146,6,0,P|64:67|25:64,2,65.3333313395183,8|8|8,0:1|0:3|0:3,0:0:0:0:
75,151,126479,2,0,P|33:161|-1:178,2,65.3333313395183,8|8|8,0:1|0:3|0:3,0:0:0:0:
96,226,126812,6,0,P|148:286|278:216,1,195.999994018555,4|0,0:3|0:0,0:0:0:0:
312,175,127312,2,0,P|297:106|285:50,1,97.9999970092774,4|10,0:3|0:0,0:0:0:0:
432,156,127646,1,2,0:0:0:0:
432,156,127729,1,0,0:0:0:0:
432,156,127812,6,0,P|401:246|385:361,1,195.999994018555,4|0,0:3|0:0,0:0:0:0:
285,304,128312,1,2,0:1:0:0:
197,367,128479,2,0,P|128:352|69:343,1,97.9999970092774,2|0,0:0|0:0,0:0:0:0:
41,229,128812,2,0,P|74:171|161:171,1,146.999995513916,10|0,0:0|0:0,0:0:0:0:
164,183,129146,1,2,0:1:0:0:
239,272,129312,1,0,0:0:0:0:
314,181,129479,6,0,L|294:58,1,97.9999970092774,8|0,0:1|0:0,0:0:0:0:
275,73,129729,1,8,0:1:0:0:
252,62,129812,1,10,0:1:0:0:
388,36,129979,1,8,0:1:0:0:
438,162,130146,6,0,L|418:285,1,97.9999970092774,8|0,0:1|0:0,0:0:0:0:
399,270,130396,1,8,0:1:0:0:
376,281,130479,1,10,0:1:0:0:
475,367,130646,1,10,0:1:0:0:
324,378,130812,5,8,3:1:0:0:
309,375,130895,1,8,0:1:0:0:
294,373,130978,1,8,0:1:0:0:
280,371,131061,1,8,0:1:0:0:
265,369,131145,1,8,3:1:0:0:
251,367,131228,1,8,0:1:0:0:
236,365,131312,1,8,0:1:0:0:
222,363,131395,1,8,0:1:0:0:
209,360,131479,2,0,L|200:323,16,24.4999992523194,2|2|2|2|2|2|2|2|2|2|2|2|2|2|2|2|2,0:3|0:3|0:3|0:3|0:3|0:3|0:3|0:3|0:3|0:3|0:3|0:3|0:3|0:3|0:3|0:3|0:0,0:0:0:0:
90,138,133479,5,4,0:3:0:0:
90,138,133562,1,2,0:0:0:0:
90,138,133646,1,2,0:0:0:0:
90,138,133729,1,2,0:0:0:0:
90,138,133812,2,0,P|152:119|177:117,1,90.9999958343508,2|4,0:0|0:3,0:0:0:0:
262,46,134146,2,0,P|307:51|349:67,1,90.9999958343508,10|2,0:0|0:0,0:0:0:0:
444,168,134479,1,2,0:0:0:0:
444,168,134562,1,2,0:0:0:0:
444,168,134646,1,2,0:0:0:0:
444,168,134729,1,2,0:0:0:0:
444,168,134812,6,0,P|431:247|425:291,1,90.9999958343508,4|2,0:3|0:0,0:0:0:0:
363,346,135146,1,2,0:0:0:0:
285,269,135312,1,4,0:3:0:0:
260,375,135479,1,8,0:0:0:0:
363,346,135646,1,4,0:3:0:0:
384,239,135812,6,0,L|390:193,3,45.4999979171754,2|2|2|2,0:0|0:0|0:0|0:0,0:0:0:0:
408,266,136146,2,0,P|402:197|400:129,1,136.499993751526,4|0,0:3|0:0,0:0:0:0:
425,103,136479,2,0,P|348:83|315:76,1,90.9999958343508,2|4,0:0|0:3,0:0:0:0:
251,12,136812,2,0,L|180:29,1,45.4999979171754,14|0,0:0|0:0,0:0:0:0:
180,48,136979,1,0,0:0:0:0:
80,3,137146,2,0,B|34:98|34:98|58:147,1,136.499993751526,2|0,0:0|0:0,0:0:0:0:
61,143,137479,6,0,P|78:226|78:266,1,90.9999958343508,4|2,0:3|0:0,0:0:0:0:
69,253,137729,1,2,0:0:0:0:
60,273,137812,1,2,0:0:0:0:
163,177,137979,1,4,0:3:0:0:
234,258,138146,2,0,L|305:241,1,45.4999979171754,12|0,0:0|0:0,0:0:0:0:
305,222,138313,1,4,0:3:0:0:
399,275,138479,2,0,P|410:347|415:379,1,90.9999958343508,2|2,0:3|0:3,0:0:0:0:
501,242,138812,5,4,0:3:0:0:
501,242,138896,1,2,0:0:0:0:
501,242,138979,1,2,0:0:0:0:
501,242,139062,1,2,0:0:0:0:
501,242,139146,2,0,P|459:177|435:151,1,90.9999958343508,2|4,0:0|0:3,0:0:0:0:
462,58,139479,2,0,P|383:29|358:29,1,90.9999958343508,8|0,0:0|0:0,0:0:0:0:
279,77,139812,1,2,0:0:0:0:
279,77,139896,1,2,0:0:0:0:
279,77,139979,1,2,0:0:0:0:
279,77,140062,1,2,0:0:0:0:
279,77,140146,6,0,P|204:67|90:56,1,181.999991668702,4|2,0:3|0:0,0:0:0:0:
14,126,140646,1,4,0:3:0:0:
97,195,140812,1,8,0:0:0:0:
14,126,140979,1,4,0:3:0:0:
23,295,141146,2,0,L|67:286,3,45.4999979171754,2|2|2|2,0:0|0:0|0:0|0:0,0:0:0:0:
17,322,141479,6,0,P|121:301|187:295,1,136.499993751526,4|0,0:3|0:0,0:0:0:0:
165,315,141812,2,0,P|210:363|265:301,1,136.499993751526,8|0,0:0|0:0,0:0:0:0:
276,314,142146,2,0,P|282:283|276:251,1,45.4999979171754,6|0,0:0|0:0,0:0:0:0:
269,235,142312,1,4,0:3:0:0:
374,289,142479,2,0,P|429:274|479:260,1,90.9999958343508,8|0,0:0|0:0,0:0:0:0:
386,177,142812,1,4,0:3:0:0:
386,177,142896,1,2,0:0:0:0:
386,177,142979,1,2,0:0:0:0:
386,177,143062,1,2,0:0:0:0:
386,177,143146,6,0,P|402:109|408:67,1,90.9999958343508,8|0,0:0|0:0,0:0:0:0:
295,239,143479,2,0,P|279:171|273:129,1,90.9999958343508,2|4,0:0|0:3,0:0:0:0:
309,46,143812,1,8,0:0:0:0:
207,5,143979,1,4,0:3:0:0:
150,99,144146,5,2,0:0:0:0:
150,99,144312,1,2,0:0:0:0:
37,38,144479,6,0,L|36:324,2,251.999992309571,4|4|4,1:3|1:3|1:3,0:0:0:0:
391,36,146479,6,0,B|418:105|418:105|392:156,1,90.9999958343508,6|2,1:2|0:3,0:0:0:0:
325,189,146812,2,0,L|235:173,1,90.9999958343508,8|2,0:0|0:3,0:0:0:0:
369,288,147145,2,0,L|470:271,1,90.9999958343508,2|0,0:3|1:0,0:0:0:0:
309,370,147479,1,8,0:0:0:0:
223,274,147645,1,2,0:3:0:0:
158,374,147812,5,2,1:2:0:0:
253,254,147979,1,2,0:3:0:0:
253,254,148062,1,2,0:3:0:0:
253,254,148145,2,0,P|262:176|275:67,1,181.999991668702,8|2,0:0|0:0,0:0:0:0:
368,18,148645,1,2,1:2:0:0:
254,63,148812,1,8,0:0:0:0:
135,11,148979,1,2,0:3:0:0:
135,11,149062,1,2,0:3:0:0:
135,11,149145,6,0,P|55:34|56:138,1,181.999991668702,2|8,1:2|0:0,0:0:0:0:
140,175,149645,1,2,0:3:0:0:
90,272,149812,2,0,P|10:274|-26:276,1,90.9999958343508,2|0,0:3|1:0,0:0:0:0:
129,355,150145,1,8,0:0:0:0:
220,228,150312,1,2,0:3:0:0:
295,363,150479,6,0,P|305:290|314:236,1,90.9999958343508,2|2,1:2|0:3,0:0:0:0:
323,256,150729,1,2,0:3:0:0:
338,239,150812,1,8,0:0:0:0:
288,162,150979,1,2,0:3:0:0:
378,101,151145,2,0,P|461:115|501:122,1,90.9999958343508,2|0,0:3|1:0,0:0:0:0:
475,228,151479,1,8,0:0:0:0:
353,128,151645,1,2,0:3:0:0:
353,128,151729,1,2,0:3:0:0:
353,128,151812,6,0,P|243:156|156:178,1,181.999991668702,2|8,1:2|0:0,0:0:0:0:
107,88,152312,1,2,0:3:0:0:
17,150,152479,2,0,P|8:235|6:273,1,90.9999958343508,2|0,0:3|1:0,0:0:0:0:
0,67,152812,1,8,0:0:0:0:
109,112,152979,1,2,0:3:0:0:
209,18,153145,5,2,1:2:0:0:
191,181,153312,1,2,0:3:0:0:
191,181,153395,1,2,0:3:0:0:
191,181,153479,2,0,P|245:168|295:158,1,90.9999958343508,8|2,0:0|0:3,0:0:0:0:
442,101,153812,2,0,P|398:90|354:81,1,90.9999958343508,2|0,0:3|1:0,0:0:0:0:
301,268,154145,1,8,0:0:0:0:
396,235,154312,1,2,0:3:0:0:
396,235,154395,1,2,0:3:0:0:
396,235,154479,5,2,1:2:0:0:
455,326,154645,1,0,1:0:0:0:
354,368,154812,2,0,P|283:354|237:349,1,90.9999958343508,8|0,0:0|1:0,0:0:0:0:
374,250,155145,1,0,1:0:0:0:
292,177,155312,1,0,1:0:0:0:
251,325,155479,2,0,P|206:331|161:341,1,90.9999958343508,8|0,0:0|1:0,0:0:0:0:
79,268,155812,5,0,3:0:0:0:
76,245,155895,1,0,3:0:0:0:
73,222,155979,1,0,3:0:0:0:
70,199,156062,1,0,3:0:0:0:
67,176,156145,1,0,3:0:0:0:
65,153,156229,1,0,3:0:0:0:
63,130,156312,1,0,3:0:0:0:
57,107,156395,1,0,3:0:0:0:
52,84,156479,2,0,L|77:21,3,45.4999979171754,0|0|0|0,3:0|3:0|3:0|3:0,0:0:0:0:
123,41,156812,2,0,L|148:-22,3,45.4999979171754,0|0|0|0,3:0|3:0|3:0|3:0,0:0:0:0:
194,3,157145,1,2,0:0:0:0:
414,202,157812,6,0,P|428:120|451:23,2,146.999995513916,4|2|2,0:3|0:0|0:0,0:0:0:0:
301,237,158478,2,0,P|316:308|328:381,2,146.999995513916,4|2|2,0:3|0:0|0:0,0:0:0:0:
192,283,159145,2,0,P|122:265|55:255,1,97.9999970092774,4|0,0:3|0:0,0:0:0:0:
54,286,159395,2,0,P|48:215|42:168,1,97.9999970092774,2|0,0:0|0:0,0:0:0:0:
19,146,159645,1,2,0:0:0:0:
90,78,159812,5,4,0:3:0:0:
197,127,159978,1,2,0:0:0:0:
90,78,160145,1,8,0:0:0:0:
197,127,160311,1,2,0:0:0:0:
278,72,160478,6,0,L|383:60,1,97.9999970092774,4|0,0:3|0:0,0:0:0:0:
418,84,160728,2,0,P|443:132|418:189,1,97.9999970092774,2|0,0:0|0:0,0:0:0:0:
406,214,160978,1,2,0:0:0:0:
320,262,161145,6,0,L|215:274,1,97.9999970092774,4|0,0:3|0:0,0:0:0:0:
180,250,161395,2,0,P|155:202|180:145,1,97.9999970092774,2|0,0:0|0:0,0:0:0:0:
192,120,161645,1,2,0:0:0:0:
276,70,161812,5,4,0:3:0:0:
326,175,161978,1,2,0:0:0:0:
276,70,162145,1,8,0:0:0:0:
326,175,162311,1,2,0:0:0:0:
427,109,162478,2,0,P|412:183|410:217,1,97.9999970092774,4|2,0:3|0:0,0:0:0:0:
398,226,162728,1,4,0:3:0:0:
386,247,162812,1,8,0:0:0:0:
299,178,162978,1,4,0:3:0:0:
179,226,163145,6,0,P|121:201|23:192,1,140,2|8,0:0|0:1,0:0:0:0:
68,381,163812,2,0,P|130:363|157:361,1,70,2|8,0:0|0:1,0:0:0:0:
202,311,164145,2,0,L|245:324,2,35,2|2|2,0:3|0:3|0:3,0:0:0:0:
158,235,164478,6,0,P|160:156|167:70,2,146.999995513916,4|2|2,0:3|0:0|0:0,0:0:0:0:
249,308,165145,2,0,P|306:309|349:242,1,97.9999970092774,4|0,0:3|0:0,0:0:0:0:
347,236,165395,2,0,L|340:123,1,97.9999970092774,2|0,0:0|0:0,0:0:0:0:
372,100,165645,1,2,0:0:0:0:
277,29,165812,2,0,P|198:14|141:0,1,97.9999970092774,4|0,0:3|0:0,0:0:0:0:
133,0,166062,2,0,P|65:20|70:77,1,97.9999970092774,2|0,0:0|0:0,0:0:0:0:
74,80,166312,1,2,0:0:0:0:
19,161,166478,5,4,0:3:0:0:
57,274,166645,1,2,0:0:0:0:
19,161,166812,1,8,0:0:0:0:
57,274,166979,1,2,0:0:0:0:
147,199,167145,6,0,P|217:215|257:220,1,97.9999970092774,4|0,0:3|0:0,0:0:0:0:
288,237,167395,2,0,P|309:180|277:136,1,97.9999970092774,2|0,0:0|0:0,0:0:0:0:
259,114,167645,1,2,0:0:0:0:
344,33,167812,2,0,P|401:25|442:21,1,97.9999970092774,4|0,0:3|0:0,0:0:0:0:
474,57,168062,1,2,0:0:0:0:
474,57,168145,1,8,0:0:0:0:
426,143,168312,1,4,0:3:0:0:
499,207,168478,5,4,0:3:0:0:
406,238,168645,1,4,0:3:0:0:
328,177,168812,1,8,0:0:0:0:
304,171,168895,1,4,0:3:0:0:
280,166,168978,1,4,0:3:0:0:
256,161,169062,1,4,0:3:0:0:
228,156,169145,2,0,L|167:164,3,48.9999985046387,4|4|4|4,0:3|0:3|0:3|0:3,0:0:0:0:
151,189,169478,1,8,0:0:0:0:
145,212,169561,1,4,0:3:0:0:
140,236,169644,1,4,0:3:0:0:
135,260,169728,1,4,0:3:0:0:
131,284,169812,6,0,P|208:307|317:309,1,146.999995513916,4|0,0:3|0:0,0:0:0:0:
314,339,170145,2,0,P|384:345|409:324,1,97.9999970092774,8|0,0:0|0:0,0:0:0:0:
475,205,170478,2,0,P|429:193|386:214,1,97.9999970092774,4|0,0:3|0:0,0:0:0:0:
314,339,170812,1,8,0:0:0:0:
237,250,170978,1,2,0:0:0:0:
237,250,171062,1,2,0:0:0:0:
237,250,171145,6,0,P|222:162|213:81,1,146.999995513916,4|0,0:3|0:0,0:0:0:0:
238,61,171478,2,0,P|175:65|139:75,1,97.9999970092774,8|0,0:0|0:0,0:0:0:0:
45,144,171812,2,0,P|49:207|59:243,1,97.9999970092774,4|2,0:3|0:0,0:0:0:0:
94,273,172062,1,2,0:0:0:0:
94,273,172145,1,8,0:0:0:0:
34,350,172311,1,4,0:3:0:0:
195,306,172478,6,0,P|256:321|359:343,1,146.999995513916,4|0,0:3|0:0,0:0:0:0:
373,304,172811,2,0,P|356:230|313:221,1,97.9999970092774,8|0,0:0|0:0,0:0:0:0:
258,156,173145,1,4,0:3:0:0:
258,156,173228,1,2,0:0:0:0:
258,156,173311,1,2,0:0:0:0:
189,269,173478,2,0,P|132:251|71:240,1,97.9999970092774,8|0,0:0|0:0,0:0:0:0:
22,149,173811,6,0,P|41:78|55:36,1,97.9999970092774,4|2,0:3|0:0,0:0:0:0:
85,22,174061,1,2,0:0:0:0:
85,22,174145,1,8,0:0:0:0:
180,106,174311,1,2,0:0:0:0:
180,106,174395,1,2,0:0:0:0:
180,106,174478,2,0,P|254:94|348:75,1,146.999995513916,4|0,0:3|0:0,0:0:0:0:
366,54,174811,1,8,0:0:0:0:
424,132,174978,1,4,0:3:0:0:
363,201,175145,6,0,B|366:275|366:275|376:281|376:281|378:353,1,157.500006008148,4|0,0:3|0:0,0:0:0:0:
377,352,175811,5,8,0:0:0:0:
286,326,175978,1,2,0:0:0:0:
198,371,176145,1,4,0:3:0:0:
114,299,176311,6,0,B|118:250|118:250|115:234|115:234|120:186,1,105,2|0,0:2|0:0,0:0:0:0:
106,169,176645,1,2,0:0:0:0:
175,100,176811,6,0,P|234:97|252:192,1,146.999995513916,12|0,0:0|0:0,0:0:0:0:
233,206,177145,1,8,0:0:0:0:
320,302,177311,2,0,P|397:294|470:287,1,146.999995513916,6|0,0:0|0:0,0:0:0:0:
500,251,177645,1,4,0:3:0:0:
441,173,177811,6,0,P|453:102|458:40,1,97.9999970092774,4|0,0:3|0:0,0:0:0:0:
335,193,178145,2,0,P|326:144|320:96,1,97.9999970092774,8|0,0:0|0:0,0:0:0:0:
195,154,178478,2,0,P|207:83|212:21,1,97.9999970092774,4|0,0:3|0:0,0:0:0:0:
110,210,178811,1,8,0:0:0:0:
68,76,178978,1,4,0:3:0:0:
0,198,179145,5,4,0:3:0:0:
113,186,179311,1,4,0:3:0:0:
68,287,179478,1,8,0:0:0:0:
121,159,179645,1,4,0:3:0:0:
215,185,179811,5,4,0:3:0:0:
239,186,179894,1,4,0:3:0:0:
263,187,179977,1,4,0:3:0:0:
288,189,180061,1,4,0:3:0:0:
311,191,180145,2,0,L|368:179,3,48.9999985046387,8|8|8|8,0:0|0:0|0:0|0:0,0:0:0:0:
393,146,180478,5,4,0:0:0:0:
256,192,180811,12,2,182145,0:0:0:0:
