osu file format v14

[General]
AudioFilename: audio.mp3
AudioLeadIn: 0
PreviewTime: 46314
Countdown: 0
SampleSet: Soft
StackLeniency: 0.7
Mode: 0
LetterboxInBreaks: 0
WidescreenStoryboard: 1

[Editor]
Bookmarks: 12314,68981,76980,202144
DistanceSpacing: 1
BeatDivisor: 4
GridSize: 4
TimelineZoom: 1

[Metadata]
Title:POP SHOVE-IT FEAT. TOFUKU
TitleUnicode:POP SHOVE-IT FEAT. TOFUKU
Artist:BLOOD CODE
ArtistUnicode:BLOOD CODE
Creator:Hobbes2
Version:Gero's Normal
Source:
Tags:FA Featured Artist english electronic Drum and Bass dnb Gero chill skate edm hardstyle trap hardcore future bass
BeatmapID:2686710
BeatmapSetID:1294825

[Difficulty]
HPDrainRate:3
CircleSize:3
OverallDifficulty:4
ApproachRate:5
SliderMultiplier:1
SliderTickRate:1

[Events]
//Background and Video events
0,0,"blood code.jpg",0,0
//Break Periods
2,69181,75780
//Storyboard Layer 0 (Background)
//Storyboard Layer 1 (Fail)
//Storyboard Layer 2 (Pass)
//Storyboard Layer 3 (Foreground)
//Storyboard Layer 4 (Overlay)
//Storyboard Sound Samples

[TimingPoints]
1648,333.333333333333,4,2,0,70,1,0
17647,-100,4,2,0,60,0,0
18981,-100,4,2,0,70,0,0
20314,-100,4,2,0,80,0,0
21647,-100,4,2,0,60,0,0
46981,-100,4,2,0,85,0,0
68981,333.333333333333,4,2,0,70,1,0
98647,333.333333333333,4,2,0,70,1,0
103980,-100,4,2,0,60,0,0
105314,-100,4,2,0,70,0,0
106647,-100,4,2,0,80,0,0
107980,-100,4,2,0,60,0,0
108813,333.333333333333,4,2,0,70,1,0
110813,333.333333333333,4,2,0,70,1,0
110813,-100,4,2,0,85,0,0
144479,333.333333333333,4,2,0,70,1,0
146479,333.333333333333,4,2,0,70,1,0
146479,-100,4,2,0,85,0,0
157812,333.333333333333,4,2,0,70,1,0
157812,-100,4,2,0,85,0,0
182145,333.333333333333,4,2,0,70,1,0
202144,-100,4,2,0,5,0,0

[Colours]
Combo1 : 255,98,98
Combo2 : 77,255,255
Combo3 : 255,255,134
Combo4 : 79,255,79
Combo5 : 255,155,106

[HitObjects]
206,243,12314,6,0,B|162:243|162:243|106:243|80:301,2,150,8|2|2,0:1|3:2|3:2,0:0:0:0:
306,243,13647,2,0,B|350:243|350:243|406:243|431:301,2,150,2|2|8,3:2|3:2|3:1,0:0:0:0:
306,141,14981,2,0,B|306:97|306:97|330:77|330:77|306:57|306:57|306:13,1,150,8|2,3:1|3:2,0:0:0:0:
206,141,15981,2,0,B|206:97|206:97|182:77|182:77|206:57|206:57|206:13,2,150,2|2|2,3:2|3:2|3:2,0:0:0:0:
206,243,17314,1,8,3:1:0:0:
306,243,17647,6,0,P|339:307|306:371,2,150,10|10|10,3:1|3:1|3:1,0:0:0:0:
206,243,18981,2,0,P|173:307|206:371,2,150,10|10|10,3:1|3:1|3:1,0:0:0:0:
206,141,20314,2,0,B|256:85|256:85|306:141,2,150,10|10|10,3:1|3:1|3:1,0:0:0:0:
120,192,21647,1,2,0:0:0:0:
120,192,22981,6,0,P|100:236|120:280,1,100,6|0,3:2|0:0,0:0:0:0:
206,330,23647,1,8,0:1:0:0:
306,330,23981,1,0,3:0:0:0:
392,280,24314,2,0,B|459:280|459:280|443:320|459:360,2,150,2|0|2,3:2|3:0|0:3,0:0:0:0:
306,230,25647,6,0,B|293:182|293:182|306:134,1,100,2|0,3:2|0:0,0:0:0:0:
392,84,26314,1,8,0:1:0:0:
306,38,26647,1,0,3:0:0:0:
206,38,26981,2,0,L|206:88,2,50,2|2|2,3:2|0:0|0:0,0:0:0:0:
120,84,27647,1,0,0:0:0:0:
120,84,28314,6,0,B|88:136|116:180|120:180|124:180|152:224|120:276,1,200,2|8,3:2|0:1,0:0:0:0:
36,328,29314,1,0,3:0:0:0:
122,382,29647,2,0,L|272:382,2,150,2|0|2,3:2|3:0|0:3,0:0:0:0:
122,274,30981,2,0,L|272:274,2,150,2|0|0,3:2|3:0|3:0,0:0:0:0:
122,166,32314,1,2,3:2:0:0:
122,166,33647,6,0,B|171:166|171:166|207:129,1,100,6|2,3:2|0:3,0:0:0:0:
305,129,34314,2,0,B|341:166|341:166|390:166,1,100,8|2,0:1|3:0,0:0:0:0:
467,100,34981,2,0,B|508:166|467:232|467:232|509:274,1,200,2|8,3:2|0:1,0:0:0:0:
438,345,35981,1,2,0:3:0:0:
367,275,36314,6,0,B|302:275|302:275|286:283|286:283|218:283,2,150,2|2|2,3:2|0:3|3:0,0:0:0:0:
438,205,37647,2,0,L|488:205,2,50,2|2|2,3:2|0:3|0:3,0:0:0:0:
367,135,38314,1,8,0:1:0:0:
367,135,38481,1,8,0:1:0:0:
367,135,38647,1,8,0:1:0:0:
296,65,38981,6,0,B|328:16|380:16|380:16|428:16,2,150,8|8|8,0:1|0:1|0:1,0:0:0:0:
225,135,40314,2,0,B|193:86|141:86|141:86|93:86,2,150,8|8|8,0:1|0:1|0:1,0:0:0:0:
296,205,41647,2,0,B|328:156|380:156|380:156|428:156,2,150,8|8|8,0:1|0:1|0:1,0:0:0:0:
225,275,42981,1,8,0:1:0:0:
225,275,43647,6,0,B|201:280|201:280|177:275,1,50,4|4,0:3|0:3,0:0:0:0:
140,239,43981,2,0,B|116:234|116:234|92:239,1,50,4|4,0:3|0:3,0:0:0:0:
55,203,44314,1,2,0:0:0:0:
208,76,44981,6,0,B|256:62|256:62|304:76,1,100,4|0,1:3|0:0,0:0:0:0:
316,28,45481,2,0,B|330:76|330:76|316:124,1,100,4|0,1:3|0:0,0:0:0:0:
364,136,45981,1,4,1:3:0:0:
448,192,46314,1,0,0:0:0:0:
448,192,46647,1,0,0:0:0:0:
364,248,46981,5,6,1:2:0:0:
448,304,47314,2,0,B|448:372|448:372|426:348|390:334|354:348|332:372,1,200,8|8,0:0|0:0,0:0:0:0:
256,304,48314,1,2,1:2:0:0:
180,372,48647,2,0,B|158:348|122:334|86:348|64:372|64:372|64:304,1,200,8|8,0:0|0:0,0:0:0:0:
148,248,49647,6,0,B|148:164|148:164|148:96|200:67,1,200,2|2,1:2|0:3,0:0:0:0:
256,152,50647,1,8,0:0:0:0:
311,67,50981,2,0,B|364:96|364:164|364:164|364:248,1,200,2|2,1:2|0:3,0:0:0:0:
448,304,51981,1,8,0:0:0:0:
364,360,52314,6,0,L|264:360,1,100,2|8,1:2|0:0,0:0:0:0:
180,304,52981,2,0,L|130:304,1,50,2|0,0:3|1:0,0:0:0:0:
79,304,53314,1,8,0:0:0:0:
79,204,53647,6,0,B|92:156|92:156|79:108,1,100,2|8,1:2|0:0,0:0:0:0:
179,107,54314,2,0,B|166:59|166:59|179:11,1,100,2|8,0:3|0:0,0:0:0:0:
266,59,54981,5,2,1:2:0:0:
266,59,55147,1,0,1:0:0:0:
266,59,55314,1,8,0:0:0:0:
353,107,55647,1,0,1:0:0:0:
353,107,55814,1,0,1:0:0:0:
353,107,55981,1,8,0:0:0:0:
440,59,56314,6,0,B|509:192|509:192|440:325,1,300,0|0,3:0|3:0,0:0:0:0:
352,276,57647,6,0,L|352:226,2,50,2|2|2,3:1|0:1|0:0,0:0:0:0:
266,325,58314,2,0,P|218:337|170:325,1,100,10|2,0:1|0:0,0:0:0:0:
150,277,58814,2,0,P|162:325|150:373,1,100,10|2,0:1|0:1,0:0:0:0:
99,373,59314,1,2,0:0:0:0:
64,277,59647,2,0,L|14:277,2,50,2|0|2,0:1|0:0|0:0,0:0:0:0:
99,181,60314,5,2,3:2:0:0:
134,85,60647,2,0,P|182:73|230:85,1,100,2|8,0:1|0:1,0:0:0:0:
250,133,61147,2,0,P|238:85|250:37,1,100,2|2,0:1|0:1,0:0:0:0:
301,37,61647,1,0,0:0:0:0:
401,37,61981,1,2,2:2:0:0:
501,37,62314,6,0,L|501:103,1,66.6666666666667,8|8,0:1|0:3,0:0:0:0:
501,136,62647,2,0,L|501:202,1,66.6666666666667,8|8,0:1|0:3,0:0:0:0:
501,236,62981,6,0,P|409:269|317:236,1,200,4|8,0:3|0:0,0:0:0:0:
256,316,63981,1,4,0:3:0:0:
196,236,64314,2,0,P|104:269|12:236,1,200,0|10,0:0|0:1,0:0:0:0:
104,192,65314,2,0,L|104:142,1,50,2|0,0:1|0:0,0:0:0:0:
104,91,65647,6,0,B|204:91,1,100,8|8,0:1|0:1,0:0:0:0:
308,91,66314,2,0,B|408:91,1,100,8|10,0:1|0:1,0:0:0:0:
408,192,66981,2,0,B|336:248|336:248|256:174|256:174|176:248|176:248|104:192,1,400,8|2,3:1|0:0,0:0:0:0:
256,60,68981,5,6,3:2:0:0:
256,60,76980,6,0,B|308:28|352:56|352:60|352:64|396:92|448:60,1,200,6|8,3:2|0:1,0:0:0:0:
508,140,77980,1,0,3:0:0:0:
447,219,78314,2,0,P|420:287|447:355,2,150,2|0|2,3:2|3:0|0:3,0:0:0:0:
347,219,79647,2,0,L|197:219,1,150,2|0,3:2|3:0,0:0:0:0:
126,148,80480,1,8,0:1:0:0:
55,219,80814,1,8,0:1:0:0:
55,219,80980,2,0,L|5:219,2,50,2|2|2,3:2|0:0|0:0,0:0:0:0:
126,290,81647,1,2,0:0:0:0:
126,290,81814,1,2,0:0:0:0:
197,219,82147,5,0,0:0:0:0:
197,219,82314,2,0,P|256:258|315:219,1,150,2|0,3:2|3:0,0:0:0:0:
386,290,83147,1,8,0:1:0:0:
457,219,83480,1,8,0:1:0:0:
457,219,83647,2,0,P|477:175|457:131,1,100,2|0,3:2|3:0,0:0:0:0:
386,60,84314,1,8,0:1:0:0:
386,60,84480,1,8,0:1:0:0:
386,60,84647,1,2,0:3:0:0:
315,131,84980,6,0,P|256:276|197:131,1,400,2|2,3:2|3:2,0:0:0:0:
197,131,87647,6,0,B|149:118|149:118|101:131,1,100,6|2,3:2|0:3,0:0:0:0:
53,219,88314,2,0,B|101:232|101:232|149:219,1,100,8|2,0:1|3:0,0:0:0:0:
197,307,88980,2,0,P|256:346|315:307,2,150,2|2|2,3:2|0:3|0:3,0:0:0:0:
256,224,90314,6,0,B|256:162|256:162|260:154|260:154|252:154|252:154|256:146|256:146|256:84,2,150,2|2|2,3:2|0:3|3:0,0:0:0:0:
315,307,91647,2,0,L|315:357,2,50,2|2|2,3:2|0:3|0:3,0:0:0:0:
374,224,92314,1,8,0:1:0:0:
374,224,92480,1,8,0:1:0:0:
374,224,92647,1,8,0:1:0:0:
433,141,92980,6,0,B|433:93|433:93|433:41|482:9,2,150,8|8|8,0:1|0:1|0:1,0:0:0:0:
374,224,94314,2,0,B|374:374,2,150,8|8|8,0:1|0:1|0:1,0:0:0:0:
315,141,95647,2,0,B|315:93|315:93|315:41|266:9,2,150,8|8|8,0:1|0:1|0:1,0:0:0:0:
256,224,96980,1,8,0:1:0:0:
256,224,98647,6,0,L|106:224,2,150,0|8|8,3:0|0:1|0:1,0:0:0:0:
315,141,99980,2,0,L|465:141,2,150,8|8|8,0:1|0:1|0:1,0:0:0:0:
256,224,101313,2,0,L|406:224,2,150,8|8|8,0:1|0:1|0:1,0:0:0:0:
197,141,102647,2,0,L|47:141,2,150,8|8|8,0:1|0:1|0:1,0:0:0:0:
256,58,103980,5,10,0:1:0:0:
256,192,104063,12,10,106646,0:1:0:0:
256,58,107980,5,2,0:0:0:0:
256,156,108313,1,2,0:0:0:0:
304,308,108813,6,0,B|256:322|256:322|208:308,1,100,4|0,1:3|0:0,0:0:0:0:
196,356,109313,2,0,B|182:308|182:308|196:260,1,100,4|0,1:3|0:0,0:0:0:0:
148,248,109813,1,4,1:3:0:0:
64,192,110146,1,0,0:0:0:0:
64,192,110479,1,0,0:0:0:0:
148,136,110813,5,6,1:2:0:0:
64,80,111146,2,0,B|64:12|64:12|86:36|122:50|158:36|180:12,1,200,8|8,0:0|0:0,0:0:0:0:
256,80,112146,1,2,1:2:0:0:
332,12,112479,2,0,B|354:36|390:50|426:36|448:12|448:12|448:80,1,200,8|8,0:0|0:0,0:0:0:0:
364,136,113479,6,0,B|364:220|364:220|364:288|312:317,1,200,2|2,1:2|0:3,0:0:0:0:
256,232,114479,1,8,0:0:0:0:
201,317,114813,2,0,B|148:288|148:220|148:220|148:136,1,200,2|2,1:2|0:3,0:0:0:0:
64,80,115813,1,8,0:0:0:0:
148,24,116146,6,0,L|248:24,1,100,2|8,1:2|0:0,0:0:0:0:
332,80,116813,2,0,L|382:80,1,50,2|0,0:3|1:0,0:0:0:0:
433,80,117146,1,8,0:0:0:0:
433,180,117479,6,0,B|420:228|420:228|433:276,1,100,2|8,1:2|0:0,0:0:0:0:
333,277,118146,2,0,B|346:325|346:325|333:373,1,100,2|8,0:3|0:0,0:0:0:0:
246,325,118812,5,2,1:2:0:0:
246,325,118979,1,0,1:0:0:0:
246,325,119146,1,8,0:0:0:0:
159,277,119479,1,0,1:0:0:0:
159,277,119646,1,0,1:0:0:0:
159,277,119812,1,8,0:0:0:0:
72,325,120146,6,0,B|3:192|3:192|72:59,1,300,0|0,3:0|3:0,0:0:0:0:
160,108,121479,6,0,L|160:158,2,50,2|2|2,3:1|0:1|0:0,0:0:0:0:
246,59,122146,2,0,P|294:47|342:59,1,100,10|2,0:1|0:0,0:0:0:0:
362,107,122646,2,0,P|350:59|362:11,1,100,10|2,0:1|0:1,0:0:0:0:
413,11,123146,1,2,0:0:0:0:
448,107,123479,2,0,L|498:107,2,50,2|0|2,0:1|0:0|0:0,0:0:0:0:
413,203,124146,5,2,3:2:0:0:
378,299,124479,2,0,P|330:311|282:299,1,100,2|8,0:1|0:1,0:0:0:0:
262,251,124979,2,0,P|274:299|262:347,1,100,2|2,0:1|0:1,0:0:0:0:
211,347,125479,1,0,0:0:0:0:
111,347,125812,1,2,2:2:0:0:
11,347,126146,6,0,L|11:281,1,66.6666666666667,8|8,0:1|0:3,0:0:0:0:
11,248,126479,2,0,L|11:182,1,66.6666666666667,8|8,0:1|0:3,0:0:0:0:
11,148,126812,6,0,P|103:115|195:148,1,200,4|10,0:3|0:0,0:0:0:0:
256,68,127812,1,4,0:3:0:0:
316,148,128146,2,0,P|408:115|500:148,1,200,0|10,0:0|0:0,0:0:0:0:
408,192,129146,2,0,L|408:242,1,50,2|0,0:1|0:0,0:0:0:0:
408,293,129479,6,0,B|308:293,1,100,8|10,0:1|0:1,0:0:0:0:
204,293,130146,2,0,B|104:293,1,100,8|10,0:1|0:1,0:0:0:0:
104,192,130812,2,0,B|176:136|176:136|256:210|256:210|336:136|336:136|408:192,1,400,8|2,3:1|0:0,0:0:0:0:
408,192,133479,6,0,B|420:152|388:112|348:112|348:112|313:112,1,150,4|4,0:3|0:3,0:0:0:0:
263,112,134146,1,10,0:0:0:0:
165,112,134479,1,2,0:0:0:0:
104,192,134812,2,0,B|92:232|124:272|164:272|164:272|198:272,1,150,4|4,0:3|0:3,0:0:0:0:
249,272,135479,1,8,0:0:0:0:
347,272,135812,1,2,0:0:0:0:
408,192,136146,6,0,B|485:63,1,150,4|4,0:3|0:3,0:0:0:0:
435,63,136812,1,14,0:0:0:0:
352,4,137146,1,2,0:0:0:0:
269,63,137479,2,0,B|213:63|213:63|205:46|205:46|197:63|197:63|141:63,1,150,4|4,0:3|0:3,0:0:0:0:
90,63,138146,1,12,0:0:0:0:
19,133,138479,1,2,0:3:0:0:
90,203,138812,6,0,P|57:267|90:331,1,150,4|4,0:3|0:3,0:0:0:0:
140,331,139479,1,8,0:0:0:0:
217,267,139812,1,2,0:0:0:0:
294,331,140146,6,0,L|330:185,1,150,4|4,0:3|0:3,0:0:0:0:
344,136,140812,1,8,0:0:0:0:
414,65,141146,1,2,0:0:0:0:
484,136,141479,5,4,0:3:0:0:
414,65,141812,2,0,B|364:20|300:48|300:48|272:48,1,150,8|4,0:0|0:3,0:0:0:0:
222,48,142479,1,8,0:0:0:0:
151,120,142812,2,0,B|107:144|107:144|63:120,2,100,4|8|2,0:3|0:0|0:0,0:0:0:0:
222,192,143812,1,8,0:0:0:0:
222,192,144146,1,2,0:0:0:0:
151,264,144479,6,0,L|221:334,1,100,4|0,1:3|0:0,0:0:0:0:
256,300,144979,2,0,L|326:370,1,100,4|0,1:3|0:0,0:0:0:0:
361,336,145479,1,4,1:3:0:0:
432,264,145812,1,0,0:0:0:0:
432,264,146145,1,0,0:0:0:0:
361,192,146479,5,6,1:2:0:0:
432,120,146812,2,0,B|404:24|404:24|304:24,1,200,8|8,0:0|0:0,0:0:0:0:
256,112,147812,1,2,1:2:0:0:
208,24,148145,2,0,B|108:24|108:24|80:120,1,200,8|8,0:0|0:0,0:0:0:0:
151,192,149145,6,0,B|174:240|151:288|151:288|175:335|151:384,1,200,2|2,1:2|0:3,0:0:0:0:
256,384,150145,1,8,0:0:0:0:
361,384,150479,2,0,B|337:335|361:288|361:288|337:240|361:192,1,200,2|2,1:2|0:3,0:0:0:0:
256,192,151479,1,8,0:0:0:0:
151,192,151812,6,0,L|200:104,1,100,2|8,1:2|0:0,0:0:0:0:
312,104,152479,2,0,L|362:104,1,50,2|0,0:3|1:0,0:0:0:0:
412,104,152812,1,8,0:0:0:0:
464,192,153145,6,0,P|484:236|464:280,1,100,2|8,1:2|0:0,0:0:0:0:
363,280,153812,2,0,P|383:324|363:368,1,100,2|8,0:3|0:0,0:0:0:0:
262,368,154478,5,2,1:2:0:0:
262,368,154645,1,0,1:0:0:0:
262,368,154812,1,8,0:0:0:0:
172,324,155145,1,0,1:0:0:0:
172,324,155312,1,0,1:0:0:0:
172,324,155478,1,8,0:0:0:0:
82,280,155812,6,0,P|256:196|430:280,1,400,0|2,3:0|0:0,0:0:0:0:
430,280,157812,6,0,L|466:186,1,100,4|8,0:3|0:0,0:0:0:0:
388,124,158479,2,0,L|424:30,2,100,4|8|4,0:3|0:0|0:3,0:0:0:0:
310,186,159479,2,0,B|308:240|256:263|256:263|204:240|202:186,1,200,8|8,0:0|0:0,0:0:0:0:
124,124,160479,2,0,L|88:30,2,100,4|8|4,0:3|0:0|0:3,0:0:0:0:
46,186,161478,2,0,L|82:280,1,100,8|4,0:0|0:3,0:0:0:0:
156,344,162145,2,0,L|356:344,1,200,8|8,0:0|0:0,0:0:0:0:
430,280,163145,5,2,0:0:0:0:
80,116,164478,6,0,B|56:116|40:104|40:93|40:93|40:104|24:116|0:116,1,100,4|8,0:3|0:0,0:0:0:0:
40,208,165145,2,0,B|40:232|28:248|17:248|17:248|28:248|40:264|40:288,1,100,4|8,0:3|0:0,0:0:0:0:
110,358,165812,1,4,0:3:0:0:
181,288,166145,2,0,B|200:216|272:216|272:216|345:216,1,200,8|8,0:0|0:0,0:0:0:0:
432,268,167145,6,0,B|456:268|472:280|472:291|472:291|472:280|488:268|512:268,1,100,4|8,0:3|0:0,0:0:0:0:
472,176,167812,2,0,B|472:152|484:136|495:136|495:136|484:136|472:120|472:96,1,100,4|8,0:3|0:0,0:0:0:0:
402,26,168479,1,4,0:3:0:0:
331,96,168812,2,0,B|312:168|240:168|240:168|166:168,1,200,8|8,0:0|0:0,0:0:0:0:
80,116,169812,6,0,L|185:285,1,200,4|4,0:3|0:3,0:0:0:0:
256,216,170812,1,8,0:0:0:0:
326,285,171145,2,0,L|432:116,1,200,4|4,0:3|0:3,0:0:0:0:
352,56,172145,5,8,0:0:0:0:
352,56,172312,1,4,0:3:0:0:
352,56,172478,2,0,P|256:32|160:56,1,200,4|4,0:3|0:3,0:0:0:0:
80,116,173478,1,8,0:0:0:0:
160,176,173812,2,0,P|256:200|352:176,1,200,4|4,0:3|0:3,0:0:0:0:
432,116,174812,1,8,0:0:0:0:
512,176,175145,6,0,B|512:276|512:276|432:336,1,200,4|8,0:3|0:0,0:0:0:0:
331,336,176145,2,0,B|280:328|256:276|256:276|232:328|181:336,1,200,4|12,0:3|0:0,0:0:0:0:
80,336,177145,2,0,B|0:276|0:276|0:176,1,200,8|4,0:0|0:3,0:0:0:0:
80,116,178145,2,0,L|180:116,1,100,8|4,0:0|0:3,0:0:0:0:
256,48,178812,1,8,0:0:0:0:
256,48,178978,1,4,0:3:0:0:
256,48,179145,1,4,0:3:0:0:
332,116,179478,1,8,0:0:0:0:
256,184,179812,6,0,B|224:236|252:280|256:280|260:280|288:324|256:376,1,200,4|4,0:3|0:0,0:0:0:0:
332,58,182145,6,0,P|400:30|468:58,2,150,2|0|0,0:0|0:0|0:0,0:0:0:0:
256,122,183478,2,0,L|256:222,2,100,2|0|0,0:0|0:0|0:0,0:0:0:0:
180,58,184478,1,2,0:0:0:0:
104,122,184811,6,0,L|175:253,1,150,2|0,0:0|0:0,0:0:0:0:
336,253,185811,2,0,L|408:122,2,150,2|0|2,0:0|0:0|0:0,0:0:0:0:
256,314,187145,1,2,0:0:0:0:
175,253,187478,6,0,P|131:233|87:253,2,100,2|0|2,0:0|0:0|0:0,0:0:0:0:
256,192,188478,1,0,0:0:0:0:
337,253,188811,2,0,P|381:233|425:253,2,100,2|0|2,0:0|0:0|0:0,0:0:0:0:
256,314,189811,1,0,0:0:0:0:
175,253,190145,6,0,B|144:232|135:192|135:192|144:152|175:131,1,150,2|0,0:0|0:0,0:0:0:0:
337,131,191145,2,0,B|368:152|377:192|377:192|368:232|337:253,2,150,2|0|2,0:0|0:0|0:0,0:0:0:0:
256,192,192478,1,2,0:0:0:0:
256,192,192645,12,0,202144,0:0:0:0:
