osu file format v14

[General]
AudioFilename: audio.mp3
AudioLeadIn: 0
PreviewTime: 46314
Countdown: 0
SampleSet: Soft
StackLeniency: 0.6
Mode: 0
LetterboxInBreaks: 0
WidescreenStoryboard: 1

[Editor]
Bookmarks: 46981
DistanceSpacing: 0.6
BeatDivisor: 4
GridSize: 4
TimelineZoom: 2.2

[Metadata]
Title:POP SHOVE-IT FEAT. TOFUKU
TitleUnicode:POP SHOVE-IT FEAT. TOFUKU
Artist:BLOOD CODE
ArtistUnicode:BLOOD CODE
Creator:Hobbes2
Version:Extra
Source:
Tags:FA Featured Artist english electronic Drum and Bass dnb Gero chill skate edm hardstyle trap hardcore future bass
BeatmapID:2686903
BeatmapSetID:1294825

[Difficulty]
HPDrainRate:5
CircleSize:4
OverallDifficulty:8
ApproachRate:9
SliderMultiplier:1.4
SliderTickRate:1

[Events]
//Background and Video events
0,0,"blood code.jpg",0,0
//Break Periods
//Storyboard Layer 0 (Background)
//Storyboard Layer 1 (Fail)
//Storyboard Layer 2 (Pass)
//Storyboard Layer 3 (Foreground)
//Storyboard Layer 4 (Overlay)
//Storyboard Sound Samples

[TimingPoints]
1648,333.333333333333,4,2,0,70,1,0
1648,-125,4,2,0,70,0,0
12314,-105.263157894737,4,2,0,70,0,0
17647,-105.263157894737,4,2,0,60,0,0
18981,-105.263157894737,4,2,0,70,0,0
20314,-105.263157894737,4,2,0,80,0,0
21647,-105.263157894737,4,2,0,60,0,0
22981,-83.3333333333333,4,2,0,70,0,0
33647,-76.9230769230769,4,2,0,70,0,0
44981,-71.4285714285714,4,2,0,70,0,0
46981,-66.6666666666667,4,2,0,85,0,0
57647,-62.5,4,2,0,85,0,0
68314,-100,4,2,0,70,0,0
68981,333.333333333333,4,2,0,70,1,0
68981,-83.3333333333333,4,2,0,70,0,0
87647,-76.9230769230769,4,2,0,70,0,0
98647,333.333333333333,4,2,0,70,1,0
98647,-83.3333333333333,4,2,0,70,0,0
103980,-83.3333333333333,4,2,0,60,0,0
105314,-83.3333333333333,4,2,0,70,0,0
106647,-83.3333333333333,4,2,0,80,0,0
107980,-83.3333333333333,4,2,0,60,0,0
108813,333.333333333333,4,2,0,70,1,0
108813,-71.4285714285714,4,2,0,70,0,0
110813,333.333333333333,4,2,0,70,1,0
110813,-66.6666666666667,4,2,0,85,0,0
121479,-62.5,4,2,0,85,0,0
133479,-62.5,4,2,0,85,0,0
144479,333.333333333333,4,2,0,70,1,0
144479,-71.4285714285714,4,2,0,70,0,0
146479,333.333333333333,4,2,0,70,1,0
146479,-66.6666666666667,4,2,0,85,0,0
157812,333.333333333333,4,2,0,85,1,0
157812,-62.5,4,2,0,85,0,0
163145,-100,4,2,0,70,0,0
164478,-62.5,4,2,0,85,0,0
175145,-133.333333333333,4,2,0,70,0,0
175770,-62.5,4,2,0,85,0,0
176311,-100,4,2,0,70,0,0
176645,-62.5,4,2,0,85,0,0
181478,-133.333333333333,4,2,0,70,0,0
182145,333.333333333333,4,2,0,70,1,0
182145,-125,4,2,0,70,0,0

[Colours]
Combo1 : 255,98,98
Combo2 : 77,255,255
Combo3 : 255,255,134
Combo4 : 79,255,79
Combo5 : 255,155,106

[HitObjects]
269,98,1648,6,0,P|196:60|114:70,2,168,2|2|2,0:1|0:0|0:0,0:0:0:0:
297,207,2981,2,0,P|370:245|405:231,2,112,2|2|2,0:0|0:0|0:0,0:0:0:0:
262,69,3981,1,2,0:0:0:0:
199,151,4314,6,0,L|77:139,1,112,2|0,0:0|0:0,0:0:0:0:
23,202,4814,1,2,0:0:0:0:
114,355,5147,1,0,0:0:0:0:
114,355,5314,2,0,L|225:344,1,112,2|0,0:0|0:0,0:0:0:0:
298,291,5814,2,0,P|309:228|286:181,1,112,2|0,0:0|0:0,0:0:0:0:
231,117,6314,1,2,0:0:0:0:
231,117,6647,1,2,0:0:0:0:
382,21,6981,6,0,L|403:90,1,56,2|0,0:0|0:0,0:0:0:0:
472,124,7314,2,0,L|451:193,1,56,2|0,0:0|0:0,0:0:0:0:
403,250,7647,2,0,B|314:265|314:265|274:244,1,112,2|2,0:0|0:0,0:0:0:0:
285,75,8314,2,0,B|374:60|374:60|414:81,1,112,2|2,0:0|0:0,0:0:0:0:
293,219,8981,2,0,L|113:200,1,168,2|0,0:0|0:0,0:0:0:0:
56,145,9647,5,2,0:0:0:0:
198,35,9981,1,0,0:0:0:0:
198,35,10147,2,0,P|231:81|232:144,1,112,2|0,0:0|0:0,0:0:0:0:
169,196,10647,2,0,P|172:251|205:295,1,112,2|0,0:0|0:0,0:0:0:0:
282,341,11147,2,0,L|414:335,1,112,2|0,0:0|0:0,0:0:0:0:
464,280,11647,1,2,0:0:0:0:
368,128,11981,1,8,0:1:0:0:
449,90,12147,1,8,0:1:0:0:
393,220,12314,6,0,P|327:241|263:207,1,132.999996448517,8|0,0:1|0:0,0:0:0:0:
215,133,12814,2,0,L|232:54,1,66.4999982242585,2|0,3:2|0:0,0:0:0:0:
148,9,13147,1,0,0:0:0:0:
85,87,13314,2,0,P|53:79|21:73,1,66.4999982242585,2|0,3:2|0:0,0:0:0:0:
0,215,13647,6,0,P|60:190|126:179,1,132.999996448517,2|0,3:2|0:0,0:0:0:0:
211,127,14147,2,0,P|250:140|284:163,2,66.4999982242585,2|0|0,3:2|0:0|0:0,0:0:0:0:
126,179,14647,1,8,3:1:0:0:
235,319,14814,1,8,3:1:0:0:
322,270,14981,6,0,B|423:285|423:285|445:322,1,132.999996448517,8|0,3:1|0:0,0:0:0:0:
495,169,15481,2,0,L|504:236,1,66.4999982242585,2|0,3:2|0:0,0:0:0:0:
414,108,15814,1,0,0:0:0:0:
444,12,15981,2,0,L|435:78,1,66.4999982242585,2|0,3:2|0:0,0:0:0:0:
350,182,16314,1,0,0:0:0:0:
251,198,16481,2,0,L|317:206,1,66.4999982242585,2|0,3:2|0:0,0:0:0:0:
289,110,16814,1,0,0:0:0:0:
190,94,16981,2,0,L|256:85,1,66.4999982242585,2|0,3:2|0:0,0:0:0:0:
338,29,17314,1,8,3:1:0:0:
338,29,17481,1,8,3:1:0:0:
423,79,17647,5,10,3:1:0:0:
481,159,17814,1,8,0:1:0:0:
381,168,17981,1,8,0:1:0:0:
422,71,18147,5,10,3:1:0:0:
488,162,18314,1,8,0:1:0:0:
374,172,18481,1,8,0:1:0:0:
487,263,18647,5,10,3:1:0:0:
487,263,18814,1,8,0:1:0:0:
393,327,18981,5,10,3:1:0:0:
264,286,19147,1,8,0:1:0:0:
362,189,19314,1,8,0:1:0:0:
403,338,19481,5,10,3:1:0:0:
248,289,19647,1,8,0:1:0:0:
366,173,19814,1,8,0:1:0:0:
434,241,19981,2,0,P|476:233|506:233,1,66.4999982242585,10|8,3:1|0:1,0:0:0:0:
254,203,20314,5,10,3:1:0:0:
316,95,20481,1,8,0:1:0:0:
339,282,20647,1,8,0:1:0:0:
243,202,20814,5,10,3:1:0:0:
324,81,20981,1,8,0:1:0:0:
340,295,21147,1,8,0:1:0:0:
168,177,21314,5,10,3:1:0:0:
168,177,21481,1,8,0:1:0:0:
168,177,21647,2,0,L|257:165,1,66.4999982242585,2|2,0:0|0:0,0:0:0:0:
30,112,22981,6,0,P|116:48|196:67,1,167.999994873047,6|0,3:2|0:0,0:0:0:0:
249,118,23481,1,0,3:0:0:0:
395,14,23647,1,8,0:1:0:0:
395,14,23814,1,8,0:1:0:0:
476,74,23981,2,0,L|485:188,1,83.9999974365235,0|8,3:0|0:1,0:0:0:0:
411,300,24314,6,0,B|287:317|287:317|216:283,1,167.999994873047,2|0,3:2|0:0,0:0:0:0:
204,207,24814,1,0,3:0:0:0:
290,155,24981,1,8,0:1:0:0:
161,68,25147,1,8,0:1:0:0:
75,120,25314,2,0,P|83:171|91:232,1,83.9999974365235,2|2,0:3|0:3,0:0:0:0:
10,373,25647,6,0,B|78:357|78:357|119:363|119:363|202:349,1,167.999994873047,2|0,3:2|0:0,0:0:0:0:
239,275,26147,1,0,3:0:0:0:
358,371,26314,1,8,0:1:0:0:
239,275,26481,1,8,0:1:0:0:
313,208,26647,1,0,3:0:0:0:
313,208,26814,1,8,0:1:0:0:
236,141,26981,6,0,L|143:153,2,83.9999974365235,2|2|2,3:2|0:0|0:0,0:0:0:0:
236,141,27481,1,2,0:0:0:0:
316,81,27647,5,0,0:0:0:0:
119,35,27981,5,0,0:0:0:0:
316,81,28314,5,2,3:2:0:0:
316,81,28814,1,0,3:0:0:0:
348,173,28981,1,8,0:1:0:0:
250,153,29147,1,8,0:1:0:0:
416,101,29314,1,0,3:0:0:0:
416,101,29481,1,8,0:1:0:0:
489,215,29647,6,0,P|468:283|465:324,1,83.9999974365235,2|2,3:2|0:0,0:0:0:0:
380,349,29981,2,0,P|372:307|357:268,1,83.9999974365235,0|0,3:0|3:0,0:0:0:0:
293,190,30314,1,8,0:1:0:0:
247,307,30481,1,8,0:1:0:0:
130,261,30647,1,2,0:3:0:0:
176,144,30814,1,2,0:0:0:0:
94,166,30981,6,0,P|40:127|78:24,1,167.999994873047,2|0,3:2|0:0,0:0:0:0:
155,12,31481,2,0,P|216:22|270:32,1,83.9999974365235,0|8,3:0|0:1,0:0:0:0:
316,88,31814,1,8,0:1:0:0:
448,22,31981,1,0,3:0:0:0:
390,156,32147,1,8,0:1:0:0:
390,156,32314,6,0,B|379:213|379:213|382:229,1,41.9999987182618,2|0,3:2|0:0,0:0:0:0:
35,81,33314,5,2,0:3:0:0:
35,81,33481,1,2,0:3:0:0:
35,81,33647,6,0,P|22:136|44:176,1,90.9999958343508,6|2,3:2|0:3,0:0:0:0:
144,213,33981,2,0,L|174:209,4,22.7499989585877,2|2|2|2|2,0:3|0:3|0:3|0:3|0:3,0:0:0:0:
53,290,34314,5,8,0:1:0:0:
155,350,34481,1,8,0:1:0:0:
53,290,34647,1,2,3:0:0:0:
238,293,34814,1,2,0:3:0:0:
103,178,34981,6,0,B|102:109|102:109|120:74,1,90.9999958343508,2|2,3:2|0:3,0:0:0:0:
134,88,35231,1,2,0:3:0:0:
156,86,35314,1,2,0:3:0:0:
178,84,35397,1,2,0:3:0:0:
200,82,35481,1,2,0:3:0:0:
289,5,35647,2,0,L|392:24,1,90.9999958343508,8|8,0:1|0:1,0:0:0:0:
459,108,35981,1,2,0:3:0:0:
345,208,36147,1,2,0:3:0:0:
345,208,36231,1,2,0:3:0:0:
345,208,36314,6,0,P|319:272|368:378,1,181.999991668702,2|2,3:2|0:3,0:0:0:0:
382,366,36731,1,2,0:3:0:0:
404,361,36814,1,2,0:3:0:0:
249,384,36981,5,8,0:1:0:0:
212,271,37147,1,8,0:1:0:0:
71,260,37314,1,2,3:0:0:0:
108,373,37480,1,2,0:3:0:0:
117,157,37647,6,0,P|193:144|242:135,1,90.9999958343508,2|2,3:2|0:3,0:0:0:0:
226,130,37897,1,2,0:3:0:0:
246,119,37981,1,2,0:3:0:0:
338,157,38147,1,2,0:0:0:0:
385,53,38314,5,8,0:1:0:0:
406,235,38481,1,8,0:1:0:0:
385,53,38647,1,8,0:1:0:0:
406,235,38814,1,8,0:1:0:0:
385,53,38981,6,0,B|256:25|256:25|201:53,1,181.999991668702,8|2,0:1|0:3,0:0:0:0:
196,64,39397,1,2,0:3:0:0:
179,80,39481,2,0,P|127:91|82:64,1,90.9999958343508,8|2,0:1|0:3,0:0:0:0:
33,7,39814,1,2,0:3:0:0:
128,178,39981,2,0,L|113:275,1,90.9999958343508,8|2,0:1|0:3,0:0:0:0:
243,376,40314,6,0,L|230:287,1,90.9999958343508,8|2,0:1|0:3,0:0:0:0:
251,277,40564,1,2,0:3:0:0:
271,268,40647,1,2,0:3:0:0:
292,259,40731,1,2,0:3:0:0:
312,250,40814,1,8,0:1:0:0:
345,165,40981,1,2,0:3:0:0:
294,89,41147,1,2,0:3:0:0:
369,38,41314,2,0,L|442:28,1,45.4999979171754,8|0,0:1|0:0,0:0:0:0:
488,98,41481,1,8,0:1:0:0:
488,98,41564,1,2,0:3:0:0:
488,98,41647,6,0,P|510:147|490:191,1,90.9999958343508,8|2,0:1|0:3,0:0:0:0:
378,238,41981,1,2,0:3:0:0:
378,238,42064,1,2,0:3:0:0:
378,238,42147,2,0,P|356:189|376:145,1,90.9999958343508,8|2,0:1|0:3,0:0:0:0:
469,273,42481,1,2,0:3:0:0:
340,357,42647,2,0,L|231:337,1,90.9999958343508,8|2,0:1|0:3,0:0:0:0:
152,243,42981,5,8,0:1:0:0:
266,45,43647,5,4,0:3:0:0:
266,45,43814,1,4,0:3:0:0:
266,45,43981,1,4,0:3:0:0:
266,45,44147,1,4,0:3:0:0:
266,45,44314,2,0,L|278:142,3,90.9999958343508,2|2|2|2,0:0|0:0|0:0|0:0,0:0:0:0:
401,24,44981,5,4,1:3:0:0:
375,358,45481,5,4,1:3:0:0:
401,24,45981,5,4,1:3:0:0:
284,84,46981,6,0,L|388:71,1,105.000004005432,6|2,1:2|0:3,0:0:0:0:
205,183,47314,1,8,0:0:0:0:
109,138,47481,1,2,0:3:0:0:
4,252,47647,2,0,P|-4:321|35:357,2,105.000004005432,2|0|8,0:3|1:0|0:0,0:0:0:0:
100,170,48147,1,2,0:3:0:0:
101,287,48314,5,2,1:2:0:0:
33,96,48481,1,2,0:3:0:0:
33,96,48564,1,2,0:3:0:0:
33,96,48647,1,8,0:0:0:0:
133,154,48814,1,2,0:3:0:0:
255,89,48981,2,0,L|273:150,1,52.5000020027161,2|0,0:0|0:0,0:0:0:0:
308,156,49147,2,0,L|293:217,1,52.5000020027161,2|0,1:2|0:0,0:0:0:0:
266,237,49314,1,8,0:0:0:0:
368,310,49481,1,2,0:3:0:0:
368,310,49564,1,2,0:3:0:0:
368,310,49647,6,0,P|433:286|491:279,1,105.000004005432,2|2,1:2|0:3,0:0:0:0:
512,99,49981,2,0,P|447:75|389:68,1,105.000004005432,8|2,0:0|0:3,0:0:0:0:
329,4,50314,1,2,0:3:0:0:
269,227,50481,1,0,1:0:0:0:
186,48,50647,1,8,0:0:0:0:
329,4,50814,1,2,0:3:0:0:
144,164,50981,5,2,1:2:0:0:
274,267,51147,1,2,0:3:0:0:
274,267,51231,1,2,0:3:0:0:
274,267,51314,2,0,P|343:229|472:199,1,210.000008010865,8|2,0:0|0:3,0:0:0:0:
349,189,51814,1,0,1:0:0:0:
424,13,51981,2,0,P|482:27|504:78,1,105.000004005432,8|2,0:0|0:3,0:0:0:0:
484,82,52231,1,2,0:3:0:0:
461,95,52314,6,0,P|377:102|321:-9,1,210.000008010865,2|8,1:2|0:0,0:0:0:0:
351,125,52814,1,2,0:3:0:0:
201,57,52981,1,2,0:3:0:0:
104,96,53147,1,0,1:0:0:0:
254,164,53314,1,8,0:0:0:0:
298,18,53481,1,2,0:3:0:0:
145,191,53647,5,2,1:2:0:0:
31,178,53814,1,2,0:3:0:0:
31,178,53897,1,2,0:3:0:0:
31,178,53981,2,0,P|41:244|44:293,1,105.000004005432,8|2,0:0|0:3,0:0:0:0:
185,103,54314,1,2,0:3:0:0:
138,332,54481,1,0,1:0:0:0:
185,103,54647,1,8,0:0:0:0:
196,236,54814,1,2,0:3:0:0:
196,236,54897,1,2,0:3:0:0:
196,236,54981,5,2,1:2:0:0:
266,59,55147,1,0,1:0:0:0:
80,86,55314,1,8,0:0:0:0:
196,236,55481,5,0,1:0:0:0:
266,59,55647,1,0,1:0:0:0:
91,0,55814,1,0,1:0:0:0:
21,164,55981,1,8,0:0:0:0:
196,236,56147,5,0,1:0:0:0:
269,191,56314,5,0,3:0:0:0:
300,190,56397,1,0,3:0:0:0:
331,189,56480,1,0,3:0:0:0:
363,188,56564,1,0,3:0:0:0:
394,191,56647,1,0,3:0:0:0:
421,206,56730,1,0,3:0:0:0:
448,222,56813,1,0,3:0:0:0:
476,237,56897,1,0,3:0:0:0:
501,256,56981,6,0,L|475:316,3,52.5000020027161,0|0|0|0,3:0|3:0|3:0|3:0,0:0:0:0:
443,326,57314,1,0,3:0:0:0:
411,326,57397,1,0,3:0:0:0:
380,327,57480,1,0,3:0:0:0:
348,328,57564,1,0,3:0:0:0:
316,329,57647,6,0,L|249:315,1,56,2|0,3:1|0:0,0:0:0:0:
189,333,57814,2,0,L|122:319,1,56,2|0,0:1|0:0,0:0:0:0:
61,334,57981,2,0,P|39:269|94:200,1,112,2|0,0:0|3:0,0:0:0:0:
177,157,58314,6,0,P|187:196|173:228,1,56,10|0,0:1|0:0,0:0:0:0:
61,334,58647,1,2,0:0:0:0:
177,157,58814,6,0,P|187:196|173:228,1,56,10|0,0:1|0:0,0:0:0:0:
177,157,59147,2,0,P|187:196|173:228,1,56,2|0,0:1|0:0,0:0:0:0:
61,334,59314,6,0,P|39:269|94:200,1,112,8|0,0:1|0:0,0:0:0:0:
268,247,59647,2,0,P|222:298|135:285,1,112,2|0,0:1|0:0,0:0:0:0:
44,86,59981,6,0,L|46:12,1,56,2|0,0:0|0:0,0:0:0:0:
119,72,60147,2,0,L|121:-2,1,56,2|0,0:0|0:0,0:0:0:0:
193,2,60314,6,0,L|307:16,1,112,2|2,3:2|0:2,0:0:0:0:
421,101,60647,2,0,P|426:163|388:216,2,112,2|0|8,0:1|0:0|0:1,0:0:0:0:
289,164,61147,6,0,P|239:177|209:163,1,56,2|0,0:1|0:0,0:0:0:0:
226,103,61314,2,0,P|276:90|306:104,1,56,2|0,0:0|0:0,0:0:0:0:
421,101,61481,2,0,P|426:163|388:216,1,112,2|0,0:1|0:0,0:0:0:0:
307,265,61814,5,2,3:1:0:0:
346,384,61981,1,8,3:1:0:0:
307,265,62147,1,2,0:3:0:0:
207,317,62314,5,8,0:1:0:0:
198,337,62425,2,0,P|126:323|104:321,1,74.6666666666667,8|8,0:3|0:3,0:0:0:0:
65,212,62647,5,8,0:1:0:0:
74,231,62758,2,0,P|110:222|147:216,1,74.6666666666667,8|8,0:3|0:3,0:0:0:0:
206,121,62981,6,0,P|271:68|412:96,1,224,4|0,0:3|0:0,0:0:0:0:
479,168,63481,2,0,L|487:242,1,56,4|0,0:3|0:0,0:0:0:0:
311,253,63647,2,0,L|290:368,1,112,8|2,0:0|0:0,0:0:0:0:
269,369,63897,1,0,0:0:0:0:
243,355,63981,2,0,B|84:312|84:312|2:386,1,224,4|0,0:3|0:0,0:0:0:0:
22,150,64481,2,0,L|113:159,1,56,2|0,0:1|0:0,0:0:0:0:
136,104,64647,2,0,L|255:86,1,112,2|0,0:0|0:0,0:0:0:0:
390,21,64981,2,0,P|447:65|431:149,1,112,10|0,0:1|0:0,0:0:0:0:
302,281,65314,2,0,P|290:202|354:154,1,168,2|0,0:1|0:0,0:0:0:0:
379,166,65647,5,8,0:1:0:0:
472,337,65897,1,8,0:1:0:0:
472,337,65981,1,8,0:1:0:0:
366,372,66147,1,8,0:1:0:0:
259,337,66314,1,8,0:1:0:0:
472,337,66564,5,8,0:1:0:0:
472,337,66647,2,0,P|477:281|479:259,1,56,10|0,0:1|0:0,0:0:0:0:
427,219,66814,2,0,P|422:163|419:141,1,56,10|0,0:1|0:0,0:0:0:0:
368,105,66981,5,8,3:1:0:0:
340,102,67064,1,8,0:1:0:0:
312,99,67147,1,8,0:1:0:0:
283,96,67231,1,8,0:1:0:0:
255,93,67314,1,8,3:1:0:0:
227,90,67397,1,8,0:1:0:0:
198,87,67481,1,8,0:1:0:0:
170,84,67564,1,8,0:1:0:0:
141,82,67647,2,0,L|131:125,16,28,2|2|2|2|2|2|2|2|2|2|2|2|2|2|2|2|2,0:3|0:3|0:3|0:3|0:3|0:3|0:3|0:3|0:3|0:3|0:3|0:3|0:3|0:3|0:3|0:3|0:0,0:0:0:0:
18,359,68981,6,0,P|62:301|166:302,1,167.999994873047,6|2,3:2|0:3,0:0:0:0:
163,311,69397,1,2,0:3:0:0:
175,328,69481,1,0,3:0:0:0:
247,369,69647,5,8,0:1:0:0:
347,293,69814,1,8,0:1:0:0:
347,185,69981,1,2,0:3:0:0:
247,261,70148,1,2,0:3:0:0:
160,158,70314,6,0,L|171:56,1,83.9999974365235,2|2,3:2|0:3,0:0:0:0:
186,62,70564,1,2,0:3:0:0:
204,52,70647,2,0,L|306:41,1,83.9999974365235,2|2,0:3|0:3,0:0:0:0:
386,2,70981,5,8,0:1:0:0:
469,117,71147,1,8,0:1:0:0:
389,163,71314,1,8,0:1:0:0:
479,235,71480,1,8,0:1:0:0:
399,281,71647,6,0,L|299:272,2,83.9999974365235,8|2|2,0:1|0:3|0:3,0:0:0:0:
417,189,72147,2,0,L|517:180,2,83.9999974365235,8|2|2,0:1|0:3|0:3,0:0:0:0:
342,103,72647,1,8,0:1:0:0:
342,103,72814,1,2,0:3:0:0:
255,171,72981,6,0,B|236:234|236:234|264:263,1,83.9999974365235,8|2,0:1|0:3,0:0:0:0:
269,249,73231,1,2,0:3:0:0:
289,250,73314,1,2,0:3:0:0:
309,252,73397,1,2,0:3:0:0:
330,254,73481,1,8,0:1:0:0:
404,332,73647,2,0,L|496:317,1,83.9999974365235,2|2,0:3|0:3,0:0:0:0:
325,377,73981,1,8,0:1:0:0:
203,340,74147,1,8,0:1:0:0:
203,340,74231,1,2,0:3:0:0:
203,340,74314,6,0,P|189:276|173:234,1,83.9999974365235,8|2,0:1|0:3,0:0:0:0:
82,250,74647,1,2,0:3:0:0:
82,250,74731,1,2,0:3:0:0:
82,250,74814,2,0,P|96:186|112:144,1,83.9999974365235,8|2,0:1|0:3,0:0:0:0:
193,109,75147,1,2,0:3:0:0:
92,19,75314,2,0,P|40:30|-22:40,1,83.9999974365235,8|2,0:1|0:3,0:0:0:0:
216,29,75647,5,8,0:1:0:0:
256,192,75814,12,0,76647,0:0:0:0:
434,12,76980,6,0,P|463:115|485:210,1,167.999994873047,6|0,3:2|0:0,0:0:0:0:
409,260,77480,1,0,3:0:0:0:
346,169,77647,1,8,0:1:0:0:
346,169,77814,1,8,0:1:0:0:
309,315,77980,2,0,P|356:368|374:400,1,83.9999974365235,0|8,3:0|0:1,0:0:0:0:
137,384,78314,6,0,P|77:360|78:242,1,167.999994873047,2|0,3:2|0:0,0:0:0:0:
138,189,78814,1,0,3:0:0:0:
75,100,78980,1,8,0:1:0:0:
239,54,79147,1,8,0:1:0:0:
302,143,79314,1,2,0:3:0:0:
302,143,79480,1,2,0:3:0:0:
228,223,79647,6,0,P|244:299|249:346,1,83.9999974365235,2|0,3:2|0:0,0:0:0:0:
154,366,79980,1,0,0:0:0:0:
331,382,80147,2,0,L|419:365,1,83.9999974365235,0|8,3:0|0:1,0:0:0:0:
346,279,80480,1,8,0:1:0:0:
481,218,80647,1,0,3:0:0:0:
402,186,80814,1,8,0:1:0:0:
469,97,80980,6,0,L|456:3,2,83.9999974365235,2|2|2,3:2|0:0|0:0,0:0:0:0:
469,97,81480,1,2,0:0:0:0:
382,150,81647,5,2,0:0:0:0:
365,145,81814,1,2,0:0:0:0:
75,21,82314,5,2,3:2:0:0:
75,21,82647,1,0,0:0:0:0:
36,105,82814,1,0,3:0:0:0:
93,176,82980,2,0,P|145:166|197:160,1,83.9999974365235,8|8,0:1|0:1,0:0:0:0:
120,298,83314,2,0,P|68:288|16:282,1,83.9999974365235,0|8,3:0|0:1,0:0:0:0:
196,381,83647,6,0,P|265:354|260:250,1,167.999994873047,2|0,3:2|3:0,0:0:0:0:
215,197,84147,1,0,3:0:0:0:
300,102,84314,5,8,0:1:0:0:
203,52,84480,1,8,0:1:0:0:
300,102,84647,1,2,0:3:0:0:
215,197,84814,1,2,0:0:0:0:
320,283,84980,6,0,B|446:263|446:263|479:221,1,167.999994873047,2|0,3:2|0:0,0:0:0:0:
450,123,85480,1,0,3:0:0:0:
500,26,85647,5,8,0:1:0:0:
470,231,85814,1,8,0:1:0:0:
450,123,85980,1,0,3:0:0:0:
500,26,86147,1,8,0:1:0:0:
366,165,86314,6,0,L|292:155,1,41.9999987182618,2|0,3:2|0:0,0:0:0:0:
9,346,87314,1,2,0:3:0:0:
9,346,87480,1,2,0:3:0:0:
9,346,87647,6,0,B|72:365|72:365|135:342,1,90.9999958343508,6|2,3:2|0:3,0:0:0:0:
172,265,87980,2,0,L|164:231,4,22.7499989585877,2|2|2|2|2,0:3|0:3|0:3|0:3|0:3,0:0:0:0:
230,355,88314,5,8,0:1:0:0:
289,194,88480,1,8,0:1:0:0:
207,382,88647,1,2,3:0:0:0:
355,286,88813,1,2,0:3:0:0:
418,364,88980,6,0,L|509:351,1,90.9999958343508,2|2,3:2|0:3,0:0:0:0:
500,329,89230,1,2,0:3:0:0:
492,307,89314,1,2,0:3:0:0:
484,285,89397,1,2,0:3:0:0:
476,263,89480,1,2,0:3:0:0:
392,181,89647,2,0,P|327:207|267:209,1,90.9999958343508,8|8,0:1|0:1,0:0:0:0:
177,80,89980,1,2,0:3:0:0:
297,78,90147,1,2,0:3:0:0:
297,78,90230,1,2,0:3:0:0:
297,78,90314,6,0,P|358:39|468:92,1,181.999991668702,2|2,3:2|0:3,0:0:0:0:
498,173,90814,1,2,0:3:0:0:
414,242,90980,5,8,0:1:0:0:
512,367,91147,1,8,0:1:0:0:
498,173,91314,1,2,3:0:0:0:
512,367,91480,1,2,0:3:0:0:
398,378,91647,6,0,L|303:368,1,90.9999958343508,2|2,3:2|0:3,0:0:0:0:
289,354,91897,1,2,0:3:0:0:
272,338,91980,2,0,L|181:347,1,90.9999958343508,2|2,0:3|0:0,0:0:0:0:
84,295,92314,5,8,0:1:0:0:
271,235,92480,1,8,0:1:0:0:
84,295,92647,1,8,0:1:0:0:
271,235,92813,1,8,0:1:0:0:
84,295,92980,6,0,B|90:171|90:171|127:115,1,181.999991668702,8|2,0:1|0:3,0:0:0:0:
139,108,93397,1,2,0:3:0:0:
159,97,93480,2,0,L|256:111,1,90.9999958343508,8|2,0:1|0:3,0:0:0:0:
337,45,93814,1,2,0:3:0:0:
304,205,93980,2,0,L|394:192,1,90.9999958343508,8|2,0:1|0:3,0:0:0:0:
472,114,94314,5,8,0:1:0:0:
509,248,94480,1,2,0:3:0:0:
504,270,94564,1,2,0:3:0:0:
500,292,94647,1,2,0:3:0:0:
497,314,94730,1,2,0:3:0:0:
491,336,94814,2,0,P|422:339|368:351,1,90.9999958343508,8|2,0:1|0:3,0:0:0:0:
342,239,95147,1,2,0:3:0:0:
279,339,95314,1,8,0:1:0:0:
328,150,95480,1,8,0:1:0:0:
328,150,95564,1,2,0:3:0:0:
328,150,95647,6,0,P|313:84|309:35,1,90.9999958343508,8|2,0:1|0:3,0:0:0:0:
425,205,95980,1,2,0:3:0:0:
425,205,96064,1,2,0:3:0:0:
425,204,96147,2,0,P|436:159|442:114,1,90.9999958343508,8|2,0:1|0:3,0:0:0:0:
325,242,96480,1,2,0:3:0:0:
423,307,96647,2,0,P|467:295|512:289,1,90.9999958343508,8|2,0:1|0:3,0:0:0:0:
366,374,96980,1,8,0:1:0:0:
256,192,97147,12,0,98314,0:0:0:0:
180,91,98647,6,0,P|160:129|166:171,1,83.9999974365235,0|0,3:0|0:0,0:0:0:0:
245,229,98980,2,0,P|304:210|416:194,1,167.999994873047,2|0,0:0|0:0,0:0:0:0:
483,126,99480,1,0,0:0:0:0:
418,48,99647,2,0,P|357:34|320:39,1,83.9999974365235,8|0,0:1|0:0,0:0:0:0:
204,127,99980,6,0,L|214:316,1,167.999994873047,8|0,0:1|0:0,0:0:0:0:
140,365,100480,1,8,0:1:0:0:
140,365,100647,2,0,L|45:352,1,83.9999974365235,2|0,0:0|0:0,0:0:0:0:
14,261,100980,1,8,0:1:0:0:
86,190,101147,1,8,0:1:0:0:
20,108,101313,6,0,P|6:44|-7:13,1,83.9999974365235,8|0,0:1|0:0,0:0:0:0:
112,187,101647,2,0,P|126:123|139:92,2,83.9999974365235,2|8|0,0:0|0:1|0:0,0:0:0:0:
180,261,102147,1,0,0:0:0:0:
255,194,102313,2,0,L|362:186,1,83.9999974365235,8|0,0:1|0:0,0:0:0:0:
437,85,102647,6,0,B|495:212|495:212|476:271,1,167.999994873047,8|0,0:1|0:0,0:0:0:0:
431,323,103147,1,8,0:1:0:0:
347,378,103313,2,0,P|287:356|244:350,1,83.9999974365235,2|0,0:0|0:0,0:0:0:0:
198,277,103647,1,8,0:1:0:0:
118,337,103813,1,8,0:1:0:0:
50,243,103980,6,0,B|39:185|39:185|16:146,1,83.9999974365235,10|8,0:1|0:1,0:0:0:0:
196,41,104313,1,8,0:1:0:0:
114,100,104480,1,10,0:1:0:0:
179,175,104647,1,8,0:1:0:0:
261,117,104813,1,8,0:1:0:0:
320,198,104980,1,10,0:1:0:0:
238,256,105146,1,8,0:1:0:0:
328,328,105313,6,0,P|391:315|432:312,1,83.9999974365235,10|8,0:1|0:1,0:0:0:0:
195,366,105647,2,0,P|132:353|91:350,1,83.9999974365235,8|10,0:1|0:1,0:0:0:0:
316,230,105980,1,8,0:1:0:0:
411,192,106146,1,8,0:1:0:0:
204,254,106313,2,0,P|163:244|122:233,1,83.9999974365235,10|8,0:1|0:1,0:0:0:0:
27,134,106646,5,10,0:1:0:0:
146,66,106813,1,8,0:1:0:0:
10,164,106980,1,10,0:1:0:0:
81,1,107147,1,8,0:1:0:0:
110,226,107313,5,10,0:1:0:0:
244,66,107480,1,8,0:1:0:0:
106,259,107646,1,10,0:1:0:0:
50,0,107813,1,8,0:1:0:0:
229,232,107980,5,2,0:0:0:0:
229,232,108146,1,2,0:0:0:0:
229,232,108313,2,0,L|340:220,2,83.9999974365235,0|2|0,0:0|0:0|0:0,0:0:0:0:
214,64,108813,5,4,1:3:0:0:
504,284,109313,5,4,1:3:0:0:
214,64,109813,5,4,1:3:0:0:
328,313,110813,6,0,L|439:292,1,105.000004005432,6|2,1:2|0:3,0:0:0:0:
511,196,111146,2,0,B|522:121|522:121|493:88,1,105.000004005432,8|2,0:0|0:3,0:0:0:0:
405,18,111479,1,2,0:3:0:0:
300,89,111646,1,0,1:0:0:0:
502,99,111813,1,8,0:0:0:0:
300,89,111979,1,2,0:3:0:0:
397,170,112146,5,2,1:2:0:0:
258,234,112313,1,2,0:3:0:0:
258,234,112396,1,2,0:3:0:0:
258,234,112479,2,0,P|168:210|116:199,1,105.000004005432,8|2,0:0|0:3,0:0:0:0:
40,154,112813,2,0,L|24:77,1,52.5000020027161,2|0,0:0|0:0,0:0:0:0:
53,68,112979,2,0,L|130:84,1,52.5000020027161,2|0,1:2|0:0,0:0:0:0:
144,65,113146,1,8,0:0:0:0:
247,138,113313,1,2,0:3:0:0:
247,138,113396,1,2,0:3:0:0:
247,138,113479,6,0,B|338:121|338:121|372:136|372:136|470:118,1,210.000008010865,2|8,1:2|0:0,0:0:0:0:
493,240,113979,1,2,0:3:0:0:
431,350,114146,2,0,P|359:360|317:322,1,105.000004005432,2|0,0:3|1:0,0:0:0:0:
247,138,114479,1,8,0:0:0:0:
225,353,114646,1,2,0:3:0:0:
163,228,114813,5,2,1:2:0:0:
60,304,114979,1,2,0:3:0:0:
60,304,115063,1,2,0:3:0:0:
60,304,115146,2,0,P|45:214|28:158,1,105.000004005432,8|2,0:0|0:3,0:0:0:0:
130,0,115479,1,2,0:3:0:0:
170,193,115646,1,0,1:0:0:0:
13,59,115813,1,8,0:0:0:0:
256,25,115979,1,2,0:3:0:0:
256,25,116063,1,2,0:3:0:0:
256,25,116146,6,0,P|327:11|362:0,1,105.000004005432,2|2,1:2|0:3,0:0:0:0:
340,120,116479,1,8,0:0:0:0:
449,90,116646,1,2,0:3:0:0:
363,302,116813,2,0,P|386:221|402:194,1,105.000004005432,2|0,0:3|1:0,0:0:0:0:
480,255,117146,1,8,0:0:0:0:
392,384,117313,1,2,0:3:0:0:
282,185,117479,5,2,1:2:0:0:
203,307,117646,1,2,0:3:0:0:
203,307,117729,1,2,0:3:0:0:
203,307,117813,1,8,0:0:0:0:
132,138,117979,1,2,0:3:0:0:
1,284,118146,2,0,L|14:180,1,105.000004005432,2|0,0:3|1:0,0:0:0:0:
3,50,118479,1,8,0:0:0:0:
149,117,118646,1,2,0:3:0:0:
149,117,118729,1,2,0:3:0:0:
149,117,118812,5,2,1:2:0:0:
283,65,118979,1,0,1:0:0:0:
242,230,119146,1,8,0:0:0:0:
116,111,119312,5,0,1:0:0:0:
292,45,119479,1,0,1:0:0:0:
356,228,119646,1,0,1:0:0:0:
164,295,119812,1,8,0:0:0:0:
86,107,119979,5,0,1:0:0:0:
234,177,120146,5,0,3:0:0:0:
236,146,120229,1,0,3:0:0:0:
238,115,120312,1,0,3:0:0:0:
241,83,120395,1,0,3:0:0:0:
243,52,120479,2,0,L|239:-1,3,52.5000020027161,0|0|0|0,3:0|3:0|3:0|3:0,0:0:0:0:
334,58,120812,5,0,3:0:0:0:
337,89,120895,1,0,3:0:0:0:
339,120,120978,1,0,3:0:0:0:
342,152,121061,1,0,3:0:0:0:
339,184,121146,1,0,3:0:0:0:
336,215,121229,1,0,3:0:0:0:
334,246,121312,1,0,3:0:0:0:
331,278,121395,1,0,3:0:0:0:
328,310,121479,6,0,L|387:324,1,56,2|0,3:1|0:0,0:0:0:0:
443,363,121646,2,0,L|498:340,1,56,2|0,0:1|0:0,0:0:0:0:
503,269,121812,2,0,P|495:196|433:165,1,112,2|0,0:0|3:0,0:0:0:0:
307,140,122146,6,0,P|339:184|367:190,1,56,10|0,0:1|0:0,0:0:0:0:
503,269,122479,1,2,0:0:0:0:
307,140,122646,6,0,P|339:184|367:190,1,56,10|0,0:1|0:0,0:0:0:0:
307,140,122979,2,0,P|339:184|367:190,1,56,2|0,0:1|0:0,0:0:0:0:
503,269,123146,6,0,P|495:196|433:165,1,112,8|0,0:1|0:0,0:0:0:0:
275,254,123479,2,0,P|342:283|400:245,1,112,2|0,0:1|0:0,0:0:0:0:
390,98,123812,6,0,L|316:100,1,56,2|0,0:0|0:0,0:0:0:0:
298,162,123978,2,0,L|224:164,1,56,2|0,0:0|0:0,0:0:0:0:
183,207,124145,6,0,L|169:321,1,112,2|2,3:2|0:2,0:0:0:0:
32,370,124479,2,0,B|-3:305|-3:305|17:256,2,112,2|0|8,0:1|0:0|0:1,0:0:0:0:
156,352,124979,6,0,P|195:354|214:346,1,56,2|0,0:1|0:0,0:0:0:0:
201,275,125146,2,0,P|162:273|143:281,1,56,2|0,0:0|0:0,0:0:0:0:
32,370,125312,2,0,B|-3:305|-3:305|17:256,1,112,2|0,0:1|0:0,0:0:0:0:
106,173,125646,5,2,3:1:0:0:
31,89,125812,1,8,3:1:0:0:
106,173,125979,1,2,0:3:0:0:
191,100,126146,5,8,0:1:0:0:
201,86,126257,2,0,P|275:72|292:73,1,74.6666666666667,8|8,0:3|0:3,0:0:0:0:
420,27,126479,5,8,0:1:0:0:
406,19,126590,2,0,P|371:8|334:5,1,74.6666666666667,8|8,0:3|0:3,0:0:0:0:
238,175,126812,6,0,P|253:273|402:296,1,224,4|0,0:3|0:0,0:0:0:0:
479,257,127312,2,0,L|488:188,1,56,4|0,0:3|0:0,0:0:0:0:
512,0,127479,2,0,L|384:22,1,112,10|2,0:0|0:0,0:0:0:0:
381,32,127729,1,0,0:0:0:0:
359,50,127812,6,0,B|257:83|260:-20|107:43,1,224,4|0,0:3|0:0,0:0:0:0:
57,103,128312,2,0,L|67:189,1,56,2|0,0:1|0:0,0:0:0:0:
6,213,128479,2,0,B|10:295|10:295|40:346,1,112,2|0,0:0|0:0,0:0:0:0:
122,375,128812,2,0,L|260:361,1,112,10|0,0:0|0:0,0:0:0:0:
376,215,129146,2,0,P|300:190|251:252,1,168,2|0,0:1|0:0,0:0:0:0:
252,280,129479,5,8,0:1:0:0:
411,361,129729,1,8,0:1:0:0:
411,361,129812,1,10,0:1:0:0:
497,309,129979,1,8,0:1:0:0:
478,209,130146,1,8,0:1:0:0:
411,361,130396,5,8,0:1:0:0:
411,361,130479,2,0,L|346:352,1,56,10|0,0:1|0:0,0:0:0:0:
296,300,130646,2,0,L|240:307,1,56,10|0,0:1|0:0,0:0:0:0:
176,352,130812,5,8,3:1:0:0:
143,361,130895,1,8,0:1:0:0:
110,361,130978,1,8,0:1:0:0:
78,351,131061,1,8,0:1:0:0:
51,332,131145,1,8,3:1:0:0:
30,305,131228,1,8,0:1:0:0:
18,274,131312,1,8,0:1:0:0:
17,240,131395,1,8,0:1:0:0:
25,208,131479,2,0,L|74:199,6,28,2|2|2|2|2|2|2,0:3|0:3|0:3|0:3|0:3|0:3|0:3,0:0:0:0:
27,127,131812,2,0,L|-21:117,6,28,2|2|2|2|2|2|2,0:3|0:3|0:3|0:3|0:3|0:3|0:3,0:0:0:0:
79,60,132146,5,2,0:0:0:0:
79,60,132479,1,2,0:0:0:0:
79,60,132812,1,2,0:0:0:0:
79,60,133146,1,2,0:0:0:0:
233,102,133479,5,4,0:3:0:0:
233,102,133562,1,2,0:0:0:0:
233,102,133646,1,2,0:0:0:0:
233,102,133729,1,2,0:0:0:0:
233,102,133812,2,0,P|320:77|366:75,1,112,2|4,0:0|0:3,0:0:0:0:
372,88,134062,1,0,0:0:0:0:
396,111,134146,2,0,L|455:98,1,56,10|2,0:0|0:0,0:0:0:0:
457,178,134312,2,0,L|512:191,1,56,2|0,0:0|0:0,0:0:0:0:
502,280,134479,1,2,0:0:0:0:
486,303,134562,1,2,0:0:0:0:
465,321,134645,1,2,0:0:0:0:
440,333,134729,1,2,0:0:0:0:
412,337,134812,6,0,L|352:325,1,56,4|0,0:3|0:0,0:0:0:0:
333,250,134979,2,0,L|278:260,1,56,2|0,0:0|0:0,0:0:0:0:
231,367,135146,1,2,0:0:0:0:
95,307,135312,1,4,0:3:0:0:
112,161,135479,2,0,L|129:221,1,56,8|0,0:0|0:0,0:0:0:0:
193,258,135646,1,4,0:3:0:0:
15,199,135812,1,2,0:0:0:0:
15,199,135896,1,2,0:0:0:0:
15,199,135979,1,2,0:0:0:0:
15,199,136062,1,2,0:0:0:0:
15,199,136146,6,0,P|6:125|134:68,1,224,4|2,0:3|0:0,0:0:0:0:
206,138,136646,1,4,0:3:0:0:
271,47,136812,2,0,L|340:36,1,56,14|0,0:0|0:0,0:0:0:0:
391,83,136979,1,0,0:0:0:0:
492,8,137146,2,0,L|515:126,1,112,2|0,0:0|0:0,0:0:0:0:
369,174,137479,5,4,0:3:0:0:
363,201,137562,1,2,0:0:0:0:
356,228,137645,1,2,0:0:0:0:
349,255,137729,1,2,0:0:0:0:
341,282,137812,1,2,0:0:0:0:
488,271,137979,1,4,0:3:0:0:
498,154,138146,2,0,L|461:92,1,56,12|0,0:0|0:0,0:0:0:0:
495,24,138312,1,4,0:3:0:0:
362,60,138479,1,2,0:3:0:0:
287,10,138646,1,2,0:3:0:0:
161,82,138812,5,4,0:3:0:0:
133,87,138896,1,2,0:0:0:0:
105,84,138979,1,2,0:0:0:0:
80,71,139062,1,2,0:0:0:0:
64,47,139146,2,0,P|66:107|62:121,1,56,2|0,0:0|0:0,0:0:0:0:
102,171,139312,2,0,P|89:229|91:244,1,56,4|0,0:3|0:0,0:0:0:0:
6,249,139479,2,0,P|28:321|36:372,1,112,8|0,0:0|0:0,0:0:0:0:
182,374,139812,1,2,0:0:0:0:
182,374,139896,1,2,0:0:0:0:
182,374,139979,1,2,0:0:0:0:
182,374,140062,1,2,0:0:0:0:
182,374,140146,6,0,P|239:366|257:367,1,56,4|0,0:3|0:0,0:0:0:0:
282,299,140312,2,0,P|309:301|337:307,1,56,2|0,0:0|0:0,0:0:0:0:
401,361,140479,1,2,0:0:0:0:
281,209,140646,1,4,0:3:0:0:
369,190,140812,2,0,L|381:132,1,56,8|0,0:0|0:0,0:0:0:0:
318,76,140979,1,4,0:3:0:0:
198,96,141146,1,2,0:0:0:0:
198,96,141229,1,2,0:0:0:0:
198,96,141312,1,2,0:0:0:0:
198,96,141396,1,2,0:0:0:0:
198,96,141479,6,0,P|178:199|168:276,1,168,4|0,0:3|0:0,0:0:0:0:
181,287,141812,2,0,P|246:273|305:267,1,112,8|0,0:0|0:0,0:0:0:0:
151,384,142146,2,0,P|95:365|71:360,1,56,6|0,0:0|0:0,0:0:0:0:
31,315,142312,1,4,0:3:0:0:
1,168,142479,2,0,P|15:93|114:63,1,168,8|0,0:0|0:0,0:0:0:0:
118,69,142812,6,0,L|194:55,1,56,4|2,0:3|0:0,0:0:0:0:
233,0,142979,2,0,L|289:10,1,56,2|2,0:0|0:0,0:0:0:0:
355,68,143146,2,0,P|364:157|368:224,1,112,8|0,0:0|0:0,0:0:0:0:
500,356,143479,1,2,0:0:0:0:
392,283,143646,1,4,0:3:0:0:
299,367,143812,2,0,L|233:355,1,56,8|0,0:0|0:0,0:0:0:0:
197,284,143979,2,0,L|142:295,1,56,4|0,0:3|0:0,0:0:0:0:
76,372,144146,5,2,0:0:0:0:
76,372,144312,1,2,0:0:0:0:
76,372,144479,5,4,1:3:0:0:
75,31,144979,5,4,1:3:0:0:
76,372,145479,5,4,1:3:0:0:
43,125,146479,6,0,L|169:98,1,105.000004005432,6|2,1:2|0:3,0:0:0:0:
336,35,146812,2,0,L|234:13,1,105.000004005432,8|2,0:0|0:3,0:0:0:0:
153,212,147145,1,2,0:3:0:0:
184,309,147312,1,0,1:0:0:0:
90,382,147479,1,8,0:0:0:0:
300,342,147645,1,2,0:3:0:0:
300,342,147729,1,0,0:0:0:0:
300,342,147812,6,0,P|371:333|410:331,1,105.000004005432,2|2,1:2|0:3,0:0:0:0:
418,308,148062,1,2,0:3:0:0:
432,286,148145,1,8,0:0:0:0:
373,198,148312,1,2,0:3:0:0:
484,148,148479,2,0,P|488:93|491:78,1,52.5000020027161,2|0,0:0|0:0,0:0:0:0:
466,59,148645,2,0,P|403:55|389:51,1,52.5000020027161,2|0,1:2|0:0,0:0:0:0:
377,35,148812,1,8,0:0:0:0:
289,138,148979,1,2,0:3:0:0:
289,138,149062,1,2,0:3:0:0:
289,138,149145,6,0,P|227:76|81:62,1,210.000008010865,2|8,1:2|0:0,0:0:0:0:
29,122,149645,1,2,0:3:0:0:
90,237,149812,1,2,0:3:0:0:
194,196,149979,1,0,1:0:0:0:
103,362,150145,1,8,0:0:0:0:
345,251,150312,1,2,0:3:0:0:
224,323,150479,5,2,1:2:0:0:
327,384,150645,1,2,0:3:0:0:
327,384,150729,1,2,0:3:0:0:
327,384,150812,2,0,B|308:235|308:235,1,105.000004005432,8|2,0:0|0:3,0:0:0:0:
374,157,151145,1,2,0:3:0:0:
251,17,151312,1,0,1:0:0:0:
107,163,151479,1,8,0:0:0:0:
133,41,151645,1,2,0:3:0:0:
133,41,151729,1,2,0:3:0:0:
133,41,151812,6,0,P|134:137|245:173,1,210.000008010865,2|8,1:2|0:0,0:0:0:0:
107,163,152312,1,2,0:3:0:0:
197,294,152479,2,0,P|255:266|310:260,1,105.000004005432,2|0,0:3|1:0,0:0:0:0:
393,338,152812,1,8,0:0:0:0:
503,235,152979,1,2,0:3:0:0:
368,166,153145,5,2,1:2:0:0:
494,362,153312,1,2,0:3:0:0:
494,362,153395,1,2,0:3:0:0:
494,362,153479,2,0,P|497:286|518:253,1,105.000004005432,8|2,0:0|0:3,0:0:0:0:
489,141,153812,1,2,0:3:0:0:
325,257,153979,1,0,1:0:0:0:
489,141,154145,1,8,0:0:0:0:
379,48,154312,1,2,0:3:0:0:
379,48,154395,1,2,0:3:0:0:
379,48,154479,5,2,1:2:0:0:
305,177,154645,1,0,1:0:0:0:
182,122,154812,1,8,0:0:0:0:
363,28,154979,5,0,1:0:0:0:
321,197,155145,1,0,1:0:0:0:
166,102,155312,1,0,1:0:0:0:
140,253,155479,1,8,0:0:0:0:
305,177,155645,5,0,1:0:0:0:
376,261,155812,5,0,3:0:0:0:
404,273,155895,1,0,3:0:0:0:
435,274,155978,1,0,3:0:0:0:
465,263,156062,1,0,3:0:0:0:
488,242,156145,2,0,L|475:182,3,52.5000020027161,0|0|0|0,3:0|3:0|3:0|3:0,0:0:0:0:
415,137,156479,2,0,L|428:76,3,52.5000020027161,0|0|0|0,3:0|3:0|3:0|3:0,0:0:0:0:
359,27,156812,5,0,3:0:0:0:
330,14,156895,1,0,3:0:0:0:
299,13,156978,1,0,3:0:0:0:
269,24,157062,1,0,3:0:0:0:
246,45,157145,1,2,0:0:0:0:
25,26,157812,6,0,P|46:121|56:173,1,112,4|0,0:3|0:0,0:0:0:0:
113,190,158062,2,0,P|180:206|189:206,1,56,2|8,0:0|0:0,0:0:0:0:
44,239,158228,1,0,0:0:0:0:
44,239,158312,1,2,0:0:0:0:
175,344,158479,6,0,P|229:299|293:295,1,112,4|0,0:3|0:0,0:0:0:0:
329,233,158729,2,0,P|394:257|430:310,1,112,2|0,0:0|0:0,0:0:0:0:
433,371,158979,1,2,0:0:0:0:
501,218,159145,2,0,L|486:97,1,112,4|0,0:3|0:0,0:0:0:0:
429,44,159395,2,0,L|356:36,1,56,2|8,0:0|0:0,0:0:0:0:
503,4,159562,1,0,0:0:0:0:
503,4,159645,1,2,0:0:0:0:
380,162,159812,5,4,0:3:0:0:
263,14,159979,1,2,0:0:0:0:
313,235,160145,5,8,0:0:0:0:
263,14,160312,1,2,0:0:0:0:
186,156,160479,6,0,P|200:242|211:331,2,168,4|2|2,0:3|0:0|0:0,0:0:0:0:
85,51,161145,2,0,P|29:60|13:135,1,112,4|0,0:3|0:0,0:0:0:0:
0,190,161395,2,0,P|9:274|12:331,1,112,2|0,0:0|0:0,0:0:0:0:
66,365,161645,1,2,0:0:0:0:
202,293,161812,5,4,0:3:0:0:
106,181,161978,1,2,0:0:0:0:
155,365,162145,5,8,0:0:0:0:
106,181,162312,1,2,0:0:0:0:
182,91,162478,5,4,0:3:0:0:
69,29,162645,1,2,0:0:0:0:
69,29,162728,1,4,0:3:0:0:
69,29,162812,2,0,P|134:11|182:-2,1,112,8|4,0:0|0:3,0:0:0:0:
306,65,163145,5,2,0:0:0:0:
449,38,163478,1,8,0:1:0:0:
306,65,163811,5,2,0:0:0:0:
449,38,163978,1,8,0:1:0:0:
503,103,164145,2,0,L|503:150,2,35,2|2|2,0:3|0:3|0:3,0:0:0:0:
454,379,164478,6,0,P|440:287|430:221,1,112,4|0,0:3|0:0,0:0:0:0:
382,204,164728,2,0,P|308:185|263:216,1,112,2|0,0:0|0:0,0:0:0:0:
228,268,164978,1,2,0:0:0:0:
90,192,165145,2,0,P|33:198|-10:205,2,56,4|0|0,0:3|0:0|0:0,0:0:0:0:
148,138,165395,2,0,P|205:144|248:151,1,56,2|8,0:0|0:0,0:0:0:0:
97,77,165562,1,0,0:0:0:0:
97,77,165645,1,2,0:0:0:0:
240,14,165811,5,4,0:3:0:0:
371,59,165978,1,0,0:0:0:0:
371,59,166061,2,0,P|383:138|392:202,1,112,2|0,0:0|0:0,0:0:0:0:
340,240,166311,1,2,0:0:0:0:
246,188,166478,5,4,0:3:0:0:
196,343,166645,1,2,0:0:0:0:
384,373,166811,5,8,0:0:0:0:
196,343,166978,1,2,0:0:0:0:
415,270,167145,6,0,P|427:191|432:139,1,112,4|0,0:3|0:0,0:0:0:0:
391,83,167395,2,0,P|319:61|266:82,1,112,2|0,0:0|0:0,0:0:0:0:
220,123,167645,1,2,0:0:0:0:
131,0,167811,2,0,P|100:64|87:112,1,112,4|0,0:3|0:0,0:0:0:0:
21,154,168061,1,2,0:0:0:0:
21,154,168145,2,0,L|31:223,1,56,8|0,0:0|0:0,0:0:0:0:
100,253,168311,2,0,L|90:322,1,56,4|0,0:3|0:0,0:0:0:0:
26,362,168478,5,4,0:3:0:0:
213,339,168645,1,4,0:3:0:0:
310,380,168811,1,8,0:0:0:0:
337,373,168894,1,4,0:3:0:0:
362,362,168977,1,4,0:3:0:0:
384,345,169061,1,4,0:3:0:0:
403,324,169144,1,4,0:3:0:0:
416,299,169227,1,4,0:3:0:0:
424,272,169311,1,4,0:3:0:0:
426,245,169394,1,4,0:3:0:0:
422,217,169478,2,0,P|417:174|413:142,3,56,8|4|4|4,0:0|0:3|0:3|0:3,0:0:0:0:
339,247,169811,6,0,P|258:233|187:225,1,112,4|0,0:3|0:0,0:0:0:0:
100,322,170145,2,0,L|34:304,1,56,8|0,0:0|0:0,0:0:0:0:
2,204,170312,1,2,0:0:0:0:
2,204,170395,1,2,0:0:0:0:
2,204,170478,2,0,P|9:106|86:66,1,168,4|0,0:3|0:0,0:0:0:0:
144,62,170811,2,0,P|210:50|277:34,1,112,8|0,0:0|0:0,0:0:0:0:
420,12,171145,6,0,P|437:72|412:133,1,112,4|0,0:3|0:0,0:0:0:0:
275,200,171478,2,0,P|279:228|294:252,1,56,8|0,0:0|0:0,0:0:0:0:
397,310,171645,1,2,0:0:0:0:
397,310,171728,1,2,0:0:0:0:
397,310,171812,2,0,P|279:279|185:271,1,168,4|0,0:3|0:0,0:0:0:0:
165,325,172145,1,8,0:0:0:0:
37,206,172311,1,4,0:3:0:0:
185,153,172478,5,4,0:3:0:0:
125,231,172645,1,2,0:0:0:0:
125,231,172728,1,2,0:0:0:0:
125,231,172811,2,0,P|48:181|90:79,1,168,8|0,0:0|0:0,0:0:0:0:
122,63,173145,2,0,P|174:57|198:58,1,56,4|0,0:3|0:0,0:0:0:0:
296,165,173311,1,2,0:0:0:0:
296,165,173395,1,2,0:0:0:0:
296,165,173478,2,0,P|205:156|175:150,1,112,8|2,0:0|0:0,0:0:0:0:
352,71,173728,1,2,0:0:0:0:
352,71,173811,6,0,P|379:142|397:190,1,112,4|2,0:3|0:0,0:0:0:0:
246,294,174061,1,2,0:0:0:0:
246,294,174145,2,0,P|265:241|285:189,1,112,8|0,0:0|0:0,0:0:0:0:
206,33,174478,2,0,P|157:-2|66:61,1,168,4|0,0:3|0:0,0:0:0:0:
41,123,174811,1,8,0:0:0:0:
164,310,174978,1,4,0:3:0:0:
289,248,175145,6,0,B|363:255|363:255|370:263|370:263|452:270,1,157.500006008148,4|0,0:3|0:0,0:0:0:0:
457,273,175811,6,0,L|450:184,1,56,8|0,0:0|0:0,0:0:0:0:
397,160,175978,2,0,L|390:71,1,56,2|0,0:0|0:0,0:0:0:0:
438,39,176145,1,4,0:3:0:0:
318,7,176311,6,0,P|249:15|244:94,1,140,2|2,0:2|0:0,0:0:0:0:
313,192,176811,6,0,P|332:279|346:390,1,168,12|0,0:0|0:0,0:0:0:0:
258,373,177145,1,8,0:0:0:0:
488,351,177311,6,0,P|435:283|337:286,1,168,6|0,0:0|0:0,0:0:0:0:
293,223,177644,2,0,P|238:257|230:273,1,56,4|0,0:3|0:0,0:0:0:0:
131,334,177811,6,0,P|138:278|162:228,1,112,4|0,0:3|0:0,0:0:0:0:
32,249,178144,2,0,P|25:193|2:143,1,112,8|0,0:0|0:0,0:0:0:0:
96,68,178478,2,0,P|173:51|234:27,1,112,4|0,0:3|0:0,0:0:0:0:
307,222,178811,5,8,0:0:0:0:
210,146,178978,1,4,0:3:0:0:
331,107,179144,1,4,0:3:0:0:
186,261,179311,1,4,0:3:0:0:
436,256,179478,1,8,0:0:0:0:
164,275,179645,1,4,0:3:0:0:
314,342,179811,5,4,0:3:0:0:
322,316,179894,1,4,0:3:0:0:
325,288,179977,1,4,0:3:0:0:
321,260,180061,1,4,0:3:0:0:
312,234,180144,1,8,0:0:0:0:
297,210,180227,1,8,0:0:0:0:
278,190,180311,1,8,0:0:0:0:
255,175,180394,1,8,0:0:0:0:
229,164,180477,5,4,0:0:0:0:
99,56,181478,6,0,L|92:97,7,26.2500010013581
121,35,182145,5,2,0:0:0:0:
