osu file format v14

[General]
AudioFilename: audio.mp3
AudioLeadIn: 0
PreviewTime: 46314
Countdown: 0
SampleSet: Soft
StackLeniency: 0.4
Mode: 0
LetterboxInBreaks: 0
WidescreenStoryboard: 0

[Editor]
Bookmarks: 46981
DistanceSpacing: 0.6
BeatDivisor: 4
GridSize: 4
TimelineZoom: 2.2

[Metadata]
Title:POP SHOVE-IT FEAT. TOFUKU
TitleUnicode:POP SHOVE-IT FEAT. TOFUKU
Artist:BLOOD CODE
ArtistUnicode:BLOOD CODE
Creator:Hobbes2
Version:Combo Breaker
Source:
Tags:FA Featured Artist english electronic Drum and Bass dnb Gero chill skate edm hardstyle trap hardcore future bass
BeatmapID:2686709
BeatmapSetID:1294825

[Difficulty]
HPDrainRate:5
CircleSize:4
OverallDifficulty:8.5
ApproachRate:9.3
SliderMultiplier:1.4
SliderTickRate:1

[Events]
//Background and Video events
0,0,"blood code.jpg",0,0
//Break Periods
//Storyboard Layer 0 (Background)
//Storyboard Layer 1 (Fail)
//Storyboard Layer 2 (Pass)
//Storyboard Layer 3 (Foreground)
//Storyboard Layer 4 (Overlay)
//Storyboard Sound Samples

[TimingPoints]
1648,333.333333333333,4,2,0,70,1,0
1648,-125,4,2,0,70,0,0
12314,-100,4,2,0,70,0,0
17647,-100,4,2,0,60,0,0
18981,-100,4,2,0,70,0,0
20314,-100,4,2,0,80,0,0
21647,-100,4,2,0,60,0,0
22981,-71.4285714285714,4,2,0,70,0,0
33647,-62.5,4,2,0,85,0,0
46981,-55.5555555555556,4,2,0,85,0,0
57647,-50,4,2,0,85,0,0
68314,-100,4,2,0,70,0,0
68981,333.333333333333,4,2,0,70,1,0
68981,-71.4285714285714,4,2,0,70,0,0
87647,-62.5,4,2,0,85,0,0
98647,333.333333333333,4,2,0,70,1,0
98647,-71.4285714285714,4,2,0,70,0,0
103980,-100,4,2,0,60,0,0
105314,-100,4,2,0,70,0,0
106647,-100,4,2,0,80,0,0
107980,-100,4,2,0,60,0,0
108813,333.333333333333,4,2,0,70,1,0
110813,333.333333333333,4,2,0,85,1,0
110813,-55.5555555555556,4,2,0,85,0,0
121479,-50,4,2,0,85,0,0
133479,-55.5555555555556,4,2,0,85,0,0
144479,333.333333333333,4,2,0,70,1,0
146479,333.333333333333,4,2,0,70,1,0
146479,-55.5555555555556,4,2,0,85,0,0
157812,333.333333333333,4,2,0,85,1,0
157812,-55.5555555555556,4,2,0,85,0,0
163145,-100,4,2,0,70,0,0
164478,-55.5555555555556,4,2,0,85,0,0
175145,-133.333333333333,4,2,0,70,0,0
175770,-50,4,2,0,85,0,0
176311,-100,4,2,0,70,0,0
176645,-50,4,2,0,85,0,0
181478,-133.333333333333,4,2,0,70,0,0
182145,333.333333333333,4,2,0,70,1,0
182145,-125,4,2,0,70,0,0

[Colours]
Combo1 : 255,98,98
Combo2 : 77,255,255
Combo3 : 255,255,134
Combo4 : 79,255,79
Combo5 : 255,155,106

[HitObjects]
166,45,1648,6,0,L|-13:65,2,168,2|2|2,0:1|0:0|0:0,0:0:0:0:
311,146,2981,2,0,L|440:159,2,112,2|2|2,0:0|0:0|0:0,0:0:0:0:
232,65,3981,1,2,0:0:0:0:
222,215,4314,6,0,L|205:343,1,112,2|0,0:0|0:0,0:0:0:0:
140,367,4814,2,0,P|74:372|36:336,1,112,2|0,0:0|0:0,0:0:0:0:
16,270,5314,2,0,L|1:158,1,112,2|0,0:0|0:0,0:0:0:0:
16,81,5814,2,0,L|85:69,1,56,2|0,0:0|0:0,0:0:0:0:
128,17,6147,1,0,0:0:0:0:
128,17,6314,2,0,L|185:26,1,56,2|0,0:0|0:0,0:0:0:0:
244,75,6647,2,0,L|299:66,1,56,2|0,0:0|0:0,0:0:0:0:
365,23,6981,5,2,0:0:0:0:
452,152,7314,1,2,0:0:0:0:
323,239,7647,1,2,0:0:0:0:
236,110,7981,1,2,0:0:0:0:
107,197,8314,1,2,0:0:0:0:
194,326,8647,1,2,0:0:0:0:
323,239,8981,1,2,0:0:0:0:
236,110,9314,2,0,L|165:105,1,56
119,155,9647,6,0,L|102:287,1,112,2|0,0:0|0:0,0:0:0:0:
26,273,10147,2,0,L|40:384,1,112,2|0,0:0|0:0,0:0:0:0:
118,378,10647,2,0,B|199:364|199:364|241:386,1,112,2|0,0:0|0:0,0:0:0:0:
283,324,11147,1,2,0:0:0:0:
283,324,11231,1,0,0:0:0:0:
283,324,11314,2,0,L|295:285,3,28
324,276,11647,2,0,L|312:237,3,28,2|0|0|0,0:0|0:0|0:0|0:0,0:0:0:0:
371,196,11981,6,0,L|410:199,1,28,8|0,0:1|0:0,0:0:0:0:
449,142,12147,2,0,L|477:140,1,28,8|0,0:1|0:0,0:0:0:0:
405,69,12314,6,0,P|355:66|315:51,1,70,8|0,0:1|0:0,0:0:0:0:
258,0,12647,1,0,0:0:0:0:
198,77,12814,2,0,P|215:135|207:231,1,140,2|0,3:2|0:0,0:0:0:0:
302,251,13314,2,0,P|298:316|306:352,1,70,2|0,3:2|0:0,0:0:0:0:
159,379,13647,2,0,L|11:359,1,140,2|0,3:2|0:0,0:0:0:0:
2,263,14147,2,0,L|23:166,1,70,2|0,3:2|0:0,0:0:0:0:
85,123,14481,1,0,0:0:0:0:
85,123,14647,1,8,3:1:0:0:
42,34,14814,1,8,3:1:0:0:
173,4,14981,6,0,P|214:-1|266:25,1,70,8|0,3:1|0:0,0:0:0:0:
220,102,15314,1,0,0:0:0:0:
128,137,15481,2,0,P|161:112|219:108,1,70,2|0,3:2|0:0,0:0:0:0:
217,198,15814,1,0,0:0:0:0:
155,274,15981,2,0,P|171:235|219:203,1,70,2|0,3:2|0:0,0:0:0:0:
263,282,16314,1,0,0:0:0:0:
247,379,16481,2,0,P|242:338|268:286,1,70,2|0,3:2|0:0,0:0:0:0:
342,344,16814,1,0,0:0:0:0:
404,268,16981,2,0,L|502:275,1,70,2|0,3:2|0:0,0:0:0:0:
498,177,17314,1,8,3:1:0:0:
498,177,17481,1,8,3:1:0:0:
295,194,17647,5,10,3:1:0:0:
393,117,17814,1,8,0:1:0:0:
415,238,17981,1,8,0:1:0:0:
272,197,18147,5,10,3:1:0:0:
400,96,18314,1,8,0:1:0:0:
429,255,18481,1,8,0:1:0:0:
361,178,18647,5,10,3:1:0:0:
361,178,18814,1,8,0:1:0:0:
298,289,18981,5,10,3:1:0:0:
185,134,19147,1,8,0:1:0:0:
149,337,19314,1,8,0:1:0:0:
317,297,19481,5,10,3:1:0:0:
179,106,19647,1,8,0:1:0:0:
134,356,19814,1,8,0:1:0:0:
208,229,19981,5,10,3:1:0:0:
208,229,20147,1,8,0:1:0:0:
38,246,20314,5,10,3:1:0:0:
222,322,20481,1,8,0:1:0:0:
320,147,20647,1,8,0:1:0:0:
10,247,20814,5,10,3:1:0:0:
226,336,20981,1,8,0:1:0:0:
342,131,21147,1,8,0:1:0:0:
179,231,21314,5,10,3:1:0:0:
179,231,21481,1,8,0:1:0:0:
329,314,21647,5,2,0:0:0:0:
404,297,21814,1,2,0:0:0:0:
22,60,22981,6,0,L|127:41,1,97.9999970092774,6|0,3:2|0:0,0:0:0:0:
118,42,23314,1,0,0:0:0:0:
211,76,23481,1,0,3:0:0:0:
273,28,23647,5,8,0:1:0:0:
345,133,23814,1,8,0:1:0:0:
431,178,23981,6,0,L|437:236,1,48.9999985046387,0|0,3:0|0:0,0:0:0:0:
452,191,24147,2,0,L|457:239,1,48.9999985046387,8|0,0:1|0:0,0:0:0:0:
386,316,24314,6,0,L|283:303,1,97.9999970092774,2|0,3:2|0:0,0:0:0:0:
288,303,24814,1,0,3:0:0:0:
228,252,24981,5,8,0:1:0:0:
197,365,25147,1,8,0:1:0:0:
84,334,25314,1,2,0:3:0:0:
115,221,25481,1,2,0:3:0:0:
49,178,25647,6,0,B|30:107|30:107|43:78,1,97.9999970092774,2|0,3:2|0:0,0:0:0:0:
40,84,26147,1,0,3:0:0:0:
107,44,26314,1,8,0:1:0:0:
233,97,26481,1,8,0:1:0:0:
315,45,26647,2,0,L|326:92,1,48.9999985046387,0|0,3:0|0:0,0:0:0:0:
336,17,26814,1,8,0:1:0:0:
447,78,26981,5,2,3:2:0:0:
435,155,27147,1,2,0:0:0:0:
423,232,27314,1,2,0:0:0:0:
412,309,27481,1,2,0:0:0:0:
84,107,28314,5,2,3:2:0:0:
84,107,28814,1,0,3:0:0:0:
135,165,28981,1,8,0:1:0:0:
86,303,29147,1,8,0:1:0:0:
172,348,29314,6,0,L|230:342,1,48.9999985046387,0|0,3:0|0:0,0:0:0:0:
185,327,29480,2,0,L|233:321,1,48.9999985046387,8|0,0:1|0:0,0:0:0:0:
301,250,29647,6,0,B|378:264|378:264|391:294,1,97.9999970092774,2|2,3:2|0:0,0:0:0:0:
415,376,29981,1,0,3:0:0:0:
385,282,30147,1,0,3:0:0:0:
456,250,30314,5,8,0:1:0:0:
335,165,30481,1,8,0:1:0:0:
366,72,30647,1,2,0:3:0:0:
487,157,30814,1,2,0:0:0:0:
459,36,30981,6,0,B|378:31|378:31|339:44|339:44|237:39,1,195.999994018555,2|0,3:2|0:0,0:0:0:0:
182,92,31481,1,0,3:0:0:0:
134,30,31647,1,8,0:1:0:0:
12,104,31814,1,8,0:1:0:0:
71,210,31981,2,0,L|83:163,1,48.9999985046387,0|0,3:0|0:0,0:0:0:0:
92,238,32148,1,8,0:1:0:0:
0,278,32314,6,0,L|14:365,1,48.9999985046387,2|0,3:2|0:0,0:0:0:0:
512,96,33314,5,2,0:3:0:0:
512,96,33481,1,2,0:3:0:0:
456,13,33647,6,0,B|483:93|483:93|466:134,1,112,6|2,3:2|0:3,0:0:0:0:
376,177,33981,2,0,L|330:167,2,28,2|2|2,0:3|0:3|0:3,0:0:0:0:
396,195,34147,1,2,0:3:0:0:
475,237,34314,5,8,0:1:0:0:
321,306,34481,1,8,0:1:0:0:
251,218,34647,2,0,L|192:213,1,56,2|0,3:0|0:0,0:0:0:0:
170,236,34814,2,0,L|111:231,1,56,2|0,0:3|0:0,0:0:0:0:
28,271,34981,6,0,B|9:256|9:256|23:210,1,56,2|0,3:2|0:0,0:0:0:0:
42,151,35147,1,2,0:3:0:0:
52,130,35231,1,2,0:3:0:0:
62,110,35314,1,2,0:3:0:0:
72,90,35397,1,2,0:3:0:0:
82,70,35481,1,2,0:3:0:0:
163,10,35647,5,8,0:1:0:0:
190,161,35814,1,8,0:1:0:0:
297,187,35981,1,2,0:3:0:0:
270,36,36147,2,0,L|283:2,2,28,2|2|2,0:3|0:3|0:3,0:0:0:0:
287,57,36314,6,0,L|410:36,1,112,2|2,3:2|0:3,0:0:0:0:
511,147,36647,2,0,L|502:121,2,28,2|2|2,0:3|0:3|0:3,0:0:0:0:
495,167,36814,5,2,0:3:0:0:
385,149,36980,1,8,0:1:0:0:
371,237,37147,1,8,0:1:0:0:
482,256,37313,1,2,3:0:0:0:
495,167,37481,1,2,0:3:0:0:
360,62,37647,5,2,3:2:0:0:
281,63,37814,1,2,0:3:0:0:
275,63,37897,1,2,0:3:0:0:
269,63,37981,1,2,0:3:0:0:
190,64,38147,1,2,0:0:0:0:
115,14,38314,5,8,0:1:0:0:
150,189,38481,1,8,0:1:0:0:
45,119,38647,1,8,0:1:0:0:
220,83,38814,1,8,0:1:0:0:
280,164,38981,6,0,L|266:305,1,112,8|2,0:1|0:3,0:0:0:0:
376,359,39314,2,0,L|364:331,2,28,2|2|2,0:3|0:3|0:3,0:0:0:0:
392,383,39481,2,0,B|478:348|478:348|522:358,1,112,8|2,0:1|0:3,0:0:0:0:
446,252,39814,1,2,0:3:0:0:
274,319,39981,2,0,L|133:305,1,112,8|2,0:1|0:3,0:0:0:0:
82,228,40314,5,8,0:1:0:0:
121,61,40481,1,2,0:3:0:0:
121,61,40564,1,2,0:3:0:0:
121,61,40647,2,0,L|190:48,1,56,2|2,0:3|0:3,0:0:0:0:
249,92,40814,2,0,B|264:178|264:178|238:235,1,112,8|2,0:1|0:3,0:0:0:0:
166,293,41147,1,2,0:3:0:0:
37,145,41314,1,8,0:1:0:0:
59,301,41481,2,0,L|49:327,2,28,8|2|2,0:1|0:3|0:3,0:0:0:0:
83,288,41647,5,8,0:1:0:0:
212,382,41814,1,2,0:3:0:0:
163,195,41981,2,0,L|153:168,2,28,2|2|2,0:3|0:3|0:3,0:0:0:0:
187,208,42147,5,8,0:1:0:0:
244,111,42314,1,2,0:3:0:0:
269,285,42481,1,2,0:3:0:0:
162,34,42647,5,8,0:1:0:0:
85,116,42814,1,2,0:3:0:0:
321,29,42981,1,8,0:1:0:0:
310,366,43647,6,0,L|374:356,1,56,4|0,0:3|0:0,0:0:0:0:
202,366,43814,2,0,L|138:356,1,56,4|0,0:3|0:0,0:0:0:0:
310,366,43981,2,0,L|374:356,1,56,4|0,0:3|0:0,0:0:0:0:
202,366,44148,2,0,L|138:356,1,56,4|0,0:3|0:0,0:0:0:0:
256,292,44314,5,2,0:0:0:0:
256,268,44481,1,2,0:0:0:0:
256,244,44647,1,2,0:0:0:0:
256,220,44814,1,2,0:0:0:0:
256,0,44981,5,4,1:3:0:0:
0,384,45481,5,4,1:3:0:0:
512,384,45981,5,4,1:3:0:0:
24,253,46981,6,0,L|106:238,1,62.9999980773926,6|0,1:2|0:0,0:0:0:0:
178,226,47147,1,2,0:3:0:0:
85,77,47314,1,8,0:0:0:0:
244,13,47481,1,2,0:3:0:0:
275,11,47564,1,2,0:3:0:0:
306,9,47647,1,2,0:3:0:0:
201,104,47814,1,0,1:0:0:0:
264,284,47981,2,0,B|353:269|353:269|385:233,1,125.999996154785,8|2,0:0|0:3,0:0:0:0:
447,14,48314,6,0,L|457:76,1,62.9999980773926,2|0,1:2|0:0,0:0:0:0:
498,162,48481,1,2,0:3:0:0:
494,193,48564,1,2,0:3:0:0:
490,224,48647,1,8,0:0:0:0:
456,319,48814,1,2,0:3:0:0:
350,228,48981,2,0,L|285:220,1,62.9999980773926,2|0,0:0|0:0,0:0:0:0:
234,298,49147,2,0,L|169:306,1,62.9999980773926,2|0,1:2|0:0,0:0:0:0:
101,240,49314,1,8,0:0:0:0:
1,333,49481,2,0,L|10:375,2,31.4999990386963,2|2|2,0:3|0:3|0:3,0:0:0:0:
6,302,49647,6,0,L|18:217,1,62.9999980773926,2|0,1:2|0:0,0:0:0:0:
106,86,49814,2,0,L|232:70,1,125.999996154785,2|8,0:3|0:0,0:0:0:0:
318,19,50147,1,2,0:3:0:0:
373,213,50314,2,0,P|389:274|359:338,1,125.999996154785,2|0,0:3|1:0,0:0:0:0:
99,203,50647,2,0,P|83:142|113:78,1,125.999996154785,8|2,0:0|0:3,0:0:0:0:
420,285,50981,6,0,L|495:295,1,62.9999980773926,2|0,1:2|0:0,0:0:0:0:
504,202,51147,1,2,0:3:0:0:
495,171,51231,1,2,0:3:0:0:
487,140,51314,1,8,0:0:0:0:
392,104,51481,1,2,0:3:0:0:
472,43,51647,1,2,0:3:0:0:
312,165,51814,1,0,1:0:0:0:
190,5,51981,1,8,0:0:0:0:
251,85,52147,2,0,L|275:52,2,31.4999990386963,2|2|2,0:3|0:3|0:3,0:0:0:0:
227,105,52314,6,0,L|134:93,1,62.9999980773926,2|0,1:2|0:0,0:0:0:0:
76,132,52481,1,2,0:3:0:0:
83,31,52647,1,8,0:0:0:0:
83,31,52814,1,2,0:3:0:0:
0,200,52981,1,2,0:3:0:0:
227,105,53147,1,0,1:0:0:0:
50,295,53314,1,8,0:0:0:0:
76,132,53481,1,2,0:3:0:0:
140,344,53647,6,0,B|164:331|164:331|216:330,1,62.9999980773926,2|0,1:2|0:0,0:0:0:0:
294,334,53814,1,2,0:3:0:0:
325,335,53897,1,2,0:3:0:0:
356,339,53981,1,8,0:0:0:0:
452,306,54147,1,2,0:3:0:0:
286,189,54314,1,2,0:3:0:0:
392,120,54481,1,0,1:0:0:0:
275,10,54647,2,0,L|106:-4,1,125.999996154785,8|2,0:0|0:3,0:0:0:0:
0,135,54981,5,2,1:2:0:0:
125,127,55147,1,0,1:0:0:0:
250,119,55314,1,8,0:0:0:0:
8,260,55481,5,0,1:0:0:0:
133,252,55647,1,0,1:0:0:0:
258,244,55814,1,0,1:0:0:0:
383,236,55981,1,8,0:0:0:0:
141,377,56147,5,0,1:0:0:0:
133,252,56314,5,0,3:0:0:0:
131,220,56397,1,0,3:0:0:0:
129,188,56481,1,0,3:0:0:0:
127,156,56564,1,0,3:0:0:0:
125,127,56648,5,0,3:0:0:0:
157,125,56731,1,0,3:0:0:0:
189,123,56815,1,0,3:0:0:0:
221,121,56898,1,0,3:0:0:0:
250,119,56980,5,0,3:0:0:0:
252,151,57063,1,0,3:0:0:0:
254,183,57147,1,0,3:0:0:0:
256,215,57230,1,0,3:0:0:0:
258,244,57314,5,0,3:0:0:0:
226,246,57397,1,0,3:0:0:0:
194,248,57481,1,0,3:0:0:0:
162,250,57564,1,0,3:0:0:0:
133,252,57647,6,0,B|117:216|117:216|144:164,1,70,2|0,3:1|0:0,0:0:0:0:
323,41,57814,2,0,B|339:77|339:77|312:129,1,70,2|0,0:1|0:0,0:0:0:0:
400,3,57981,2,0,B|423:75|423:75|385:176,1,140,2|0,0:0|3:0,0:0:0:0:
28,27,58314,6,0,L|114:21,1,70,10|0,0:1|0:0,0:0:0:0:
227,128,58647,1,2,0:0:0:0:
28,27,58814,6,0,L|114:21,1,70,10|0,0:1|0:0,0:0:0:0:
28,27,59147,6,0,L|114:21,1,70,2|0,0:1|0:0,0:0:0:0:
400,3,59314,2,0,B|424:80|424:80|385:176,1,140,8|0,2:1|0:0,0:0:0:0:
49,261,59647,2,0,P|91:205|175:203,1,140,2|0,0:1|0:0,0:0:0:0:
355,350,59981,6,0,P|297:322|290:288,1,70,2|0,0:0|0:0,0:0:0:0:
339,248,60147,2,0,P|397:276|404:310,1,70,2|0,0:0|0:0,0:0:0:0:
453,189,60314,6,0,P|511:161|518:127,1,70,2|0,3:2|0:0,0:0:0:0:
469,87,60480,2,0,P|411:115|404:149,1,70,2|0,0:2|0:0,0:0:0:0:
274,22,60647,6,0,L|198:10,1,70,2|0,0:1|0:0,0:0:0:0:
35,36,60981,1,8,0:1:0:0:
274,22,61147,6,0,L|198:10,1,70,2|0,0:1|0:0,0:0:0:0:
95,127,61314,1,2,0:0:0:0:
274,22,61481,6,0,L|198:10,1,70,2|0,0:1|0:0,0:0:0:0:
274,22,61814,6,0,L|198:10,1,70,2|0,3:1|0:0,0:0:0:0:
1,158,61981,2,0,B|-29:221|-29:221|2:289,1,140,8|2,3:1|0:3,0:0:0:0:
146,337,62314,5,8,0:1:0:0:
215,333,62425,1,8,0:3:0:0:
285,329,62536,1,8,0:3:0:0:
282,260,62648,5,8,0:1:0:0:
212,263,62759,1,8,0:3:0:0:
142,267,62870,1,8,0:3:0:0:
138,197,62981,6,0,L|315:188,1,140,4|0,0:3|0:0,0:0:0:0:
427,16,63314,2,0,L|441:92,1,70
503,213,63481,2,0,B|495:328|495:328|457:375,1,140,4|8,0:3|0:0,0:0:0:0:
301,307,63814,1,2,0:0:0:0:
130,370,63981,6,0,B|78:354|78:354|72:318,1,70,4|0,0:3|0:0,0:0:0:0:
10,275,64147,2,0,L|35:117,1,140,10|0,0:1|0:0,0:0:0:0:
272,0,64481,2,0,L|294:138,1,140,2|2,0:1|0:0,0:0:0:0:
184,226,64814,1,0,0:0:0:0:
0,25,64981,2,0,B|115:-11|115:-11|163:21,1,140,10|0,0:1|0:0,0:0:0:0:
26,218,65314,2,0,L|46:308,1,70,2|0,0:1|0:0,0:0:0:0:
223,384,65481,2,0,L|238:315,1,70
322,275,65647,6,0,L|408:268,1,70,8|0,0:1|0:0,0:0:0:0:
463,49,65897,1,8,0:1:0:0:
463,49,65981,2,0,L|377:42,1,70,8|0,0:1|0:0,0:0:0:0:
282,0,66147,2,0,L|213:5,1,70,8|0,0:1|0:0,0:0:0:0:
128,40,66314,6,0,P|118:84|151:136,1,70,8|0,0:1|0:0,0:0:0:0:
290,242,66564,1,8,0:1:0:0:
290,242,66647,2,0,P|256:211|195:213,1,70,10|0,0:1|0:0,0:0:0:0:
34,281,66814,2,0,P|77:267|105:213,1,70,10|0,0:1|0:0,0:0:0:0:
289,85,66981,5,8,3:1:0:0:
335,71,67064,1,8,0:1:0:0:
384,75,67147,1,8,0:1:0:0:
428,95,67230,1,8,0:1:0:0:
463,129,67314,1,8,3:1:0:0:
485,173,67397,1,8,0:1:0:0:
490,222,67480,1,8,0:1:0:0:
478,269,67564,1,8,0:1:0:0:
450,309,67647,6,0,L|415:303,6,35,2|2|2|2|2|2|2,0:3|0:3|0:3|0:3|0:3|0:3|0:3,0:0:0:0:
363,369,67981,2,0,L|328:375,6,35,2|2|2|2|2|2|2,0:3|0:3|0:3|0:3|0:3|0:3|0:3,0:0:0:0:
265,311,68314,6,0,L|272:230,2,70,2|2|2,0:0|0:0|0:0,0:0:0:0:
54,48,68981,6,0,L|152:36,1,97.9999970092774,6|2,3:2|0:3,0:0:0:0:
236,84,69314,2,0,L|246:119,2,24.4999992523194,2|2|2,0:3|0:3|0:3,0:0:0:0:
252,65,69481,1,0,3:0:0:0:
308,11,69647,5,8,0:1:0:0:
344,174,69814,1,8,0:1:0:0:
416,108,69981,2,0,L|463:120,1,48.9999985046387,2|0,0:3|0:0,0:0:0:0:
400,82,70147,1,2,0:3:0:0:
249,103,70314,5,2,3:2:0:0:
172,91,70480,1,2,0:3:0:0:
95,79,70647,1,2,0:3:0:0:
18,68,70814,1,2,0:3:0:0:
160,17,70981,5,8,0:1:0:0:
184,179,71147,1,8,0:1:0:0:
22,203,71314,1,8,0:1:0:0:
0,42,71481,1,8,0:1:0:0:
60,91,71647,6,0,L|55:197,1,97.9999970092774,8|2,0:1|0:3,0:0:0:0:
107,272,71981,2,0,L|97:311,2,24.4999992523194,2|2|2,0:3|0:3|0:3,0:0:0:0:
124,254,72147,2,0,P|187:241|226:263,1,97.9999970092774,8|2,0:1|0:3,0:0:0:0:
268,337,72481,1,2,0:3:0:0:
270,172,72647,2,0,P|306:204|316:252,1,97.9999970092774,8|2,0:1|0:3,0:0:0:0:
268,337,72981,5,8,0:1:0:0:
179,151,73147,1,2,0:3:0:0:
179,151,73231,1,2,0:3:0:0:
179,151,73314,2,0,L|190:85,1,48.9999985046387,2|2,0:3|0:3,0:0:0:0:
245,36,73481,2,0,L|348:26,1,97.9999970092774,8|2,0:1|0:3,0:0:0:0:
427,75,73814,1,2,0:3:0:0:
495,4,73981,1,8,0:1:0:0:
484,177,74147,2,0,L|494:213,2,24.4999992523194,8|2|2,0:1|0:3|0:3,0:0:0:0:
459,174,74314,5,8,0:1:0:0:
399,252,74481,1,2,0:3:0:0:
469,319,74647,2,0,L|459:355,2,24.4999992523194,2|2|2,0:3|0:3|0:3,0:0:0:0:
494,316,74814,5,8,0:1:0:0:
399,252,74981,1,2,0:3:0:0:
330,364,75147,1,2,0:3:0:0:
321,176,75314,5,8,0:1:0:0:
252,288,75481,1,2,0:3:0:0:
468,140,75647,1,8,0:1:0:0:
256,192,75814,12,0,76647,0:0:0:0:
187,28,76980,6,0,L|85:14,1,97.9999970092774,6|0,3:2|0:0,0:0:0:0:
89,14,77314,1,0,0:0:0:0:
7,68,77480,1,0,3:0:0:0:
43,137,77647,5,8,0:1:0:0:
19,296,77814,1,8,0:1:0:0:
150,270,77980,6,0,L|144:221,1,48.9999985046387,0|0,3:0|0:0,0:0:0:0:
129,257,78146,2,0,L|124:209,1,48.9999985046387,8|0,0:1|0:0,0:0:0:0:
169,111,78314,6,0,P|216:50|345:46,1,195.999994018555,2|0,3:2|0:0,0:0:0:0:
403,101,78814,1,0,3:0:0:0:
477,77,78980,5,8,0:1:0:0:
512,219,79147,1,8,0:1:0:0:
438,243,79314,1,2,0:3:0:0:
364,267,79480,1,2,0:3:0:0:
272,201,79647,6,0,B|262:168|262:168|294:97,1,97.9999970092774,2|0,3:2|0:0,0:0:0:0:
288,110,79980,1,0,0:0:0:0:
374,63,80147,1,0,3:0:0:0:
441,102,80314,1,8,0:1:0:0:
254,10,80480,1,8,0:1:0:0:
156,77,80647,2,0,L|167:124,1,48.9999985046387,0|0,3:0|0:0,0:0:0:0:
177,49,80814,1,8,0:1:0:0:
288,110,80981,5,2,3:2:0:0:
276,187,81147,1,2,0:0:0:0:
264,264,81314,1,2,0:0:0:0:
253,341,81481,1,2,0:0:0:0:
351,378,81647,5,2,0:0:0:0:
347,368,81814,1,2,0:0:0:0:
45,118,82314,5,2,3:2:0:0:
45,118,82647,1,0,0:0:0:0:
114,48,82814,1,0,3:0:0:0:
178,92,82980,5,8,0:1:0:0:
319,49,83147,1,8,0:1:0:0:
322,173,83314,6,0,L|273:167,1,48.9999985046387,0|0,3:0|0:0,0:0:0:0:
309,152,83480,2,0,L|261:147,1,48.9999985046387,8|0,0:1|0:0,0:0:0:0:
199,242,83647,6,0,B|129:252|129:252|82:234,1,97.9999970092774,2|2,3:2|0:0,0:0:0:0:
103,242,83980,1,0,3:0:0:0:
54,157,84147,1,0,3:0:0:0:
116,109,84314,1,8,0:1:0:0:
41,290,84480,1,8,0:1:0:0:
103,242,84647,1,2,0:3:0:0:
54,157,84814,1,2,0:0:0:0:
187,170,84980,6,0,L|304:155,1,97.9999970092774,2|0,3:2|0:0,0:0:0:0:
362,97,85314,1,0,0:0:0:0:
448,218,85480,2,0,B|463:287|463:287|441:335,1,97.9999970092774,0|8,3:0|0:1,0:0:0:0:
312,326,85814,1,8,0:1:0:0:
284,157,85980,1,0,3:0:0:0:
448,218,86147,1,8,0:1:0:0:
247,383,86314,6,0,L|154:372,1,48.9999985046387,2|0,3:2|0:0,0:0:0:0:
67,49,87314,5,2,0:3:0:0:
67,49,87480,1,2,0:3:0:0:
0,112,87647,6,0,B|80:85|80:85|121:102,1,112,6|2,3:2|0:3,0:0:0:0:
183,175,87980,2,0,L|188:228,2,28,2|2|2,0:3|0:3|0:3,0:0:0:0:
201,153,88147,1,2,0:3:0:0:
282,115,88314,1,8,0:1:0:0:
334,267,88480,1,8,0:1:0:0:
445,77,88647,2,0,L|386:72,1,56,2|0,3:0|0:0,0:0:0:0:
364,95,88814,2,0,L|305:90,1,56,2|0,0:3|0:0,0:0:0:0:
234,19,88981,6,0,B|219:0|219:0|173:14,1,56,2|0,3:2|0:0,0:0:0:0:
110,57,89147,1,2,0:3:0:0:
111,84,89230,1,2,0:3:0:0:
112,112,89314,1,2,0:3:0:0:
113,139,89397,1,2,0:3:0:0:
115,166,89480,1,2,0:3:0:0:
51,229,89647,5,8,0:1:0:0:
185,221,89814,1,8,0:1:0:0:
175,21,89980,1,2,0:3:0:0:
41,29,90147,2,0,L|8:24,2,28,2|2|2,0:3|0:3|0:3,0:0:0:0:
58,51,90314,6,0,B|22:134|22:134|54:171,1,112,2|2,3:2|0:3,0:0:0:0:
134,203,90647,2,0,L|167:198,2,28,2|2|2,0:3|0:3|0:3,0:0:0:0:
117,225,90814,1,2,0:3:0:0:
234,142,90980,5,8,0:1:0:0:
183,324,91147,1,8,0:1:0:0:
44,312,91314,1,2,3:0:0:0:
95,130,91481,1,2,0:3:0:0:
147,228,91647,5,2,3:2:0:0:
234,209,91814,1,2,0:3:0:0:
250,206,91897,1,2,0:3:0:0:
266,203,91980,1,2,0:3:0:0:
354,186,92147,1,2,0:0:0:0:
396,106,92314,5,8,0:1:0:0:
355,285,92480,1,8,0:1:0:0:
176,244,92647,1,8,0:1:0:0:
217,65,92814,1,8,0:1:0:0:
144,117,92980,6,0,B|57:107|57:107|20:145,1,112,8|2,0:1|0:3,0:0:0:0:
24,236,93314,2,0,L|23:283,2,28,2|2|2,0:3|0:3|0:3,0:0:0:0:
0,226,93480,2,0,L|12:361,1,112,8|2,0:1|0:3,0:0:0:0:
85,384,93814,1,2,0:3:0:0:
144,117,93980,2,0,P|198:112|244:143,1,112,8|2,0:1|0:3,0:0:0:0:
84,186,94314,6,0,P|57:153|58:81,1,112,8|2,0:1|0:3,0:0:0:0:
74,63,94564,1,2,0:3:0:0:
95,45,94647,1,2,0:3:0:0:
119,32,94730,1,2,0:3:0:0:
147,30,94814,1,8,0:1:0:0:
210,92,94980,1,2,0:3:0:0:
288,47,95147,1,2,0:3:0:0:
382,140,95314,2,0,L|385:217,1,56,8|0,0:1|0:0,0:0:0:0:
314,251,95480,2,0,L|303:304,2,28,8|2|2,0:1|0:3|0:3,0:0:0:0:
295,230,95647,6,0,L|162:244,1,112,8|2,0:1|0:3,0:0:0:0:
98,315,95980,2,0,L|109:368,2,28,2|2|2,0:3|0:3|0:3,0:0:0:0:
81,291,96147,5,8,0:1:0:0:
136,168,96314,1,2,0:3:0:0:
68,79,96480,1,2,0:3:0:0:
225,100,96647,5,8,0:1:0:0:
293,189,96814,1,2,0:3:0:0:
238,312,96980,1,8,0:1:0:0:
256,192,97147,12,0,98314,0:0:0:0:
104,62,98647,6,0,L|122:168,1,97.9999970092774,0|0,3:0|0:0,0:0:0:0:
218,164,98980,2,0,L|200:270,1,97.9999970092774,2|8,0:0|0:1,0:0:0:0:
248,346,99313,2,0,P|314:345|349:307,1,97.9999970092774
406,256,99647,2,0,P|447:231|495:236,1,97.9999970092774,8|0,0:1|0:0,0:0:0:0:
345,111,99980,6,0,P|239:128|173:54,1,195.999994018555,8|0,0:1|0:0,0:0:0:0:
96,123,100480,2,0,L|84:225,1,97.9999970092774,8|2,0:1|0:0,0:0:0:0:
36,306,100813,1,0,0:0:0:0:
89,363,100980,1,8,0:1:0:0:
248,315,101147,1,8,0:1:0:0:
301,372,101313,6,0,B|282:342|282:342|301:250,1,97.9999970092774,8|0,0:1|0:0,0:0:0:0:
378,229,101647,2,0,B|397:259|397:259|378:351,1,97.9999970092774,2|8,0:0|0:1,0:0:0:0:
199,382,101980,1,0,0:0:0:0:
199,382,102147,1,0,0:0:0:0:
136,307,102313,2,0,L|4:283,1,97.9999970092774,8|0,0:1|0:0,0:0:0:0:
3,197,102647,2,0,B|-21:67|-21:67|16:11,1,195.999994018555,8|0,0:1|0:0,0:0:0:0:
147,123,103147,2,0,B|171:253|171:253|134:309,1,195.999994018555,8|0,0:1|0:0,0:0:0:0:
73,382,103647,1,8,0:1:0:0:
73,382,103813,1,8,0:1:0:0:
222,351,103980,5,10,0:1:0:0:
145,244,104147,1,8,0:1:0:0:
310,232,104313,1,8,0:1:0:0:
221,370,104480,5,10,0:1:0:0:
124,235,104647,1,8,0:1:0:0:
331,220,104813,1,8,0:1:0:0:
219,272,104980,5,10,0:1:0:0:
219,272,105147,1,8,0:1:0:0:
265,137,105313,5,10,0:1:0:0:
342,328,105480,1,8,0:1:0:0:
202,368,105647,1,8,0:1:0:0:
278,116,105813,5,10,0:1:0:0:
354,349,105980,1,8,0:1:0:0:
179,367,106146,1,8,0:1:0:0:
301,239,106313,5,10,0:1:0:0:
301,239,106480,1,8,0:1:0:0:
166,128,106646,5,10,0:1:0:0:
127,290,106813,1,8,0:1:0:0:
31,266,106980,1,10,0:1:0:0:
70,104,107147,1,8,0:1:0:0:
254,182,107313,5,10,0:1:0:0:
302,382,107480,1,8,0:1:0:0:
430,346,107647,1,10,0:1:0:0:
382,146,107814,1,8,0:1:0:0:
183,312,107980,5,2,0:0:0:0:
108,287,108146,1,2,0:0:0:0:
108,287,108480,1,2,0:0:0:0:
512,0,108813,5,4,1:3:0:0:
0,191,109313,5,4,1:3:0:0:
512,384,109813,5,4,1:3:0:0:
173,41,110813,6,0,L|165:130,1,62.9999980773926,6|0,1:2|0:0,0:0:0:0:
217,183,110979,1,2,0:3:0:0:
35,94,111146,1,8,0:0:0:0:
2,210,111313,1,2,0:3:0:0:
8,240,111396,1,2,0:3:0:0:
14,270,111479,1,2,0:3:0:0:
104,315,111646,1,0,1:0:0:0:
217,183,111813,2,0,B|313:201|313:201|334:230,1,125.999996154785,8|2,0:0|0:3,0:0:0:0:
491,289,112146,6,0,L|483:372,1,62.9999980773926,2|0,1:2|0:0,0:0:0:0:
392,372,112313,1,2,0:3:0:0:
360,367,112396,1,2,0:3:0:0:
328,363,112479,1,8,0:0:0:0:
238,315,112646,1,2,0:3:0:0:
356,226,112813,2,0,L|348:161,1,62.9999980773926,2|0,0:0|0:0,0:0:0:0:
426,110,112979,2,0,L|434:45,1,62.9999980773926,2|0,1:2|0:0,0:0:0:0:
291,1,113146,1,8,0:0:0:0:
158,94,113313,2,0,L|104:84,2,31.4999990386963,2|2|2,0:3|0:3|0:3,0:0:0:0:
181,114,113479,6,0,B|167:221|167:221|181:256|181:256|167:375,1,251.999992309571,2|8,1:2|0:0,0:0:0:0:
69,381,113979,1,2,0:3:0:0:
19,217,114146,1,2,0:3:0:0:
191,159,114313,1,0,1:0:0:0:
241,323,114479,1,8,0:0:0:0:
69,381,114646,1,2,0:3:0:0:
191,159,114813,6,0,L|260:166,1,62.9999980773926,2|0,1:2|0:0,0:0:0:0:
342,196,114979,1,2,0:3:0:0:
348,226,115063,1,2,0:3:0:0:
355,256,115146,1,8,0:0:0:0:
301,341,115313,1,2,0:3:0:0:
124,234,115479,2,0,P|90:174|120:91,1,125.999996154785,2|0,0:3|1:0,0:0:0:0:
236,56,115813,1,8,0:0:0:0:
296,194,115979,2,0,L|286:246,2,31.4999990386963,2|2|2,0:3|0:3|0:3,0:0:0:0:
321,175,116146,6,0,L|386:163,1,62.9999980773926,2|0,1:2|0:0,0:0:0:0:
443,90,116313,1,2,0:3:0:0:
495,265,116479,1,8,0:0:0:0:
512,27,116646,1,2,0:3:0:0:
386,258,116813,1,2,0:3:0:0:
480,173,116979,1,0,1:0:0:0:
434,343,117146,1,8,0:0:0:0:
362,86,117312,1,2,0:3:0:0:
276,250,117479,6,0,B|224:251|224:251|194:233,1,62.9999980773926,2|0,1:2|0:0,0:0:0:0:
159,167,117646,1,2,0:3:0:0:
164,136,117729,1,2,0:3:0:0:
169,104,117813,1,8,0:0:0:0:
88,43,117979,1,2,0:3:0:0:
6,191,118146,1,2,0:3:0:0:
87,252,118312,1,0,1:0:0:0:
88,43,118479,1,8,0:0:0:0:
250,165,118646,2,0,L|259:226,2,31.4999990386963,2|2|2,0:3|0:3|0:3,0:0:0:0:
274,145,118812,5,2,1:2:0:0:
400,61,118979,1,0,1:0:0:0:
484,187,119146,1,8,0:0:0:0:
148,229,119312,5,0,1:0:0:0:
274,145,119479,1,0,1:0:0:0:
400,61,119646,1,0,1:0:0:0:
484,187,119812,1,8,0:0:0:0:
148,229,119979,5,0,1:0:0:0:
358,271,120146,5,0,3:0:0:0:
390,250,120229,1,0,3:0:0:0:
422,229,120312,1,0,3:0:0:0:
454,208,120396,1,0,3:0:0:0:
484,187,120479,5,0,3:0:0:0:
463,155,120562,1,0,3:0:0:0:
442,123,120645,1,0,3:0:0:0:
421,91,120729,1,0,3:0:0:0:
400,61,120812,5,0,3:0:0:0:
368,82,120896,1,0,3:0:0:0:
336,103,120979,1,0,3:0:0:0:
304,124,121063,1,0,3:0:0:0:
274,145,121146,5,0,3:0:0:0:
295,177,121229,1,0,3:0:0:0:
316,209,121312,1,0,3:0:0:0:
337,241,121396,1,0,3:0:0:0:
358,270,121479,6,0,B|400:267|400:267|432:219,1,70,2|0,3:1|0:0,0:0:0:0:
198,103,121646,2,0,B|156:106|156:106|124:154,1,70,2|0,0:1|0:0,0:0:0:0:
187,24,121812,2,0,B|115:31|115:31|49:119,1,140,2|0,0:0|3:0,0:0:0:0:
127,350,122146,6,0,L|139:263,1,70,10|0,0:1|0:0,0:0:0:0:
245,217,122479,1,2,0:0:0:0:
127,350,122646,6,0,L|139:263,1,70,10|0,0:1|0:0,0:0:0:0:
127,350,122979,6,0,L|139:263,1,70,2|0,0:1|0:0,0:0:0:0:
187,24,123146,2,0,B|115:31|115:31|49:119,1,140,8|0,0:1|0:0,0:0:0:0:
325,360,123479,2,0,B|397:353|397:353|463:265,1,140,2|0,0:1|0:0,0:0:0:0:
362,87,123812,6,0,P|402:48|447:49,1,70,2|0,0:0|0:0,0:0:0:0:
470,108,123979,2,0,P|430:147|385:146,1,70,2|0,0:0|0:0,0:0:0:0:
287,130,124146,6,0,P|247:91|202:92,1,70,2|0,3:2|0:0,0:0:0:0:
179,151,124313,2,0,P|219:190|264:189,1,70,2|0,0:2|0:0,0:0:0:0:
129,9,124479,6,0,L|44:28,1,70,2|0,0:1|0:0,0:0:0:0:
1,151,124812,1,8,0:1:0:0:
129,9,124979,6,0,L|44:28,1,70,2|0,0:1|0:0,0:0:0:0:
66,214,125146,1,2,0:0:0:0:
129,9,125312,6,0,L|44:28,1,70,2|0,0:1|0:0,0:0:0:0:
129,9,125646,6,0,L|44:28,1,70,2|0,3:1|0:0,0:0:0:0:
45,305,125812,2,0,B|117:298|117:298|183:210,1,140,8|2,3:1|0:3,0:0:0:0:
312,144,126146,5,8,0:1:0:0:
316,75,126257,1,8,0:3:0:0:
320,5,126368,1,8,0:3:0:0:
389,8,126480,5,8,0:1:0:0:
386,78,126591,1,8,0:3:0:0:
382,148,126702,1,8,0:3:0:0:
452,152,126813,6,0,L|461:-25,1,140,4|0,0:3|0:0,0:0:0:0:
351,317,127146,2,0,L|334:245,1,70
208,99,127312,2,0,B|114:116|114:116|83:156,1,140,4|10,0:3|0:0,0:0:0:0:
26,278,127646,1,2,0:0:0:0:
72,2,127812,6,0,L|158:18,1,70,4|0,0:3|0:0,0:0:0:0:
229,73,127979,2,0,L|372:48,1,140,10|0,0:1|0:0,0:0:0:0:
170,326,128312,2,0,L|27:301,1,140,2|2,0:1|0:0,0:0:0:0:
159,363,128646,1,0,0:0:0:0:
367,384,128812,2,0,B|403:269|403:269|371:221,1,140,10|0,0:0|0:0,0:0:0:0:
299,146,129146,2,0,L|206:130,1,70,2|0,0:1|0:0,0:0:0:0:
396,11,129312,2,0,L|464:0,1,70
507,80,129479,6,0,P|510:123|500:154,1,70,8|0,0:1|0:0,0:0:0:0:
378,304,129729,1,8,0:1:0:0:
378,304,129812,2,0,P|335:307|304:297,1,70,10|0,0:1|0:0,0:0:0:0:
321,160,129979,2,0,P|355:156|389:164,1,70,8|0,0:1|0:0,0:0:0:0:
261,375,130146,6,0,L|180:358,1,70,8|0,0:1|0:0,0:0:0:0:
28,135,130396,1,8,0:1:0:0:
28,135,130479,2,0,L|40:65,1,70,10|0,0:1|0:0,0:0:0:0:
236,0,130646,2,0,L|248:69,1,70,10|0,0:1|0:0,0:0:0:0:
316,251,130812,5,8,3:1:0:0:
363,262,130895,1,8,0:1:0:0:
411,254,130978,1,8,0:1:0:0:
451,227,131061,1,8,0:1:0:0:
478,187,131145,1,8,3:1:0:0:
487,139,131228,1,8,0:1:0:0:
475,91,131312,1,8,0:1:0:0:
446,52,131395,1,8,0:1:0:0:
404,28,131479,6,0,L|354:33,6,35,2|2|2|2|2|2|2,0:3|0:3|0:3|0:3|0:3|0:3|0:3,0:0:0:0:
318,111,131812,2,0,L|284:108,6,35,2|2|2|2|2|2|2,0:3|0:3|0:3|0:3|0:3|0:3|0:3,0:0:0:0:
227,52,132146,5,2,0:0:0:0:
227,52,132479,1,2,0:0:0:0:
227,52,132812,1,2,0:0:0:0:
227,52,133146,1,2,0:0:0:0:
227,52,133479,5,4,0:3:0:0:
269,51,133562,1,2,0:0:0:0:
312,49,133646,1,2,0:0:0:0:
354,48,133729,1,2,0:0:0:0:
396,48,133812,1,2,0:0:0:0:
227,52,133979,1,4,0:3:0:0:
58,57,134146,5,10,0:0:0:0:
100,55,134229,1,2,0:0:0:0:
143,53,134313,1,2,0:0:0:0:
185,52,134396,1,0,0:0:0:0:
227,52,134479,1,2,0:0:0:0:
396,48,134646,1,2,0:0:0:0:
354,48,134729,1,2,0:0:0:0:
312,49,134812,6,0,L|314:134,1,62.9999980773926,4|0,0:3|0:0,0:0:0:0:
314,188,134979,2,0,L|316:273,1,62.9999980773926,2|0,0:0|0:0,0:0:0:0:
90,244,135146,2,0,L|175:242,1,62.9999980773926,2|0,0:0|0:0,0:0:0:0:
230,242,135312,1,4,0:3:0:0:
331,339,135479,6,0,L|403:321,1,62.9999980773926,8|0,0:0|0:0,0:0:0:0:
479,230,135646,2,0,L|407:212,1,62.9999980773926,4|0,0:3|0:0,0:0:0:0:
270,78,135812,5,2,0:0:0:0:
260,118,135895,1,2,0:0:0:0:
251,160,135979,1,2,0:0:0:0:
241,202,136062,1,2,0:0:0:0:
230,242,136146,2,0,L|198:375,1,125.999996154785,4|0,0:3|0:0,0:0:0:0:
251,160,136479,5,2,0:0:0:0:
260,118,136562,1,0,0:0:0:0:
270,78,136646,1,4,0:3:0:0:
61,87,136812,6,0,P|74:62|98:78,1,62.9999980773926,14|0,0:0|0:0,0:0:0:0:
115,146,136979,2,0,P|102:171|77:155,1,62.9999980773926
41,252,137146,5,2,0:0:0:0:
51,295,137230,1,0,0:0:0:0:
61,335,137313,1,0,0:0:0:0:
80,86,137479,5,4,0:3:0:0:
70,128,137563,1,2,0:0:0:0:
61,170,137645,1,2,0:0:0:0:
51,212,137729,1,2,0:0:0:0:
41,252,137812,1,2,0:0:0:0:
164,105,137979,5,4,0:3:0:0:
122,95,138063,1,0,0:0:0:0:
80,86,138146,2,0,L|99:20,1,62.9999980773926,12|0,0:0|0:0,0:0:0:0:
248,124,138312,2,0,L|229:196,1,62.9999980773926,4|0,0:3|0:0,0:0:0:0:
279,321,138479,2,0,P|323:298|274:245,1,125.999996154785,2|2,0:3|0:3,0:0:0:0:
472,19,138812,5,4,0:3:0:0:
474,61,138895,1,2,0:0:0:0:
475,104,138979,1,2,0:0:0:0:
476,146,139062,1,2,0:0:0:0:
476,188,139145,1,2,0:0:0:0:
477,273,139312,5,4,0:3:0:0:
476,230,139395,1,0,0:0:0:0:
476,188,139478,1,8,0:0:0:0:
472,19,139646,1,0,0:0:0:0:
476,188,139812,5,2,0:0:0:0:
476,230,139895,1,2,0:0:0:0:
477,273,139978,1,2,0:0:0:0:
456,309,140062,1,2,0:0:0:0:
435,345,140146,2,0,L|364:336,1,62.9999980773926,4|0,0:3|0:0,0:0:0:0:
301,218,140312,2,0,L|202:230,1,62.9999980773926,2|0,0:0|0:0,0:0:0:0:
147,239,140479,6,0,L|127:331,1,62.9999980773926,2|0,0:0|0:0,0:0:0:0:
67,341,140646,1,4,0:3:0:0:
50,149,140812,2,0,L|124:141,1,62.9999980773926,8|0,0:0|0:0,0:0:0:0:
176,71,140979,2,0,L|242:78,1,62.9999980773926,4|0,0:3|0:0,0:0:0:0:
317,235,141146,5,2,0:0:0:0:
275,237,141229,1,2,0:0:0:0:
232,238,141313,1,2,0:0:0:0:
189,239,141396,1,2,0:0:0:0:
147,239,141479,2,0,B|125:166|125:166|153:101,1,125.999996154785,4|0,0:3|0:0,0:0:0:0:
333,19,141812,2,0,L|461:38,1,125.999996154785,8|0,0:0|0:0,0:0:0:0:
471,229,142146,6,0,P|433:242|423:225,1,62.9999980773926,6|0,0:0|0:0,0:0:0:0:
432,148,142312,2,0,P|469:134|479:151,1,62.9999980773926,4|0,0:3|0:0,0:0:0:0:
411,319,142479,2,0,B|310:311|310:311|285:290,1,125.999996154785,8|0,0:0|0:0,0:0:0:0:
205,135,142813,5,4,0:3:0:0:
163,135,142896,1,2,0:0:0:0:
121,134,142979,1,2,0:0:0:0:
85,155,143063,1,2,0:0:0:0:
48,176,143147,2,0,L|64:307,1,125.999996154785,8|0,0:0|0:0,0:0:0:0:
291,186,143479,1,2,0:0:0:0:
203,45,143646,1,4,0:3:0:0:
51,47,143812,6,0,L|132:73,1,62.9999980773926,8|0,0:0|0:0,0:0:0:0:
218,222,143979,2,0,L|284:211,1,62.9999980773926,4|0,0:3|0:0,0:0:0:0:
407,107,144146,5,2,0:0:0:0:
407,107,144312,1,2,0:0:0:0:
481,235,144479,5,4,1:3:0:0:
0,246,144979,5,4,1:3:0:0:
255,0,145479,5,4,1:3:0:0:
184,103,146479,6,0,L|109:94,1,62.9999980773926,6|0,1:2|0:0,0:0:0:0:
55,28,146645,1,2,0:3:0:0:
250,170,146812,1,8,0:0:0:0:
40,146,146979,1,2,0:3:0:0:
261,51,147145,2,0,B|354:35|354:35|399:79,1,125.999996154785,2|0,0:3|1:0,0:0:0:0:
173,222,147479,1,8,0:0:0:0:
344,310,147645,1,2,0:3:0:0:
440,188,147812,6,0,L|337:174,1,62.9999980773926,2|0,1:2|0:0,0:0:0:0:
308,113,147979,1,2,0:3:0:0:
306,81,148062,1,2,0:3:0:0:
304,49,148145,1,8,0:0:0:0:
395,6,148312,1,2,0:3:0:0:
209,106,148479,2,0,B|199:129|199:129|214:202,1,62.9999980773926,2|0,0:0|0:0,0:0:0:0:
293,255,148645,2,0,B|303:232|303:232|296:195,1,62.9999980773926,2|0,1:2|0:0,0:0:0:0:
111,133,148812,1,8,0:0:0:0:
247,2,148979,2,0,L|303:5,2,31.4999990386963,2|2|2,0:3|0:3|0:3,0:0:0:0:
217,17,149145,6,0,L|63:3,1,125.999996154785,2|2,1:2|0:3,0:0:0:0:
7,199,149479,1,8,0:0:0:0:
52,288,149645,1,2,0:3:0:0:
292,369,149812,2,0,P|315:309|287:248,1,125.999996154785,2|0,0:3|1:0,0:0:0:0:
8,84,150145,2,0,P|-15:144|13:205,1,125.999996154785,8|2,0:0|0:3,0:0:0:0:
343,304,150479,6,0,L|414:294,1,62.9999980773926,2|0,1:2|0:0,0:0:0:0:
468,225,150645,1,2,0:3:0:0:
472,193,150729,1,2,0:3:0:0:
476,161,150812,1,8,0:0:0:0:
418,77,150979,1,2,0:3:0:0:
343,304,151145,1,2,0:3:0:0:
285,220,151312,1,0,1:0:0:0:
476,161,151479,1,8,0:0:0:0:
282,26,151645,2,0,L|223:38,2,31.4999990386963,2|2|2,0:3|0:3|0:3,0:0:0:0:
307,44,151812,6,0,L|300:125,1,62.9999980773926,2|0,1:2|0:0,0:0:0:0:
252,188,151979,1,2,0:3:0:0:
417,276,152145,1,8,0:0:0:0:
466,194,152312,1,2,0:3:0:0:
170,138,152479,1,2,0:3:0:0:
466,194,152645,1,0,1:0:0:0:
252,188,152812,1,8,0:0:0:0:
384,144,152979,1,2,0:3:0:0:
229,0,153145,6,0,L|222:81,1,62.9999980773926,2|0,1:2|0:0,0:0:0:0:
148,232,153312,1,2,0:3:0:0:
152,262,153395,1,2,0:3:0:0:
157,293,153479,1,8,0:0:0:0:
236,353,153645,1,2,0:3:0:0:
125,134,153812,1,2,0:3:0:0:
10,132,153979,1,0,1:0:0:0:
236,353,154145,2,0,P|296:376|357:348,1,125.999996154785,8|2,0:0|0:3,0:0:0:0:
367,327,154395,1,2,0:3:0:0:
386,302,154479,5,2,1:2:0:0:
275,243,154645,1,0,1:0:0:0:
163,183,154812,1,8,0:0:0:0:
446,190,154979,5,0,1:0:0:0:
335,131,155145,1,0,1:0:0:0:
223,71,155312,1,0,1:0:0:0:
111,11,155479,1,8,0:0:0:0:
395,19,155645,5,0,1:0:0:0:
335,131,155812,5,0,3:0:0:0:
320,159,155895,1,0,3:0:0:0:
305,187,155979,1,0,3:0:0:0:
290,215,156061,1,0,3:0:0:0:
275,243,156146,5,0,3:0:0:0:
247,228,156229,1,0,3:0:0:0:
219,213,156313,1,0,3:0:0:0:
191,198,156395,1,0,3:0:0:0:
163,183,156478,5,0,3:0:0:0:
178,155,156561,1,0,3:0:0:0:
193,127,156645,1,0,3:0:0:0:
208,99,156729,1,0,3:0:0:0:
223,71,156812,5,0,3:0:0:0:
251,86,156895,1,0,3:0:0:0:
279,101,156979,1,0,3:0:0:0:
307,116,157061,1,0,3:0:0:0:
335,131,157145,5,2,0:0:0:0:
34,60,157812,6,0,B|126:22|126:22|168:28,1,125.999996154785,4|0,0:3|0:0,0:0:0:0:
228,82,158062,2,0,L|299:70,1,62.9999980773926,2|8,0:0|0:0,0:0:0:0:
400,124,158229,1,0,0:0:0:0:
425,142,158312,2,0,L|363:132,1,62.9999980773926,2|0,0:0|0:0,0:0:0:0:
221,225,158479,6,0,L|205:356,1,125.999996154785,4|0,0:3|0:0,0:0:0:0:
115,379,158729,2,0,L|102:300,1,62.9999980773926,2|8,0:0|0:0,0:0:0:0:
36,202,158895,1,0,0:0:0:0:
20,229,158979,2,0,L|33:150,1,62.9999980773926,2|0,0:0|0:0,0:0:0:0:
78,47,159145,6,0,P|136:6|194:17,1,125.999996154785,4|0,0:3|0:0,0:0:0:0:
264,68,159395,2,0,P|276:119|268:143,1,62.9999980773926,2|8,0:0|0:0,0:0:0:0:
184,240,159562,1,0,0:0:0:0:
154,229,159645,2,0,P|174:205|202:191,1,62.9999980773926,2|0,0:0|0:0,0:0:0:0:
360,94,159812,6,0,L|437:102,1,62.9999980773926,4|0,0:3|0:0,0:0:0:0:
387,70,159979,2,0,L|464:78,1,62.9999980773926,2|0,0:0|0:0,0:0:0:0:
512,228,160145,6,0,L|435:236,1,62.9999980773926,8|0,0:0|0:0,0:0:0:0:
485,204,160312,2,0,L|408:212,1,62.9999980773926,2|0,0:0|0:0,0:0:0:0:
374,341,160479,6,0,L|238:314,1,125.999996154785,4|0,0:3|0:0,0:0:0:0:
171,365,160729,2,0,L|134:274,1,62.9999980773926,2|8,0:0|0:0,0:0:0:0:
266,148,160895,1,0,0:0:0:0:
282,174,160978,2,0,L|258:232,1,62.9999980773926,2|0,0:0|0:0,0:0:0:0:
86,213,161145,6,0,L|17:201,2,62.9999980773926,4|0|0,0:3|0:0|0:0,0:0:0:0:
186,70,161395,2,0,L|250:58,2,62.9999980773926,2|8|0,0:0|0:0|0:0,0:0:0:0:
103,21,161645,1,2,0:0:0:0:
384,18,161812,6,0,P|403:71|396:97,1,62.9999980773926,4|0,0:3|0:0,0:0:0:0:
444,60,161978,2,0,P|433:115|414:134,1,62.9999980773926,2|0,0:0|0:0,0:0:0:0:
271,147,162145,6,0,P|281:202|300:221,1,62.9999980773926,8|0,0:0|0:0,0:0:0:0:
240,213,162311,2,0,P|277:255|302:262,1,62.9999980773926,2|0,0:0|0:0,0:0:0:0:
402,379,162478,6,0,L|494:372,1,62.9999980773926,4|0,0:3|0:0,0:0:0:0:
500,183,162645,1,2,0:0:0:0:
451,143,162728,1,4,0:3:0:0:
391,165,162812,2,0,L|377:245,1,62.9999980773926,8|0,0:0|0:0,0:0:0:0:
278,327,162978,2,0,L|267:264,1,62.9999980773926,4|0,0:3|0:0,0:0:0:0:
192,173,163145,5,2,0:0:0:0:
116,223,163312,1,0,0:0:0:0:
116,223,163395,1,0,0:0:0:0:
116,222,163478,2,0,P|98:252|99:287,1,70,8|0,0:1|0:0,0:0:0:0:
166,350,163812,1,2,0:0:0:0:
14,242,163978,1,8,0:1:0:0:
45,161,164145,1,2,0:3:0:0:
45,161,164228,1,2,0:3:0:0:
45,161,164312,1,2,0:3:0:0:
146,245,164478,6,0,L|277:222,1,125.999996154785,4|0,0:3|0:0,0:0:0:0:
336,154,164728,2,0,L|406:173,1,62.9999980773926,2|8,0:0|0:0,0:0:0:0:
466,71,164895,1,0,0:0:0:0:
439,88,164978,2,0,L|484:133,1,62.9999980773926,2|0,0:0|0:0,0:0:0:0:
512,260,165145,6,0,P|499:326|432:354,1,125.999996154785,4|0,0:3|0:0,0:0:0:0:
360,380,165395,2,0,P|292:361|280:352,1,62.9999980773926,2|8,0:0|0:0,0:0:0:0:
254,248,165561,1,0,0:0:0:0:
225,235,165645,2,0,P|157:254|145:263,1,62.9999980773926,2|0,0:0|0:0,0:0:0:0:
41,355,165811,6,0,B|13:315|13:315|45:203,1,125.999996154785,4|0,0:3|0:0,0:0:0:0:
6,149,166061,2,0,L|37:88,1,62.9999980773926,2|8,0:0|0:0,0:0:0:0:
122,7,166228,1,0,0:0:0:0:
111,36,166311,2,0,L|179:32,1,62.9999980773926,2|0,0:0|0:0,0:0:0:0:
322,134,166478,6,0,P|358:107|370:73,1,62.9999980773926,4|0,0:3|0:0,0:0:0:0:
345,156,166645,2,0,P|381:129|393:95,1,62.9999980773926,2|0,0:0|0:0,0:0:0:0:
164,176,166811,6,0,P|128:203|116:237,1,62.9999980773926,8|0,0:0|0:0,0:0:0:0:
141,154,166978,2,0,P|105:181|93:215,1,62.9999980773926,2|0,0:0|0:0,0:0:0:0:
158,329,167145,6,0,P|223:345|290:314,1,125.999996154785,4|0,0:3|0:0,0:0:0:0:
354,379,167395,2,0,P|379:330|371:290,1,62.9999980773926,2|8,0:0|0:0,0:0:0:0:
486,293,167561,1,0,0:0:0:0:
473,324,167645,2,0,P|456:271|422:249,1,62.9999980773926,2|0,0:0|0:0,0:0:0:0:
472,175,167811,6,0,L|460:93,2,62.9999980773926,4|0|0,0:3|0:0|0:0,0:0:0:0:
373,187,168061,1,2,0:0:0:0:
349,165,168145,2,0,B|318:158|318:158|278:173,1,62.9999980773926,8|0,0:0|0:0,0:0:0:0:
185,256,168311,2,0,B|216:263|216:263|246:253,1,62.9999980773926,4|0,0:3|0:0,0:0:0:0:
157,359,168478,6,0,L|54:339,1,62.9999980773926,4|0,0:3|0:0,0:0:0:0:
0,235,168645,2,0,L|103:215,1,62.9999980773926,4|0,0:3|0:0,0:0:0:0:
126,103,168811,5,8,0:0:0:0:
140,68,168894,1,4,0:3:0:0:
167,41,168977,1,4,0:3:0:0:
201,27,169061,1,4,0:3:0:0:
239,26,169144,1,4,0:3:0:0:
260,55,169228,1,4,0:3:0:0:
270,92,169311,1,4,0:3:0:0:
265,129,169395,1,4,0:3:0:0:
247,162,169478,1,8,0:0:0:0:
209,166,169561,1,4,0:3:0:0:
173,157,169644,1,4,0:3:0:0:
143,134,169728,1,4,0:3:0:0:
126,103,169811,6,0,B|99:203|99:203|112:261,1,125.999996154785,4|0,0:3|0:0,0:0:0:0:
260,301,170145,2,0,L|342:286,1,62.9999980773926,8|0,0:0|0:0,0:0:0:0:
465,156,170312,1,2,0:0:0:0:
465,156,170395,1,2,0:0:0:0:
465,156,170478,2,0,L|354:139,1,62.9999980773926,4|0,0:3|0:0,0:0:0:0:
247,7,170645,1,2,0:0:0:0:
247,7,170728,1,2,0:0:0:0:
247,7,170811,2,0,B|147:34|147:34|89:21,1,125.999996154785,8|0,0:0|0:0,0:0:0:0:
14,138,171145,5,4,0:3:0:0:
71,270,171312,1,2,0:0:0:0:
71,270,171395,1,2,0:0:0:0:
71,270,171478,2,0,L|143:255,1,62.9999980773926,8|0,0:0|0:0,0:0:0:0:
245,143,171645,1,2,0:0:0:0:
245,143,171728,1,2,0:0:0:0:
245,143,171811,2,0,L|173:128,1,62.9999980773926,4|0,0:3|0:0,0:0:0:0:
266,311,171978,1,0,0:0:0:0:
456,278,172145,6,0,L|441:196,1,62.9999980773926,8|0,0:0|0:0,0:0:0:0:
373,153,172311,2,0,L|388:71,1,62.9999980773926,4|0,0:3|0:0,0:0:0:0:
218,0,172478,6,0,L|239:146,1,125.999996154785,4|2,0:3|0:0,0:0:0:0:
169,192,172728,1,2,0:0:0:0:
169,192,172811,2,0,P|177:261|246:290,1,125.999996154785,8|0,0:0|0:0,0:0:0:0:
389,377,173145,2,0,L|483:367,1,62.9999980773926,4|0,0:3|0:0,0:0:0:0:
489,284,173311,1,0,0:0:0:0:
433,102,173478,2,0,L|339:92,1,62.9999980773926,8|0,0:0|0:0,0:0:0:0:
297,156,173645,1,2,0:0:0:0:
293,187,173728,1,2,0:0:0:0:
289,218,173811,6,0,L|302:286,1,62.9999980773926,4|0,0:3|0:0,0:0:0:0:
167,368,173978,1,2,0:0:0:0:
167,368,174061,1,2,0:0:0:0:
167,368,174145,2,0,L|90:358,1,62.9999980773926,8|0,0:0|0:0,0:0:0:0:
4,194,174311,1,2,0:0:0:0:
4,194,174395,1,2,0:0:0:0:
4,194,174478,2,0,L|72:177,1,62.9999980773926,4|0,0:3|0:0,0:0:0:0:
134,57,174645,1,2,0:0:0:0:
164,65,174728,1,2,0:0:0:0:
194,73,174811,6,0,L|211:160,1,62.9999980773926,8|0,0:0|0:0,0:0:0:0:
278,301,174978,2,0,L|291:240,1,62.9999980773926,4|0,0:3|0:0,0:0:0:0:
372,52,175145,6,0,P|440:34|469:112,1,157.500006008148,4|0,0:3|0:0,0:0:0:0:
472,101,175811,6,0,L|459:200,1,70,8|0,0:0|0:0,0:0:0:0:
394,219,175978,2,0,L|380:317,1,70,2|0,0:0|0:0,0:0:0:0:
319,342,176145,1,4,0:3:0:0:
472,101,176311,6,0,L|459:200,1,70,2|0,0:2|0:0,0:0:0:0:
319,342,176645,6,0,P|259:353|231:336,1,70,2|0,0:0|0:0,0:0:0:0:
184,271,176811,1,12,0:0:0:0:
343,133,176978,1,0,0:0:0:0:
319,342,177145,6,0,P|259:353|231:336,1,70,8|0,0:0|0:0,0:0:0:0:
184,271,177311,1,6,0:0:0:0:
58,277,177478,6,0,L|72:364,1,70
33,196,177644,2,0,L|19:283,1,70,4|0,0:3|0:0,0:0:0:0:
163,160,177811,6,0,P|232:150|242:132,1,70,4|0,0:3|0:0,0:0:0:0:
219,70,177978,2,0,P|150:80|140:98,1,70
209,255,178144,2,0,L|349:267,1,140,8|0,0:0|0:0,0:0:0:0:
405,69,178478,6,0,P|395:138|377:148,1,70,4|0,0:3|0:0,0:0:0:0:
315,125,178645,2,0,P|325:56|343:46,1,70
500,115,178811,2,0,L|513:208,1,70,8|0,0:0|0:0,0:0:0:0:
486,207,178978,2,0,L|499:300,1,70,4|0,0:3|0:0,0:0:0:0:
389,355,179144,6,0,L|310:344,1,70,4|0,0:3|0:0,0:0:0:0:
115,300,179311,2,0,L|194:289,1,70,4|0,0:3|0:0,0:0:0:0:
394,214,179478,2,0,L|315:203,1,70,8|0,0:0|0:0,0:0:0:0:
119,124,179644,2,0,L|198:113,1,70,4|0,0:3|0:0,0:0:0:0:
324,17,179811,5,4,0:3:0:0:
364,6,179894,1,4,0:3:0:0:
406,10,179977,1,4,0:3:0:0:
444,27,180061,1,4,0:3:0:0:
475,55,180144,5,8,0:0:0:0:
443,100,180227,1,8,0:0:0:0:
394,128,180310,1,8,0:0:0:0:
339,132,180394,1,8,0:0:0:0:
287,112,180477,1,4,0:0:0:0:
42,74,181478,6,0,L|43:37,3,26.2500010013581
78,106,181811,2,0,L|77:69,3,26.2500010013581
12,160,182144,5,2,0:0:0:0:
