osu file format v14

[General]
AudioFilename: audio.mp3
AudioLeadIn: 0
PreviewTime: 116107
Countdown: 0
SampleSet: Normal
StackLeniency: 0.7
Mode: 1
LetterboxInBreaks: 0
WidescreenStoryboard: 1

[Editor]
Bookmarks: 76299
DistanceSpacing: 1.1
BeatDivisor: 4
GridSize: 8
TimelineZoom: 1.5

[Metadata]
Title:Shokuzai Belladonna
TitleUnicode:贖罪ベラドンナ
Artist:BLENHEIM
ArtistUnicode:BLENHEIM
Creator:kanpakyin
Version:Oni
Source:
Tags:ave;new feat. 佐倉紗織 Sakura Saori pop jpop j-pop japanese 6th enlever〜アンルヴェ〜 ブレナム
BeatmapID:3896107
BeatmapSetID:1832879

[Difficulty]
HPDrainRate:6
CircleSize:4
OverallDifficulty:5
ApproachRate:5
SliderMultiplier:1.4
SliderTickRate:1

[Events]
//Background and Video events
0,0,"BG.jpg",0,80
//Break Periods
//Storyboard Layer 0 (Background)
//Storyboard Layer 1 (Fail)
//Storyboard Layer 2 (Pass)
//Storyboard Layer 3 (Foreground)
//Storyboard Layer 4 (Overlay)
//Storyboard Sound Samples

[TimingPoints]
914,714.285714285714,4,1,1,60,1,0
914,-200,4,1,1,60,0,0
22521,-188.679245283019,4,1,1,60,0,0
22878,-178.571428571429,4,1,1,60,0,0
23235,-169.491525423729,4,1,1,60,0,0
23593,-161.290322580645,4,1,1,60,0,0
30915,810.810810810811,4,1,1,60,1,8
30915,-142.857142857143,4,1,1,60,0,8
31725,-136.986301369863,4,1,1,60,0,8
32131,-125,4,1,1,60,0,8
32536,675.818181818182,4,1,1,60,1,0
32536,-133.333333333333,4,1,1,60,0,0
34901,-181.818181818182,4,1,1,60,0,0
37942,743.418181818182,4,1,1,60,1,0
37942,-200,4,1,1,60,0,0
40915,384.615384615385,4,1,1,75,1,0
53797,-101.010101010101,4,1,1,75,0,0
53893,-102.040816326531,4,1,1,75,0,0
53989,-103.092783505155,4,1,1,75,0,0
54182,-104.166666666667,4,1,1,75,0,0
54278,-105.263157894737,4,1,1,75,0,0
54374,-106.382978723404,4,1,1,75,0,0
54470,-107.52688172043,4,1,1,75,0,0
54566,-108.695652173913,4,1,1,75,0,0
54663,-109.89010989011,4,1,1,75,0,0
54759,-111.111111111111,4,1,1,75,0,0
60336,-109.89010989011,4,1,1,75,0,0
60432,-108.695652173913,4,1,1,75,0,0
60528,-107.52688172043,4,1,1,75,0,0
60624,-106.382978723404,4,1,1,75,0,0
60720,-105.263157894737,4,1,1,75,0,0
60816,-104.166666666667,4,1,1,75,0,0
60913,-103.092783505155,4,1,1,75,0,0
61105,-102.040816326531,4,1,1,75,0,0
61201,-101.010101010101,4,1,1,75,0,0
61297,-100,4,1,1,75,0,0
68220,-99.009900990099,4,1,1,75,0,0
68316,-98.0392156862745,4,1,1,75,0,0
68413,-97.0873786407767,4,1,1,75,0,0
68509,-96.1538461538461,4,1,1,75,0,0
68605,-95.2380952380952,4,1,1,75,0,0
74566,-97.0873786407767,4,1,1,75,0,0
74663,-98.0392156862745,4,1,1,75,0,0
74759,-99.009900990099,4,1,1,75,0,0
74855,-100,4,1,1,75,0,0
85528,-105.263157894737,4,1,1,75,0,0
85816,-108.695652173913,4,1,1,75,0,0
86009,-111.111111111111,4,1,1,75,0,0
86297,-113.636363636364,4,1,1,75,0,0
86489,-116.279069767442,4,1,1,75,0,0
86682,-119.047619047619,4,1,1,75,0,0
86874,-121.951219512195,4,1,1,75,0,0
87066,-125,4,1,1,65,0,0
108605,-120.481927710843,4,1,1,75,0,0
108989,-117.647058823529,4,1,1,75,0,0
109374,-114.942528735632,4,1,1,75,0,0
109759,-112.359550561798,4,1,1,75,0,0
109951,-111.111111111111,4,1,1,75,0,0
110143,-109.89010989011,4,1,1,75,0,0
110528,-107.52688172043,4,1,1,75,0,0
110720,-106.382978723404,4,1,1,75,0,0
110913,-105.263157894737,4,1,1,75,0,0
111105,-104.166666666667,4,1,1,75,0,0
111297,-103.092783505155,4,1,1,75,0,0
111489,-102.040816326531,4,1,1,75,0,0
111682,-101.010101010101,4,1,1,75,0,0
111874,-100,4,1,1,75,0,0
115001,-99.009900990099,4,1,1,75,0,0
115097,-98.0392156862745,4,1,1,75,0,0
115336,-97.0873786407767,4,1,1,75,0,0
115528,-94.3396226415094,4,1,1,75,0,0
115624,-93.4579439252336,4,1,1,75,0,0
115816,-91.743119266055,4,1,1,75,0,0
115913,-90.9090909090909,4,1,1,75,0,0
116105,-88.4955752212389,4,1,1,75,0,0
116201,-87.719298245614,4,1,1,75,0,0
116299,-86.9565217391304,4,1,1,75,0,1
129376,-86.9565217391304,4,1,1,75,0,0
130143,-95.2380952380952,4,1,1,75,0,0
136201,-97.0873786407767,4,1,1,75,0,0
136393,-100,4,1,1,75,0,0
147066,-101.010101010101,4,1,1,75,0,0
147163,-102.040816326531,4,1,1,75,0,0
147259,-103.092783505155,4,1,1,75,0,0
147451,-105.263157894737,4,1,1,75,0,0
147739,-108.695652173913,4,1,1,75,0,0
147836,-109.89010989011,4,1,1,75,0,0
148028,-114.942528735632,4,1,1,75,0,0
148220,-119.047619047619,4,1,1,75,0,0
148316,-120.481927710843,4,1,1,75,0,0
148413,-121.951219512195,4,1,1,75,0,0
148605,-125,4,1,1,65,0,0
171682,-123.456790123457,4,1,1,75,0,0
171874,-121.951219512195,4,1,1,75,0,0
172066,-120.481927710843,4,1,1,75,0,0
172259,-119.047619047619,4,1,1,75,0,0
172451,-117.647058823529,4,1,1,75,0,0
172643,-116.279069767442,4,1,1,75,0,0
172836,-114.942528735632,4,1,1,75,0,0
173028,-113.636363636364,4,1,1,75,0,0
173220,-112.359550561798,4,1,1,75,0,0
173413,-111.111111111111,4,1,1,75,0,0
173509,-110.497237569061,4,1,1,75,0,0
173605,-109.89010989011,4,1,1,75,0,0
173797,-108.695652173913,4,1,1,75,0,0
173989,-107.52688172043,4,1,1,75,0,0
174182,-106.382978723404,4,1,1,75,0,0
174278,-105.820105820106,4,1,1,75,0,0
174374,-105.263157894737,4,1,1,75,0,0
174566,-104.166666666667,4,1,1,75,0,0
174759,-103.092783505155,4,1,1,75,0,0
174855,-102.564102564103,4,1,1,75,0,0
174951,-102.040816326531,4,1,1,75,0,0
175047,-101.522842639594,4,1,1,75,0,0
175143,-101.010101010101,4,1,1,75,0,0
175239,-100.502512562814,4,1,1,75,0,0
175336,-100,4,1,1,75,0,0
175432,-99.502487562189,4,1,1,75,0,0
175528,-99.009900990099,4,1,1,75,0,0
176297,-95.2380952380952,4,1,1,75,0,0
188316,-96.1538461538461,4,1,1,75,0,0
188413,-97.0873786407767,4,1,1,75,0,0
188509,-98.0392156862745,4,1,1,75,0,0
188607,384.615384615385,3,1,1,75,1,0
188607,-99.009900990099,3,1,1,75,0,0
188991,-133.333333333333,3,1,1,60,0,0
205912,-129.87012987013,3,1,1,65,0,0
206489,-125,3,1,1,65,0,0
207068,384.615384615385,3,1,1,65,1,8
207068,-117.647058823529,3,1,1,65,0,0
207194,-113.636363636364,3,1,1,65,0,0
207322,-111.111111111111,3,1,1,65,0,0
207451,-108.695652173913,3,1,1,65,0,0
207579,-106.382978723404,3,1,1,65,0,0
207707,-104.166666666667,3,1,1,65,0,0
207837,384.615384615385,4,1,1,65,1,0
207837,-102.040816326531,4,1,1,65,0,0
207963,-100,4,1,1,75,0,0
208090,-98.0392156862745,4,1,1,75,0,0
208218,-96.1538461538461,4,1,1,75,0,0
209471,-100,4,1,1,75,0,0
217452,-111.111111111111,4,1,1,75,0,0
217835,-125,4,1,1,75,0,0
218604,-117.647058823529,4,1,1,75,0,0
218988,-114.942528735632,4,1,1,75,0,0
219181,-111.111111111111,4,1,1,75,0,0
219373,-113.636363636364,4,1,1,75,0,0
219565,-112.359550561798,4,1,1,75,0,0
219758,-105.263157894737,4,1,1,75,0,0
219950,-111.111111111111,4,1,1,75,0,0
220142,-103.092783505155,4,1,1,75,0,0
220527,-105.263157894737,4,1,1,75,0,0
220911,-100,4,1,1,75,0,0
231104,-117.647058823529,4,1,1,75,0,0
231488,-114.942528735632,4,1,1,75,0,0
231681,-112.359550561798,4,1,1,75,0,0
231873,-105.263157894737,4,1,1,75,0,0
232354,-100,4,1,1,75,0,0
232642,-99.009900990099,4,1,1,75,0,0
232738,-98.0392156862745,4,1,1,75,0,0
232835,-97.0873786407767,4,1,1,75,0,0
232931,-96.1538461538461,4,1,1,75,0,0
233123,-95.2380952380952,4,1,1,75,0,0
233219,-94.3396226415094,4,1,1,75,0,0
233411,-93.4579439252336,4,1,1,75,0,0
233508,-92.5925925925926,4,1,1,75,0,0
233604,-91.743119266055,4,1,1,75,0,0
233700,-90.9090909090909,4,1,1,75,0,0
233796,-90.0900900900901,4,1,1,75,0,0
233892,-89.2857142857143,4,1,1,75,0,0
233988,-88.4955752212389,4,1,1,75,0,0
234085,-87.719298245614,4,1,1,75,0,0
234181,-86.9565217391304,4,1,1,75,0,0
234277,-86.2068965517241,4,1,1,75,0,0
234373,-85.4700854700855,4,1,1,75,0,0
234469,-84.7457627118644,4,1,1,75,0,0
234565,-84.0336134453781,4,1,1,75,0,0
234661,-83.3333333333333,4,1,1,75,0,0
234758,-82.6446280991736,4,1,1,75,0,0
234854,-81.9672131147541,4,1,1,75,0,0
234950,-81.3008130081301,4,1,1,75,0,0
235046,-80.6451612903226,4,1,1,75,0,0
235142,-80,4,1,1,75,0,0
235238,-80.6451612903226,4,1,1,75,0,0
235335,-81.3008130081301,4,1,1,75,0,0
235431,-81.9672131147541,4,1,1,75,0,0
235527,-82.6446280991736,4,1,1,75,0,0
237065,-100,4,1,1,75,0,0
237738,-101.010101010101,4,1,1,75,0,0
237835,-102.040816326531,4,1,1,75,0,0
238027,-104.166666666667,4,1,1,75,0,0
238219,-106.382978723404,4,1,1,75,0,0
238315,-107.52688172043,4,1,1,75,0,0
238411,-108.695652173913,4,1,1,75,0,0
238508,-109.89010989011,4,1,1,75,0,0
238604,-111.111111111111,4,1,1,75,0,0
238988,-113.636363636364,4,1,1,65,0,0
239758,-116.279069767442,4,1,1,65,0,0
240817,-119.047619047619,4,1,1,65,0,0
241058,-120.481927710843,4,1,1,65,0,0
241250,-121.951219512195,4,1,1,65,0,0
241587,-125,4,1,1,65,0,0
242308,-128.205128205128,4,1,1,65,0,0
243173,-131.578947368421,4,1,1,65,0,0
243462,-133.333333333333,4,1,1,65,0,0
243750,-135.135135135135,4,1,1,65,0,0
243942,-136.986301369863,4,1,1,65,0,0
244327,-142.857142857143,4,1,1,65,0,0
244661,-117.647058823529,4,1,1,75,0,0
247738,-111.111111111111,4,1,1,75,0,0
248219,-109.89010989011,4,1,1,75,0,0
248315,-105.263157894737,4,1,1,75,0,0
248508,-108.695652173913,4,1,1,75,0,0
248892,-103.092783505155,4,1,1,75,0,0
249085,-105.263157894737,4,1,1,75,0,0
249277,-100,4,1,1,75,0,0
249469,-104.166666666667,4,1,1,75,0,0
249661,-103.092783505155,4,1,1,75,0,0
249854,-98.0392156862745,4,1,1,75,0,0
250046,-102.040816326531,4,1,1,75,0,0
250238,-101.010101010101,4,1,1,75,0,0
250431,-100,4,1,1,75,0,0
251488,-99.009900990099,4,1,1,75,0,0
251585,-98.0392156862745,4,1,1,75,0,0
251681,-97.0873786407767,4,1,1,75,0,0
251777,-96.1538461538461,4,1,1,75,0,0
251873,-95.2380952380952,4,1,1,75,0,0
251969,-94.3396226415094,4,1,1,75,0,0
252065,-93.4579439252336,4,1,1,75,0,0
252258,-92.5925925925926,4,1,1,75,0,0
252354,-91.743119266055,4,1,1,75,0,0
252452,-90.9090909090909,4,1,1,75,0,1
265529,-90.9090909090909,4,1,1,75,0,0
271440,-91.743119266055,4,1,1,75,0,0
271536,-92.5925925925926,4,1,1,75,0,0
271633,-93.4579439252336,4,1,1,75,0,0
271825,-94.3396226415094,4,1,1,75,0,0
271921,-95.2380952380952,4,1,1,75,0,0
272017,-96.1538461538461,4,1,1,75,0,0
272210,-97.0873786407767,4,1,1,75,0,0
272306,-98.0392156862745,4,1,1,75,0,0
272402,-99.009900990099,4,1,1,75,0,0
272644,-100,4,1,1,75,0,0

[Colours]
Combo1 : 202,143,231
Combo2 : 121,131,244
Combo3 : 121,244,131
Combo4 : 253,157,157

[HitObjects]
400,120,12343,5,0,0:0:0:0:
400,120,13056,1,0,0:0:0:0:
400,120,13772,1,0,0:0:0:0:
400,120,14486,1,0,0:0:0:0:
400,120,14843,1,2,0:0:0:0:
400,120,15200,1,2,0:0:0:0:
400,120,15556,1,0,0:0:0:0:
400,120,16272,1,2,0:0:0:0:
400,120,16629,1,2,0:0:0:0:
400,120,17343,1,0,0:0:0:0:
400,120,18056,1,0,0:0:0:0:
400,120,18772,1,0,0:0:0:0:
400,120,19129,1,2,0:0:0:0:
400,120,19486,1,2,0:0:0:0:
400,120,20200,1,2,0:0:0:0:
400,120,20556,1,2,0:0:0:0:
400,120,20913,1,0,0:0:0:0:
400,120,21629,1,0,0:0:0:0:
392,120,21985,1,2,0:0:0:0:
392,120,22105,1,2,0:0:0:0:
392,120,22224,1,2,0:0:0:0:
392,120,22343,1,2,0:0:0:0:
392,120,22700,1,0,0:0:0:0:
416,120,23056,1,2,0:0:0:0:
416,120,23413,1,0,0:0:0:0:
416,120,23772,1,2,0:0:0:0:
416,120,24843,1,2,0:0:0:0:
416,120,25200,1,2,0:0:0:0:
416,120,25913,1,0,0:0:0:0:
416,120,26272,1,0,0:0:0:0:
416,120,26629,1,2,0:0:0:0:
416,120,26985,1,2,0:0:0:0:
416,120,27700,1,2,0:0:0:0:
416,120,28056,1,0,0:0:0:0:
408,112,28413,1,2,0:0:0:0:
408,112,28772,1,2,0:0:0:0:
408,112,29486,1,0,0:0:0:0:
416,112,30200,1,0,0:0:0:0:
416,112,30556,1,0,0:0:0:0:
416,112,30915,1,2,0:0:0:0:
416,128,31725,1,0,0:0:0:0:
416,128,32131,1,2,0:0:0:0:
400,128,32536,1,2,0:0:0:0:
256,192,32873,12,0,37520,0:0:0:0:
384,152,37942,5,2,0:0:0:0:
456,104,40915,1,8,0:0:0:0:
456,104,41011,1,0,0:0:0:0:
456,104,41107,1,0,0:0:0:0:
480,104,41299,1,8,0:0:0:0:
456,104,41491,1,0,0:0:0:0:
456,104,41587,1,0,0:0:0:0:
464,112,41684,1,8,0:0:0:0:
480,112,41972,1,8,0:0:0:0:
465,115,42068,1,0,0:0:0:0:
480,112,42261,1,0,0:0:0:0:
480,112,42357,1,0,0:0:0:0:
480,112,42453,1,8,0:0:0:0:
464,112,42645,1,0,0:0:0:0:
480,112,42838,1,8,0:0:0:0:
480,112,43030,1,0,0:0:0:0:
480,112,43222,1,8,0:0:0:0:
480,112,43415,1,0,0:0:0:0:
480,112,43607,1,8,0:0:0:0:
480,112,43799,1,8,0:0:0:0:
480,112,44184,1,0,0:0:0:0:
480,112,44376,1,8,0:0:0:0:
442,100,44568,1,0,0:0:0:0:
442,100,44665,1,0,0:0:0:0:
442,100,44761,1,8,0:0:0:0:
480,112,44953,1,0,0:0:0:0:
480,112,45145,1,8,0:0:0:0:
463,114,45241,1,0,0:0:0:0:
480,112,45338,1,8,0:0:0:0:
480,112,45530,1,0,0:0:0:0:
480,112,45915,1,8,0:0:0:0:
480,112,46107,1,0,0:0:0:0:
459,106,46203,1,0,0:0:0:0:
480,112,46299,1,8,0:0:0:0:
480,112,46491,1,0,0:0:0:0:
480,112,46684,1,8,0:0:0:0:
480,112,46876,1,8,0:0:0:0:
480,112,47261,1,0,0:0:0:0:
480,112,47453,1,8,0:0:0:0:
480,112,47645,1,0,0:0:0:0:
480,112,47741,1,8,0:0:0:0:
480,112,47838,1,0,0:0:0:0:
480,112,48030,1,0,0:0:0:0:
480,112,48222,1,8,0:0:0:0:
480,112,48318,1,0,0:0:0:0:
480,112,48415,1,0,0:0:0:0:
480,112,48607,1,8,0:0:0:0:
464,104,48799,1,0,0:0:0:0:
464,104,48991,1,8,0:0:0:0:
464,104,49184,1,0,0:0:0:0:
464,104,49280,1,0,0:0:0:0:
464,104,49376,1,8,0:0:0:0:
464,104,49568,1,0,0:0:0:0:
464,104,49761,1,8,0:0:0:0:
464,104,49953,1,8,0:0:0:0:
464,104,50338,1,0,0:0:0:0:
464,104,50530,1,8,0:0:0:0:
464,104,50722,1,0,0:0:0:0:
464,104,50818,1,8,0:0:0:0:
464,104,50915,1,0,0:0:0:0:
464,104,51107,1,0,0:0:0:0:
464,104,51299,1,8,0:0:0:0:
464,104,51395,1,8,0:0:0:0:
464,104,51491,1,0,0:0:0:0:
464,104,51684,1,8,0:0:0:0:
439,99,51876,1,0,0:0:0:0:
464,104,52068,1,8,0:0:0:0:
464,104,52261,1,0,0:0:0:0:
464,104,52357,1,8,0:0:0:0:
464,104,52453,1,0,0:0:0:0:
464,104,52645,1,0,0:0:0:0:
464,104,52838,1,8,0:0:0:0:
464,104,53030,1,0,0:0:0:0:
464,104,53415,1,0,0:0:0:0:
464,104,53607,1,8,0:0:0:0:
464,104,53799,1,8,0:0:0:0:
464,104,53991,1,0,0:0:0:0:
464,112,54184,1,0,0:0:0:0:
464,112,54280,1,8,0:0:0:0:
464,112,54376,1,8,0:0:0:0:
464,112,54568,1,8,0:0:0:0:
464,112,54665,1,8,0:0:0:0:
464,112,54761,1,0,0:0:0:0:
459,105,54953,1,8,0:0:0:0:
459,105,55049,1,0,0:0:0:0:
459,105,55145,1,8,0:0:0:0:
459,105,55338,1,0,0:0:0:0:
459,105,55530,1,8,0:0:0:0:
459,105,55915,1,0,0:0:0:0:
459,105,56107,1,8,0:0:0:0:
459,105,56491,1,0,0:0:0:0:
459,105,56684,1,8,0:0:0:0:
459,105,56876,1,8,0:0:0:0:
459,105,57068,1,0,0:0:0:0:
459,105,57453,1,8,0:0:0:0:
459,105,57645,1,0,0:0:0:0:
459,105,57741,1,8,0:0:0:0:
459,105,57838,1,8,0:0:0:0:
459,105,58222,1,8,0:0:0:0:
459,105,58415,1,8,0:0:0:0:
459,105,58607,1,0,0:0:0:0:
459,105,58991,1,0,0:0:0:0:
459,105,59184,1,0,0:0:0:0:
459,105,59376,1,8,0:0:0:0:
459,105,59665,1,8,0:0:0:0:
459,105,59761,1,0,0:0:0:0:
459,105,59953,1,8,0:0:0:0:
459,105,60145,1,0,0:0:0:0:
469,104,60338,1,0,0:0:0:0:
469,104,60434,1,0,0:0:0:0:
469,104,60530,1,8,0:0:0:0:
459,105,60722,1,8,0:0:0:0:
459,105,60818,1,8,0:0:0:0:
459,105,60915,1,0,0:0:0:0:
459,105,61107,1,8,0:0:0:0:
458,110,61203,1,0,0:0:0:0:
458,110,61299,1,8,0:0:0:0:
458,110,61491,1,8,0:0:0:0:
459,105,61684,1,0,0:0:0:0:
459,105,61876,1,0,0:0:0:0:
459,105,62068,1,8,0:0:0:0:
458,110,62261,1,0,0:0:0:0:
459,105,62645,1,0,0:0:0:0:
459,105,62838,1,8,0:0:0:0:
459,105,63030,1,8,0:0:0:0:
462,110,63126,1,8,0:0:0:0:
458,110,63222,1,8,0:0:0:0:
462,110,63415,1,0,0:0:0:0:
462,110,63607,1,8,0:0:0:0:
462,110,63799,1,8,0:0:0:0:
462,110,63895,1,8,0:0:0:0:
462,110,63991,1,0,0:0:0:0:
462,110,64376,1,8,0:0:0:0:
462,110,64568,1,0,0:0:0:0:
462,110,64761,1,0,0:0:0:0:
462,110,64953,1,0,0:0:0:0:
458,110,65145,1,8,0:0:0:0:
462,110,65338,1,0,0:0:0:0:
462,110,65530,1,0,0:0:0:0:
462,110,65915,1,8,0:0:0:0:
458,110,66107,1,0,0:0:0:0:
454,104,66203,1,8,0:0:0:0:
462,110,66299,1,0,0:0:0:0:
454,104,66491,1,0,0:0:0:0:
453,104,66684,1,8,0:0:0:0:
454,104,66876,1,0,0:0:0:0:
458,110,66972,1,8,0:0:0:0:
458,110,67068,1,0,0:0:0:0:
454,112,67165,1,0,0:0:0:0:
454,112,67261,1,8,0:0:0:0:
454,112,67453,1,8,0:0:0:0:
449,112,67645,1,8,0:0:0:0:
421,106,67741,1,8,0:0:0:0:
449,112,67838,1,0,0:0:0:0:
431,113,68030,1,8,0:0:0:0:
431,113,68222,1,8,0:0:0:0:
432,120,68318,1,0,0:0:0:0:
431,113,68415,1,0,0:0:0:0:
433,112,68511,1,0,0:0:0:0:
441,103,68607,1,8,0:0:0:0:
448,119,68895,1,8,0:0:0:0:
448,119,69184,1,8,0:0:0:0:
437,121,69376,1,0,0:0:0:0:
456,125,69472,1,8,0:0:0:0:
437,121,69665,1,0,0:0:0:0:
456,125,69761,1,8,0:0:0:0:
437,121,69953,1,8,0:0:0:0:
456,125,70049,1,8,0:0:0:0:
437,121,70145,1,0,0:0:0:0:
430,124,70434,1,8,0:0:0:0:
430,124,70722,1,8,0:0:0:0:
430,124,70915,1,0,0:0:0:0:
430,124,71011,1,8,0:0:0:0:
430,124,71203,1,0,0:0:0:0:
430,124,71299,1,8,0:0:0:0:
430,124,71491,1,8,0:0:0:0:
430,124,71588,1,8,0:0:0:0:
430,124,71684,1,0,0:0:0:0:
430,124,71972,1,8,0:0:0:0:
430,124,72261,1,8,0:0:0:0:
430,124,72453,1,0,0:0:0:0:
430,124,72549,1,8,0:0:0:0:
430,124,72741,1,0,0:0:0:0:
430,124,72838,1,8,0:0:0:0:
430,124,73030,1,8,0:0:0:0:
430,124,73126,1,8,0:0:0:0:
430,124,73222,1,0,0:0:0:0:
430,124,73511,1,8,0:0:0:0:
430,124,73799,1,8,0:0:0:0:
430,124,73991,1,0,0:0:0:0:
430,124,74088,1,8,0:0:0:0:
430,124,74184,1,0,0:0:0:0:
430,124,74376,1,8,0:0:0:0:
430,124,74568,1,8,0:0:0:0:
430,124,74665,1,8,0:0:0:0:
430,124,74761,1,0,0:0:0:0:
430,124,74953,1,0,0:0:0:0:
430,124,75145,1,8,0:0:0:0:
393,112,75338,1,0,0:0:0:0:
430,124,75434,1,8,0:0:0:0:
430,124,75530,1,0,0:0:0:0:
430,124,75722,1,8,0:0:0:0:
430,124,75915,1,8,0:0:0:0:
430,124,76107,1,0,0:0:0:0:
430,124,76491,1,0,0:0:0:0:
430,124,76684,1,8,0:0:0:0:
430,124,76876,1,8,0:0:0:0:
430,124,76972,1,8,0:0:0:0:
430,124,77068,1,0,0:0:0:0:
434,126,77261,1,0,0:0:0:0:
434,126,77453,1,8,0:0:0:0:
434,126,77645,1,8,0:0:0:0:
394,116,77741,1,0,0:0:0:0:
435,127,77838,1,0,0:0:0:0:
436,127,78030,1,0,0:0:0:0:
436,128,78222,1,8,0:0:0:0:
434,126,78415,1,8,0:0:0:0:
416,125,78511,1,8,0:0:0:0:
434,126,78607,1,0,0:0:0:0:
435,127,78799,1,0,0:0:0:0:
436,127,78991,1,8,0:0:0:0:
436,128,79184,1,0,0:0:0:0:
434,126,79568,1,8,0:0:0:0:
435,127,79761,1,8,0:0:0:0:
436,127,79953,1,0,0:0:0:0:
436,128,80049,1,8,0:0:0:0:
436,128,80145,1,0,0:0:0:0:
428,133,80338,1,0,0:0:0:0:
434,126,80530,1,8,0:0:0:0:
435,127,80722,1,8,0:0:0:0:
435,127,80818,1,8,0:0:0:0:
436,127,80915,1,0,0:0:0:0:
436,128,81107,1,0,0:0:0:0:
438,130,81299,1,8,0:0:0:0:
438,130,81491,1,0,0:0:0:0:
438,130,81588,1,8,0:0:0:0:
435,127,81684,1,0,0:0:0:0:
435,127,81876,1,0,0:0:0:0:
436,128,82068,1,8,0:0:0:0:
438,130,82261,1,0,0:0:0:0:
438,130,82645,1,0,0:0:0:0:
439,131,82838,1,8,0:0:0:0:
415,113,83030,1,0,0:0:0:0:
423,121,83126,1,0,0:0:0:0:
438,130,83222,1,0,0:0:0:0:
438,130,83415,1,8,0:0:0:0:
438,130,83607,1,8,0:0:0:0:
439,131,83799,1,0,0:0:0:0:
441,132,83895,1,8,0:0:0:0:
440,132,83991,1,0,0:0:0:0:
438,130,84184,1,0,0:0:0:0:
438,130,84376,1,8,0:0:0:0:
438,130,84568,1,8,0:0:0:0:
439,131,84665,1,8,0:0:0:0:
439,131,84761,1,0,0:0:0:0:
450,132,84953,1,8,0:0:0:0:
447,129,85145,1,8,0:0:0:0:
448,130,85338,1,4,0:0:0:0:
448,130,85722,1,0,0:0:0:0:
450,132,85915,1,8,0:0:0:0:
448,130,86299,1,8,0:0:0:0:
448,130,86491,1,8,0:0:0:0:
448,130,86684,1,8,0:0:0:0:
447,129,87068,1,4,0:0:0:0:
439,126,87453,1,0,0:0:0:0:
439,126,87838,1,8,0:0:0:0:
440,137,88222,1,8,0:0:0:0:
439,126,88415,1,0,0:0:0:0:
438,125,88991,1,0,0:0:0:0:
439,126,89376,1,8,0:0:0:0:
439,126,89665,1,8,0:0:0:0:
438,125,89953,1,8,0:0:0:0:
439,126,90145,1,0,0:0:0:0:
439,126,90530,1,0,0:0:0:0:
438,125,90915,1,8,0:0:0:0:
439,126,91299,1,0,0:0:0:0:
439,126,91491,1,0,0:0:0:0:
453,131,91684,1,8,0:0:0:0:
453,131,92068,1,0,0:0:0:0:
453,131,92453,1,8,0:0:0:0:
453,131,92741,1,0,0:0:0:0:
453,131,93030,1,0,0:0:0:0:
453,131,93222,1,8,0:0:0:0:
453,131,93607,1,0,0:0:0:0:
453,121,93799,1,0,0:0:0:0:
453,131,93991,1,8,0:0:0:0:
453,131,94376,1,0,0:0:0:0:
453,131,94568,1,0,0:0:0:0:
453,131,94761,1,8,0:0:0:0:
453,131,95145,1,0,0:0:0:0:
453,131,95530,1,8,0:0:0:0:
453,131,95915,1,0,0:0:0:0:
453,131,96299,1,4,0:0:0:0:
444,126,96684,1,0,0:0:0:0:
445,126,97068,1,8,0:0:0:0:
438,127,97453,1,8,0:0:0:0:
429,128,97645,1,0,0:0:0:0:
429,128,98030,1,8,0:0:0:0:
429,128,98222,1,0,0:0:0:0:
446,120,98607,1,8,0:0:0:0:
446,120,98991,1,8,0:0:0:0:
447,118,99184,1,0,0:0:0:0:
446,120,99376,1,4,0:0:0:0:
446,120,99761,1,0,0:0:0:0:
446,120,100145,1,8,0:0:0:0:
446,120,100530,1,8,0:0:0:0:
446,120,100722,1,0,0:0:0:0:
446,120,100915,1,0,0:0:0:0:
440,122,101299,1,0,0:0:0:0:
440,122,101684,1,8,0:0:0:0:
431,122,102068,1,8,0:0:0:0:
432,123,102261,1,0,0:0:0:0:
432,123,102453,1,0,0:0:0:0:
450,122,102838,1,0,0:0:0:0:
445,123,103222,1,8,0:0:0:0:
450,122,103607,1,0,0:0:0:0:
450,122,103799,1,8,0:0:0:0:
444,123,103991,1,0,0:0:0:0:
444,123,104376,1,0,0:0:0:0:
444,123,104761,1,8,0:0:0:0:
444,123,105145,1,0,0:0:0:0:
444,123,105530,1,12,0:0:0:0:
436,129,105915,1,0,0:0:0:0:
436,129,106299,1,8,0:0:0:0:
436,129,106684,1,0,0:0:0:0:
413,137,106876,1,0,0:0:0:0:
436,129,107068,1,0,0:0:0:0:
421,121,107453,1,0,0:0:0:0:
421,121,107838,1,8,0:0:0:0:
431,122,108030,1,0,0:0:0:0:
420,130,108222,1,0,0:0:0:0:
420,131,108607,1,4,0:0:0:0:
403,135,108991,1,0,0:0:0:0:
403,135,109376,1,8,0:0:0:0:
403,135,109761,1,0,0:0:0:0:
403,135,109953,1,8,0:0:0:0:
403,135,110145,1,0,0:0:0:0:
403,135,110530,1,0,0:0:0:0:
403,135,110722,1,0,0:0:0:0:
403,135,110915,1,8,0:0:0:0:
403,135,111107,1,0,0:0:0:0:
403,135,111299,1,8,0:0:0:0:
403,135,111491,1,8,0:0:0:0:
403,135,111684,1,0,0:0:0:0:
403,135,111876,1,0,0:0:0:0:
377,120,112068,1,0,0:0:0:0:
403,135,112261,1,0,0:0:0:0:
403,135,112453,1,8,0:0:0:0:
403,135,112741,1,8,0:0:0:0:
403,135,112838,1,8,0:0:0:0:
403,135,113030,1,0,0:0:0:0:
403,135,113222,1,8,0:0:0:0:
256,192,113415,12,0,114761,0:0:0:0:
403,135,114953,5,8,0:0:0:0:
403,135,115049,1,8,0:0:0:0:
403,135,115145,1,8,0:0:0:0:
403,135,115338,1,0,0:0:0:0:
403,135,115530,1,8,0:0:0:0:
403,135,115626,1,0,0:0:0:0:
403,135,115818,1,8,0:0:0:0:
403,135,115915,1,0,0:0:0:0:
403,135,116107,1,0,0:0:0:0:
403,135,116299,1,12,0:0:0:0:
403,135,116491,1,8,0:0:0:0:
403,135,116588,1,8,0:0:0:0:
403,135,116684,1,0,0:0:0:0:
403,135,116876,1,8,0:0:0:0:
403,135,117068,1,8,0:0:0:0:
403,135,117261,1,0,0:0:0:0:
403,135,117453,1,8,0:0:0:0:
403,135,117645,1,0,0:0:0:0:
403,135,118030,1,0,0:0:0:0:
403,135,118222,1,8,0:0:0:0:
403,135,118415,1,0,0:0:0:0:
403,135,118607,1,0,0:0:0:0:
405,139,118991,1,8,0:0:0:0:
405,139,119184,1,8,0:0:0:0:
390,151,119280,1,8,0:0:0:0:
406,140,119376,1,0,0:0:0:0:
385,142,119568,1,8,0:0:0:0:
390,151,119761,1,8,0:0:0:0:
391,152,119953,1,0,0:0:0:0:
389,142,120049,1,8,0:0:0:0:
391,152,120145,1,8,0:0:0:0:
391,152,120338,1,0,0:0:0:0:
390,151,120530,1,8,0:0:0:0:
390,151,120722,1,0,0:0:0:0:
391,152,120915,1,8,0:0:0:0:
391,152,121107,1,0,0:0:0:0:
391,152,121203,1,8,0:0:0:0:
391,152,121299,1,8,0:0:0:0:
390,151,121491,1,8,0:0:0:0:
381,163,121588,1,8,0:0:0:0:
390,151,121684,1,0,0:0:0:0:
391,152,121876,1,0,0:0:0:0:
391,152,122068,1,8,0:0:0:0:
391,152,122261,1,8,0:0:0:0:
390,151,122357,1,8,0:0:0:0:
390,151,122453,1,0,0:0:0:0:
366,150,122645,1,0,0:0:0:0:
366,150,122741,1,0,0:0:0:0:
366,150,122838,1,8,0:0:0:0:
367,150,123030,1,0,0:0:0:0:
377,147,123126,1,8,0:0:0:0:
367,150,123222,1,0,0:0:0:0:
374,144,123415,1,0,0:0:0:0:
374,144,123607,1,8,0:0:0:0:
381,152,123799,1,8,0:0:0:0:
376,152,124184,1,0,0:0:0:0:
376,153,124376,1,8,0:0:0:0:
376,153,124568,1,0,0:0:0:0:
381,152,124665,1,8,0:0:0:0:
381,152,124761,1,0,0:0:0:0:
381,152,124953,1,8,0:0:0:0:
376,152,125145,1,8,0:0:0:0:
385,166,125338,1,8,0:0:0:0:
385,166,125434,1,8,0:0:0:0:
385,166,125530,1,0,0:0:0:0:
357,168,125915,1,8,0:0:0:0:
357,167,126107,1,0,0:0:0:0:
357,165,126203,1,8,0:0:0:0:
357,167,126299,1,0,0:0:0:0:
368,171,126491,1,0,0:0:0:0:
368,171,126684,1,8,0:0:0:0:
357,168,126876,1,0,0:0:0:0:
366,169,127068,1,8,0:0:0:0:
364,176,127261,1,8,0:0:0:0:
365,176,127453,1,0,0:0:0:0:
368,171,127645,1,0,0:0:0:0:
368,171,127741,1,8,0:0:0:0:
364,169,127838,1,0,0:0:0:0:
377,171,128030,1,0,0:0:0:0:
378,171,128222,1,8,0:0:0:0:
378,171,128511,1,8,0:0:0:0:
378,171,128607,1,0,0:0:0:0:
378,171,128799,1,8,0:0:0:0:
377,171,128895,1,0,0:0:0:0:
377,171,128991,1,8,0:0:0:0:
377,171,129088,1,0,0:0:0:0:
378,171,129184,1,0,0:0:0:0:
378,171,129280,1,0,0:0:0:0:
378,171,129376,1,8,0:0:0:0:
441,103,130145,1,4,0:0:0:0:
448,119,130433,1,8,0:0:0:0:
448,119,130722,1,8,0:0:0:0:
448,119,130914,1,0,0:0:0:0:
456,125,131010,1,8,0:0:0:0:
437,121,131203,1,0,0:0:0:0:
456,125,131299,1,8,0:0:0:0:
437,121,131491,1,8,0:0:0:0:
456,125,131587,1,8,0:0:0:0:
437,121,131683,1,0,0:0:0:0:
430,124,131972,1,8,0:0:0:0:
430,124,132260,1,8,0:0:0:0:
430,124,132453,1,0,0:0:0:0:
430,124,132549,1,8,0:0:0:0:
430,124,132741,1,0,0:0:0:0:
430,124,132837,1,8,0:0:0:0:
430,124,133029,1,8,0:0:0:0:
430,124,133126,1,8,0:0:0:0:
430,124,133222,1,8,0:0:0:0:
430,124,133510,1,8,0:0:0:0:
430,124,133799,1,8,0:0:0:0:
430,124,133991,1,0,0:0:0:0:
430,124,134087,1,8,0:0:0:0:
430,124,134279,1,0,0:0:0:0:
430,124,134376,1,8,0:0:0:0:
430,124,134568,1,8,0:0:0:0:
430,124,134664,1,8,0:0:0:0:
430,124,134760,1,0,0:0:0:0:
430,124,134857,1,0,0:0:0:0:
430,124,134953,1,0,0:0:0:0:
411,131,135049,1,0,0:0:0:0:
430,124,135145,1,8,0:0:0:0:
430,124,135337,1,8,0:0:0:0:
430,124,135529,1,0,0:0:0:0:
430,124,135626,1,8,0:0:0:0:
430,124,135722,1,0,0:0:0:0:
430,124,135818,1,0,0:0:0:0:
430,124,135915,1,8,0:0:0:0:
430,124,136011,1,0,0:0:0:0:
400,100,136107,1,0,0:0:0:0:
430,124,136299,1,0,0:0:0:0:
416,112,136684,1,8,0:0:0:0:
413,103,136972,1,8,0:0:0:0:
414,108,137068,1,0,0:0:0:0:
417,101,137165,1,0,0:0:0:0:
417,101,137261,1,0,0:0:0:0:
417,101,137453,1,0,0:0:0:0:
417,101,137645,1,0,0:0:0:0:
412,101,137741,1,8,0:0:0:0:
412,101,137838,1,0,0:0:0:0:
417,101,138030,1,0,0:0:0:0:
416,105,138222,1,0,0:0:0:0:
417,101,138511,1,8,0:0:0:0:
417,101,138607,1,0,0:0:0:0:
412,101,138703,1,0,0:0:0:0:
412,101,138799,1,0,0:0:0:0:
417,101,138991,1,8,0:0:0:0:
416,105,139184,1,0,0:0:0:0:
417,101,139280,1,0,0:0:0:0:
417,101,139376,1,0,0:0:0:0:
417,101,139568,1,0,0:0:0:0:
412,101,139761,1,8,0:0:0:0:
417,99,140049,1,8,0:0:0:0:
417,99,140145,1,0,0:0:0:0:
417,99,140241,1,0,0:0:0:0:
417,101,140338,1,0,0:0:0:0:
417,101,140530,1,8,0:0:0:0:
412,101,140722,1,0,0:0:0:0:
417,98,140818,1,0,0:0:0:0:
417,101,140915,1,0,0:0:0:0:
417,99,141107,1,0,0:0:0:0:
417,99,141299,1,8,0:0:0:0:
417,101,141491,1,0,0:0:0:0:
417,101,141588,1,0,0:0:0:0:
417,98,141684,1,0,0:0:0:0:
417,101,141876,1,8,0:0:0:0:
417,99,141972,1,8,0:0:0:0:
417,99,142068,1,8,0:0:0:0:
417,99,142165,1,8,0:0:0:0:
417,99,142261,1,0,0:0:0:0:
417,99,142453,1,0,0:0:0:0:
417,98,142645,1,0,0:0:0:0:
417,98,142838,1,8,0:0:0:0:
417,99,143030,1,0,0:0:0:0:
417,99,143126,1,8,0:0:0:0:
417,99,143222,1,0,0:0:0:0:
417,101,143415,1,8,0:0:0:0:
417,98,143607,1,8,0:0:0:0:
417,98,143799,1,0,0:0:0:0:
409,104,144184,1,0,0:0:0:0:
409,104,144280,1,0,0:0:0:0:
409,104,144376,1,8,0:0:0:0:
409,104,144568,1,0,0:0:0:0:
409,104,144761,1,0,0:0:0:0:
404,97,144953,1,0,0:0:0:0:
404,97,145145,1,8,0:0:0:0:
399,94,145338,1,8,0:0:0:0:
399,94,145434,1,8,0:0:0:0:
399,94,145530,1,0,0:0:0:0:
418,103,145722,1,0,0:0:0:0:
417,102,145915,1,8,0:0:0:0:
388,94,146107,1,0,0:0:0:0:
390,91,146299,1,0,0:0:0:0:
386,91,146491,1,0,0:0:0:0:
388,94,146684,1,8,0:0:0:0:
392,82,146876,1,4,0:0:0:0:
398,95,147068,1,8,0:0:0:0:
398,95,147165,1,8,0:0:0:0:
398,95,147261,1,0,0:0:0:0:
398,95,147453,1,8,0:0:0:0:
426,120,147741,1,8,0:0:0:0:
426,120,147838,1,8,0:0:0:0:
439,131,148030,1,8,0:0:0:0:
439,131,148222,1,8,0:0:0:0:
446,138,148318,1,8,0:0:0:0:
446,138,148415,1,0,0:0:0:0:
447,129,148607,1,4,0:0:0:0:
439,126,148992,1,0,0:0:0:0:
439,126,149377,1,8,0:0:0:0:
440,137,149761,1,8,0:0:0:0:
439,126,149954,1,0,0:0:0:0:
438,125,150530,1,0,0:0:0:0:
439,126,150915,1,8,0:0:0:0:
439,126,151203,1,0,0:0:0:0:
438,125,151492,1,8,0:0:0:0:
439,126,151684,1,0,0:0:0:0:
439,126,152069,1,0,0:0:0:0:
438,125,152454,1,8,0:0:0:0:
448,122,152838,1,0,0:0:0:0:
439,126,153030,1,0,0:0:0:0:
453,131,153223,1,8,0:0:0:0:
453,131,153607,1,0,0:0:0:0:
453,131,153991,1,8,0:0:0:0:
453,131,154184,1,0,0:0:0:0:
453,131,154568,1,0,0:0:0:0:
453,131,154761,1,12,0:0:0:0:
453,131,155146,1,0,0:0:0:0:
453,131,155338,1,0,0:0:0:0:
453,131,155530,1,8,0:0:0:0:
453,131,155915,1,0,0:0:0:0:
453,131,156107,1,0,0:0:0:0:
453,131,156300,1,8,0:0:0:0:
453,131,156684,1,0,0:0:0:0:
453,131,157069,1,8,0:0:0:0:
453,131,157454,1,0,0:0:0:0:
453,131,157838,1,4,0:0:0:0:
444,126,158222,1,0,0:0:0:0:
445,126,158606,1,8,0:0:0:0:
438,127,158991,1,0,0:0:0:0:
429,128,159183,1,8,0:0:0:0:
434,124,159376,1,0,0:0:0:0:
429,128,159568,1,0,0:0:0:0:
429,128,159760,1,0,0:0:0:0:
446,120,160145,1,8,0:0:0:0:
446,120,160529,1,8,0:0:0:0:
446,120,160722,1,8,0:0:0:0:
446,120,160914,1,4,0:0:0:0:
446,120,161299,1,0,0:0:0:0:
446,120,161683,1,8,0:0:0:0:
446,120,162068,1,8,0:0:0:0:
446,120,162260,1,0,0:0:0:0:
446,120,162453,1,0,0:0:0:0:
440,122,162837,1,0,0:0:0:0:
440,122,163222,1,8,0:0:0:0:
436,114,163415,1,0,0:0:0:0:
431,122,163606,1,8,0:0:0:0:
432,123,163991,1,8,0:0:0:0:
450,122,164376,1,0,0:0:0:0:
445,123,164760,1,8,0:0:0:0:
450,122,165145,1,0,0:0:0:0:
450,122,165337,1,8,0:0:0:0:
444,123,165529,1,0,0:0:0:0:
444,123,165914,1,0,0:0:0:0:
444,123,166299,1,8,0:0:0:0:
436,114,166491,1,0,0:0:0:0:
444,123,166683,1,0,0:0:0:0:
444,123,167068,1,12,0:0:0:0:
436,129,167453,1,0,0:0:0:0:
436,129,167837,1,8,0:0:0:0:
436,129,168222,1,0,0:0:0:0:
434,112,168415,1,8,0:0:0:0:
436,129,168606,1,0,0:0:0:0:
421,121,168991,1,0,0:0:0:0:
421,121,169376,1,8,0:0:0:0:
428,106,169568,1,0,0:0:0:0:
420,130,169760,1,0,0:0:0:0:
420,131,170145,1,4,0:0:0:0:
403,135,170529,1,0,0:0:0:0:
403,135,170914,1,8,0:0:0:0:
403,135,171299,1,0,0:0:0:0:
403,135,171491,1,8,0:0:0:0:
403,135,171684,1,0,0:0:0:0:
403,135,172068,1,0,0:0:0:0:
403,135,172261,1,0,0:0:0:0:
403,135,172453,1,8,0:0:0:0:
403,135,172645,1,8,0:0:0:0:
403,135,172838,1,8,0:0:0:0:
403,135,173030,1,0,0:0:0:0:
403,135,173222,1,8,0:0:0:0:
403,135,173415,1,0,0:0:0:0:
403,135,173511,1,0,0:0:0:0:
403,135,173606,1,8,0:0:0:0:
403,135,173799,1,0,0:0:0:0:
403,135,173991,1,8,0:0:0:0:
403,135,174184,1,0,0:0:0:0:
403,135,174279,1,8,0:0:0:0:
403,135,174376,1,0,0:0:0:0:
403,135,174568,1,0,0:0:0:0:
256,192,174761,12,0,175915,0:0:0:0:
400,129,176299,5,4,0:0:0:0:
388,131,176491,1,0,0:0:0:0:
388,131,176588,1,0,0:0:0:0:
388,131,176684,1,8,0:0:0:0:
388,131,176780,1,0,0:0:0:0:
388,131,176876,1,0,0:0:0:0:
353,116,176972,1,0,0:0:0:0:
388,131,177068,1,8,0:0:0:0:
388,131,177261,1,0,0:0:0:0:
388,131,177453,1,8,0:0:0:0:
388,131,177645,1,8,0:0:0:0:
388,131,177838,1,0,0:0:0:0:
388,131,178030,1,0,0:0:0:0:
388,131,178126,1,0,0:0:0:0:
388,131,178222,1,8,0:0:0:0:
388,131,178415,1,0,0:0:0:0:
388,131,178607,1,8,0:0:0:0:
388,131,178703,1,0,0:0:0:0:
388,131,178799,1,0,0:0:0:0:
388,131,178895,1,0,0:0:0:0:
370,133,178991,1,8,0:0:0:0:
388,131,179184,1,8,0:0:0:0:
388,131,179376,1,0,0:0:0:0:
388,131,179568,1,0,0:0:0:0:
388,131,179665,1,0,0:0:0:0:
388,131,179761,1,8,0:0:0:0:
388,131,179953,1,0,0:0:0:0:
388,131,180049,1,0,0:0:0:0:
388,131,180145,1,8,0:0:0:0:
388,131,180338,1,0,0:0:0:0:
388,131,180530,1,8,0:0:0:0:
388,131,180722,1,8,0:0:0:0:
388,131,181107,1,0,0:0:0:0:
388,131,181203,1,0,0:0:0:0:
388,131,181299,1,8,0:0:0:0:
379,133,181491,1,8,0:0:0:0:
379,133,181684,1,8,0:0:0:0:
379,133,181780,1,0,0:0:0:0:
379,133,181876,1,8,0:0:0:0:
379,133,181972,1,0,0:0:0:0:
379,133,182068,1,8,0:0:0:0:
379,133,182261,1,8,0:0:0:0:
379,133,182357,1,8,0:0:0:0:
379,133,182453,1,0,0:0:0:0:
392,136,182645,1,0,0:0:0:0:
392,136,182838,1,8,0:0:0:0:
392,136,183030,1,0,0:0:0:0:
392,136,183126,1,0,0:0:0:0:
392,136,183222,1,8,0:0:0:0:
405,124,183415,1,0,0:0:0:0:
392,136,183607,1,8,0:0:0:0:
392,136,183799,1,8,0:0:0:0:
410,145,183991,1,0,0:0:0:0:
410,145,184376,1,8,0:0:0:0:
410,145,184568,1,0,0:0:0:0:
410,142,184665,1,0,0:0:0:0:
410,145,184761,1,8,0:0:0:0:
413,133,184953,1,0,0:0:0:0:
413,133,185145,1,8,0:0:0:0:
410,145,185338,1,8,0:0:0:0:
410,145,185434,1,8,0:0:0:0:
413,133,185530,1,8,0:0:0:0:
413,133,185722,1,0,0:0:0:0:
413,133,185915,1,8,0:0:0:0:
413,133,186107,1,0,0:0:0:0:
389,122,186203,1,0,0:0:0:0:
413,133,186299,1,8,0:0:0:0:
413,133,186491,1,0,0:0:0:0:
413,133,186684,1,8,0:0:0:0:
413,133,186876,1,8,0:0:0:0:
390,119,186972,1,0,0:0:0:0:
390,119,187068,1,0,0:0:0:0:
409,137,187261,1,0,0:0:0:0:
409,137,187453,5,8,0:0:0:0:
409,137,187645,1,0,0:0:0:0:
392,116,187741,1,0,0:0:0:0:
409,137,187838,1,8,0:0:0:0:
409,137,188030,1,0,0:0:0:0:
409,137,188222,1,8,0:0:0:0:
409,137,188318,1,0,0:0:0:0:
409,137,188415,1,0,0:0:0:0:
409,137,188511,1,0,0:0:0:0:
331,159,188607,5,0,0:0:0:0:
331,159,189376,1,2,0:0:0:0:
337,168,189760,1,0,0:0:0:0:
337,168,190530,1,2,0:0:0:0:
337,168,190914,1,0,0:0:0:0:
337,168,191299,1,0,0:0:0:0:
337,168,191683,1,2,0:0:0:0:
342,164,192068,1,0,0:0:0:0:
343,165,192453,1,2,0:0:0:0:
359,167,192709,1,0,0:0:0:0:
342,164,192837,1,2,0:0:0:0:
338,169,193222,1,4,0:0:0:0:
338,169,193991,1,2,0:0:0:0:
345,160,194248,1,2,0:0:0:0:
338,169,194376,1,0,0:0:0:0:
338,169,195145,1,2,0:0:0:0:
336,151,195401,1,0,0:0:0:0:
338,169,195530,1,0,0:0:0:0:
338,169,195914,1,0,0:0:0:0:
338,169,196299,1,2,0:0:0:0:
338,169,196683,1,2,0:0:0:0:
338,169,197068,1,2,0:0:0:0:
345,171,197324,1,0,0:0:0:0:
338,169,197453,1,8,0:0:0:0:
338,169,197837,1,4,0:0:0:0:
331,158,198607,1,2,0:0:0:0:
331,158,198991,1,0,0:0:0:0:
331,158,199376,1,2,0:0:0:0:
336,131,199632,1,0,0:0:0:0:
331,158,199760,1,2,0:0:0:0:
331,158,200145,1,2,0:0:0:0:
331,158,200530,1,0,0:0:0:0:
336,153,200786,1,0,0:0:0:0:
331,158,200914,1,0,0:0:0:0:
324,161,201042,1,8,0:0:0:0:
324,161,201171,1,0,0:0:0:0:
324,161,201299,1,0,0:0:0:0:
324,157,201683,1,0,0:0:0:0:
331,158,201940,1,0,0:0:0:0:
324,161,202068,1,8,0:0:0:0:
329,150,202453,1,4,0:0:0:0:
346,146,203094,1,0,0:0:0:0:
330,155,203222,1,2,0:0:0:0:
330,155,203607,1,2,0:0:0:0:
330,155,203991,1,2,0:0:0:0:
340,147,204248,1,0,0:0:0:0:
330,155,204376,1,2,0:0:0:0:
330,155,204760,1,0,0:0:0:0:
330,155,205145,1,2,0:0:0:0:
324,157,205401,1,0,0:0:0:0:
330,155,205530,1,2,0:0:0:0:
330,155,205914,1,4,0:0:0:0:
323,148,206555,1,0,0:0:0:0:
323,148,207068,1,0,0:0:0:0:
332,137,207709,1,0,0:0:0:0:
325,140,207837,1,2,0:0:0:0:
325,125,207965,5,0,0:0:0:0:
314,139,208093,1,0,0:0:0:0:
314,139,208221,1,8,0:0:0:0:
325,140,208413,1,0,0:0:0:0:
314,139,208510,1,0,0:0:0:0:
314,139,208606,1,8,0:0:0:0:
306,126,208798,1,0,0:0:0:0:
321,143,208894,1,0,0:0:0:0:
321,143,208990,1,8,0:0:0:0:
321,142,209087,1,8,0:0:0:0:
321,142,209183,1,0,0:0:0:0:
321,142,209375,1,12,0:0:0:0:
315,143,209760,1,8,0:0:0:0:
315,143,209952,1,8,0:0:0:0:
315,143,210144,1,0,0:0:0:0:
303,131,210337,1,8,0:0:0:0:
303,131,210529,1,8,0:0:0:0:
309,140,210721,1,0,0:0:0:0:
314,148,210913,1,0,0:0:0:0:
314,148,211106,1,0,0:0:0:0:
312,147,211298,1,8,0:0:0:0:
320,130,211587,1,0,0:0:0:0:
320,130,211683,1,8,0:0:0:0:
300,128,211875,1,0,0:0:0:0:
300,128,212067,1,8,0:0:0:0:
312,122,212260,1,8,0:0:0:0:
297,116,212356,1,8,0:0:0:0:
305,112,212452,1,0,0:0:0:0:
304,117,212837,1,8,0:0:0:0:
302,116,213029,1,8,0:0:0:0:
301,116,213221,1,0,0:0:0:0:
305,112,213413,1,8,0:0:0:0:
304,117,213606,1,8,0:0:0:0:
300,124,213798,1,0,0:0:0:0:
302,116,213990,1,0,0:0:0:0:
293,115,214375,1,8,0:0:0:0:
321,126,214663,1,8,0:0:0:0:
296,118,214760,1,0,0:0:0:0:
303,123,214952,1,0,0:0:0:0:
303,123,215144,1,8,0:0:0:0:
306,125,215337,1,8,0:0:0:0:
306,125,215433,1,8,0:0:0:0:
306,125,215529,1,0,0:0:0:0:
304,113,215721,1,0,0:0:0:0:
303,123,215913,1,8,0:0:0:0:
306,125,216202,1,8,0:0:0:0:
294,112,216298,1,0,0:0:0:0:
300,112,216490,1,0,0:0:0:0:
303,110,216683,1,8,0:0:0:0:
310,112,216875,1,0,0:0:0:0:
314,120,217067,1,4,0:0:0:0:
317,113,218221,1,8,0:0:0:0:
313,119,218606,1,4,0:0:0:0:
313,119,218990,1,0,0:0:0:0:
313,119,219183,1,12,0:0:0:0:
313,119,219375,1,0,0:0:0:0:
313,119,219760,1,12,0:0:0:0:
313,119,219952,1,0,0:0:0:0:
313,119,220144,1,4,0:0:0:0:
309,131,220529,1,4,0:0:0:0:
304,131,220913,1,8,0:0:0:0:
305,124,221106,1,0,0:0:0:0:
304,123,221202,1,0,0:0:0:0:
309,131,221298,1,8,0:0:0:0:
287,128,221394,1,0,0:0:0:0:
305,126,221490,1,0,0:0:0:0:
305,123,221683,1,12,0:0:0:0:
305,124,222067,1,8,0:0:0:0:
304,134,222260,1,0,0:0:0:0:
304,133,222356,1,0,0:0:0:0:
304,133,222452,1,0,0:0:0:0:
304,133,222644,1,0,0:0:0:0:
304,131,222837,1,8,0:0:0:0:
298,126,223029,1,0,0:0:0:0:
298,126,223221,1,0,0:0:0:0:
298,126,223606,1,8,0:0:0:0:
290,120,223798,1,0,0:0:0:0:
298,126,223894,1,8,0:0:0:0:
298,126,223990,1,0,0:0:0:0:
298,126,224087,1,0,0:0:0:0:
298,126,224183,1,8,0:0:0:0:
298,126,224375,1,8,0:0:0:0:
298,126,224567,1,8,0:0:0:0:
298,126,224663,1,8,0:0:0:0:
298,126,224760,1,0,0:0:0:0:
298,126,225144,1,8,0:0:0:0:
305,125,225433,1,8,0:0:0:0:
304,124,225529,1,0,0:0:0:0:
304,124,225721,1,0,0:0:0:0:
297,115,225913,1,8,0:0:0:0:
297,115,226106,1,0,0:0:0:0:
297,115,226298,1,0,0:0:0:0:
302,116,226683,1,8,0:0:0:0:
293,111,226875,1,0,0:0:0:0:
297,115,226971,1,8,0:0:0:0:
297,115,227067,1,0,0:0:0:0:
302,102,227163,1,8,0:0:0:0:
297,115,227260,1,0,0:0:0:0:
293,111,227452,1,8,0:0:0:0:
288,115,227644,1,8,0:0:0:0:
288,115,227837,1,0,0:0:0:0:
288,115,228029,1,0,0:0:0:0:
297,115,228221,1,8,0:0:0:0:
293,111,228510,1,8,0:0:0:0:
299,118,228606,1,0,0:0:0:0:
280,120,228798,1,0,0:0:0:0:
284,117,228990,1,8,0:0:0:0:
281,108,229183,1,0,0:0:0:0:
281,108,229375,1,0,0:0:0:0:
280,108,229760,1,8,0:0:0:0:
280,108,229952,1,8,0:0:0:0:
295,118,230144,1,0,0:0:0:0:
292,115,230337,1,0,0:0:0:0:
292,115,230529,1,8,0:0:0:0:
374,101,230721,5,8,0:0:0:0:
374,101,230817,1,8,0:0:0:0:
374,101,230913,1,0,0:0:0:0:
363,106,231298,1,0,0:0:0:0:
363,106,231490,1,8,0:0:0:0:
362,106,231683,1,0,0:0:0:0:
363,106,232067,1,8,0:0:0:0:
339,101,232452,1,0,0:0:0:0:
339,101,232644,1,0,0:0:0:0:
337,108,232740,1,0,0:0:0:0:
337,108,232837,1,8,0:0:0:0:
340,106,233125,1,8,0:0:0:0:
340,106,233221,1,0,0:0:0:0:
337,110,233413,1,8,0:0:0:0:
337,110,233510,1,0,0:0:0:0:
337,110,233606,1,0,0:0:0:0:
337,108,233702,1,0,0:0:0:0:
337,108,233990,1,8,0:0:0:0:
340,106,234087,1,8,0:0:0:0:
340,106,234183,1,8,0:0:0:0:
337,110,234375,1,8,0:0:0:0:
337,110,234471,1,8,0:0:0:0:
337,110,234567,1,0,0:0:0:0:
337,108,234760,1,8,0:0:0:0:
337,108,234856,1,0,0:0:0:0:
337,108,234952,1,0,0:0:0:0:
337,108,235048,1,8,0:0:0:0:
340,106,235144,1,8,0:0:0:0:
337,110,235337,1,8,0:0:0:0:
337,110,235529,1,0,0:0:0:0:
256,192,235721,12,0,236683,0:0:0:0:
355,144,237163,5,0,0:0:0:0:
352,141,237260,1,8,0:0:0:0:
352,141,237452,1,0,0:0:0:0:
355,144,237740,1,0,0:0:0:0:
355,144,237837,1,8,0:0:0:0:
348,142,238029,1,8,0:0:0:0:
352,141,238221,1,8,0:0:0:0:
351,146,238317,1,0,0:0:0:0:
351,146,238510,1,0,0:0:0:0:
355,144,238606,1,8,0:0:0:0:
351,146,239375,1,0,0:0:0:0:
351,146,239952,1,8,0:0:0:0:
351,146,240913,1,0,0:0:0:0:
359,141,241106,1,8,0:0:0:0:
359,141,241298,1,8,0:0:0:0:
359,139,241683,1,0,0:0:0:0:
353,127,242452,1,0,0:0:0:0:
353,127,243221,1,8,0:0:0:0:
353,127,243510,1,0,0:0:0:0:
353,127,243798,1,8,0:0:0:0:
353,127,243990,1,8,0:0:0:0:
353,127,244375,1,8,0:0:0:0:
353,127,244760,1,0,0:0:0:0:
353,127,245144,1,0,0:0:0:0:
353,127,245529,1,8,0:0:0:0:
344,121,246106,1,0,0:0:0:0:
344,121,246490,1,8,0:0:0:0:
344,121,246683,1,0,0:0:0:0:
344,121,247067,1,8,0:0:0:0:
344,121,247260,1,8,0:0:0:0:
344,121,247452,1,8,0:0:0:0:
344,121,247837,1,4,0:0:0:0:
334,120,248221,1,0,0:0:0:0:
334,120,248413,1,12,0:0:0:0:
334,120,248606,1,0,0:0:0:0:
319,114,248990,1,4,0:0:0:0:
323,112,249375,1,4,0:0:0:0:
323,112,249567,1,0,0:0:0:0:
319,114,249760,1,0,0:0:0:0:
319,114,249952,1,12,0:0:0:0:
323,112,250337,1,0,0:0:0:0:
323,112,250529,1,0,0:0:0:0:
319,114,250721,1,0,0:0:0:0:
319,114,250817,1,0,0:0:0:0:
319,114,250913,1,0,0:0:0:0:
323,112,251106,1,8,0:0:0:0:
312,103,251202,1,8,0:0:0:0:
323,112,251298,1,8,0:0:0:0:
323,112,251490,1,0,0:0:0:0:
322,109,251587,1,0,0:0:0:0:
319,114,251683,1,8,0:0:0:0:
322,109,251779,1,8,0:0:0:0:
322,109,251875,1,0,0:0:0:0:
322,109,251971,1,0,0:0:0:0:
322,109,252067,1,8,0:0:0:0:
323,112,252260,1,0,0:0:0:0:
403,135,252356,1,0,0:0:0:0:
323,112,252452,1,8,0:0:0:0:
403,135,252644,1,0,0:0:0:0:
403,135,252837,1,8,0:0:0:0:
403,135,253029,1,0,0:0:0:0:
403,135,253221,1,8,0:0:0:0:
403,135,253414,1,8,0:0:0:0:
403,135,253606,1,8,0:0:0:0:
403,135,253798,1,0,0:0:0:0:
403,135,254183,1,0,0:0:0:0:
403,135,254375,1,8,0:0:0:0:
403,135,254568,1,0,0:0:0:0:
403,135,254760,1,0,0:0:0:0:
397,150,254952,1,0,0:0:0:0:
403,135,255048,1,0,0:0:0:0:
405,139,255144,1,8,0:0:0:0:
405,139,255337,1,0,0:0:0:0:
390,151,255433,1,8,0:0:0:0:
406,140,255529,1,0,0:0:0:0:
390,151,255914,1,8,0:0:0:0:
391,152,256106,1,0,0:0:0:0:
391,152,256298,1,8,0:0:0:0:
395,138,256490,1,0,0:0:0:0:
390,151,256683,1,8,0:0:0:0:
390,151,256875,1,8,0:0:0:0:
391,152,257068,1,12,0:0:0:0:
391,152,257356,1,12,0:0:0:0:
390,151,257644,1,12,0:0:0:0:
390,151,257837,1,4,0:0:0:0:
391,152,258029,1,0,0:0:0:0:
391,152,258125,1,0,0:0:0:0:
391,152,258221,1,0,0:0:0:0:
391,152,258414,1,8,0:0:0:0:
390,151,258606,1,0,0:0:0:0:
366,150,258798,1,0,0:0:0:0:
366,150,258894,1,0,0:0:0:0:
366,150,258991,1,8,0:0:0:0:
367,150,259183,1,0,0:0:0:0:
377,147,259279,1,8,0:0:0:0:
367,150,259375,1,0,0:0:0:0:
374,144,259568,1,0,0:0:0:0:
374,144,259760,1,8,0:0:0:0:
381,152,259952,1,8,0:0:0:0:
376,152,260337,1,0,0:0:0:0:
376,153,260529,1,8,0:0:0:0:
376,153,260721,1,0,0:0:0:0:
381,152,260818,1,8,0:0:0:0:
381,153,260913,1,0,0:0:0:0:
381,152,261106,1,0,0:0:0:0:
376,152,261298,1,8,0:0:0:0:
385,166,261491,1,8,0:0:0:0:
385,166,261587,1,8,0:0:0:0:
385,166,261683,1,0,0:0:0:0:
357,168,262068,1,8,0:0:0:0:
357,165,262356,1,8,0:0:0:0:
357,167,262452,1,0,0:0:0:0:
368,171,262644,1,0,0:0:0:0:
368,171,262837,1,8,0:0:0:0:
357,168,263029,1,8,0:0:0:0:
366,169,263221,1,0,0:0:0:0:
364,176,263414,1,8,0:0:0:0:
365,176,263606,1,0,0:0:0:0:
368,171,263798,1,8,0:0:0:0:
399,162,263894,1,0,0:0:0:0:
364,169,263991,1,8,0:0:0:0:
377,171,264183,1,0,0:0:0:0:
378,171,264375,1,8,0:0:0:0:
378,171,264568,1,0,0:0:0:0:
378,171,264664,1,8,0:0:0:0:
378,171,264760,1,0,0:0:0:0:
378,171,264952,1,8,0:0:0:0:
377,171,265048,1,0,0:0:0:0:
377,171,265144,5,8,0:0:0:0:
378,171,265337,1,8,0:0:0:0:
378,171,265529,1,8,0:0:0:0:
402,159,266298,5,4,0:0:0:0:
377,157,266587,1,8,0:0:0:0:
377,157,266875,1,8,0:0:0:0:
377,157,267067,1,8,0:0:0:0:
377,157,267356,1,8,0:0:0:0:
377,157,267644,1,0,0:0:0:0:
377,157,267837,1,0,0:0:0:0:
377,157,268125,1,8,0:0:0:0:
377,157,268413,1,8,0:0:0:0:
377,157,268606,1,0,0:0:0:0:
377,157,268894,1,8,0:0:0:0:
377,157,269183,1,8,0:0:0:0:
377,157,269279,1,0,0:0:0:0:
377,157,269375,1,8,0:0:0:0:
363,153,269663,1,8,0:0:0:0:
377,157,269952,1,8,0:0:0:0:
377,157,270144,1,0,0:0:0:0:
377,157,270240,1,0,0:0:0:0:
377,157,270433,1,0,0:0:0:0:
377,157,270529,1,8,0:0:0:0:
377,157,270721,1,8,0:0:0:0:
377,157,270817,1,8,0:0:0:0:
377,157,270913,1,0,0:0:0:0:
377,157,271010,1,8,0:0:0:0:
377,157,271202,1,8,0:0:0:0:
377,157,271298,5,0,0:0:0:0:
377,157,271490,1,8,0:0:0:0:
377,157,271587,1,8,0:0:0:0:
377,157,271683,1,8,0:0:0:0:
377,157,271875,1,0,0:0:0:0:
377,157,271971,1,8,0:0:0:0:
377,157,272067,1,0,0:0:0:0:
377,157,272260,1,0,0:0:0:0:
377,157,272356,1,0,0:0:0:0:
383,167,272452,5,8,0:0:0:0:
378,169,272837,1,8,0:0:0:0:
377,167,273029,1,0,0:0:0:0:
371,155,273125,1,0,0:0:0:0:
375,167,273221,1,8,0:0:0:0:
385,158,273413,1,0,0:0:0:0:
375,167,273606,1,8,0:0:0:0:
390,172,273798,1,0,0:0:0:0:
371,155,273894,1,0,0:0:0:0:
377,167,273990,1,8,0:0:0:0:
369,168,274183,1,0,0:0:0:0:
366,167,274375,1,8,0:0:0:0:
363,167,274567,1,8,0:0:0:0:
358,142,274663,1,8,0:0:0:0:
362,167,274760,1,0,0:0:0:0:
380,152,274952,1,0,0:0:0:0:
374,169,275144,1,8,0:0:0:0:
374,167,275337,1,8,0:0:0:0:
358,146,275433,1,8,0:0:0:0:
374,167,275529,1,0,0:0:0:0:
374,167,275721,1,8,0:0:0:0:
377,167,275817,1,8,0:0:0:0:
377,167,275913,1,8,0:0:0:0:
374,169,276106,1,8,0:0:0:0:
374,167,276298,1,0,0:0:0:0:
367,150,276490,1,0,0:0:0:0:
367,150,276683,1,8,0:0:0:0:
367,150,277067,1,0,0:0:0:0:
367,150,277163,1,8,0:0:0:0:
367,150,277356,1,0,0:0:0:0:
367,150,277452,1,8,0:0:0:0:
367,150,277644,1,8,0:0:0:0:
367,150,277837,1,8,0:0:0:0:
367,134,277933,1,0,0:0:0:0:
367,134,278029,1,0,0:0:0:0:
391,137,278125,1,0,0:0:0:0:
367,134,278221,1,8,0:0:0:0:
367,134,278413,1,8,0:0:0:0:
367,134,278510,1,0,0:0:0:0:
367,134,278606,1,8,0:0:0:0:
367,134,278990,1,8,0:0:0:0:
367,134,279183,1,0,0:0:0:0:
371,126,279279,1,8,0:0:0:0:
367,134,279375,1,0,0:0:0:0:
367,134,279567,1,0,0:0:0:0:
367,135,279760,1,8,0:0:0:0:
367,134,280144,1,0,0:0:0:0:
367,134,280337,1,8,0:0:0:0:
374,129,280433,1,8,0:0:0:0:
367,134,280529,1,8,0:0:0:0:
367,135,280721,1,0,0:0:0:0:
367,134,280913,1,0,0:0:0:0:
361,127,281106,1,0,0:0:0:0:
361,127,281298,1,8,0:0:0:0:
359,126,281490,1,8,0:0:0:0:
359,126,281683,1,0,0:0:0:0:
361,127,282067,1,8,0:0:0:0:
361,127,282260,1,8,0:0:0:0:
361,127,282356,1,0,0:0:0:0:
359,126,282452,1,0,0:0:0:0:
359,126,282644,1,0,0:0:0:0:
359,126,282837,1,8,0:0:0:0:
361,127,283029,1,8,0:0:0:0:
361,127,283221,1,8,0:0:0:0:
361,127,283317,1,0,0:0:0:0:
359,126,283510,1,0,0:0:0:0:
359,126,283606,1,8,0:0:0:0:
359,126,283798,1,8,0:0:0:0:
361,127,283894,1,0,0:0:0:0:
361,127,283990,1,8,0:0:0:0:
361,127,284183,1,0,0:0:0:0:
361,127,284279,1,8,0:0:0:0:
361,127,284375,1,8,0:0:0:0:
359,126,284471,1,0,0:0:0:0:
352,119,284663,1,0,0:0:0:0:
359,126,284760,1,8,0:0:0:0:
361,127,284952,1,0,0:0:0:0:
361,127,285048,1,8,0:0:0:0:
361,127,285240,1,0,0:0:0:0:
361,127,285337,1,8,0:0:0:0:
360,132,285529,1,4,0:0:0:0:
