osu file format v14

[General]
AudioFilename: audio.mp3
AudioLeadIn: 0
PreviewTime: 48073
Countdown: 0
SampleSet: Drum
StackLeniency: 0.4
Mode: 0
LetterboxInBreaks: 0
WidescreenStoryboard: 1

[Editor]
Bookmarks: 1728,31521,38141,44762,48073,61314,67935,87797,106004,119245,120900,132486,145728
DistanceSpacing: 0.9
BeatDivisor: 4
GridSize: 32
TimelineZoom: 3.199999

[Metadata]
Title:Voyage
TitleUnicode:Voyage
Artist:BLANKFIELD
ArtistUnicode:BLANKFIELD
Creator:Crissa
Version:lu^3's Galaxy Travel
Source:東方永夜抄 ~ Imperishable Night.
Tags:mg mappers' guild fa featured artist ヴォヤージュ1969 Eternal Dream ~ 幽玄の槭樹 c83 comiket 83 At The Termination Of The Phantasm metal instrumental touhou 08 東方Project team shanghai alice zun 上海アリス幻樂団 hey lululu lmt isomirdiangelo eirin yagokoro 八意 永琳 isomir lu^3 osu! eiri- ayyri video game
BeatmapID:2514910
BeatmapSetID:1201974

[Difficulty]
HPDrainRate:5
CircleSize:4.2
OverallDifficulty:9.8
ApproachRate:10
SliderMultiplier:1.8
SliderTickRate:1

[Events]
//Background and Video events
0,0,"lu^3.jpg",0,0
//Break Periods
2,31934,33974
2,91314,100838
//Storyboard Layer 0 (Background)
//Storyboard Layer 1 (Fail)
//Storyboard Layer 2 (Pass)
//Storyboard Layer 3 (Foreground)
//Storyboard Layer 4 (Overlay)
//Storyboard Sound Samples

[TimingPoints]
80,206.896551724138,4,3,3,50,1,0
183,-100,4,3,1,50,0,0
390,-100,4,3,4,50,0,0
493,-100,4,3,1,50,0,0
1735,-83.3333333333333,4,3,1,70,0,0
31528,-83.3333333333333,4,2,1,60,0,0
34424,-200,4,2,1,65,0,0
34838,-200,4,2,2,70,0,0
37321,-125,4,2,2,70,0,0
38148,-125,4,3,1,75,0,0
38769,-250,4,3,1,75,0,0
38976,-125,4,3,1,75,0,0
39597,-250,4,3,1,75,0,0
39804,-125,4,3,1,75,0,0
40424,-250,4,3,1,75,0,0
40631,-125,4,3,1,75,0,0
41252,-250,4,3,1,75,0,0
41407,-250,4,3,1,5,0,0
41459,-125,4,3,1,75,0,0
42080,-250,4,3,1,75,0,0
42287,-125,4,3,1,75,0,0
42907,-250,4,3,1,75,0,0
43114,-125,4,3,1,75,0,0
48080,-166.666666666667,4,3,2,85,0,1
53666,-100,4,3,2,85,0,1
54700,-166.666666666667,4,3,2,85,0,1
60286,-100,4,3,2,85,0,1
61320,-125,4,3,2,85,0,1
67942,-125,4,3,2,75,0,0
74562,-125,4,3,1,75,0,0
74769,-125,4,3,2,75,0,0
77045,-125,4,3,1,75,0,0
77252,-125,4,3,2,75,0,0
81183,-125,4,3,1,75,0,0
81286,-125,4,3,2,75,0,0
82838,-125,4,3,1,75,0,0
82942,-125,4,3,2,75,0,0
83666,-125,4,3,1,75,0,0
83769,-125,4,3,2,75,0,0
84493,-125,4,3,1,75,0,0
84562,-125,4,3,2,75,0,0
87804,-500,4,3,2,75,0,0
88011,-500,4,3,2,20,0,0
102700,-500,4,2,1,60,0,0
105700,-100,4,2,1,60,0,0
106011,-90.9090909090909,4,3,2,80,0,0
110976,-90.9090909090909,4,3,1,80,0,0
111080,-90.9090909090909,4,3,2,80,0,0
112631,-83.3333333333333,4,3,2,80,0,0
114286,-83.3333333333333,4,3,1,80,0,0
114390,-83.3333333333333,4,3,2,80,0,0
115942,-76.9230769230769,4,3,2,80,0,0
117597,-76.9230769230769,4,3,1,80,0,0
117700,-76.9230769230769,4,3,2,80,0,0
120700,-125,4,3,2,80,0,0
120907,-100,4,3,1,85,0,1
121011,-100,4,3,2,85,0,1
121114,-83.3333333333333,4,3,2,85,0,1
121321,-71.4285714285714,4,3,2,85,0,1
121528,-62.5,4,3,2,85,0,1
121735,-83.3333333333333,4,3,2,85,0,0
124217,-83.3333333333333,4,3,1,85,0,0
124321,-83.3333333333333,4,3,2,85,0,0
127942,-83.3333333333333,4,3,1,85,0,0
128045,-83.3333333333333,4,3,2,85,0,0
130838,-83.3333333333333,4,3,1,85,0,0
130942,-83.3333333333333,4,3,2,85,0,0
132493,-83.3333333333333,4,3,2,90,0,0
137459,-83.3333333333333,4,3,1,90,0,0
137562,-83.3333333333333,4,3,2,90,0,0
139528,-71.4285714285714,4,3,2,90,0,0
139735,-62.5,4,3,2,90,0,0
140252,-71.4285714285714,4,3,2,90,0,0
140459,-83.3333333333333,4,3,2,90,0,0
141390,-83.3333333333333,4,3,1,90,0,0
142424,-83.3333333333333,4,3,1,90,0,1
145735,-83.3333333333333,4,3,1,90,0,0
146045,-111.111111111111,4,3,1,5,0,0

[Colours]
Combo1 : 166,166,166
Combo2 : 124,120,199
Combo3 : 77,170,210
Combo4 : 136,114,169
Combo5 : 222,143,248
Combo6 : 205,156,141

[HitObjects]
375,350,80,6,0,P|368:328|342:292,1,45,6|0,0:3|0:0,0:0:0:0:
250,267,183,2,0,L|200:280,3,45,8|0|0|0,0:2|0:0|0:0|0:0,0:0:0:0:
339,190,390,2,0,P|346:168|372:132,1,45,6|0,0:3|0:0,0:0:0:0:
464,107,493,2,0,L|514:120,3,45,8|0|0|0,0:2|0:0|0:0|0:0,0:0:0:0:
349,12,700,5,4,0:3:0:0:
316,21,751,1,0,0:0:0:0:
284,30,803,1,4,0:0:0:0:
251,39,855,1,0,0:0:0:0:
219,48,907,6,0,P|208:28|203:1,3,45,8|8|8|8,0:2|0:2|0:2|0:2,0:0:0:0:
121,123,1114,1,4,0:0:0:0:
121,123,1166,1,0,0:0:0:0:
121,123,1217,2,0,P|109:143|104:170,3,45,8|0|0|0,0:2|0:0|0:0|0:0,0:0:0:0:
239,178,1424,5,4,0:0:0:0:
260,172,1475,1,0,0:0:0:0:
281,163,1527,1,8,0:2:0:0:
104,292,1631,1,8,0:2:0:0:
83,286,1682,1,8,0:2:0:0:
62,277,1735,5,6,0:0:0:0:
95,274,1786,1,4,0:0:0:0:
129,275,1838,1,10,0:2:0:0:
162,279,1890,1,4,0:0:0:0:
195,286,1941,1,8,0:2:0:0:
228,296,1993,1,4,0:0:0:0:
259,309,2045,1,8,0:2:0:0:
289,324,2097,1,4,0:0:0:0:
317,342,2148,5,10,0:2:0:0:
322,316,2199,1,4,0:0:0:0:
331,291,2251,1,10,0:2:0:0:
344,267,2303,1,4,0:0:0:0:
360,245,2354,1,8,0:2:0:0:
379,226,2406,1,4,0:0:0:0:
400,209,2458,1,10,0:2:0:0:
424,196,2510,1,4,0:0:0:0:
449,187,2562,6,0,P|454:213|445:250,3,53.9999983520508,10|4|8|4,0:2|0:0|0:2|0:0,0:0:0:0:
335,118,2769,2,0,P|330:92|339:55,3,53.9999983520508,10|4|8|4,0:2|0:0|0:2|0:0,0:0:0:0:
470,160,2976,6,0,P|487:180|498:216,1,53.9999983520508,10|4,0:2|0:0,0:0:0:0:
326,140,3080,2,0,P|308:119|297:83,1,53.9999983520508,8|4,0:2|0:0,0:0:0:0:
465,119,3183,2,0,P|490:127|517:153,1,53.9999983520508,8|4,0:2|0:0,0:0:0:0:
319,157,3287,2,0,P|293:148|266:122,1,53.9999983520508,8|4,0:2|0:0,0:0:0:0:
470,0,3390,5,10,0:2:0:0:
436,3,3441,1,4,0:0:0:0:
403,8,3493,1,8,0:2:0:0:
369,15,3545,1,4,0:0:0:0:
337,23,3596,1,8,0:2:0:0:
304,32,3648,1,4,0:0:0:0:
273,44,3700,1,10,0:2:0:0:
241,56,3752,1,4,0:0:0:0:
210,70,3804,5,10,0:2:0:0:
237,77,3855,1,4,0:0:0:0:
262,85,3907,1,8,0:2:0:0:
288,95,3959,1,4,0:0:0:0:
312,106,4010,1,8,0:2:0:0:
336,118,4062,1,4,0:0:0:0:
359,132,4114,1,10,0:2:0:0:
382,147,4166,1,2,0:2:0:0:
403,162,4217,6,0,P|421:141|469:119,3,53.9999983520508,10|4|10|4,0:2|0:0|0:2|0:0,0:0:0:0:
466,263,4424,2,0,P|491:273|527:312,3,53.9999983520508,10|4|10|4,0:2|0:0|0:2|0:0,0:0:0:0:
380,333,4631,6,0,P|377:360|351:406,1,53.9999983520508,10|4,0:2|0:0,0:0:0:0:
176,251,4735,2,0,P|161:228|154:202,1,53.9999983520508,10|4,0:2|0:0,0:0:0:0:
246,362,4838,2,0,P|219:369|192:368,1,53.9999983520508,10|4,0:2|0:0,0:0:0:0:
276,170,4942,2,0,P|293:149|315:134,1,53.9999983520508,10|4,0:2|0:0,0:0:0:0:
448,8,5045,5,12,3:2:0:0:
441,41,5096,1,4,0:0:0:0:
434,74,5148,1,8,0:2:0:0:
428,107,5200,1,4,0:0:0:0:
423,140,5251,1,8,0:2:0:0:
418,174,5303,1,4,0:0:0:0:
414,207,5355,2,0,P|387:214|343:230,1,53.9999983520508,10|4,0:2|0:0,0:0:0:0:
278,295,5459,5,10,0:2:0:0:
252,286,5511,1,4,0:0:0:0:
226,277,5562,1,8,0:2:0:0:
200,269,5614,1,4,0:0:0:0:
174,262,5665,1,8,0:2:0:0:
148,256,5717,1,4,0:0:0:0:
122,250,5769,1,10,0:2:0:0:
95,245,5821,1,4,0:0:0:0:
69,240,5872,6,0,P|64:266|73:303,3,53.9999983520508,10|4|8|4,0:2|0:0|0:2|0:0,0:0:0:0:
183,171,6079,2,0,P|188:145|179:108,3,53.9999983520508,10|0|8|0,0:2|0:0|0:2|0:0,0:0:0:0:
48,213,6286,6,0,P|31:233|20:269,1,53.9999983520508,10|4,0:2|0:0,0:0:0:0:
192,193,6390,2,0,P|210:172|221:136,1,53.9999983520508,8|4,0:2|0:0,0:0:0:0:
53,172,6493,2,0,P|28:180|1:206,1,53.9999983520508,8|4,0:2|0:0,0:0:0:0:
199,210,6597,2,0,P|225:201|252:175,1,53.9999983520508,10|4,0:2|0:0,0:0:0:0:
220,7,6700,5,8,0:0:0:0:
252,14,6751,1,8,0:0:0:0:
285,22,6803,1,8,0:0:0:0:
318,31,6855,1,8,0:0:0:0:
350,42,6906,1,8,0:0:0:0:
382,53,6958,1,4,0:0:0:0:
413,65,7011,2,0,L|428:127,1,53.9999983520508,4|4,0:0|0:0,0:0:0:0:
505,218,7114,5,4,0:0:0:0:
451,227,7165,1,4,0:0:0:0:
399,241,7217,1,4,0:0:0:0:
348,259,7269,1,4,0:0:0:0:
299,281,7321,6,0,P|298:246|293:210,1,53.9999983520508,8|0,0:2|0:0,0:0:0:0:
173,103,7424,2,0,P|171:138|166:174,1,53.9999983520508,12|0,0:2|0:0,0:0:0:0:
105,267,7528,6,0,B|59:275|59:275|40:267|40:267|-26:277,1,107.999996704102,2|8,0:0|0:2,0:0:0:0:
407,366,7735,2,0,B|453:374|453:374|472:366|472:366|538:376,1,107.999996704102,4|8,0:3|0:2,0:0:0:0:
105,43,7942,2,0,B|59:51|59:51|40:43|40:43|-26:53,1,107.999996704102,14|8,0:0|0:2,0:0:0:0:
407,142,8149,2,0,B|453:150|453:150|472:142|472:142|538:152,1,107.999996704102,6|8,0:0|0:2,0:0:0:0:
273,207,8355,6,0,B|254:230|257:264|257:264|249:233|220:209|220:209|210:160|249:111,1,215.999993408203,4|8,0:2|0:2,0:0:0:0:
305,82,8614,1,8,0:2:0:0:
303,75,8665,1,8,0:2:0:0:
302,68,8717,1,8,0:2:0:0:
301,62,8769,1,2,0:0:0:0:
320,51,8976,1,4,0:0:0:0:
439,155,9080,6,0,B|458:128|486:106|486:106|461:71|442:19|442:19|427:72,1,215.999993408203,12|4,0:2|0:0,0:0:0:0:
415,257,9390,2,0,P|470:261|520:224,1,107.999996704102,8|4,0:2|0:0,0:0:0:0:
238,125,9597,2,0,P|192:97|139:101,1,107.999996704102,8|4,0:2|0:0,0:0:0:0:
152,309,9804,1,8,0:2:0:0:
174,176,9907,1,8,0:2:0:0:
0,88,10011,6,0,B|3:128|14:154|14:154|49:169|63:193|63:193|48:237|79:283,1,215.999993408203,6|4,0:0|0:0,0:0:0:0:
51,359,10269,1,4,0:0:0:0:
44,361,10320,1,4,0:0:0:0:
37,362,10372,1,0,0:0:0:0:
31,363,10424,1,12,0:2:0:0:
6,355,10631,1,4,0:0:0:0:
152,309,10735,6,0,B|226:322|226:322|272:366|272:366|352:378,1,215.999993408203,12|4,0:2|0:0,0:0:0:0:
379,244,11045,2,0,B|334:236|302:257|302:257|328:264|351:289,1,107.999996704102,12|4,0:2|0:0,0:0:0:0:
455,123,11252,2,0,B|500:115|532:136|532:136|506:143|483:168,1,107.999996704102,12|4,0:2|0:0,0:0:0:0:
332,154,11459,2,0,P|319:138|313:101,1,53.9999983520508,12|0,0:2|0:0,0:0:0:0:
438,0,11562,2,0,P|434:26|418:48,1,53.9999983520508,8|0,0:2|0:0,0:0:0:0:
258,191,11666,5,6,0:0:0:0:
239,153,11717,1,4,0:0:0:0:
216,120,11769,1,10,0:2:0:0:
188,91,11821,1,4,0:0:0:0:
155,69,11872,1,8,0:2:0:0:
119,50,11924,1,4,0:0:0:0:
79,40,11976,1,10,0:2:0:0:
39,35,12028,1,4,0:0:0:0:
0,37,12080,5,10,0:2:0:0:
18,46,12131,1,4,0:0:0:0:
35,57,12183,1,8,0:2:0:0:
50,69,12235,1,4,0:0:0:0:
64,84,12286,1,8,0:2:0:0:
76,100,12338,1,4,0:0:0:0:
86,118,12390,1,10,0:2:0:0:
94,136,12442,1,4,0:0:0:0:
100,156,12494,5,10,0:2:0:0:
137,116,12545,1,4,0:0:0:0:
182,88,12597,1,8,0:2:0:0:
234,74,12649,1,4,0:0:0:0:
288,73,12700,5,10,0:2:0:0:
263,120,12751,1,4,0:0:0:0:
248,172,12803,1,8,0:2:0:0:
245,226,12855,1,4,0:0:0:0:
253,279,12907,6,0,P|232:255|214:210,1,53.9999983520508,10|4,0:2|0:0,0:0:0:0:
341,172,13011,2,0,P|359:191|372:215,1,53.9999983520508,8|4,0:2|0:0,0:0:0:0:
145,249,13114,2,0,P|147:216|166:171,1,53.9999983520508,8|4,0:2|0:0,0:0:0:0:
452,240,13217,2,0,P|449:272|430:317,1,53.9999983520508,10|4,0:2|0:0,0:0:0:0:
283,366,13321,6,0,L|149:386,1,107.999996704102,6|8,0:0|0:2,0:0:0:0:
364,261,13528,2,0,L|357:315,1,53.9999983520508,8|8,0:2|0:2,0:0:0:0:
253,279,13631,2,0,L|260:225,1,53.9999983520508,8|8,0:2|0:2,0:0:0:0:
341,172,13735,5,10,0:2:0:0:
336,159,13786,1,0,0:0:0:0:
332,146,13838,1,10,0:2:0:0:
250,52,13942,1,4,0:0:0:0:
255,39,13993,1,4,0:0:0:0:
259,26,14045,1,4,0:0:0:0:
391,5,14148,5,6,0:0:0:0:
391,5,14355,1,10,0:2:0:0:
395,17,14406,1,8,0:2:0:0:
399,30,14458,1,4,0:0:0:0:
403,43,14510,1,4,0:0:0:0:
407,56,14562,6,0,P|434:47|465:26,1,53.9999983520508,4|4,0:0|0:0,0:0:0:0:
512,164,14666,2,0,P|488:150|463:141,1,53.9999983520508,4|0,0:0|0:2,0:0:0:0:
309,233,14769,2,0,P|321:207|328:170,1,53.9999983520508,10|0,0:2|0:2,0:0:0:0:
459,235,14873,2,0,P|432:241|408:253,1,53.9999983520508,10|0,0:2|0:2,0:0:0:0:
263,351,14976,6,0,B|223:327|223:327|189:362|189:362|138:312|63:324,1,215.999993408203,4|0,0:2|0:0,0:0:0:0:
14,376,15286,1,8,0:2:0:0:
175,242,15390,2,0,P|185:175|163:136,2,107.999996704102,2|8|0,0:2|0:2|0:0,0:0:0:0:
0,96,15700,6,0,P|-10:163|116:192,1,215.999993408203,10|8,0:2|0:2,0:0:0:0:
244,18,16011,2,0,B|159:31|159:31|208:50,1,107.999996704102,2|8,0:2|0:2,0:0:0:0:
366,138,16217,2,0,B|451:151|451:151|402:170,1,107.999996704102,2|8,0:2|0:2,0:0:0:0:
216,260,16424,2,0,B|131:273|131:273|180:292,1,107.999996704102,2|8,0:2|0:2,0:0:0:0:
377,384,16631,6,0,B|404:357|447:351|447:351|493:368|493:368|513:364|538:351|538:351|459:313,1,215.999993408203,4|0,0:2|0:0,0:0:0:0:
360,268,16942,1,10,0:2:0:0:
430,158,17045,2,0,B|470:181|470:181|455:211|452:267,2,107.999996704102,2|8|0,0:2|0:2|0:0,0:0:0:0:
225,114,17355,6,0,B|211:85|186:71|186:71|216:40|230:-11|230:-11|268:9|261:46,1,215.999993408203,10|8,0:2|0:2,0:0:0:0:
147,147,17666,2,0,B|117:143|81:156|81:156|23:121,1,107.999996704102,2|8,0:2|0:2,0:0:0:0:
316,113,17873,1,2,0:2:0:0:
292,240,17976,1,0,0:0:0:0:
429,323,18080,2,0,P|425:292|404:247,1,53.9999983520508,8|8,0:2|0:2,0:0:0:0:
476,111,18183,2,0,P|480:142|501:187,1,53.9999983520508,8|8,0:2|0:2,0:0:0:0:
322,384,18286,5,8,0:2:0:0:
293,365,18337,1,0,0:0:0:0:
263,349,18389,1,8,0:2:0:0:
233,336,18441,1,4,0:0:0:0:
201,324,18492,1,8,0:2:0:0:
168,315,18544,1,4,0:0:0:0:
135,308,18597,2,0,P|147:339|152:366,1,53.9999983520508,8|4,0:2|0:0,0:0:0:0:
0,244,18700,5,8,0:2:0:0:
26,239,18751,1,4,0:0:0:0:
53,234,18803,1,8,0:2:0:0:
79,228,18855,1,4,0:0:0:0:
105,222,18906,1,8,0:2:0:0:
131,214,18958,1,4,0:0:0:0:
157,206,19010,1,8,0:2:0:0:
182,197,19062,1,4,0:0:0:0:
208,188,19114,6,0,P|197:166|184:112,3,53.9999983520508,8|4|8|4,0:2|0:0|0:2|0:0,0:0:0:0:
301,90,19321,2,0,P|312:68|325:14,3,53.9999983520508,8|4|8|4,0:2|0:0|0:2|0:0,0:0:0:0:
216,0,19528,6,0,P|204:24|196:49,1,53.9999983520508,8|4,0:2|0:0,0:0:0:0:
283,225,19631,2,0,P|294:200|302:175,1,53.9999983520508,8|4,0:2|0:0,0:0:0:0:
99,73,19735,2,0,P|106:99|117:124,1,53.9999983520508,8|4,0:2|0:0,0:0:0:0:
399,160,19838,2,0,P|392:133|381:109,1,53.9999983520508,8|4,0:2|0:0,0:0:0:0:
224,127,19942,5,2,0:0:0:0:
208,156,19993,1,4,0:0:0:0:
194,187,20045,1,8,0:2:0:0:
182,219,20097,1,4,0:0:0:0:
172,251,20148,1,8,0:2:0:0:
165,284,20200,1,4,0:0:0:0:
160,317,20252,2,0,P|185:324|234:354,1,53.9999983520508,8|4,0:2|0:0,0:0:0:0:
427,384,20355,5,8,0:2:0:0:
418,358,20406,1,4,0:0:0:0:
410,332,20458,1,8,0:2:0:0:
404,306,20510,1,4,0:0:0:0:
399,279,20561,1,8,0:2:0:0:
396,252,20613,1,4,0:0:0:0:
394,225,20665,1,8,0:2:0:0:
394,198,20717,1,8,0:2:0:0:
394,171,20769,5,2,0:0:0:0:
354,179,20820,1,4,0:0:0:0:
320,201,20872,1,8,0:2:0:0:
297,234,20924,1,4,0:0:0:0:
288,273,20977,5,8,0:2:0:0:
271,239,21028,1,4,0:0:0:0:
268,203,21080,1,8,0:2:0:0:
279,169,21132,1,4,0:0:0:0:
301,140,21184,5,8,0:2:0:0:
265,148,21235,1,4,0:0:0:0:
235,167,21287,1,8,0:2:0:0:
214,196,21339,1,4,0:0:0:0:
205,233,21391,5,8,0:2:0:0:
188,198,21442,1,4,0:0:0:0:
185,163,21494,1,8,0:2:0:0:
196,129,21546,1,4,0:0:0:0:
218,100,21597,6,0,B|178:76|178:76|144:111|144:111|93:61|18:73,1,215.999993408203,4|8,0:2|0:0,0:0:0:0:
0,161,21855,1,8,0:0:0:0:
2,167,21906,1,8,0:0:0:0:
4,173,21958,1,8,0:0:0:0:
6,180,22010,1,10,0:0:0:0:
0,198,22217,1,0,0:0:0:0:
0,315,22321,6,0,B|40:276|112:293|112:293|136:350|199:361,1,215.999993408203,12|0,0:2|0:0,0:0:0:0:
251,180,22631,2,0,P|219:201|209:280,1,107.999996704102,10|0,0:2|0:0,0:0:0:0:
348,326,22838,2,0,P|379:304|389:225,1,107.999996704102,10|0,0:2|0:0,0:0:0:0:
162,123,23045,2,0,P|154:159|202:223,1,107.999996704102,10|10,0:2|0:2,0:0:0:0:
293,278,23200,1,0,0:0:0:0:
293,278,23252,5,6,0:0:0:0:
335,121,23355,1,8,0:2:0:0:
348,136,23562,1,4,0:0:0:0:
399,150,23613,1,4,0:0:0:0:
451,165,23666,1,6,0:0:0:0:
467,163,23873,1,0,0:0:0:0:
310,31,23976,6,0,B|270:46|232:46|232:46|203:92|203:92|160:100|103:120,1,215.999993408203,12|12,0:2|0:2,0:0:0:0:
8,79,24286,1,12,0:2:0:0:
13,58,24338,1,4,0:0:0:0:
18,37,24390,1,4,0:0:0:0:
224,182,24493,1,12,0:2:0:0:
218,202,24545,1,4,0:0:0:0:
213,223,24596,1,4,0:0:0:0:
43,311,24700,6,0,P|32:285|12:249,1,53.9999983520508,8|0,0:2|0:0,0:0:0:0:
118,118,24804,2,0,P|129:144|149:180,1,53.9999983520508,8|0,0:2|0:0,0:0:0:0:
341,184,24907,6,0,B|381:171|381:171|402:178|402:178|453:164,1,107.999996704102,2|8,0:2|0:2,0:0:0:0:
233,29,25114,2,0,B|193:16|193:16|172:23|172:23|121:9,1,107.999996704102,2|8,0:2|0:2,0:0:0:0:
391,1,25321,2,0,B|424:47|424:47|381:104,2,107.999996704102,2|8|2,0:2|0:2|0:2,0:0:0:0:
215,108,25631,6,0,L|248:336,1,215.999993408203,10|8,0:2|0:2,0:0:0:0:
327,384,25942,1,2,0:2:0:0:
376,271,26045,2,0,P|415:238|482:243,1,107.999996704102,8|2,0:2|0:2,0:0:0:0:
195,197,26252,2,0,P|156:164|89:169,1,107.999996704102,8|2,0:2|0:2,0:0:0:0:
27,214,26459,1,8,0:2:0:0:
128,343,26562,6,0,B|150:307|117:266|117:266|123:290|111:317,1,107.999996704102,4|8,0:2|0:2,0:0:0:0:
313,179,26769,2,0,B|291:143|324:102|324:102|318:126|330:153,1,107.999996704102,2|8,0:2|0:2,0:0:0:0:
97,69,26976,2,0,B|75:72|51:80|51:80|31:62|-15:42,2,107.999996704102,2|8|2,0:2|0:2|0:2,0:0:0:0:
284,4,27286,6,0,P|380:11|418:132,1,215.999993408203,10|8,0:2|0:2,0:0:0:0:
379,229,27597,1,2,0:2:0:0:
413,319,27700,1,8,0:2:0:0:
504,284,27804,1,2,0:2:0:0:
469,194,27907,1,10,0:2:0:0:
303,290,28011,6,0,L|236:274,1,53.9999983520508,8|8,0:2|0:2,0:0:0:0:
138,251,28114,2,0,L|71:235,1,53.9999983520508,8|8,0:2|0:2,0:0:0:0:
0,220,28217,5,6,0:0:0:0:
208,82,28424,2,0,L|224:155,1,53.9999983520508,4|4,0:0|0:0,0:0:0:0:
250,277,28528,2,0,L|238:224,1,53.9999983520508,4|4,0:0|0:0,0:0:0:0:
112,80,28631,2,0,L|128:153,1,53.9999983520508,4|0,0:0|0:0,0:0:0:0:
329,198,28735,2,0,L|317:145,1,53.9999983520508,4|0,0:0|0:0,0:0:0:0:
446,21,28838,5,4,0:0:0:0:
439,47,28889,1,4,0:0:0:0:
432,73,28941,1,12,0:2:0:0:
419,85,29148,1,0,0:0:0:0:
503,162,29252,5,10,0:2:0:0:
504,168,29303,1,4,0:0:0:0:
505,175,29355,1,4,0:0:0:0:
506,181,29407,1,4,0:0:0:0:
507,188,29458,1,10,0:2:0:0:
509,195,29510,1,4,0:0:0:0:
510,201,29562,1,4,0:0:0:0:
511,208,29614,1,4,0:0:0:0:
512,215,29666,6,0,P|498:253|478:281,1,53.9999983520508,8|0,0:2|0:0,0:0:0:0:
377,384,29769,2,0,B|368:338|383:302|383:302|363:288|343:264|343:264|348:216|298:163,1,215.999993408203,4|8,0:0|0:2,0:0:0:0:
213,153,30080,1,4,0:0:0:0:
200,157,30131,1,4,0:0:0:0:
187,161,30183,1,4,0:0:0:0:
174,165,30235,1,4,0:0:0:0:
161,170,30286,1,4,0:0:0:0:
148,174,30338,1,0,0:0:0:0:
136,178,30390,1,4,0:0:0:0:
123,182,30442,1,0,0:0:0:0:
108,186,30493,6,0,L|124:120,1,53.9999983520508,10|0,0:2|0:0,0:0:0:0:
30,16,30597,2,0,B|4:52|4:52|9:95|49:121,1,107.999996704102,12|0,0:2|0:0,0:0:0:0:
404,186,30804,2,0,L|388:120,1,53.9999983520508,4|4,0:0|0:0,0:0:0:0:
482,16,30908,2,0,B|508:52|508:52|503:95|463:121,1,107.999996704102,12|4,0:2|0:3,0:0:0:0:
256,6,31114,2,0,B|262:50|262:50|252:72|252:72|266:147,1,107.999996704102,12|0,0:2|0:0,0:0:0:0:
356,258,31321,5,12,0:2:0:0:
155,299,31424,1,8,0:2:0:0:
204,154,31528,6,0,B|256:132|256:132|320:193,2,107.999996704102,6|6|10,3:0|3:0|0:0,0:0:0:0:
59,58,34424,5,4,0:3:0:0:
59,58,34528,1,4,0:3:0:0:
135,97,34631,2,0,P|175:81|235:74,1,90,12|4,0:2|0:3,0:0:0:0:
293,154,34942,1,4,0:3:0:0:
220,237,35045,2,0,B|192:200|192:200|206:155,1,90,8|0,0:2|0:0,0:0:0:0:
300,144,35355,1,4,0:3:0:0:
365,209,35459,2,0,L|347:303,1,90,10|0,0:2|0:0,0:0:0:0:
276,365,35769,1,4,0:3:0:0:
182,322,35873,2,0,P|113:327|86:348,1,90,8|0,0:0|0:0,0:0:0:0:
276,365,36183,1,4,0:3:0:0:
347,298,36286,2,0,P|362:308|401:315,1,45,10|0,0:0|0:0,0:0:0:0:
489,270,36493,6,0,L|474:219,1,45,8|8,0:3|0:3,0:0:0:0:
442,108,36700,2,0,L|454:151,1,45,8|6,0:0|0:3,0:0:0:0:
379,215,36907,1,0,0:0:0:0:
379,215,37011,1,4,0:3:0:0:
293,165,37114,2,0,P|272:117|276:61,1,90,10|6,0:0|0:3,0:0:0:0:
342,10,37424,5,4,0:3:0:0:
268,64,37528,2,0,P|225:63|190:47,2,72,8|6|0,0:0|0:3|0:0,0:0:0:0:
313,169,37838,1,8,0:0:0:0:
284,296,37942,1,8,0:0:0:0:
367,248,38045,1,8,0:0:0:0:
228,176,38148,6,0,P|169:188|144:197,2,72,6|4|4,0:0|0:0|0:0,0:0:0:0:
268,64,38459,2,0,P|321:109|409:119,1,144,10|0,0:2|0:0,0:0:0:0:
405,105,38769,6,0,P|385:142|380:180,1,72,10|4,0:2|0:3,0:0:0:0:
429,311,39080,5,4,0:3:0:0:
429,311,39183,1,4,0:3:0:0:
350,360,39286,2,0,L|193:387,1,144,10|0,0:2|0:0,0:0:0:0:
191,381,39597,6,0,P|182:355|198:298,1,72,10|4,0:2|0:3,0:0:0:0:
258,236,39907,5,4,0:3:0:0:
258,236,40011,1,4,0:3:0:0:
182,182,40114,2,0,P|139:185|74:265,1,144,10|0,0:2|0:0,0:0:0:0:
69,277,40424,6,0,P|51:248|17:228,1,72,10|4,0:2|0:3,0:0:0:0:
34,113,40735,5,4,0:3:0:0:
34,113,40838,1,4,0:3:0:0:
115,52,40942,2,0,L|259:74,1,144,10|0,0:2|0:0,0:0:0:0:
265,92,41252,6,0,L|319:78,1,54,10|0,0:2|2:0,0:0:0:0:
416,101,41459,6,0,L|439:18,2,72,6|4|4,0:3|0:3|0:3,0:0:0:0:
491,209,41769,2,0,B|441:226|441:226|400:198|342:185,1,144,10|0,0:2|0:0,0:0:0:0:
371,213,42080,6,0,P|379:248|359:294,1,72,10|4,0:2|0:3,0:0:0:0:
290,348,42390,5,4,0:3:0:0:
290,348,42493,1,4,0:3:0:0:
210,284,42597,2,0,B|184:253|184:253|176:199|214:152,1,144,10|0,0:2|0:0,0:0:0:0:
218,136,42907,6,0,P|228:165|264:193,1,72,10|6,0:2|0:3,0:0:0:0:
309,101,43217,5,4,0:3:0:0:
309,101,43321,1,4,0:3:0:0:
233,41,43424,2,0,P|183:24|89:26,1,144,10|0,0:2|0:0,0:0:0:0:
36,126,43735,1,10,0:2:0:0:
101,208,43838,1,8,0:2:0:0:
24,306,43942,5,4,0:2:0:0:
24,306,44045,1,4,0:0:0:0:
106,364,44148,1,4,0:0:0:0:
216,351,44252,2,0,P|231:321|240:273,1,72,10|0,0:2|0:0,0:0:0:0:
286,111,44459,1,10,0:2:0:0:
314,204,44562,1,10,0:2:0:0:
342,297,44666,1,10,0:2:0:0:
499,144,48080,6,0,P|419:163|342:107,1,161.999995056153,4|0,0:2|0:0,0:0:0:0:
331,50,48493,1,6,0:0:0:0:
339,103,48596,1,4,0:0:0:0:
348,156,48699,1,6,0:0:0:0:
357,209,48803,1,4,0:0:0:0:
365,263,48907,6,0,P|322:290|259:282,1,107.999996704102,10|6,0:2|0:3,0:0:0:0:
129,166,49217,2,0,P|181:161|227:188,1,107.999996704102,6|0,0:3|0:0,0:0:0:0:
267,371,49528,1,10,0:2:0:0:
267,371,49735,5,2,0:0:0:0:
401,246,49942,1,4,0:3:0:0:
275,113,50148,1,10,0:2:0:0:
141,238,50355,1,2,0:0:0:0:
22,56,50562,6,0,P|80:60|137:84,1,107.999996704102,10|2,0:2|0:0,0:0:0:0:
292,198,50873,2,0,P|234:194|177:170,1,107.999996704102,6|4,0:3|0:3,0:0:0:0:
205,1,51183,2,0,L|220:69,1,53.9999983520508,10|0,0:2|0:0,0:0:0:0:
31,279,51390,6,0,B|-2:246|-2:246|-7:174|74:147,1,161.999995056153,4|0,0:2|0:0,0:0:0:0:
146,244,51804,2,0,L|202:225,1,53.9999983520508,10|0,0:2|0:0,0:0:0:0:
312,252,52011,1,6,0:3:0:0:
312,252,52114,1,4,0:3:0:0:
387,165,52217,6,0,B|352:133|352:133|359:47,1,107.999996704102,10|6,0:2|0:3,0:0:0:0:
479,4,52528,2,0,B|514:36|514:36|507:122,1,107.999996704102,6|4,0:3|0:3,0:0:0:0:
474,272,52838,1,10,0:2:0:0:
474,272,53252,1,4,0:3:0:0:
377,343,53459,5,10,0:2:0:0:
350,336,53510,1,4,0:3:0:0:
324,330,53562,1,4,0:3:0:0:
298,324,53614,1,0,0:0:0:0:
271,318,53666,6,0,L|255:262,1,45,10|0,0:2|0:0,0:0:0:0:
165,227,53770,2,0,L|149:171,1,45,8|0,0:2|0:0,0:0:0:0:
285,123,53873,6,0,P|321:96|379:84,1,90,6|4,0:3|0:0,0:0:0:0:
241,4,54080,1,10,0:2:0:0:
163,38,54183,2,0,P|127:11|69:-1,1,90,2|8,0:0|0:3,0:0:0:0:
18,30,54338,1,8,0:3:0:0:
17,35,54389,1,8,0:3:0:0:
16,41,54441,1,8,0:3:0:0:
15,46,54493,1,6,0:3:0:0:
85,123,54597,1,8,0:2:0:0:
20,220,54700,6,0,B|47:197|47:197|91:221|91:221|121:189|182:183,1,161.999995056153,4|0,0:2|0:0,0:0:0:0:
284,235,55114,1,6,0:3:0:0:
331,211,55217,1,4,0:3:0:0:
354,163,55320,1,6,0:3:0:0:
343,111,55424,1,4,0:3:0:0:
302,78,55528,6,0,P|243:90|187:124,1,107.999996704102,10|6,0:2|0:3,0:0:0:0:
388,175,55838,2,0,P|447:187|503:221,1,107.999996704102,6|4,0:3|0:3,0:0:0:0:
338,318,56148,1,10,0:2:0:0:
338,318,56355,5,2,0:0:0:0:
204,193,56562,1,4,0:3:0:0:
131,360,56768,1,10,0:2:0:0:
0,235,56975,1,6,0:3:0:0:
287,145,57183,6,0,P|288:210|274:270,1,107.999996704102,10|2,0:2|0:0,0:0:0:0:
77,146,57493,2,0,P|67:92|69:39,1,107.999996704102,6|4,0:3|0:3,0:0:0:0:
171,64,57804,1,10,0:2:0:0:
150,240,58011,6,0,B|94:266|94:266|54:241|-22:232,1,161.999995056153,4|0,0:2|0:0,0:0:0:0:
219,176,58424,2,0,L|245:238,1,53.9999983520508,10|0,0:2|0:0,0:0:0:0:
289,333,58631,1,6,0:0:0:0:
289,333,58735,1,4,0:0:0:0:
369,281,58838,6,0,P|408:278|482:308,1,107.999996704102,10|6,0:2|0:0,0:0:0:0:
322,156,59148,2,0,P|272:176|218:175,1,107.999996704102,6|4,0:0|0:0,0:0:0:0:
157,111,59459,1,10,0:2:0:0:
157,111,59873,1,4,0:0:0:0:
226,36,60080,5,10,0:2:0:0:
252,39,60131,1,4,0:0:0:0:
279,42,60183,1,4,0:0:0:0:
305,45,60235,1,0,0:0:0:0:
333,48,60286,6,0,L|317:-5,1,45,10|0,0:2|0:0,0:0:0:0:
236,171,60390,2,0,L|252:118,1,45,8|0,0:2|0:0,0:0:0:0:
438,271,60493,6,0,P|455:213|445:173,1,90,4|4,0:0|0:0,0:0:0:0:
289,379,60700,1,8,0:2:0:0:
206,342,60804,2,0,P|185:297|198:244,1,90,2|8,0:0|0:2,0:0:0:0:
359,299,61010,1,4,0:0:0:0:
360,305,61062,1,4,0:0:0:0:
361,310,61114,2,0,L|271:293,1,90,10|8,0:2|0:2,0:0:0:0:
79,356,61321,5,4,0:2:0:0:
79,356,61735,1,8,0:2:0:0:
75,284,61838,1,8,0:2:0:0:
64,213,61941,1,8,0:2:0:0:
43,144,62045,1,8,0:2:0:0:
15,78,62148,5,14,0:2:0:0:
30,90,62355,1,0,0:0:0:0:
133,83,62459,2,0,L|215:62,1,72,14|0,0:2|0:0,0:0:0:0:
249,132,62666,1,0,0:0:0:0:
349,121,62770,2,0,L|431:142,1,72,14|0,0:2|0:0,0:0:0:0:
418,138,63183,5,6,0:0:0:0:
510,40,63390,1,10,0:2:0:0:
431,4,63493,1,8,0:2:0:0:
497,51,63597,1,4,0:0:0:0:
443,224,63804,6,0,P|415:231|361:248,1,72,12|0,0:2|0:0,0:0:0:0:
332,329,64011,1,4,0:0:0:0:
248,307,64114,1,4,0:0:0:0:
131,359,64217,6,0,P|103:352|49:335,1,72,0|4,0:0|0:0,0:0:0:0:
183,220,64424,2,0,P|211:213|265:196,1,72,12|0,0:2|0:0,0:0:0:0:
69,10,64631,5,12,0:2:0:0:
32,48,64734,1,4,0:0:0:0:
30,101,64837,1,0,0:0:0:0:
63,142,64941,1,4,0:0:0:0:
115,152,65044,1,8,0:2:0:0:
318,24,65252,1,4,0:0:0:0:
373,38,65355,1,4,0:0:0:0:
428,55,65459,6,0,L|448:130,2,72,8|4|0,0:2|0:0|0:0,0:0:0:0:
251,192,65769,2,0,L|269:122,2,72,4|0|0,0:0|0:0|0:0,0:0:0:0:
477,282,66080,1,8,0:2:0:0:
477,282,66493,5,4,0:0:0:0:
477,282,66597,1,8,0:0:0:0:
373,349,66700,2,0,P|352:314|346:274,1,72,8|8,0:2|0:2,0:0:0:0:
411,79,66907,2,0,P|432:114|438:154,1,72,4|4,0:0|0:0,0:0:0:0:
286,153,67114,5,10,0:2:0:0:
217,75,67217,1,8,0:2:0:0:
114,108,67321,2,0,L|25:85,1,72,8|8,0:2|0:2,0:0:0:0:
246,243,67528,2,0,L|315:261,1,72,4|4,0:0|0:0,0:0:0:0:
165,351,67735,1,4,0:0:0:0:
80,384,67838,1,4,0:0:0:0:
22,315,67942,5,6,0:2:0:0:
22,315,68148,1,4,0:0:0:0:
22,315,68355,1,4,0:0:0:0:
22,315,68562,1,4,0:0:0:0:
57,307,68630,1,4,0:0:0:0:
92,300,68699,1,4,0:0:0:0:
127,292,68769,6,0,P|142:333|133:380,2,72,14|4|4,0:2|0:0|0:0,0:0:0:0:
25,192,69183,1,4,0:0:0:0:
25,192,69390,1,4,0:0:0:0:
96,121,69493,1,0,0:0:0:0:
36,39,69597,5,4,0:2:0:0:
36,39,69804,1,4,0:0:0:0:
36,39,70011,1,4,0:0:0:0:
36,39,70217,1,4,0:0:0:0:
122,219,70424,5,14,0:2:0:0:
122,219,70631,1,4,0:0:0:0:
122,219,70838,1,4,0:0:0:0:
122,219,71044,1,4,0:0:0:0:
256,0,71252,5,4,0:2:0:0:
256,0,71459,1,4,0:0:0:0:
256,0,71666,1,4,0:0:0:0:
256,0,71872,1,4,0:0:0:0:
332,74,72080,6,0,P|378:64|410:48,1,72,12|0,0:2|0:0,0:0:0:0:
171,126,72286,2,0,P|137:112|102:105,1,72,6|0,0:0|0:0,0:0:0:0:
353,263,72493,2,0,P|366:223|368:185,1,72,6|0,0:0|0:0,0:0:0:0:
161,273,72700,2,0,P|164:308|176:342,1,72,6|0,0:0|0:0,0:0:0:0:
256,384,72907,5,4,0:2:0:0:
256,384,73114,1,6,0:0:0:0:
350,282,73321,2,0,P|396:287|426:302,1,72,6|0,0:0|0:0,0:0:0:0:
160,173,73528,2,0,P|114:168|84:153,1,72,6|0,0:0|0:0,0:0:0:0:
340,95,73735,6,0,P|401:76|490:71,1,144,12|4,0:2|0:0,0:0:0:0:
180,24,74045,2,0,P|119:5|30:0,1,144,2|0,0:0|0:0,0:0:0:0:
256,128,74355,1,6,0:0:0:0:
256,128,74459,1,0,0:0:0:0:
129,128,74562,6,0,P|79:146|60:157,1,72,6|0,0:0|0:0,0:0:0:0:
120,236,74769,2,0,P|98:284|92:305,1,72,6|2,0:0|0:0,0:0:0:0:
204,348,74976,1,6,0:0:0:0:
283,356,75080,1,0,0:0:0:0:
361,363,75183,2,0,P|369:329|386:294,1,72,6|0,0:0|0:0,0:0:0:0:
445,173,75390,5,14,0:2:0:0:
366,181,75494,1,2,0:0:0:0:
288,192,75597,1,6,0:0:0:0:
209,200,75701,1,0,0:0:0:0:
131,214,75804,2,0,P|149:248|156:283,1,72,6|0,0:0|0:0,0:0:0:0:
115,0,76011,5,6,0:0:0:0:
194,8,76115,1,2,0:0:0:0:
272,19,76218,1,6,0:2:0:0:
351,27,76322,1,0,0:0:0:0:
429,41,76425,2,0,P|411:75|404:110,1,72,6|0,0:0|0:0,0:0:0:0:
191,384,76631,5,6,0:0:0:0:
175,306,76735,1,2,0:0:0:0:
163,228,76838,1,6,0:0:0:0:
147,150,76942,1,0,0:0:0:0:
138,71,77045,6,0,P|45:69|-3:16,1,144,14|4,0:2|0:0,0:0:0:0:
318,32,77355,2,0,P|376:-7|446:0,1,144,2|0,0:0|0:0,0:0:0:0:
256,227,77666,2,0,L|250:143,1,72,6|0,0:0|0:0,0:0:0:0:
264,340,77873,5,4,0:2:0:0:
264,340,78080,1,4,0:0:0:0:
264,340,78286,1,4,0:0:0:0:
264,340,78493,1,4,0:0:0:0:
381,216,78700,6,0,P|378:250|363:292,1,72,12|0,0:2|0:0,0:0:0:0:
175,236,78907,2,0,P|178:202|193:160,1,72,6|0,0:0|0:0,0:0:0:0:
449,316,79114,2,0,P|429:343|395:372,1,72,6|0,0:0|0:0,0:0:0:0:
119,139,79321,2,0,P|138:111|172:82,1,72,6|0,0:0|0:0,0:0:0:0:
372,71,79528,6,0,L|361:-17,2,72,6|0|4,0:2|0:0|0:0,0:0:0:0:
476,111,79838,2,0,L|484:182,2,72,2|0|0,0:0|0:0|0:0,0:0:0:0:
339,207,80148,2,0,L|347:278,1,72,6|0,0:0|0:0,0:0:0:0:
141,177,80355,6,0,L|152:89,2,72,14|0|4,0:2|0:0|0:0,0:0:0:0:
37,217,80666,2,0,L|28:288,2,72,2|0|0,0:0|0:0|0:0,0:0:0:0:
174,313,80976,2,0,L|165:384,1,72,6|0,0:0|0:0,0:0:0:0:
337,361,81183,6,0,L|379:349,2,36,4|0|0,0:2|0:0|0:0,0:0:0:0:
398,231,81390,2,0,P|428:259|430:313,1,72,6|0,0:0|0:0,0:0:0:0:
255,190,81597,2,0,L|213:178,2,36,6|0|0,0:0|0:0|0:0,0:0:0:0:
194,60,81804,2,0,P|164:88|162:142,1,72,6|0,0:0|0:0,0:0:0:0:
444,19,82011,6,0,L|459:79,2,36,14|0|0,0:2|0:0|0:0,0:0:0:0:
364,36,82217,2,0,L|379:96,2,36,6|0|0,0:0|0:0|0:0,0:0:0:0:
255,190,82424,2,0,L|240:250,2,36,6|0|0,0:0|0:0|0:0,0:0:0:0:
335,207,82631,2,0,L|320:267,2,36,2|0|0,0:0|0:0|0:0,0:0:0:0:
439,370,82838,6,0,B|461:350|461:350|464:322|448:282,1,72,6|0,0:0|0:0,0:0:0:0:
352,145,83045,2,0,B|330:165|330:165|327:193|343:233,1,72,6|0,0:0|0:0,0:0:0:0:
301,384,83252,2,0,B|323:364|323:364|326:336|310:296,1,72,6|0,0:0|0:0,0:0:0:0:
214,159,83459,2,0,B|192:179|192:179|189:207|205:247,1,72,6|0,0:0|0:0,0:0:0:0:
482,224,83666,6,0,L|388:240,1,72,12|0,0:2|0:0,0:0:0:0:
43,159,83873,2,0,L|137:175,1,72,6|0,0:0|0:0,0:0:0:0:
492,70,84080,2,0,L|398:86,1,72,6|0,0:0|0:0,0:0:0:0:
53,5,84287,2,0,L|147:21,1,72,6|0,0:0|0:0,0:0:0:0:
123,326,84493,5,6,0:0:0:0:
198,311,84562,1,2,0:0:0:0:
248,296,84631,1,2,0:0:0:0:
283,289,84700,1,6,0:0:0:0:
322,278,84769,1,2,0:0:0:0:
379,263,84838,1,2,0:0:0:0:
448,229,84907,2,0,P|436:208|416:146,1,72,6|0,0:0|0:0,0:0:0:0:
393,0,85114,5,6,0:0:0:0:
318,15,85183,1,2,0:0:0:0:
268,30,85252,1,2,0:0:0:0:
233,37,85321,1,10,0:2:0:0:
194,48,85390,1,2,0:0:0:0:
137,63,85459,1,2,0:0:0:0:
68,97,85528,2,0,P|80:118|100:180,1,72,6|0,0:0|0:0,0:0:0:0:
10,296,85735,6,0,L|24:238,2,48,6|0|0,0:0|0:0|0:0,0:0:0:0:
115,337,85942,2,0,L|103:383,2,48,6|0|0,0:0|0:0|0:0,0:0:0:0:
166,234,86148,5,6,0:0:0:0:
214,220,86216,1,2,0:0:0:0:
249,227,86285,1,2,0:0:0:0:
285,240,86354,1,6,0:0:0:0:
311,261,86423,1,0,0:0:0:0:
324,281,86492,1,0,0:0:0:0:
328,299,86562,6,0,L|347:237,2,48,6|2|2,0:0|0:0|0:0,0:0:0:0:
465,233,86769,2,0,L|445:165,2,48,6|2|2,0:0|0:0|0:0,0:0:0:0:
438,102,86975,5,6,0:0:0:0:
319,123,87080,1,8,0:2:0:0:
200,144,87183,2,0,L|111:163,1,72,8|0,0:2|0:0,0:0:0:0:
0,0,87390,5,10,0:2:0:0:
111,30,87528,5,8,0:0:0:0:
221,62,87666,5,8,0:0:0:0:
421,8,87804,6,0,B|418:100|345:121|345:121|385:158|403:233|403:233|326:153|164:202|242:347|305:318|316:286,1,576,4|2,0:0|2:0,0:0:0:0:
256,192,102700,12,2,105700,0:0:0:0:
197,180,106011,6,0,P|152:198|89:177,2,99.0000030212403,4|8|4,0:2|0:2|0:0,0:0:0:0:
259,91,106321,1,10,0:2:0:0:
317,240,106424,2,0,P|362:222|425:243,2,99.0000030212403,6|8|4,0:0|0:2|0:0,0:0:0:0:
259,91,106735,1,10,0:2:0:0:
340,26,106838,6,0,B|369:7|369:7|408:21|440:51,1,99.0000030212403,6|8,0:0|0:2,0:0:0:0:
154,96,107045,2,0,B|125:77|125:77|86:91|54:121,1,99.0000030212403,6|8,0:0|0:2,0:0:0:0:
317,240,107252,2,0,P|332:202|320:136,1,99.0000030212403,6|8,0:0|0:2,0:0:0:0:
240,328,107459,1,4,0:0:0:0:
240,328,107562,1,10,0:2:0:0:
333,250,107666,6,0,L|452:266,2,99.0000030212403,4|8|4,0:2|0:2|0:0,0:0:0:0:
211,102,107976,1,10,0:2:0:0:
128,188,108080,2,0,L|9:204,2,99.0000030212403,6|8|4,0:0|0:2|0:0,0:0:0:0:
269,2,108390,1,10,0:2:0:0:
370,86,108493,6,0,B|392:62|392:62|391:28|366:-5,1,99.0000030212403,6|8,0:0|0:2,0:0:0:0:
158,268,108700,2,0,B|136:292|136:292|137:326|162:359,1,99.0000030212403,6|8,0:0|0:2,0:0:0:0:
384,92,108907,2,0,B|406:68|406:68|405:34|380:1,1,99.0000030212403,4|8,0:0|0:2,0:0:0:0:
161,16,109114,1,8,0:2:0:0:
168,51,109165,1,8,0:2:0:0:
176,88,109217,1,8,0:2:0:0:
183,124,109269,1,8,0:2:0:0:
191,161,109321,6,0,L|301:138,2,99.0000030212403,4|8|4,0:2|0:2|0:0,0:0:0:0:
158,268,109631,1,10,0:2:0:0:
128,367,109735,2,0,L|18:344,2,99.0000030212403,6|8|4,0:0|0:2|0:0,0:0:0:0:
158,268,110045,1,10,0:2:0:0:
93,113,110148,6,0,B|66:138|66:138|52:169|78:218,1,99.0000030212403,6|8,0:0|0:2,0:0:0:0:
254,384,110355,2,0,B|281:359|281:359|295:328|269:279,1,99.0000030212403,6|8,0:0|0:2,0:0:0:0:
55,115,110562,2,0,B|35:146|35:146|29:179|67:220,1,99.0000030212403,6|8,0:0|0:2,0:0:0:0:
202,133,110769,1,4,0:0:0:0:
202,133,110873,1,8,0:2:0:0:
347,142,110976,6,0,L|327:35,2,99.0000030212403,6|8|4,0:0|0:2|0:0,0:0:0:0:
471,72,111286,1,10,0:2:0:0:
494,189,111390,2,0,L|512:286,2,99.0000030212403,6|8|4,0:0|0:2|0:0,0:0:0:0:
471,72,111700,1,10,0:2:0:0:
408,207,111804,6,0,P|351:231|298:217,1,99.0000030212403,6|8,0:0|0:2,0:0:0:0:
48,114,112011,2,0,P|105:138|158:124,1,99.0000030212403,6|8,0:0|0:2,0:0:0:0:
403,5,112217,2,0,P|346:29|293:15,1,99.0000030212403,6|8,0:0|0:2,0:0:0:0:
165,0,112424,2,0,L|174:52,1,49.5000015106202,8|8,0:2|0:2,0:0:0:0:
200,197,112528,2,0,L|209:249,1,49.5000015106202,8|8,0:2|0:2,0:0:0:0:
313,359,112631,6,0,B|323:346|323:346|355:354|355:354|377:321|438:317,1,107.999996704102,4|8,0:2|0:2,0:0:0:0:
507,360,112838,1,4,0:0:0:0:
507,360,112942,1,10,0:2:0:0:
394,196,113045,2,0,B|384:183|384:183|352:191|352:191|330:158|269:154,1,107.999996704102,6|8,0:0|0:2,0:0:0:0:
200,197,113252,1,4,0:0:0:0:
200,197,113356,1,10,0:2:0:0:
450,260,113459,6,0,P|483:207|468:147,1,107.999996704102,6|8,0:0|0:2,0:0:0:0:
383,0,113666,2,0,P|350:53|365:113,1,107.999996704102,6|8,0:0|0:2,0:0:0:0:
240,332,113873,2,0,P|273:279|258:219,1,107.999996704102,6|8,0:0|0:2,0:0:0:0:
126,153,114080,1,4,0:0:0:0:
126,153,114183,1,8,0:2:0:0:
15,256,114286,6,0,B|50:283|50:283|81:253|129:251,1,107.999996704102,6|8,0:0|0:2,0:0:0:0:
240,332,114493,1,4,0:0:0:0:
240,332,114597,1,10,0:2:0:0:
330,177,114700,2,0,B|295:204|295:204|264:174|216:172,1,107.999996704102,6|8,0:0|0:2,0:0:0:0:
105,253,114907,1,4,0:0:0:0:
105,253,115011,1,10,0:2:0:0:
28,135,115114,6,0,B|3:103|3:103|30:28,1,107.999996704102,6|8,0:0|0:2,0:0:0:0:
237,236,115321,2,0,B|262:268|262:268|239:331,1,107.999996704102,6|8,0:0|0:2,0:0:0:0:
151,87,115528,2,0,L|280:71,1,107.999996704102,6|8,0:0|0:2,0:0:0:0:
477,0,115735,1,8,0:2:0:0:
467,39,115786,1,8,0:2:0:0:
458,78,115838,1,8,0:2:0:0:
449,118,115890,1,8,0:2:0:0:
440,157,115942,6,0,P|384:172|322:135,1,116.999994644165,6|8,0:2|0:2,0:0:0:0:
275,68,116148,1,4,0:0:0:0:
102,202,116252,2,0,L|90:139,1,58.4999973220826,8|0,0:2|0:0,0:0:0:0:
43,77,116355,2,0,P|99:62|161:99,1,116.999994644165,6|8,0:0|0:2,0:0:0:0:
128,289,116562,2,0,P|72:304|10:267,1,116.999994644165,4|8,0:0|0:2,0:0:0:0:
275,272,116769,6,0,B|271:319|271:319|257:339|257:339|251:402,1,116.999994644165,6|8,0:0|0:2,0:0:0:0:
218,137,116976,2,0,B|222:91|222:91|236:71|236:71|240:24,1,116.999994644165,6|8,0:0|0:2,0:0:0:0:
479,218,117183,2,0,P|419:236|363:201,1,116.999994644165,6|8,0:0|0:2,0:0:0:0:
324,117,117390,1,4,0:0:0:0:
324,117,117493,1,8,0:2:0:0:
445,35,117597,6,0,B|460:41|478:37|478:37|443:70|389:39,1,116.999994644165,6|8,0:0|0:2,0:0:0:0:
162,8,117804,1,0,0:2:0:0:
132,90,117907,2,0,L|150:158,1,58.4999973220826,10|0,0:2|0:0,0:0:0:0:
74,221,118011,2,0,B|59:227|41:223|41:223|76:256|130:225,1,116.999994644165,6|8,0:0|0:2,0:0:0:0:
256,192,118217,1,4,0:0:0:0:
256,192,118321,1,10,0:2:0:0:
392,272,118424,6,0,P|419:247|504:244,1,116.999994644165,6|8,0:0|0:2,0:0:0:0:
132,90,118631,2,0,P|105:65|20:62,1,116.999994644165,6|8,0:0|0:2,0:0:0:0:
333,0,118838,5,10,0:2:0:0:
330,14,118889,1,8,0:2:0:0:
328,28,118941,1,8,0:2:0:0:
325,43,118993,1,8,0:2:0:0:
323,57,119044,1,8,0:2:0:0:
320,72,119096,1,8,0:2:0:0:
318,86,119148,1,8,0:2:0:0:
315,100,119200,1,8,0:2:0:0:
313,115,119251,5,12,0:2:0:0:
481,229,120493,6,0,P|457:219|436:186,1,58.4999973220826,8|8,0:2|0:2,0:0:0:0:
511,162,120597,1,4,0:0:0:0:
511,162,120648,1,4,0:0:0:0:
511,162,120700,6,0,L|493:287,1,108,8|0,0:2|0:0,0:0:0:0:
456,370,120907,6,0,L|392:347,1,45,6|0,0:0|0:0,0:0:0:0:
290,319,121011,2,0,L|332:334,1,45,8|4,0:2|0:0,0:0:0:0:
464,368,121114,6,0,L|405:334,1,53.9999983520508,8|4,0:2|0:0,0:0:0:0:
261,219,121217,2,0,L|343:265,1,53.9999983520508,8|4,0:2|0:0,0:0:0:0:
471,373,121321,6,0,L|419:330,1,62.9999980773926,8|4,0:2|0:0,0:0:0:0:
251,119,121424,2,0,L|323:179,1,62.9999980773926,8|4,0:2|0:0,0:0:0:0:
477,383,121528,6,0,L|428:325,1,72,8|4,0:2|0:0,0:0:0:0:
269,16,121631,2,0,L|330:88,1,72,8|12,0:2|0:2,0:0:0:0:
101,301,121735,6,0,P|58:328|-20:305,1,107.999996704102,6|2,0:0|0:2,0:0:0:0:
28,187,121942,1,6,0:0:0:0:
28,187,121993,1,0,0:0:0:0:
28,187,122045,1,6,0:0:0:0:
182,152,122148,2,0,L|162:235,1,53.9999983520508,6|0,0:0|0:0,0:0:0:0:
218,359,122252,2,0,L|230:306,1,53.9999983520508,6|0,0:0|0:0,0:0:0:0:
327,253,122355,1,4,0:2:0:0:
415,28,122562,5,4,0:2:0:0:
461,139,122666,1,8,0:2:0:0:
426,33,122769,1,4,0:0:0:0:
512,64,122873,5,10,0:2:0:0:
375,142,122976,5,6,0:0:0:0:
327,253,123080,1,8,0:2:0:0:
362,147,123183,1,4,0:0:0:0:
276,178,123287,5,10,0:2:0:0:
399,324,123390,6,0,B|422:321|446:302|446:302|526:319,1,107.999996704102,6|8,0:0|0:2,0:0:0:0:
145,218,123597,2,0,B|122:215|98:196|98:196|18:213,1,107.999996704102,6|8,0:0|0:2,0:0:0:0:
407,126,123804,2,0,B|430:123|454:104|454:104|534:121,2,107.999996704102,6|8|4,0:0|0:2|0:0,0:0:0:0:
277,51,124114,5,10,0:2:0:0:
168,122,124217,5,6,0:0:0:0:
127,14,124321,1,8,0:2:0:0:
178,134,124424,1,4,0:0:0:0:
48,121,124528,5,10,0:2:0:0:
49,256,124631,5,6,0:0:0:0:
86,369,124735,1,8,0:2:0:0:
35,249,124838,1,4,0:0:0:0:
173,291,124942,5,10,0:2:0:0:
173,291,124993,1,8,0:2:0:0:
173,291,125045,2,0,P|229:303|288:267,1,107.999996704102,6|8,0:0|0:2,0:0:0:0:
446,125,125252,2,0,P|390:137|331:101,1,107.999996704102,6|8,0:0|0:2,0:0:0:0:
398,0,125459,2,0,L|405:57,1,53.9999983520508,6|0,0:2|0:0,0:0:0:0:
206,190,125562,2,0,L|199:136,1,53.9999983520508,8|0,0:2|0:0,0:0:0:0:
105,4,125666,1,8,0:2:0:0:
64,5,125717,1,8,0:2:0:0:
29,25,125769,1,8,0:2:0:0:
6,58,125821,1,8,0:2:0:0:
0,97,125872,5,12,0:2:0:0:
206,190,126080,1,8,0:0:0:0:
245,181,126131,1,8,0:0:0:0:
285,172,126183,1,8,0:0:0:0:
324,164,126235,1,8,0:0:0:0:
364,155,126286,1,6,0:0:0:0:
380,163,126493,1,0,0:0:0:0:
290,39,126597,6,0,B|244:30|244:30|204:53|204:53|168:7|85:10,1,215.999993408203,12|0,0:2|0:0,0:0:0:0:
428,223,126907,2,0,P|458:155|438:109,1,107.999996704102,12|0,0:2|0:0,0:0:0:0:
184,287,127114,2,0,P|177:339|205:384,1,107.999996704102,12|0,0:2|0:0,0:0:0:0:
346,384,127321,2,0,L|332:321,1,53.9999983520508,12|0,0:2|0:0,0:0:0:0:
310,212,127424,2,0,L|296:149,1,53.9999983520508,8|8,0:2|0:2,0:0:0:0:
131,107,127528,6,0,B|104:134|61:140|61:140|15:123|15:123|-5:127|-30:140|-30:140|49:178,1,215.999993408203,6|4,0:0|0:0,0:0:0:0:
13,245,127786,1,4,0:0:0:0:
15,251,127837,1,4,0:0:0:0:
17,257,127889,1,4,0:0:0:0:
19,264,127941,1,6,0:0:0:0:
28,276,128148,1,0,0:0:0:0:
93,355,128252,6,0,B|135:343|152:318|152:318|216:324|216:324|228:278|301:258,1,215.999993408203,12|4,0:2|0:0,0:0:0:0:
167,193,128562,2,0,P|147:173|156:88,1,107.999996704102,12|4,0:2|0:0,0:0:0:0:
385,284,128769,2,0,P|405:304|396:389,1,107.999996704102,12|4,0:2|0:0,0:0:0:0:
326,158,128976,1,12,0:2:0:0:
499,111,129080,1,8,0:2:0:0:
302,25,129183,6,0,B|248:11|248:11|221:23|184:18,2,107.999996704102,6|8|4,0:0|0:2|0:0,0:0:0:0:
253,101,129493,1,10,0:2:0:0:
407,98,129597,2,0,P|434:49|411:-18,1,107.999996704102,6|8,0:0|0:2,0:0:0:0:
253,101,129804,1,4,0:0:0:0:
224,246,129907,6,0,B|167:254|124:208|124:208|57:187|8:232,1,215.999993408203,10|8,0:2|0:2,0:0:0:0:
68,118,130217,2,0,B|81:97|81:97|67:66|63:35|63:35|32:71,1,107.999996704102,6|8,0:0|0:2,0:0:0:0:
87,294,130424,2,0,B|74:315|74:315|88:346|92:377|92:377|123:341,1,107.999996704102,6|8,0:0|0:2,0:0:0:0:
203,152,130631,2,0,L|320:128,1,107.999996704102,4|10,0:0|0:2,0:0:0:0:
492,79,130838,6,0,P|428:26|379:36,1,107.999996704102,6|8,0:0|0:2,0:0:0:0:
330,175,131045,2,0,P|343:145|363:132,1,53.9999983520508,4|0,0:0|0:0,0:0:0:0:
443,207,131148,2,0,P|475:210|494:225,1,53.9999983520508,10|0,0:2|0:0,0:0:0:0:
420,314,131252,2,0,L|298:344,1,107.999996704102,6|8,0:0|0:2,0:0:0:0:
201,370,131459,1,4,0:0:0:0:
201,370,131562,1,10,0:2:0:0:
29,256,131666,6,0,P|95:249|140:284,1,107.999996704102,6|0,0:2|0:0,0:0:0:0:
250,79,131873,2,0,P|184:72|139:107,1,107.999996704102,10|10,0:0|0:0,0:0:0:0:
296,225,132028,1,4,0:0:0:0:
310,220,132080,2,0,L|317:159,1,53.9999983520508,10|4,0:0|0:0,0:0:0:0:
388,81,132183,2,0,L|395:20,1,53.9999983520508,10|4,0:0|0:0,0:0:0:0:
508,253,132286,1,10,0:2:0:0:
491,289,132337,1,8,0:2:0:0:
459,313,132389,1,10,0:2:0:0:
419,320,132441,1,8,0:2:0:0:
381,307,132492,5,4,0:2:0:0:
187,185,132700,2,0,L|173:259,1,53.9999983520508,8|8,0:0|0:0,0:0:0:0:
77,314,132804,2,0,L|87:260,1,53.9999983520508,10|8,0:0|0:0,0:0:0:0:
44,38,132907,5,6,0:0:0:0:
20,51,132958,1,4,0:0:0:0:
5,73,133010,1,4,0:0:0:0:
0,99,133062,1,4,0:0:0:0:
6,125,133113,1,4,0:0:0:0:
23,146,133165,1,0,0:0:0:0:
47,160,133217,6,0,B|79:161|105:148|105:148|133:149|148:166|148:166|162:139|189:127|189:127|214:146|274:147,1,215.999993408203,12|4,0:2|0:0,0:0:0:0:
318,64,133528,1,10,0:2:0:0:
332,41,133579,1,0,0:0:0:0:
353,24,133631,1,4,0:0:0:0:
378,15,133683,1,0,0:0:0:0:
405,16,133734,5,10,0:2:0:0:
373,40,133786,1,0,0:0:0:0:
354,75,133838,1,4,0:0:0:0:
351,115,133890,1,0,0:0:0:0:
364,153,133942,6,0,P|337:145|291:140,1,53.9999983520508,10|0,0:2|0:0,0:0:0:0:
444,238,134045,2,0,P|466:222|490:210,1,53.9999983520508,4|0,0:0|0:0,0:0:0:0:
354,346,134148,6,0,L|235:321,1,107.999996704102,6|8,0:0|0:2,0:0:0:0:
58,372,134355,1,4,0:0:0:0:
51,332,134406,1,0,0:0:0:0:
41,292,134458,1,10,0:0:0:0:
28,254,134510,1,8,0:0:0:0:
13,217,134562,5,6,0:0:0:0:
39,218,134613,1,4,0:0:0:0:
65,225,134665,1,4,0:0:0:0:
89,238,134717,1,4,0:0:0:0:
108,257,134769,6,0,P|113:230|128:205,1,53.9999983520508,12|0,0:2|0:0,0:0:0:0:
157,85,134873,2,0,P|89:75|42:58,1,107.999996704102,12|0,0:2|0:0,0:0:0:0:
404,257,135080,2,0,P|398:230|383:205,1,53.9999983520508,4|0,0:0|0:0,0:0:0:0:
355,85,135184,2,0,P|423:75|470:58,1,107.999996704102,12|0,0:2|0:0,0:0:0:0:
267,26,135390,2,0,B|254:11|246:-9|246:-9|220:37|273:72,1,107.999996704102,12|0,0:2|0:0,0:0:0:0:
293,181,135597,5,10,0:2:0:0:
254,359,135700,1,8,0:2:0:0:
58,279,135804,6,0,P|29:245|46:165,1,107.999996704102,4|8,0:2|0:2,0:0:0:0:
266,86,136011,2,0,P|295:120|278:200,1,107.999996704102,6|8,0:0|0:2,0:0:0:0:
0,87,136217,2,0,L|129:101,2,107.999996704102,6|8|6,0:0|0:2|0:0,0:0:0:0:
135,208,136528,6,0,B|163:203|188:178|188:178|240:186|306:209|306:209|291:174|275:157,1,215.999993408203,8|8,0:2|0:2,0:0:0:0:
235,290,136838,1,6,0:0:0:0:
392,291,136942,2,0,P|427:336|427:403,1,107.999996704102,8|6,0:2|0:0,0:0:0:0:
471,175,137148,2,0,P|435:129|435:62,1,107.999996704102,8|6,0:2|0:0,0:0:0:0:
509,4,137355,1,8,0:2:0:0:
343,74,137459,6,0,L|216:56,1,107.999996704102,6|8,0:0|0:2,0:0:0:0:
28,223,137666,2,0,L|155:205,1,107.999996704102,6|8,0:0|0:2,0:0:0:0:
112,22,137873,2,0,B|83:56|83:56|118:128,2,107.999996704102,6|8|6,0:0|0:2|0:0,0:0:0:0:
352,168,138183,6,0,B|361:214|356:240|356:240|324:279|324:279|327:300|333:328|333:328|362:320|390:261,1,215.999993408203,10|8,0:2|0:2,0:0:0:0:
456,239,138493,1,6,0:0:0:0:
257,197,138597,2,0,B|169:208|169:208|216:223,1,107.999996704102,8|6,0:2|0:0,0:0:0:0:
440,77,138804,2,0,B|528:88|528:88|481:103,1,107.999996704102,8|10,0:2|0:2,0:0:0:0:
332,6,139011,1,8,0:2:0:0:
332,6,139062,1,8,0:2:0:0:
332,6,139114,1,12,0:2:0:0:
199,64,139321,6,0,L|216:123,1,53.9999983520508,8|8,0:2|0:2,0:0:0:0:
252,247,139424,2,0,L|237:195,1,53.9999983520508,10|8,0:2|0:2,0:0:0:0:
99,63,139528,6,0,L|120:136,1,62.9999980773926,4|4,0:0|0:0,0:0:0:0:
165,291,139631,2,0,L|146:226,1,62.9999980773926,6|4,0:0|0:0,0:0:0:0:
1,62,139735,6,0,L|20:131,1,72,4|0,0:0|0:0,0:0:0:0:
80,335,139838,1,12,0:2:0:0:
80,335,140045,6,0,L|60:265,1,72,2|0,0:2|0:0,0:0:0:0:
1,62,140148,2,0,L|20:131,1,72,8|4,0:2|0:0,0:0:0:0:
165,291,140252,6,0,L|147:230,1,62.9999980773926,6|4,0:0|0:0,0:0:0:0:
99,63,140355,2,0,L|116:123,1,62.9999980773926,8|4,0:2|0:0,0:0:0:0:
252,247,140459,6,0,L|237:195,1,53.9999983520508,6|4,0:0|0:0,0:0:0:0:
199,64,140562,2,0,L|213:115,1,53.9999983520508,8|4,0:2|0:0,0:0:0:0:
307,134,140666,5,6,0:0:0:0:
512,143,140769,5,10,0:2:0:0:
483,117,140820,1,0,0:0:0:0:
446,111,140872,1,10,0:2:0:0:
412,124,140924,1,4,0:0:0:0:
389,155,140975,1,4,0:0:0:0:
386,192,141027,1,4,0:0:0:0:
404,226,141079,1,8,0:0:0:0:
432,252,141132,1,8,0:0:0:0:
440,288,141184,1,8,0:0:0:0:
430,324,141235,1,8,0:0:0:0:
400,349,141287,1,6,0:0:0:0:
363,354,141339,1,0,0:0:0:0:
330,338,141390,6,0,L|338:273,1,53.9999983520508,12|0,0:2|0:0,0:0:0:0:
158,200,141493,2,0,P|105:175|37:194,1,107.999996704102,12|4,0:2|0:0,0:0:0:0:
240,156,141700,2,0,L|232:91,1,53.9999983520508,4|0,0:0|0:0,0:0:0:0:
412,18,141803,2,0,P|465:-7|533:12,1,107.999996704102,12|0,0:2|0:0,0:0:0:0:
132,81,142011,6,0,B|110:59|110:59|110:5|173:-8,1,107.999996704102,12|0,0:2|0:0,0:0:0:0:
380,303,142217,2,0,B|402:325|402:325|402:379|339:392,1,107.999996704102,12|12,0:2|0:2,0:0:0:0:
118,369,142424,5,4,0:2:0:0:
117,365,142475,1,4,0:0:0:0:
116,362,142527,1,8,0:2:0:0:
115,358,142579,1,4,0:0:0:0:
114,355,142630,1,8,0:2:0:0:
113,351,142682,1,4,0:0:0:0:
112,348,142734,1,8,0:2:0:0:
111,344,142786,1,4,0:0:0:0:
110,341,142838,1,8,0:2:0:0:
109,337,142890,1,4,0:0:0:0:
108,334,142942,1,8,0:2:0:0:
108,330,142993,1,4,0:0:0:0:
107,327,143045,1,8,0:2:0:0:
106,323,143097,1,4,0:0:0:0:
105,320,143148,1,8,0:2:0:0:
104,316,143200,1,4,0:0:0:0:
103,313,143252,1,8,0:2:0:0:
102,309,143304,1,4,0:0:0:0:
101,306,143355,1,8,0:2:0:0:
100,302,143407,1,4,0:0:0:0:
99,299,143459,1,8,0:2:0:0:
99,295,143511,1,4,0:0:0:0:
98,292,143562,1,8,0:2:0:0:
97,288,143614,1,4,0:0:0:0:
96,285,143666,1,8,0:2:0:0:
95,281,143717,1,4,0:0:0:0:
94,278,143769,1,8,0:2:0:0:
93,274,143821,1,4,0:0:0:0:
92,271,143873,1,8,0:2:0:0:
91,267,143924,1,4,0:0:0:0:
90,264,143976,6,0,B|114:269|143:262|143:262|209:284,1,107.999996704102,8|0,0:2|0:0,0:0:0:0:
340,198,144183,5,8,0:2:0:0:
341,202,144234,1,4,0:0:0:0:
342,205,144286,1,8,0:2:0:0:
343,209,144338,1,4,0:0:0:0:
344,212,144389,1,8,0:2:0:0:
345,216,144441,1,4,0:0:0:0:
346,219,144493,1,8,0:2:0:0:
347,223,144545,1,4,0:0:0:0:
348,226,144596,1,8,0:2:0:0:
349,230,144648,1,4,0:0:0:0:
350,233,144700,1,8,0:2:0:0:
350,237,144751,1,4,0:0:0:0:
351,240,144803,1,8,0:2:0:0:
352,244,144855,1,12,0:2:0:0:
353,247,144907,6,0,B|385:258|386:258|418:278,3,53.9999983520508,8|8|8|8,0:2|0:2|0:2|0:2,0:0:0:0:
491,155,145114,2,0,B|474:165|473:165|441:176,3,53.9999983520508,8|8|8|8,0:2|0:2|0:2|0:2,0:0:0:0:
343,57,145321,5,8,0:0:0:0:
303,21,145372,1,8,0:0:0:0:
251,24,145424,1,8,0:0:0:0:
215,62,145476,1,8,0:0:0:0:
217,115,145527,1,4,0:0:0:0:
241,158,145580,1,4,0:0:0:0:
228,210,145632,1,4,0:0:0:0:
185,238,145684,1,4,0:0:0:0:
134,227,145735,6,0,B|119:154|119:154|43:179|43:179|54:96|1:6,1,323.999990112305,6|0,0:0|2:0,0:0:0:0:
