osu file format v14

[General]
AudioFilename: audio.mp3
AudioLeadIn: 0
PreviewTime: 48073
Countdown: 0
SampleSet: Drum
StackLeniency: 0.4
Mode: 0
LetterboxInBreaks: 0
WidescreenStoryboard: 1

[Editor]
Bookmarks: 1728,14969,31521,38141,44762,48073,61314,67935,87797,106004,119245,120900,132486,145728
DistanceSpacing: 1.2
BeatDivisor: 3
GridSize: 32
TimelineZoom: 3.199999

[Metadata]
Title:Voyage
TitleUnicode:Voyage
Artist:BLANKFIELD
ArtistUnicode:BLANKFIELD
Creator:Crissa
Version:Astronomical Entombing
Source:東方永夜抄 ~ Imperishable Night.
Tags:mg mappers' guild fa featured artist ヴォヤージュ1969 Eternal Dream ~ 幽玄の槭樹 c83 comiket 83 At The Termination Of The Phantasm metal instrumental touhou 08 東方Project team shanghai alice zun 上海アリス幻樂団 hey lululu lmt isomirdiangelo eirin yagokoro 八意 永琳 isomir lu^3 osu! eiri- ayyri video game
BeatmapID:2586420
BeatmapSetID:1201974

[Difficulty]
HPDrainRate:3
CircleSize:4.2
OverallDifficulty:10
ApproachRate:10
SliderMultiplier:1.6
SliderTickRate:1

[Events]
//Background and Video events
0,0,"bg724.jpg",0,0
//Break Periods
2,91314,100838
//Storyboard Layer 0 (Background)
//Storyboard Layer 1 (Fail)
//Storyboard Layer 2 (Pass)
//Storyboard Layer 3 (Foreground)
//Storyboard Layer 4 (Overlay)
//Storyboard Sound Samples

[TimingPoints]
80,206.896551724138,4,3,3,50,1,0
183,-100,4,3,1,50,0,0
390,-100,4,3,4,50,0,0
493,-71.4285714285714,4,3,1,50,0,0
1735,-62.5,4,3,1,70,0,0
6700,-100,4,3,1,70,0,0
7424,-62.5,4,3,1,70,0,0
8769,-83.3333333333333,4,3,1,70,0,0
9080,-62.5,4,3,1,70,0,0
31528,-142.857142857143,4,2,1,60,0,0
31631,-125,4,2,1,60,0,0
34424,-125,4,2,1,65,0,0
34838,-125,4,2,2,70,0,0
38148,-111.111111111111,4,3,1,75,0,0
38924,-111.111111111111,4,3,1,5,0,0
38976,-111.111111111111,4,3,1,75,0,0
39752,-111.111111111111,4,3,1,5,0,0
39804,-111.111111111111,4,3,1,75,0,0
40580,-111.111111111111,4,3,1,5,0,0
40632,-111.111111111111,4,3,1,75,0,0
41407,-111.111111111111,4,3,1,5,0,0
41459,-111.111111111111,4,3,1,75,0,0
42235,-111.111111111111,4,3,1,5,0,0
42287,-111.111111111111,4,3,1,75,0,0
43062,-111.111111111111,4,3,1,5,0,0
43114,-111.111111111111,4,3,1,75,0,0
48080,-100,4,3,2,85,0,1
48442,-100,4,3,2,5,0,1
48493,-100,4,3,2,85,0,1
51752,-100,4,3,2,5,0,1
51803,-100,4,3,2,85,0,1
53873,-76.9230769230769,4,3,2,85,0,1
54700,-100,4,3,2,85,0,1
55062,-100,4,3,2,5,0,1
55113,-100,4,3,2,85,0,1
58373,-100,4,3,2,5,0,1
58424,-100,4,3,2,85,0,1
67942,-125,4,3,2,75,0,0
74562,-125,4,3,1,75,0,0
74769,-125,4,3,2,75,0,0
77045,-125,4,3,1,75,0,0
77252,-125,4,3,2,75,0,0
81183,-100,4,3,1,75,0,0
81286,-100,4,3,2,75,0,0
82838,-125,4,3,1,75,0,0
82942,-125,4,3,2,75,0,0
83666,-125,4,3,1,75,0,0
83769,-125,4,3,2,75,0,0
84493,-125,4,3,1,75,0,0
84562,-125,4,3,2,75,0,0
87183,-71.4285714285714,4,3,2,75,0,0
102700,-200,4,2,1,60,0,0
105700,-1000,4,2,1,60,0,0
105959,-1000,4,2,1,5,0,0
106011,-62.5,4,3,2,80,0,0
110976,-62.5,4,3,1,80,0,0
111080,-62.5,4,3,2,80,0,0
112631,-62.5,4,3,2,80,0,0
114286,-62.5,4,3,1,80,0,0
114390,-62.5,4,3,2,80,0,0
117597,-62.5,4,3,1,80,0,0
117700,-62.5,4,3,2,80,0,0
120907,-62.5,4,3,1,85,0,0
121011,-62.5,4,3,2,85,0,0
124217,-62.5,4,3,1,85,0,0
124321,-62.5,4,3,2,85,0,0
127942,-62.5,4,3,1,85,0,0
128045,-62.5,4,3,2,85,0,0
128252,-62.5,4,3,2,85,0,0
129183,-62.5,4,3,2,85,0,0
129286,-62.5,4,3,2,85,0,0
130838,-62.5,4,3,1,85,0,0
130942,-62.5,4,3,2,85,0,0
131873,-62.5,4,3,2,85,0,0
132493,-62.5,4,3,2,90,0,0
137459,-62.5,4,3,1,90,0,0
137562,-62.5,4,3,2,90,0,0
140045,-62.5,4,3,2,90,0,0
140769,-62.5,4,3,1,90,0,0
141286,-62.5,4,3,2,90,0,0
141390,-62.5,4,3,1,90,0,0
141597,-62.5,4,3,1,90,0,0
146045,-71.4285714285714,4,3,1,5,0,0

[Colours]
Combo1 : 166,166,166
Combo2 : 124,120,199
Combo3 : 77,170,210
Combo4 : 136,114,169
Combo5 : 222,143,248
Combo6 : 205,156,141

[HitObjects]
68,170,80,5,6,0:3:0:0:
328,88,183,1,8,0:2:0:0:
348,125,235,1,0,0:0:0:0:
318,155,286,1,0,0:0:0:0:
280,136,339,1,0,0:0:0:0:
287,95,390,1,6,0:3:0:0:
415,302,493,1,8,0:2:0:0:
393,338,545,1,0,0:0:0:0:
351,343,597,1,0,0:0:0:0:
319,313,648,1,0,0:0:0:0:
277,319,700,2,0,L|287:263,1,55.9999982910157,4|0,0:3|0:0,0:0:0:0:
318,120,804,2,0,L|306:177,1,55.9999982910157,4|0,0:0|0:0,0:0:0:0:
70,271,907,5,8,0:2:0:0:
35,241,959,1,0,0:0:0:0:
20,198,1011,1,8,0:2:0:0:
28,153,1062,1,0,0:0:0:0:
58,118,1114,2,0,L|110:90,1,55.9999982910157,4|0,0:0|0:0,0:0:0:0:
283,248,1217,1,8,0:2:0:0:
238,255,1269,1,0,0:0:0:0:
193,263,1321,1,0,0:0:0:0:
148,272,1373,1,0,0:0:0:0:
103,278,1424,1,4,0:0:0:0:
58,286,1476,1,0,0:0:0:0:
22,323,1528,2,0,L|38:380,1,55.9999982910157,8|0,0:2|0:0,0:0:0:0:
155,196,1631,2,0,L|170:142,1,55.9999982910157,8|0,0:2|0:0,0:0:0:0:
304,382,1735,5,6,0:0:0:0:
328,352,1786,1,4,0:0:0:0:
365,343,1838,1,10,0:2:0:0:
402,349,1890,1,4,0:0:0:0:
440,342,1942,1,8,0:2:0:0:
465,313,1993,1,4,0:0:0:0:
471,275,2045,1,8,0:2:0:0:
455,239,2097,1,4,0:0:0:0:
420,223,2148,2,0,L|351:233,1,64,10|4,0:2|0:0,0:0:0:0:
449,97,2252,2,0,L|512:87,1,64,10|4,0:2|0:0,0:0:0:0:
412,238,2355,2,0,L|343:248,1,64,8|4,0:2|0:0,0:0:0:0:
442,84,2459,2,0,L|505:74,1,64,10|4,0:2|0:0,0:0:0:0:
248,183,2562,6,0,B|237:155|228:135|228:135|243:96|252:57|252:57|246:27|242:-1,1,192,10|4,0:2|0:0,0:0:0:0:
83,47,2769,2,0,L|157:58,1,64,10|4,0:2|0:0,0:0:0:0:
398,139,2873,2,0,L|335:130,1,64,8|4,0:2|0:0,0:0:0:0:
91,157,2976,2,0,L|154:149,1,64,10|4,0:2|0:0,0:0:0:0:
350,238,3080,2,0,L|291:212,1,64,8|4,0:2|0:0,0:0:0:0:
116,261,3183,2,0,L|175:237,1,64,8|4,0:2|0:0,0:0:0:0:
300,337,3286,2,0,L|249:297,1,64,8|4,0:2|0:0,0:0:0:0:
256,47,3390,5,10,0:2:0:0:
292,34,3442,1,4,0:0:0:0:
329,37,3493,1,8,0:2:0:0:
359,60,3545,1,4,0:0:0:0:
374,95,3597,1,8,0:2:0:0:
404,117,3648,1,4,0:0:0:0:
442,122,3700,1,10,0:2:0:0:
479,112,3752,1,4,0:0:0:0:
507,85,3804,2,0,L|516:18,1,64,10|4,0:2|0:0,0:0:0:0:
450,203,3907,2,0,L|459:270,1,64,8|4,0:2|0:0,0:0:0:0:
339,135,4011,2,0,L|348:68,1,64,8|4,0:2|0:0,0:0:0:0:
192,267,4114,1,10,0:2:0:0:
196,279,4166,1,2,0:2:0:0:
200,290,4217,5,10,0:2:0:0:
108,0,4321,1,10,0:2:0:0:
204,302,4424,1,10,0:2:0:0:
286,33,4528,1,10,0:2:0:0:
208,313,4631,5,10,0:2:0:0:
93,92,4735,1,10,0:2:0:0:
212,324,4838,1,10,0:2:0:0:
289,130,4942,1,10,0:2:0:0:
42,354,5045,6,0,B|32:309|21:271|21:271|52:231|92:165,1,192,10|4,3:2|0:0,0:0:0:0:
70,33,5252,2,0,P|82:67|96:99,1,64,8|4,0:2|0:0,0:0:0:0:
204,302,5355,1,10,0:2:0:0:
208,313,5407,1,4,0:0:0:0:
212,324,5459,2,0,L|294:340,1,64,10|4,0:2|0:0,0:0:0:0:
377,140,5562,2,0,L|314:127,1,64,8|4,0:2|0:0,0:0:0:0:
150,231,5666,2,0,L|232:215,1,64,8|4,0:2|0:0,0:0:0:0:
420,12,5769,5,10,0:2:0:0:
408,6,5821,1,4,0:0:0:0:
396,0,5873,2,0,B|385:22|385:22|393:73,1,64,10|4,0:2|0:0,0:0:0:0:
426,257,5976,2,0,L|439:331,1,64,8|4,0:2|0:0,0:0:0:0:
283,169,6080,2,0,B|317:149|328:142|328:142|362:153|418:163,1,128,10|8,0:2|0:2,0:0:0:0:
209,342,6286,1,10,0:2:0:0:
171,332,6338,1,4,0:0:0:0:
133,322,6390,1,8,0:2:0:0:
95,312,6442,1,4,0:0:0:0:
58,302,6493,1,8,0:2:0:0:
94,290,6545,1,4,0:0:0:0:
130,278,6597,2,0,L|115:214,1,64,10|4,0:2|0:0,0:0:0:0:
24,30,6700,5,8,0:0:0:0:
24,30,6752,1,8,0:0:0:0:
24,30,6804,1,8,0:0:0:0:
24,30,6855,1,8,0:0:0:0:
24,30,6907,2,0,L|11:102,3,40,8|4|4|4,0:0|0:0|0:0|0:0,0:0:0:0:
128,205,7114,2,0,L|115:133,3,40,4|4|4|4,0:0|0:0|0:0|0:0,0:0:0:0:
245,9,7321,1,8,0:2:0:0:
412,222,7424,6,0,B|452:174|503:132|503:132|448:101|395:55,1,256,12|8,0:2|0:2,0:0:0:0:
236,28,7683,1,8,0:2:0:0:
236,28,7735,2,0,P|241:56|252:92,1,64,4|4,0:3|0:0,0:0:0:0:
295,343,7838,2,0,P|277:315|264:287,1,64,8|4,0:2|0:0,0:0:0:0:
146,35,7942,2,0,P|143:63|144:100,1,64,14|4,0:0|0:0,0:0:0:0:
290,354,8045,2,0,P|266:332|245:307,1,64,8|4,0:2|0:0,0:0:0:0:
56,96,8148,2,0,P|68:121|88:153,1,64,6|4,0:0|0:0,0:0:0:0:
288,365,8252,2,0,P|259:350|233:331,1,64,8|4,0:2|0:0,0:0:0:0:
0,267,8355,6,0,P|84:247|129:230,1,128,4|0,0:2|0:0,0:0:0:0:
282,13,8562,1,8,0:2:0:0:
228,34,8614,1,8,0:2:0:0:
231,91,8666,1,8,0:2:0:0:
287,105,8717,1,8,0:2:0:0:
318,57,8769,6,0,P|273:49|193:45,1,95.9999970703126,2|4,0:0|0:0,0:0:0:0:
71,111,8976,1,4,0:0:0:0:
311,310,9080,6,0,P|208:285|60:227,1,256,12|4,0:2|0:0,0:0:0:0:
334,142,9390,2,0,P|274:161|210:191,1,128,8|4,0:2|0:0,0:0:0:0:
484,277,9597,2,0,P|424:257|360:228,1,128,8|4,0:2|0:0,0:0:0:0:
499,22,9804,1,8,0:2:0:0:
408,378,9907,1,8,0:2:0:0:
243,83,10011,6,0,P|177:69|135:108,1,128,6|8,0:0|0:2,0:0:0:0:
228,308,10217,1,4,0:0:0:0:
228,308,10269,1,4,0:0:0:0:
228,308,10321,1,4,0:0:0:0:
228,308,10373,1,0,0:0:0:0:
228,308,10424,2,0,P|219:230|208:175,1,128,12|0,0:2|0:0,0:0:0:0:
171,21,10631,1,4,0:0:0:0:
426,225,10735,6,0,P|368:126|313:-8,1,256,12|4,0:2|0:0,0:0:0:0:
105,207,11045,2,0,P|169:191|231:164,1,128,12|4,0:2|0:0,0:0:0:0:
0,30,11252,2,0,P|59:58|124:78,1,128,12|4,0:2|0:0,0:0:0:0:
453,81,11459,1,12,0:2:0:0:
202,338,11562,1,8,0:2:0:0:
268,87,11666,5,2,0:0:0:0:
388,330,11769,1,10,0:2:0:0:
439,331,11821,1,4,0:0:0:0:
478,298,11873,1,8,0:2:0:0:
487,247,11924,1,4,0:0:0:0:
462,203,11976,1,10,0:2:0:0:
413,186,12028,1,4,0:0:0:0:
365,202,12080,1,10,0:2:0:0:
315,191,12131,1,4,0:0:0:0:
277,156,12183,1,8,0:2:0:0:
261,107,12234,1,4,0:0:0:0:
272,56,12286,2,0,L|309:3,1,64,8|4,0:2|0:0,0:0:0:0:
512,140,12389,5,10,0:2:0:0:
509,152,12441,1,4,0:0:0:0:
506,164,12493,2,0,P|473:172|434:183,1,64,10|4,0:2|0:0,0:0:0:0:
282,299,12597,2,0,P|249:307|210:318,1,64,8|4,0:2|0:0,0:0:0:0:
427,87,12700,2,0,P|398:105|365:129,1,64,10|4,0:2|0:0,0:0:0:0:
279,317,12804,2,0,P|249:333|214:353,1,64,8|4,0:2|0:0,0:0:0:0:
262,50,12907,5,10,0:2:0:0:
219,21,12959,1,4,0:0:0:0:
168,29,13011,1,8,0:2:0:0:
137,68,13062,1,4,0:0:0:0:
141,119,13114,1,8,0:2:0:0:
172,159,13166,1,4,0:0:0:0:
218,178,13217,1,10,0:2:0:0:
232,227,13269,1,4,0:0:0:0:
204,270,13321,6,0,P|144:294|82:333,1,128,6|8,0:0|0:2,0:0:0:0:
402,379,13528,2,0,P|411:348|426:290,1,64,8|8,0:2|0:2,0:0:0:0:
378,35,13631,1,8,0:2:0:0:
378,35,13683,1,8,0:2:0:0:
378,35,13735,2,0,P|383:67|393:104,1,64,10|0,0:2|0:0,0:0:0:0:
243,194,13838,2,0,P|263:219|290:246,1,64,10|0,0:2|0:0,0:0:0:0:
114,358,13942,2,0,P|104:327|90:269,1,64,4|4,0:0|0:0,0:0:0:0:
138,14,14045,1,4,0:0:0:0:
138,14,14097,1,0,0:0:0:0:
138,14,14148,5,6,0:0:0:0:
138,14,14355,2,0,P|165:35|193:64,1,64,10|8,0:2|0:2,0:0:0:0:
373,85,14459,2,0,P|346:106|318:135,1,64,4|4,0:0|0:0,0:0:0:0:
105,152,14562,2,0,P|137:162|173:180,1,64,4|4,0:0|0:0,0:0:0:0:
379,230,14666,2,0,P|346:240|310:258,1,64,4|0,0:0|0:2,0:0:0:0:
44,266,14769,2,0,P|78:264|118:268,1,64,10|0,0:2|0:2,0:0:0:0:
416,343,14873,2,0,P|381:341|341:345,1,64,10|0,0:2|0:2,0:0:0:0:
187,72,14976,6,0,P|211:25|301:126,1,256,4|4,0:2|0:0,0:0:0:0:
108,381,15286,2,0,P|92:311|159:271,1,128,10|2,0:2|0:2,0:0:0:0:
390,214,15493,1,8,0:2:0:0:
96,139,15597,1,0,0:0:0:0:
245,10,15700,5,10,0:2:0:0:
245,10,15752,1,0,0:0:0:0:
245,10,15804,2,0,B|309:4|309:4|365:50,1,128,0|8,0:0|0:2,0:0:0:0:
419,337,16011,5,2,0:2:0:0:
509,98,16114,1,8,0:2:0:0:
344,369,16217,5,2,0:2:0:0:
233,115,16321,1,8,0:2:0:0:
428,351,16424,5,2,0:2:0:0:
490,112,16528,1,8,0:2:0:0:
146,232,16631,5,4,0:2:0:0:
374,274,16735,2,0,P|365:205|346:125,1,128,8|0,0:2|0:0,0:0:0:0:
111,356,16942,1,10,0:2:0:0:
360,296,17045,1,2,0:2:0:0:
142,97,17148,2,0,P|74:107|6:125,1,128,8|0,0:2|0:0,0:0:0:0:
237,358,17355,5,10,0:2:0:0:
237,358,17407,1,0,0:0:0:0:
237,358,17459,1,0,0:0:0:0:
263,35,17562,1,8,0:2:0:0:
323,383,17666,5,2,0:2:0:0:
146,112,17769,1,8,0:2:0:0:
360,296,17873,5,2,0:2:0:0:
78,195,17976,1,8,0:2:0:0:
365,96,18080,1,8,0:2:0:0:
403,129,18131,1,8,0:2:0:0:
383,175,18183,1,8,0:2:0:0:
332,170,18234,1,8,0:2:0:0:
322,121,18286,5,8,0:2:0:0:
478,360,18390,2,0,P|445:354|404:342,1,64,8|4,0:2|0:0,0:0:0:0:
198,174,18493,2,0,P|213:201|232:228,1,64,8|4,0:2|0:0,0:0:0:0:
483,343,18597,2,0,P|454:326|419:300,1,64,8|4,0:2|0:0,0:0:0:0:
283,72,18700,2,0,P|288:103|296:134,1,64,8|4,0:2|0:0,0:0:0:0:
492,328,18804,2,0,P|470:302|446:266,1,64,8|4,0:2|0:0,0:0:0:0:
397,5,18907,2,0,P|391:36|388:68,1,64,8|4,0:2|0:0,0:0:0:0:
390,372,19011,5,8,0:2:0:0:
390,372,19062,1,4,0:0:0:0:
390,372,19114,2,0,P|355:367|314:358,1,64,8|4,0:2|0:0,0:0:0:0:
92,303,19217,2,0,P|124:289|161:269,1,64,8|4,0:2|0:0,0:0:0:0:
432,222,19321,2,0,P|397:229|355:234,1,64,8|4,0:2|0:0,0:0:0:0:
113,344,19424,2,0,P|138:320|167:288,1,64,8|4,0:2|0:0,0:0:0:0:
419,66,19528,2,0,P|389:84|351:104,1,64,8|4,0:2|0:0,0:0:0:0:
145,375,19631,2,0,P|161:343|177:304,1,64,8|4,0:2|0:0,0:0:0:0:
160,33,19735,2,0,L|169:97,1,64,8|4,0:2|0:0,0:0:0:0:
343,320,19838,5,8,0:2:0:0:
343,320,19890,1,4,0:0:0:0:
343,320,19942,2,0,L|352:256,1,64,2|4,0:0|0:0,0:0:0:0:
242,33,20045,2,0,L|276:87,1,64,8|4,0:2|0:0,0:0:0:0:
450,207,20148,2,0,L|399:167,1,64,8|4,0:2|0:0,0:0:0:0:
106,192,20252,1,8,0:2:0:0:
106,192,20304,1,4,0:0:0:0:
106,192,20355,2,0,P|139:205|179:226,1,64,8|4,0:2|0:0,0:0:0:0:
382,264,20459,2,0,P|349:277|309:298,1,64,8|4,0:2|0:0,0:0:0:0:
153,334,20562,2,0,P|179:357|209:390,1,64,8|4,0:2|0:0,0:0:0:0:
303,125,20666,5,8,0:2:0:0:
299,112,20717,1,8,0:2:0:0:
295,99,20769,2,0,P|287:62|280:16,1,64,2|4,0:0|0:0,0:0:0:0:
151,221,20873,1,8,0:2:0:0:
158,209,20924,1,4,0:0:0:0:
165,197,20976,2,0,P|181:163|200:120,1,64,8|4,0:2|0:0,0:0:0:0:
327,319,21080,1,8,0:2:0:0:
317,309,21131,1,4,0:0:0:0:
307,299,21183,2,0,P|282:270|252:234,1,64,8|4,0:2|0:0,0:0:0:0:
451,172,21286,2,0,P|475:143|505:107,1,64,8|4,0:2|0:0,0:0:0:0:
270,26,21390,2,0,P|264:57|262:98,1,64,8|4,0:2|0:0,0:0:0:0:
381,256,21493,2,0,P|378:224|373:192,1,64,8|4,0:2|0:0,0:0:0:0:
115,56,21597,6,0,B|55:87|-1:109|-1:109|26:123|57:147,1,192,4|0,0:2|0:0,0:0:0:0:
159,224,21804,1,8,0:0:0:0:
214,213,21855,1,8,0:0:0:0:
271,202,21907,1,8,0:0:0:0:
328,192,21959,1,8,0:0:0:0:
385,182,22011,2,0,B|409:226|427:256|427:256|420:282|412:319,1,128,10|0,0:0|0:0,0:0:0:0:
234,380,22217,1,0,0:0:0:0:
196,54,22321,6,0,B|243:104|258:164|258:164|310:121|379:114,1,256,12|0,0:2|0:0,0:0:0:0:
404,320,22631,2,0,P|348:305|284:271,1,128,10|0,0:2|0:0,0:0:0:0:
44,197,22838,2,0,P|103:220|167:230,1,128,10|0,0:2|0:0,0:0:0:0:
309,16,23045,1,10,0:2:0:0:
183,367,23148,1,10,0:2:0:0:
89,84,23252,5,6,0:0:0:0:
396,199,23355,2,0,P|401:154|331:116,1,128,8|0,0:2|0:0,0:0:0:0:
9,277,23562,1,4,0:0:0:0:
9,277,23614,1,4,0:0:0:0:
9,277,23666,2,0,P|116:299|146:308,1,128,6|0,0:0|0:0,0:0:0:0:
349,369,23873,1,0,0:0:0:0:
133,159,23976,6,0,B|181:119|213:59|213:59|260:104|329:126,1,256,12|8,0:2|0:2,0:0:0:0:
254,363,24286,2,0,P|202:342|127:321,1,128,12|4,0:2|0:0,0:0:0:0:
327,254,24442,1,4,0:0:0:0:
327,254,24493,2,0,P|388:236|448:213,1,128,12|0,0:2|0:0,0:0:0:0:
159,53,24700,1,8,0:2:0:0:
374,364,24804,1,8,0:2:0:0:
448,58,24907,5,2,0:2:0:0:
281,162,25011,1,8,0:2:0:0:
449,74,25114,1,2,0:2:0:0:
489,233,25217,1,8,0:2:0:0:
289,74,25321,1,2,0:2:0:0:
392,271,25424,1,8,0:2:0:0:
450,87,25528,1,2,0:2:0:0:
187,324,25631,5,10,0:2:0:0:
187,324,25683,1,0,0:0:0:0:
187,324,25735,2,0,B|165:278|151:254|151:254|199:174,1,128,0|8,0:0|0:2,0:0:0:0:
23,366,25942,1,2,0:2:0:0:
283,298,26045,1,8,0:2:0:0:
57,168,26148,1,2,0:2:0:0:
120,384,26252,1,8,0:2:0:0:
252,189,26355,1,2,0:2:0:0:
114,371,26459,1,8,0:2:0:0:
162,24,26562,5,4,0:2:0:0:
246,208,26666,1,8,0:2:0:0:
59,45,26769,1,2,0:2:0:0:
45,248,26873,1,8,0:2:0:0:
208,96,26976,1,2,0:2:0:0:
200,355,27080,1,8,0:2:0:0:
116,182,27183,1,2,0:2:0:0:
403,267,27286,5,10,0:2:0:0:
403,267,27338,1,0,0:0:0:0:
403,267,27390,2,0,B|434:233|434:233|436:194|445:129,1,128,0|8,0:0|0:2,0:0:0:0:
185,256,27597,1,2,0:2:0:0:
431,356,27700,1,8,0:2:0:0:
173,269,27804,1,2,0:2:0:0:
512,183,27907,1,10,0:2:0:0:
198,34,28011,5,8,0:2:0:0:
175,85,28062,1,8,0:2:0:0:
216,123,28114,1,8,0:2:0:0:
265,95,28165,1,8,0:2:0:0:
253,40,28217,6,0,P|225:116|214:169,1,128,6|2,0:0|0:2,0:0:0:0:
512,330,28424,1,4,0:0:0:0:
468,319,28476,1,4,0:0:0:0:
423,324,28528,1,4,0:0:0:0:
386,350,28580,1,4,0:0:0:0:
350,335,28631,5,4,0:0:0:0:
314,350,28683,1,0,0:0:0:0:
275,347,28735,1,4,0:0:0:0:
244,325,28786,1,0,0:0:0:0:
213,335,28838,6,0,P|176:326|127:326,1,64,4|4,0:0|0:0,0:0:0:0:
0,127,28942,6,0,P|36:281|54:400,1,256,12|0,0:2|0:0,0:0:0:0:
205,76,29252,5,10,0:2:0:0:
256,76,29304,1,4,0:0:0:0:
299,101,29355,1,4,0:0:0:0:
319,148,29407,1,4,0:0:0:0:
350,165,29459,5,10,0:2:0:0:
364,200,29511,1,4,0:0:0:0:
395,220,29562,1,4,0:0:0:0:
433,226,29614,1,4,0:0:0:0:
468,236,29666,6,0,P|457:270|449:307,1,64,8|0,0:2|0:0,0:0:0:0:
320,83,29769,2,0,P|309:48|301:12,1,64,4|4,0:0|0:0,0:0:0:0:
250,242,29873,5,6,0:0:0:0:
63,14,29976,1,8,0:2:0:0:
63,14,30028,1,4,0:0:0:0:
63,14,30080,2,0,P|46:38|41:89,1,64,4|4,0:0|0:0,0:0:0:0:
209,310,30183,1,4,0:0:0:0:
209,310,30235,1,4,0:0:0:0:
209,310,30286,2,0,P|226:283|233:252,1,64,4|0,0:0|0:0,0:0:0:0:
173,47,30390,2,0,P|145:63|125:94,1,64,4|0,0:0|0:0,0:0:0:0:
0,317,30493,5,10,0:2:0:0:
250,0,30597,2,0,P|266:61|279:142,1,128,12|0,0:2|0:0,0:0:0:0:
171,372,30804,2,0,P|148:346|135:316,1,64,4|4,0:0|0:0,0:0:0:0:
413,192,30907,2,0,P|285:223|253:232,1,128,12|4,0:2|0:3,0:0:0:0:
26,65,31114,2,0,P|154:96|186:105,1,128,12|0,0:2|0:0,0:0:0:0:
350,346,31321,1,12,0:2:0:0:
454,7,31424,1,8,0:2:0:0:
288,222,31528,6,0,L|306:288,2,55.9999982910157,2|2|10,3:0|3:2|0:0,0:0:0:0:
91,252,31838,2,0,P|131:220|208:239,1,128,2|0,0:0|0:0,0:0:0:0:
302,359,32148,2,0,P|372:341|451:326,1,128,2|2,0:0|0:0,0:0:0:0:
453,344,32459,5,2,0:0:0:0:
461,319,32562,1,2,0:0:0:0:
435,144,32666,2,0,P|404:182|325:170,1,128,2|0,0:0|0:0,0:0:0:0:
241,43,32976,2,0,P|199:29|110:15,1,128,2|2,0:0|0:0,0:0:0:0:
103,0,33286,5,2,0:0:0:0:
93,23,33390,1,2,0:0:0:0:
38,205,33493,2,0,P|76:243|161:231,1,128,2|0,0:0|0:0,0:0:0:0:
243,119,33804,2,0,P|298:99|384:91,1,128,2|2,0:0|0:0,0:0:0:0:
384,115,34114,1,2,0:0:0:0:
399,94,34217,2,0,P|408:60|414:16,1,64,2|2,0:0|0:0,0:0:0:0:
231,231,34424,5,4,0:3:0:0:
256,321,34528,1,4,0:3:0:0:
322,255,34631,1,12,0:2:0:0:
322,255,34838,5,4,0:3:0:0:
219,218,34942,1,4,0:3:0:0:
128,370,35044,1,8,0:2:0:0:
25,333,35148,2,0,P|19:276|6:197,1,128,6|4,0:3|0:3,0:0:0:0:
165,50,35459,2,0,P|138:108|115:168,1,128,10|0,0:2|0:0,0:0:0:0:
169,263,35769,1,4,0:3:0:0:
297,81,35873,1,8,0:0:0:0:
382,147,35976,2,0,P|425:143|516:131,1,128,6|4,0:3|0:3,0:0:0:0:
281,288,36286,2,0,P|231:267|181:248,1,96,10|0,0:0|0:0,0:0:0:0:
169,263,36493,5,8,0:3:0:0:
110,170,36597,1,8,0:3:0:0:
354,69,36700,1,8,0:0:0:0:
267,2,36804,2,0,L|251:80,1,64,6|0,0:3|0:0,0:0:0:0:
227,170,37011,1,4,0:3:0:0:
413,292,37114,2,0,L|428:365,1,64,10|0,0:0|0:0,0:0:0:0:
146,328,37321,6,0,P|185:330|213:307,2,64,6|4|8,0:3|0:3|0:0,0:0:0:0:
125,208,37631,2,0,P|152:193|184:197,1,64,6|0,0:3|0:0,0:0:0:0:
311,365,37838,1,8,0:0:0:0:
365,109,37942,1,8,0:0:0:0:
308,382,38045,1,8,0:0:0:0:
470,224,38148,5,6,0:0:0:0:
370,241,38252,1,4,0:0:0:0:
271,258,38355,1,4,0:0:0:0:
470,224,38459,2,0,L|312:251,1,143.999995605469,10|0,0:2|0:0,0:0:0:0:
185,62,38769,2,0,L|312:83,1,107.999996704102,10|0,0:2|2:0,0:0:0:0:
306,98,38976,5,4,0:3:0:0:
261,189,39080,1,4,0:3:0:0:
160,180,39183,1,4,0:3:0:0:
306,98,39286,2,0,B|170:174,1,143.999995605469,10|0,0:2|0:0,0:0:0:0:
28,260,39597,2,0,L|155:270,1,107.999996704102,10|0,0:2|2:0,0:0:0:0:
151,290,39804,5,4,0:3:0:0:
251,283,39907,1,4,0:3:0:0:
352,277,40011,1,4,0:3:0:0:
151,290,40114,2,0,L|307:279,1,143.999995605469,10|0,0:2|0:0,0:0:0:0:
177,163,40424,2,0,L|36:153,1,107.999996704102,10|0,0:2|2:0,0:0:0:0:
48,174,40631,5,4,0:3:0:0:
17,77,40735,1,4,0:3:0:0:
70,7,40838,1,4,0:3:0:0:
48,174,40942,2,0,B|68:21,1,143.999995605469,10|0,0:2|0:0,0:0:0:0:
177,163,41252,2,0,L|210:265,1,107.999996704102,10|0,0:2|2:0,0:0:0:0:
200,288,41459,5,6,0:3:0:0:
292,325,41562,1,4,0:3:0:0:
384,283,41666,1,4,0:3:0:0:
200,288,41769,2,0,B|356:284,1,143.999995605469,10|0,0:2|0:0,0:0:0:0:
447,148,42080,2,0,L|313:162,1,107.999996704102,10|0,0:2|2:0,0:0:0:0:
326,182,42286,5,4,0:3:0:0:
267,99,42390,1,4,0:3:0:0:
209,16,42493,1,4,0:3:0:0:
326,182,42597,2,0,L|234:52,1,143.999995605469,10|0,0:2|0:0,0:0:0:0:
141,270,42907,2,0,L|214:166,1,107.999996704102,10|0,0:2|2:0,0:0:0:0:
191,158,43114,5,6,0:3:0:0:
260,230,43217,1,4,0:3:0:0:
352,188,43321,1,4,0:3:0:0:
191,158,43424,2,0,B|343:186,1,143.999995605469,10|0,0:2|0:0,0:0:0:0:
360,62,43735,1,10,0:2:0:0:
424,354,43838,1,8,0:2:0:0:
508,177,43942,5,4,0:2:0:0:
410,200,44045,2,0,L|324:219,1,71.9999978027344,4|4,0:0|0:0,0:0:0:0:
74,67,44252,2,0,L|160:86,1,71.9999978027344,10|0,0:2|0:0,0:0:0:0:
320,357,44459,5,10,0:2:0:0:
258,108,44562,1,10,0:2:0:0:
110,384,44666,1,10,0:2:0:0:
451,317,48080,6,0,B|488:299|490:242|469:223|431:221|429:220|427:218|390:193|385:150|423:112,1,240,4|0,0:2|2:0,0:0:0:0:
504,8,48493,1,4,0:0:0:0:
494,28,48597,1,6,0:0:0:0:
328,34,48700,1,4,0:0:0:0:
318,14,48804,1,6,0:0:0:0:
208,212,48907,6,0,P|188:160|281:121,1,160,10|6,0:2|0:3,0:0:0:0:
327,264,49217,2,0,P|259:248|166:311,1,160,6|0,0:3|0:0,0:0:0:0:
270,366,49528,1,10,0:2:0:0:
270,366,49735,2,0,P|259:303|229:187,1,160,2|4,0:0|0:3,0:0:0:0:
436,369,50148,6,0,P|463:343|491:305,1,80,10|0,0:2|0:0,0:0:0:0:
510,184,50355,1,2,0:0:0:0:
253,288,50562,2,0,P|241:252|235:205,1,80,10|0,0:2|0:0,0:0:0:0:
277,89,50769,1,2,0:0:0:0:
289,100,50873,2,0,P|338:100|299:20,1,160,6|4,0:3|0:3,0:0:0:0:
106,20,51183,2,0,L|193:2,1,80,10|0,0:2|0:0,0:0:0:0:
328,182,51390,6,0,B|224:235|209:121|98:186,1,240,4|0,0:2|2:0,0:0:0:0:
17,282,51804,2,0,L|40:361,1,80,10|0,0:2|0:0,0:0:0:0:
191,332,52011,1,6,0:3:0:0:
203,320,52114,1,4,0:3:0:0:
61,186,52217,6,0,P|72:131|166:135,1,160,10|6,0:2|0:3,0:0:0:0:
295,274,52528,2,0,P|322:225|249:166,1,160,6|4,0:3|0:3,0:0:0:0:
165,248,52838,1,10,0:2:0:0:
165,248,53045,2,0,B|142:282|105:298|105:298|63:297|28:278,1,160,2|4,0:0|0:3,0:0:0:0:
57,24,53459,1,10,0:2:0:0:
68,58,53511,1,4,0:3:0:0:
78,91,53562,1,4,0:3:0:0:
268,18,53666,1,10,0:2:0:0:
327,238,53769,1,8,0:2:0:0:
455,99,53873,6,0,B|429:88|417:64|417:64|394:77|361:72,1,103.999995239258,6|4,0:3|0:0,0:0:0:0:
216,215,54080,1,10,0:2:0:0:
447,329,54183,1,2,0:0:0:0:
409,178,54286,5,8,0:3:0:0:
401,179,54338,1,8,0:3:0:0:
393,180,54390,1,8,0:3:0:0:
385,181,54442,1,8,0:3:0:0:
377,181,54493,1,6,0:3:0:0:
217,377,54597,1,8,0:2:0:0:
95,225,54700,6,0,P|147:255|148:131,1,240,4|0,0:2|2:0,0:0:0:0:
40,95,55114,1,6,0:3:0:0:
28,74,55217,1,4,0:3:0:0:
130,0,55321,1,6,0:3:0:0:
154,0,55424,1,4,0:3:0:0:
219,157,55528,6,0,P|297:183|359:112,1,160,10|6,0:2|0:3,0:0:0:0:
340,31,55838,2,0,P|421:39|452:120,1,160,6|4,0:3|0:3,0:0:0:0:
464,205,56148,1,10,0:2:0:0:
464,205,56355,2,0,B|426:221|405:257|405:257|396:295|415:340,1,160,2|4,0:0|0:3,0:0:0:0:
100,288,56769,6,0,P|166:299|196:309,1,80,10|0,0:2|0:0,0:0:0:0:
307,361,56976,1,6,0:3:0:0:
141,147,57183,2,0,P|207:136|237:126,1,80,10|0,0:2|0:0,0:0:0:0:
297,0,57390,1,2,0:0:0:0:
382,54,57493,2,0,B|425:92|418:156|418:156|362:202,1,160,6|4,0:3|0:3,0:0:0:0:
141,278,57804,2,0,L|232:297,1,80,10|0,0:2|0:0,0:0:0:0:
486,321,58011,6,0,B|460:282|460:226|487:191|526:171|526:171|495:150|495:114,1,240,4|0,0:2|2:0,0:0:0:0:
374,58,58424,2,0,B|320:71|320:71|298:62,1,80,10|0,0:2|0:0,0:0:0:0:
473,8,58631,1,4,0:0:0:0:
484,22,58735,1,6,0:0:0:0:
373,155,58838,6,0,B|321:170|321:170|287:155|287:155|216:172,1,160,10|6,0:2|0:0,0:0:0:0:
205,347,59148,2,0,P|260:349|258:258,1,160,6|4,0:0|0:0,0:0:0:0:
175,260,59459,1,10,0:2:0:0:
175,260,59666,6,0,P|122:254|5:252,1,160,2|4,0:0|0:0,0:0:0:0:
190,95,60080,1,10,0:2:0:0:
223,107,60131,1,4,0:0:0:0:
256,119,60183,1,4,0:0:0:0:
405,0,60286,1,10,0:2:0:0:
474,279,60390,1,8,0:2:0:0:
348,169,60493,5,4,0:0:0:0:
365,154,60597,1,4,0:0:0:0:
231,372,60700,1,8,0:2:0:0:
139,36,60804,1,2,0:0:0:0:
20,262,60907,5,8,0:2:0:0:
30,267,60959,1,4,0:0:0:0:
41,271,61011,1,4,0:0:0:0:
52,274,61062,1,4,0:0:0:0:
63,276,61114,1,10,0:2:0:0:
242,38,61217,1,8,0:2:0:0:
375,361,61321,6,0,B|386:296|437:245|437:245|400:206|385:140,1,240,4|0,0:2|0:0,0:0:0:0:
443,0,61735,1,8,0:2:0:0:
301,244,61838,1,8,0:2:0:0:
458,14,61942,1,8,0:2:0:0:
284,239,62045,1,8,0:2:0:0:
128,7,62148,6,0,B|165:16|194:53|194:53|232:32|271:39,1,160,14|0,0:2|0:0,0:0:0:0:
51,207,62459,2,0,B|88:198|117:161|117:161|155:182|194:175,1,160,14|0,0:2|0:0,0:0:0:0:
95,350,62769,2,0,P|133:293|154:275,1,80,14|0,0:2|0:0,0:0:0:0:
367,281,62976,2,0,P|335:311|290:232,1,160,2|6,0:0|0:0,0:0:0:0:
284,239,63390,1,10,0:2:0:0:
123,3,63493,1,8,0:2:0:0:
22,244,63597,2,0,P|62:237|101:219,1,80,4|0,0:0|0:0,0:0:0:0:
238,0,63804,6,0,P|213:77|196:170,1,160,12|4,0:2|0:0,0:0:0:0:
181,305,64114,1,4,0:0:0:0:
195,318,64217,2,0,P|233:307|282:300,1,80,0|4,0:0|0:0,0:0:0:0:
512,149,64424,2,0,P|476:137|431:116,1,80,12|0,0:2|0:0,0:0:0:0:
181,59,64631,5,12,0:2:0:0:
268,96,64735,1,4,0:0:0:0:
162,156,64838,1,0,0:0:0:0:
197,53,64942,1,4,0:0:0:0:
9,30,65045,2,0,B|48:24|48:24|87:49,1,80,8|0,0:2|0:0,0:0:0:0:
166,170,65252,1,4,0:0:0:0:
76,142,65355,1,4,0:0:0:0:
248,17,65459,6,0,B|287:26|287:26|331:5,2,80,8|4|0,0:2|0:0|0:0,0:0:0:0:
75,56,65769,2,0,L|234:96,1,160,4|0,0:0|0:0,0:0:0:0:
419,147,66080,1,8,0:2:0:0:
419,147,66286,6,0,P|361:148|352:249,1,160,2|4,0:0|0:0,0:0:0:0:
419,339,66597,1,8,0:0:0:0:
338,53,66700,5,8,0:2:0:0:
217,261,66804,1,8,0:2:0:0:
173,86,66907,1,4,0:0:0:0:
267,180,67011,1,4,0:0:0:0:
63,131,67114,5,8,0:2:0:0:
350,67,67217,1,10,0:2:0:0:
371,63,67269,1,8,0:2:0:0:
392,58,67321,1,8,0:2:0:0:
209,281,67424,1,8,0:2:0:0:
233,14,67528,5,4,0:0:0:0:
306,256,67631,1,4,0:0:0:0:
350,67,67735,1,4,0:0:0:0:
292,239,67838,1,4,0:0:0:0:
457,239,67942,5,6,0:2:0:0:
470,150,68148,1,4,0:0:0:0:
399,94,68355,1,4,0:0:0:0:
249,231,68562,5,4,0:0:0:0:
325,228,68631,1,4,0:0:0:0:
373,168,68700,1,4,0:0:0:0:
360,92,68769,5,14,0:2:0:0:
343,84,68873,1,4,0:0:0:0:
326,76,68976,1,4,0:0:0:0:
156,69,69183,1,4,0:0:0:0:
98,226,69390,1,4,0:0:0:0:
105,245,69493,1,4,0:0:0:0:
35,317,69597,5,4,0:2:0:0:
117,355,69804,1,4,0:0:0:0:
200,314,70011,1,4,0:0:0:0:
290,331,70217,1,4,0:0:0:0:
403,76,70424,5,14,0:2:0:0:
460,165,70631,1,4,0:0:0:0:
390,246,70838,1,4,0:0:0:0:
414,351,71045,1,4,0:0:0:0:
125,86,71252,5,4,0:2:0:0:
279,29,71459,1,4,0:0:0:0:
195,222,71666,1,4,0:0:0:0:
349,165,71872,1,4,0:0:0:0:
165,373,72080,5,12,0:2:0:0:
135,153,72286,1,6,0:0:0:0:
288,314,72493,1,6,0:0:0:0:
153,161,72700,2,0,B|135:124|135:124|167:35,1,128,6|4,0:0|0:2,0:0:0:0:
153,161,73114,5,6,0:0:0:0:
386,98,73321,1,6,0:0:0:0:
170,170,73528,1,6,0:0:0:0:
486,283,73735,6,0,B|452:295|429:311|429:311|397:294|363:289,1,128,12|4,0:2|0:0,0:0:0:0:
364,181,74045,2,0,B|398:169|421:153|421:153|453:170|487:175,1,128,2|0,0:0|0:0,0:0:0:0:
495,267,74355,1,6,0:0:0:0:
195,370,74562,6,0,P|173:302|150:234,1,128,2|6,0:0|0:0,0:0:0:0:
105,171,74873,1,2,0:0:0:0:
188,274,74976,2,0,P|198:304|208:334,1,64,6|0,0:0|0:0,0:0:0:0:
318,209,75183,6,0,P|340:141|363:73,1,128,6|14,0:0|0:2,0:0:0:0:
408,10,75494,1,2,0:0:0:0:
325,113,75597,2,0,P|314:143|304:173,1,64,6|0,0:0|0:0,0:0:0:0:
439,338,75804,6,0,B|376:314|375:360|314:337,1,128,6|6,0:0|0:0,0:0:0:0:
246,278,76114,1,2,0:0:0:0:
321,326,76217,2,0,P|359:326|390:314,1,64,6|0,0:2|0:0,0:0:0:0:
475,139,76424,6,0,B|412:163|411:117|350:140,1,128,6|6,0:0|0:0,0:0:0:0:
282,199,76734,1,2,0:0:0:0:
357,151,76838,2,0,P|395:151|426:163,1,64,6|0,0:0|0:0,0:0:0:0:
204,363,77045,6,0,P|153:331|171:269,1,128,14|4,0:2|0:0,0:0:0:0:
319,320,77355,2,0,P|370:288|352:226,1,128,2|0,0:0|0:0,0:0:0:0:
263,178,77666,2,0,P|219:185|192:173,1,64,6|0,0:0|0:0,0:0:0:0:
232,0,77873,5,4,0:2:0:0:
233,89,78080,1,4,0:0:0:0:
234,179,78287,1,4,0:0:0:0:
235,268,78493,1,4,0:0:0:0:
25,137,78700,5,12,0:2:0:0:
127,0,78908,1,6,0:0:0:0:
160,251,79114,1,6,0:0:0:0:
309,6,79321,1,6,0:0:0:0:
280,233,79528,6,0,B|214:209|219:255|151:227,1,128,6|4,0:2|0:0,0:0:0:0:
121,145,79838,2,0,P|136:108|218:135,1,128,2|0,0:0|0:0,0:0:0:0:
248,311,80148,2,0,P|235:353|225:378,1,64,6|0,0:0|0:0,0:0:0:0:
507,231,80355,6,0,P|441:233|369:253,1,128,14|4,0:2|0:0,0:0:0:0:
511,46,80666,2,0,P|461:89|419:151,1,128,2|0,0:0|0:0,0:0:0:0:
368,52,80976,2,0,P|350:23|318:-13,1,64,6|0,0:0|0:0,0:0:0:0:
132,168,81183,6,0,L|188:158,1,40,6|0,0:0|0:2,0:0:0:0:
228,121,81286,2,0,L|188:128,1,40,2|0,0:2|0:2,0:0:0:0:
114,185,81390,2,0,L|226:165,1,80,6|0,0:0|0:2,0:0:0:0:
367,274,81597,2,0,P|377:289|366:328,1,40,6|0,0:0|0:0,0:0:0:0:
291,325,81700,2,0,P|283:307|292:271,1,40,2|0,0:0|0:0,0:0:0:0:
372,255,81804,2,0,P|390:282|370:352,1,80,6|0,0:0|0:0,0:0:0:0:
419,68,82011,6,0,B|434:43|434:43|464:27,2,40,14|0|2,0:2|0:0|0:0,0:0:0:0:
389,186,82217,2,0,B|418:186|418:186|447:204,2,40,6|0|2,0:0|0:0|0:0,0:0:0:0:
271,219,82424,2,0,B|285:244|285:244|284:278,2,40,6|0|2,0:0|0:0|0:0,0:0:0:0:
183,133,82631,2,4,B|168:157|168:157|138:173,2,40,6|0|2,0:0|0:0|0:0,0:0:0:0:
291,18,82838,6,0,L|308:52,1,32,6|0,0:0|0:0,0:0:0:0:
275,116,82942,2,0,L|292:82,1,32,2|0,0:0|0:0,0:0:0:0:
294,0,83045,2,0,L|328:68,1,64,6|0,0:0|0:0,0:0:0:0:
461,129,83252,2,0,L|444:163,1,32,6|0,0:0|0:0,0:0:0:0:
477,227,83356,2,0,L|460:193,1,32,2|0,0:0|0:0,0:0:0:0:
458,111,83459,2,0,L|424:179,1,64,6|0,0:0|0:0,0:0:0:0:
437,311,83666,6,0,L|388:320,2,32,12|0|2,0:2|0:0|0:0,0:0:0:0:
343,223,83873,2,0,L|296:206,2,32,6|0|2,0:0|0:0|0:0,0:0:0:0:
378,104,84080,2,0,L|427:113,2,32,6|0|2,0:0|0:0|0:0,0:0:0:0:
472,16,84286,2,0,L|518:0,2,32,6|0|2,0:0|0:0|0:0,0:0:0:0:
411,287,84493,6,0,B|427:295|427:295|460:285,2,42.6666666666667,2|2|2,0:0|0:0|0:0,0:0:0:0:
346,251,84700,5,6,0:0:0:0:
320,265,84769,1,2,0:0:0:0:
287,258,84838,1,2,0:0:0:0:
231,302,84907,6,0,B|212:316|212:316|161:312,1,64,6|0,0:0|0:0,0:0:0:0:
90,62,85114,5,6,0:0:0:0:
138,26,85183,1,2,0:0:0:0:
195,42,85252,1,2,0:0:0:0:
225,111,85321,5,10,0:2:0:0:
251,120,85390,1,2,0:0:0:0:
270,110,85459,1,2,0:0:0:0:
344,108,85528,6,0,B|367:105|367:105|416:121,1,64,6|0,0:0|0:0,0:0:0:0:
512,309,85735,5,6,0:0:0:0:
312,350,85838,1,0,0:0:0:0:
269,256,85942,2,0,L|287:209,2,42.6666666666667,6|0|0,0:0|0:0|0:0,0:0:0:0:
133,198,86148,5,6,0:0:0:0:
115,149,86217,1,2,0:0:0:0:
148,110,86286,1,2,0:0:0:0:
216,79,86355,5,6,0:0:0:0:
234,72,86424,1,0,0:0:0:0:
237,93,86493,1,0,0:0:0:0:
230,166,86562,6,0,L|222:209,2,42.6666666666667,6|2|2,0:0|0:0|0:0,0:0:0:0:
314,112,86769,5,6,0:0:0:0:
339,121,86838,1,2,0:0:0:0:
355,118,86907,1,2,0:0:0:0:
387,157,86976,5,6,0:0:0:0:
229,350,87080,1,8,0:2:0:0:
11,117,87183,2,0,P|49:75|130:80,1,111.999996582031,8|0,0:2|0:0,0:0:0:0:
445,200,87390,5,10,0:2:0:0:
228,232,87528,5,8,0:0:0:0:
11,264,87666,5,8,0:0:0:0:
223,248,87804,5,4,0:0:0:0:
256,192,87855,12,2,91114,2:0:0:0:
42,205,102700,5,2,0:0:0:0:
437,296,102907,5,0,0:0:0:0:
437,296,103011,2,0,P|450:255|469:211,1,80,2|2,0:0|0:0,0:0:0:0:
437,296,103321,1,2,0:0:0:0:
44,314,103631,5,2,0:0:0:0:
22,186,103838,1,2,0:0:0:0:
0,58,104045,1,2,0:0:0:0:
365,17,104252,5,2,0:0:0:0:
365,17,104355,2,0,P|346:49|330:98,1,80,0|2,0:0|0:0,0:0:0:0:
331,89,104666,2,0,P|351:123|358:139,1,40,2|0,0:0|0:0,0:0:0:0:
331,89,104873,1,2,0:0:0:0:
44,314,105286,5,2,0:0:0:0:
22,186,105493,1,2,0:0:0:0:
0,58,105700,6,0,P|11:54|20:48,1,20,2|0,0:0|0:0,0:0:0:0:
31,16,106011,5,4,0:2:0:0:
132,318,106114,1,8,0:2:0:0:
175,161,106217,1,4,0:0:0:0:
118,308,106321,1,10,0:2:0:0:
399,123,106424,5,6,0:0:0:0:
76,207,106528,1,8,0:2:0:0:
256,272,106631,1,4,0:0:0:0:
0,180,106735,1,10,0:2:0:0:
274,89,106838,6,0,P|274:41|199:8,1,128,6|8,0:0|0:2,0:0:0:0:
23,260,107045,2,0,P|98:239|155:230,1,128,6|8,0:0|0:2,0:0:0:0:
427,376,107252,2,0,P|370:352|363:292,1,128,6|8,0:0|0:2,0:0:0:0:
463,114,107459,1,4,0:0:0:0:
359,308,107562,1,10,0:2:0:0:
218,23,107666,5,4,0:2:0:0:
129,310,107769,1,8,0:2:0:0:
287,151,107873,1,4,0:0:0:0:
132,297,107976,1,10,0:2:0:0:
82,0,108080,5,6,0:0:0:0:
225,299,108183,1,8,0:2:0:0:
125,86,108286,1,4,0:0:0:0:
340,307,108390,1,10,0:2:0:0:
6,29,108493,6,0,P|20:93|29:160,1,128,6|8,0:0|0:2,0:0:0:0:
202,384,108700,2,0,P|222:323|248:264,1,128,6|8,0:0|0:2,0:0:0:0:
437,103,108907,1,4,0:0:0:0:
120,25,109011,1,8,0:2:0:0:
403,296,109114,5,8,0:2:0:0:
414,239,109166,1,8,0:2:0:0:
363,212,109217,1,8,0:2:0:0:
321,252,109270,1,8,0:2:0:0:
346,303,109321,5,4,0:2:0:0:
469,5,109424,1,8,0:2:0:0:
283,62,109528,1,4,0:0:0:0:
462,20,109631,1,10,0:2:0:0:
399,315,109735,5,6,0:0:0:0:
176,85,109838,1,8,0:2:0:0:
374,118,109942,1,4,0:0:0:0:
101,224,110045,1,10,0:2:0:0:
483,355,110148,6,0,B|495:337|508:316|508:316|491:286|474:240,1,128,6|8,0:0|0:2,0:0:0:0:
80,222,110355,2,0,B|67:204|55:183|55:183|72:153|89:107,1,128,6|8,0:0|0:2,0:0:0:0:
480,72,110562,2,0,P|425:86|331:116,1,128,6|8,0:0|0:2,0:0:0:0:
210,283,110769,1,4,0:0:0:0:
156,27,110873,1,8,0:2:0:0:
368,309,110976,5,6,0:0:0:0:
63,224,111080,1,8,0:2:0:0:
251,163,111183,1,4,0:0:0:0:
80,222,111286,1,10,0:2:0:0:
286,19,111390,5,6,0:0:0:0:
287,343,111493,1,8,0:2:0:0:
359,92,111597,1,4,0:0:0:0:
187,375,111700,1,10,0:2:0:0:
185,5,111804,6,0,P|134:50|150:123,1,128,6|8,0:0|0:2,0:0:0:0:
466,343,112011,2,0,P|466:281|418:242,1,128,6|8,0:0|0:2,0:0:0:0:
111,265,112217,1,6,0:0:0:0:
392,57,112321,1,8,0:2:0:0:
238,370,112424,5,8,0:2:0:0:
207,320,112476,1,8,0:2:0:0:
245,275,112528,1,8,0:2:0:0:
299,296,112580,1,8,0:2:0:0:
296,355,112632,5,4,0:2:0:0:
0,188,112735,1,8,0:2:0:0:
178,112,112838,1,4,0:0:0:0:
15,186,112942,1,10,0:2:0:0:
364,218,113045,5,6,0:0:0:0:
160,15,113148,1,8,0:2:0:0:
196,203,113252,1,4,0:0:0:0:
0,9,113355,1,10,0:2:0:0:
353,33,113459,6,0,B|371:59|392:85|392:85|378:115|370:150,1,128,6|8,0:0|0:2,0:0:0:0:
86,352,113666,2,0,B|79:322|65:292|65:292|86:266|104:240,1,128,6|8,0:0|0:2,0:0:0:0:
246,25,113873,1,6,0:0:0:0:
350,339,113976,1,8,0:2:0:0:
216,208,114080,1,4,0:0:0:0:
354,357,114183,1,8,0:2:0:0:
467,70,114286,5,6,0:0:0:0:
137,158,114390,1,8,0:2:0:0:
357,212,114493,1,4,0:0:0:0:
148,174,114597,1,10,0:2:0:0:
383,0,114700,5,6,0:0:0:0:
338,301,114804,1,8,0:2:0:0:
293,55,114907,1,4,0:0:0:0:
491,318,115011,1,10,0:2:0:0:
129,376,115114,6,0,P|92:317|126:251,1,128,6|8,0:0|0:2,0:0:0:0:
402,110,115321,2,0,P|418:50|382:0,1,128,6|8,0:0|0:2,0:0:0:0:
104,53,115528,1,6,0:0:0:0:
441,193,115631,1,8,0:2:0:0:
51,249,115735,5,8,0:2:0:0:
69,195,115786,1,8,0:2:0:0:
127,195,115838,1,8,0:2:0:0:
144,249,115890,1,8,0:2:0:0:
97,283,115942,5,6,0:2:0:0:
0,3,116045,1,8,0:2:0:0:
209,99,116148,1,4,0:0:0:0:
6,16,116252,1,8,0:2:0:0:
154,338,116355,5,6,0:0:0:0:
113,41,116459,1,8,0:2:0:0:
4,234,116562,1,4,0:0:0:0:
107,54,116666,1,8,0:2:0:0:
287,330,116769,6,0,B|312:334|331:340|331:340|367:324|417:314,1,128,6|8,0:0|0:2,0:0:0:0:
241,43,116976,2,0,B|198:34|162:18|162:18|143:24|118:28,1,128,6|8,0:0|0:2,0:0:0:0:
275,350,117183,1,6,0:0:0:0:
366,78,117286,1,8,0:2:0:0:
287,330,117390,1,4,0:0:0:0:
163,132,117493,1,8,0:2:0:0:
497,267,117597,5,6,0:0:0:0:
153,345,117700,1,8,0:2:0:0:
323,201,117804,1,4,0:0:0:0:
171,353,117907,1,10,0:2:0:0:
70,31,118011,5,6,0:0:0:0:
287,286,118114,1,8,0:2:0:0:
66,226,118217,1,4,0:0:0:0:
270,275,118321,1,10,0:2:0:0:
152,20,118424,6,0,B|131:14|113:11|113:11|62:17|46:67,1,128,6|8,0:0|0:2,0:0:0:0:
78,362,118631,2,0,B|96:373|113:381|113:381|163:389|192:346,1,128,6|8,0:0|0:2,0:0:0:0:
322,46,118838,5,10,0:2:0:0:
384,38,118890,1,8,0:2:0:0:
438,72,118942,1,8,0:2:0:0:
456,131,118993,1,8,0:2:0:0:
432,190,119045,1,8,0:2:0:0:
376,218,119097,1,8,0:2:0:0:
364,279,119148,1,8,0:2:0:0:
404,326,119201,1,8,0:2:0:0:
467,323,119252,5,12,0:2:0:0:
18,21,120493,5,8,0:2:0:0:
69,59,120545,1,8,0:2:0:0:
106,111,120597,1,4,0:0:0:0:
128,170,120648,1,4,0:0:0:0:
133,234,120700,1,8,0:2:0:0:
133,234,120907,5,6,0:0:0:0:
382,0,121011,2,0,P|350:14|316:33,1,64,8|4,0:2|0:0,0:0:0:0:
133,234,121114,2,0,P|166:229|222:219,1,64,8|4,0:2|0:0,0:0:0:0:
445,72,121217,2,0,P|410:77|372:86,1,64,8|4,0:2|0:0,0:0:0:0:
131,246,121321,2,0,P|164:240|220:227,1,64,8|4,0:2|0:0,0:0:0:0:
487,157,121424,2,0,P|452:153|413:152,1,64,8|4,0:2|0:0,0:0:0:0:
130,255,121528,2,0,P|163:252|220:245,1,64,8|4,0:2|0:0,0:0:0:0:
505,250,121631,2,0,P|472:237|434:226,1,64,8|12,0:2|0:2,0:0:0:0:
82,338,121735,5,6,0:0:0:0:
139,14,121838,1,2,0:2:0:0:
83,352,121942,1,6,0:0:0:0:
0,44,122045,1,6,0:0:0:0:
224,382,122148,5,6,0:0:0:0:
83,89,122252,1,6,0:0:0:0:
222,366,122355,1,4,0:2:0:0:
326,86,122459,1,6,0:0:0:0:
55,360,122562,5,4,0:2:0:0:
397,230,122666,1,8,0:2:0:0:
112,152,122769,1,4,0:0:0:0:
291,342,122873,1,10,0:2:0:0:
229,5,122976,5,6,0:0:0:0:
131,320,123080,1,8,0:2:0:0:
335,166,123183,1,4,0:0:0:0:
5,266,123286,5,10,0:2:0:0:
5,266,123338,1,0,0:0:0:0:
5,266,123390,2,0,B|-8:237|-14:224|-14:224|1:189|25:144,1,128,6|8,0:0|0:2,0:0:0:0:
329,38,123597,2,0,B|349:76|364:111|364:111|358:124|345:153,1,128,6|8,0:0|0:2,0:0:0:0:
188,367,123804,1,6,0:0:0:0:
122,52,123907,1,8,0:2:0:0:
193,355,124011,1,4,0:0:0:0:
429,190,124114,1,10,0:2:0:0:
85,304,124217,5,6,0:0:0:0:
415,359,124321,1,8,0:2:0:0:
220,198,124424,1,4,0:0:0:0:
401,369,124528,1,10,0:2:0:0:
353,35,124631,5,6,0:0:0:0:
197,312,124735,1,8,0:2:0:0:
402,204,124838,1,4,0:0:0:0:
98,117,124942,5,10,0:2:0:0:
98,117,124993,1,8,0:2:0:0:
98,117,125045,2,0,P|94:51|150:18,1,128,6|8,0:0|0:2,0:0:0:0:
485,181,125252,2,0,P|489:247|433:280,1,128,6|8,0:0|0:2,0:0:0:0:
54,283,125459,1,6,0:2:0:0:
333,58,125562,1,8,0:2:0:0:
283,368,125666,5,8,0:2:0:0:
226,340,125717,1,8,0:2:0:0:
235,277,125769,1,8,0:2:0:0:
297,266,125821,1,8,0:2:0:0:
327,322,125873,6,0,B|293:323|264:332|264:332|259:325|259:325|229:319|200:308,1,128,12|0,0:2|0:0,0:0:0:0:
3,176,126080,1,8,0:0:0:0:
45,188,126131,1,8,0:0:0:0:
86,169,126183,1,8,0:0:0:0:
129,180,126235,1,8,0:0:0:0:
167,170,126286,1,6,0:0:0:0:
245,14,126390,2,0,B|283:51|283:51|271:81|261:140,1,128,6|0,0:0|0:0,0:0:0:0:
508,307,126597,6,0,P|407:323|251:366,1,256,12|0,0:2|0:0,0:0:0:0:
90,101,126907,1,12,0:2:0:0:
310,251,127011,1,0,0:0:0:0:
413,0,127114,5,12,0:2:0:0:
220,211,127217,1,0,0:0:0:0:
49,13,127321,5,12,0:2:0:0:
437,177,127424,1,8,0:2:0:0:
437,177,127476,1,8,0:2:0:0:
437,177,127528,1,6,0:0:0:0:
26,357,127735,5,4,0:0:0:0:
46,317,127786,1,4,0:0:0:0:
29,280,127838,1,4,0:0:0:0:
51,240,127890,1,4,0:0:0:0:
37,219,127942,1,6,0:0:0:0:
109,72,128045,2,0,B|126:86|138:108|138:108|133:141|133:202,1,128,4|0,0:0|0:0,0:0:0:0:
451,373,128252,6,0,P|473:293|518:99,1,256,12|4,0:2|0:0,0:0:0:0:
226,352,128562,1,12,0:2:0:0:
420,76,128666,1,4,0:0:0:0:
37,58,128769,5,12,0:2:0:0:
363,179,128873,1,4,0:0:0:0:
40,355,128976,5,12,0:2:0:0:
180,27,129080,1,8,0:2:0:0:
390,312,129183,5,6,0:0:0:0:
55,210,129286,1,8,0:2:0:0:
299,143,129390,1,4,0:0:0:0:
63,224,129493,1,10,0:2:0:0:
430,196,129597,5,6,0:0:0:0:
167,31,129700,1,8,0:2:0:0:
172,326,129804,1,4,0:0:0:0:
400,83,129907,5,10,0:2:0:0:
400,83,129959,1,0,0:0:0:0:
400,83,130011,2,0,B|369:64|348:42|348:42|313:29|273:25,1,128,6|8,0:0|0:2,0:0:0:0:
45,289,130217,2,0,B|76:308|97:330|97:330|132:343|172:347,1,128,6|8,0:0|0:2,0:0:0:0:
476,124,130424,1,6,0:0:0:0:
117,109,130528,1,8,0:2:0:0:
299,258,130631,1,4,0:0:0:0:
123,123,130735,1,10,0:2:0:0:
469,11,130838,5,6,0:0:0:0:
416,336,130942,1,8,0:2:0:0:
309,141,131045,1,4,0:0:0:0:
421,320,131148,1,10,0:2:0:0:
89,228,131252,5,6,0:0:0:0:
443,124,131355,1,8,0:2:0:0:
279,284,131459,1,4,0:0:0:0:
188,4,131562,5,10,0:2:0:0:
188,4,131614,1,0,0:0:0:0:
188,4,131666,1,6,0:2:0:0:
332,136,131769,1,0,0:0:0:0:
7,130,131873,6,0,P|38:116|66:99,1,64,10|4,0:0|0:0,0:0:0:0:
96,257,131976,2,0,P|127:271|155:288,1,64,10|4,0:0|0:0,0:0:0:0:
185,96,132080,6,0,P|204:68|220:39,1,64,10|4,0:0|0:0,0:0:0:0:
274,291,132183,2,0,P|293:318|309:347,1,64,10|4,0:0|0:0,0:0:0:0:
512,93,132286,5,10,0:2:0:0:
448,80,132338,1,8,0:2:0:0:
391,111,132390,1,10,0:2:0:0:
370,171,132442,1,8,0:2:0:0:
388,231,132493,6,0,P|363:289|275:291,1,128,4|0,0:2|0:0,0:0:0:0:
128,181,132700,1,8,0:0:0:0:
121,116,132752,1,8,0:0:0:0:
157,61,132804,1,10,0:0:0:0:
219,42,132855,1,8,0:0:0:0:
280,68,132907,1,6,0:0:0:0:
307,121,132959,1,4,0:0:0:0:
294,173,133011,1,4,0:0:0:0:
254,200,133062,1,4,0:0:0:0:
210,194,133114,2,0,P|186:175|177:135,1,64,4|0,0:0|0:0,0:0:0:0:
418,3,133217,6,0,P|445:106|472:267,1,256,12|4,0:2|0:0,0:0:0:0:
164,380,133528,2,0,P|121:329|166:256,1,128,10|4,0:2|0:0,0:0:0:0:
317,171,133683,1,0,0:0:0:0:
317,171,133735,2,0,P|360:120|315:47,1,128,10|4,0:2|0:0,0:0:0:0:
132,2,133890,1,0,0:0:0:0:
132,2,133942,2,0,L|163:86,1,64,10|0,0:2|0:0,0:0:0:0:
250,301,134045,1,4,0:0:0:0:
19,184,134148,5,6,0:0:0:0:
344,66,134252,1,8,0:2:0:0:
344,66,134304,1,4,0:0:0:0:
344,66,134355,2,0,L|419:86,1,64,4|0,0:0|0:0,0:0:0:0:
233,213,134459,2,0,L|158:233,1,64,10|8,0:0|0:0,0:0:0:0:
71,95,134562,1,6,0:0:0:0:
59,92,134614,1,4,0:0:0:0:
47,89,134665,1,4,0:0:0:0:
35,86,134717,1,4,0:0:0:0:
0,101,134769,5,12,0:2:0:0:
237,362,134873,2,0,B|292:327|354:306|354:306|298:274|252:228,1,256,12|4,0:2|0:0,0:0:0:0:
191,31,135131,1,0,0:0:0:0:
191,31,135183,2,0,P|231:100|205:139,1,128,12|0,0:2|0:0,0:0:0:0:
39,212,135338,1,0,0:0:0:0:
39,212,135390,2,0,P|-1:281|25:320,1,128,12|0,0:2|0:0,0:0:0:0:
396,238,135597,1,10,0:2:0:0:
37,325,135700,1,8,0:2:0:0:
294,15,135804,5,4,0:2:0:0:
218,358,135907,1,8,0:2:0:0:
109,78,136011,5,6,0:0:0:0:
219,341,136114,1,8,0:2:0:0:
352,131,136217,5,6,0:0:0:0:
220,324,136321,1,8,0:2:0:0:
71,192,136424,1,6,0:0:0:0:
389,265,136528,6,0,P|458:233|346:162,1,256,8|8,0:2|0:2,0:0:0:0:
32,305,136838,5,6,0:0:0:0:
357,163,136942,1,8,0:2:0:0:
59,124,137045,5,6,0:0:0:0:
351,181,137148,1,8,0:2:0:0:
129,353,137252,5,6,0:0:0:0:
346,197,137355,1,8,0:2:0:0:
102,31,137459,5,6,0:0:0:0:
254,353,137562,1,8,0:2:0:0:
298,38,137666,5,6,0:0:0:0:
248,339,137769,1,8,0:2:0:0:
66,148,137873,5,6,0:0:0:0:
242,328,137976,1,8,0:2:0:0:
351,163,138080,1,6,0:0:0:0:
99,335,138183,6,0,P|22:326|114:256,1,256,10|8,0:2|0:2,0:0:0:0:
424,384,138493,1,6,0:0:0:0:
112,256,138597,1,8,0:2:0:0:
403,247,138700,5,6,0:0:0:0:
121,267,138804,1,8,0:2:0:0:
434,86,138907,5,10,0:2:0:0:
473,118,138959,1,8,0:2:0:0:
480,168,139011,1,8,0:2:0:0:
457,213,139062,1,8,0:2:0:0:
407,228,139114,5,12,0:2:0:0:
222,59,139217,1,2,0:0:0:0:
155,375,139321,5,8,0:2:0:0:
205,384,139373,1,8,0:2:0:0:
253,369,139424,1,10,0:2:0:0:
287,331,139476,1,8,0:2:0:0:
291,279,139528,1,4,0:0:0:0:
264,242,139580,1,4,0:0:0:0:
256,204,139631,1,6,0:0:0:0:
233,181,139683,1,4,0:0:0:0:
230,155,139735,1,4,0:0:0:0:
66,367,139838,6,0,P|55:285|18:106,1,256,12|2,0:2|0:2,0:0:0:0:
264,328,140148,2,0,P|235:320|191:299,1,64,8|4,0:2|0:0,0:0:0:0:
20,115,140252,2,0,P|49:123|93:144,1,64,6|4,0:0|0:0,0:0:0:0:
340,251,140355,2,0,P|309:250|261:241,1,64,8|4,0:2|0:0,0:0:0:0:
23,103,140459,2,0,P|52:109|97:128,1,64,6|4,0:0|0:0,0:0:0:0:
393,156,140562,2,0,P|363:163|315:167,1,64,8|4,0:2|0:0,0:0:0:0:
26,91,140666,2,0,P|55:95|101:112,1,64,6|4,0:0|0:0,0:0:0:0:
370,354,140769,5,10,0:2:0:0:
299,41,140873,1,10,0:2:0:0:
251,23,140924,1,4,0:0:0:0:
201,37,140976,1,4,0:0:0:0:
173,80,141028,1,4,0:0:0:0:
128,88,141080,1,8,0:0:0:0:
90,85,141131,1,8,0:0:0:0:
63,60,141183,2,0,P|75:91|85:126,1,64,8|8,0:0|0:0,0:0:0:0:
103,359,141286,1,6,0:0:0:0:
216,31,141390,5,12,0:2:0:0:
512,334,141493,2,0,P|453:352|378:363,1,128,12|4,0:2|0:0,0:0:0:0:
232,127,141700,1,4,0:0:0:0:
0,334,141804,2,0,P|59:352|134:363,1,128,12|0,0:2|0:0,0:0:0:0:
511,196,142011,2,0,P|461:233|394:269,1,128,12|0,0:2|0:0,0:0:0:0:
0,162,142217,1,12,0:2:0:0:
247,384,142321,6,0,B|293:292|205:293|247:199,1,192,12|0,0:2|0:0,0:0:0:0:
356,127,142528,1,8,0:2:0:0:
368,72,142580,1,4,0:0:0:0:
342,22,142631,1,8,0:2:0:0:
291,0,142684,1,4,0:0:0:0:
237,16,142735,1,8,0:2:0:0:
207,63,142787,1,4,0:0:0:0:
213,119,142838,1,8,0:2:0:0:
253,158,142890,1,4,0:0:0:0:
268,211,142942,1,8,0:2:0:0:
254,264,142993,1,4,0:0:0:0:
215,303,143046,1,8,0:2:0:0:
162,317,143097,1,4,0:0:0:0:
109,303,143148,1,8,0:2:0:0:
70,264,143201,1,4,0:0:0:0:
55,210,143252,6,0,L|70:127,1,64,8|4,0:2|0:0,0:0:0:0:
281,16,143355,2,0,L|253:73,1,64,8|4,0:2|0:0,0:0:0:0:
64,225,143459,2,0,L|86:143,1,64,8|4,0:2|0:0,0:0:0:0:
287,24,143562,2,0,L|264:84,1,64,8|4,0:2|0:0,0:0:0:0:
71,240,143666,2,0,L|100:160,1,64,8|4,0:2|0:0,0:0:0:0:
293,31,143769,2,0,L|276:92,1,64,8|4,0:2|0:0,0:0:0:0:
77,256,143873,2,0,L|112:179,1,64,8|4,0:2|0:0,0:0:0:0:
397,93,143976,6,0,P|439:106|461:246,1,192,8|0,0:2|0:0,0:0:0:0:
407,340,144183,1,8,0:2:0:0:
351,356,144235,1,4,0:0:0:0:
297,332,144286,1,8,0:2:0:0:
271,279,144339,1,4,0:0:0:0:
285,222,144390,1,8,0:2:0:0:
259,169,144441,1,4,0:0:0:0:
205,145,144494,1,8,0:2:0:0:
148,161,144545,1,4,0:0:0:0:
115,210,144597,1,8,0:2:0:0:
121,268,144648,1,4,0:0:0:0:
163,309,144701,1,8,0:2:0:0:
222,314,144752,1,4,0:0:0:0:
270,279,144804,2,0,L|293:194,1,64,8|0,0:2|0:2,0:0:0:0:
190,9,144907,5,12,0:2:0:0:
133,40,144959,1,8,0:2:0:0:
122,104,145011,1,8,0:2:0:0:
165,151,145062,1,8,0:2:0:0:
230,146,145114,1,8,0:2:0:0:
264,91,145166,1,8,0:2:0:0:
325,70,145217,1,8,0:2:0:0:
386,94,145269,1,8,0:2:0:0:
417,151,145321,5,8,0:0:0:0:
411,217,145373,1,8,0:0:0:0:
372,271,145424,1,8,0:0:0:0:
311,298,145477,1,8,0:0:0:0:
245,292,145528,1,8,0:0:0:0:
191,252,145580,1,8,0:0:0:0:
163,192,145631,1,8,0:0:0:0:
170,125,145684,1,8,0:0:0:0:
208,70,145735,6,0,B|220:57|234:50|234:50|244:53|244:53|289:21|356:35|356:35|363:27|363:27|351:104|387:153|387:153|387:162|387:162|390:120|420:95,1,384,6|0,0:0|0:0,0:0:0:0:
