osu file format v14

[General]
AudioFilename: audio.mp3
AudioLeadIn: 0
PreviewTime: 119949
Countdown: 0
SampleSet: Normal
StackLeniency: 0.7
Mode: 1
LetterboxInBreaks: 0
WidescreenStoryboard: 0

[Editor]
DistanceSpacing: 0.6
BeatDivisor: 8
GridSize: 32
TimelineZoom: 1.8

[Metadata]
Title:Goodbye
TitleUnicode:Goodbye
Artist:BLANKFIELD
ArtistUnicode:BLANKFIELD
Creator:Axer
Version:Fierce
Source:UNDERTALE
Tags:asgore toby fox bgm doujin comiket 91 c91 minstrel untaled metal warinside bergentrückung bergentruckung Video Game Instrumental radiation rock (demo)
BeatmapID:2245108
BeatmapSetID:1072709

[Difficulty]
HPDrainRate:4
CircleSize:2
OverallDifficulty:7
ApproachRate:10
SliderMultiplier:1.4
SliderTickRate:1

[Events]
//Background and Video events
0,0,"Fierce.jpg",0,50
//Break Periods
//Storyboard Layer 0 (Background)
//Storyboard Layer 1 (Fail)
//Storyboard Layer 2 (Pass)
//Storyboard Layer 3 (Foreground)
//Storyboard Layer 4 (Overlay)
//Storyboard Sound Samples

[TimingPoints]
492,574.162679425837,4,1,0,20,1,0
17860,-100,4,1,0,5,0,0
21161,574.162679425837,4,1,0,20,1,8
21887,451.127819548872,4,1,0,85,1,0
21887,-80,4,1,0,85,0,0
22338,-66.6666666666667,4,1,0,85,0,0
22799,232.558139534884,4,1,0,85,1,0
30240,-100,4,1,0,85,0,1
36752,-100,4,1,0,85,0,0
45124,-100,4,1,0,85,0,1
51636,-100,4,1,0,85,0,0
80473,-101.010101010101,4,1,0,85,0,0
80531,-101.522842639594,4,1,0,85,0,0
80589,-102.040816326531,4,1,0,85,0,0
80647,-102.564102564103,4,1,0,85,0,0
80705,-103.092783505155,4,1,0,85,0,0
80822,-104.166666666667,4,1,0,85,0,0
81054,-106.382978723404,4,1,0,85,0,0
81171,-107.52688172043,4,1,0,85,0,0
81403,-109.89010989011,4,1,0,85,0,0
81461,-110.497237569061,4,1,0,85,0,0
81519,-111.111111111111,4,1,0,85,0,0
81578,-111.731843575419,4,1,0,85,0,0
81636,-112.359550561798,4,1,0,85,0,0
81752,-113.636363636364,4,1,0,85,0,0
81985,-116.279069767442,4,1,0,85,0,0
82101,-117.647058823529,4,1,0,85,0,0
82333,-125,4,1,0,70,0,0
86985,-117.647058823529,4,1,0,70,0,0
87217,-112.676056338028,4,1,0,70,0,0
87333,-110.344827586207,4,1,0,70,0,0
87450,-108.108108108108,4,1,0,70,0,0
87566,-105.960264900662,4,1,0,70,0,0
87682,-103.896103896104,4,1,0,70,0,0
87740,-102.893890675241,4,1,0,70,0,0
87799,-101.910828025478,4,1,0,70,0,0
87857,-100.946372239748,4,1,0,70,0,0
87915,-100,4,1,0,85,0,0
98147,-125,4,1,0,85,0,0
99078,-100,4,1,0,85,0,0
101171,-125,4,1,0,85,0,0
101287,-122.813459863947,4,1,0,85,0,0
101403,-120.701954285342,4,1,0,85,0,0
101519,-118.661967652748,4,1,0,85,0,0
101636,-116.689790693522,4,1,0,85,0,0
101752,-114.781965916643,4,1,0,85,0,0
101868,-112.935649267048,4,1,0,85,0,0
101985,-111.147789881772,4,1,0,85,0,0
102101,-109.415535036496,4,1,0,85,0,0
102217,-107.736562557235,4,1,0,85,0,0
102333,-106.108338736016,4,1,0,85,0,0
102450,-104.528487671388,4,1,0,85,0,0
102566,-102.995097433362,4,1,0,85,0,0
102624,-102.245097858783,4,1,0,85,0,0
102682,-101.506045192521,4,1,0,85,0,0
102740,-100.777498400157,4,1,0,85,0,0
102799,-100.059335185765,4,1,0,85,0,0
103729,-125,4,1,0,85,0,0
103787,-122.448929612682,4,1,0,85,0,0
103845,-120.000048000019,4,1,0,85,0,0
103903,-117.647058823529,4,1,0,85,0,0
103961,-115.384571005934,4,1,0,85,0,0
104019,-113.207589889657,4,1,0,85,0,0
104078,-111.111111111111,4,1,0,85,0,0
104136,-109.090869421502,4,1,0,85,0,0
104194,-107.142895408177,4,1,0,85,0,0
104252,-105.263157894737,4,1,0,85,0,0
104310,-103.448240190262,4,1,0,85,0,0
104368,-101.694949727102,4,1,0,85,0,0
104426,-100,4,1,0,85,0,0
104659,232.558139534884,4,1,0,85,1,8
104892,232.558139534884,4,1,0,85,1,1
112566,-100,4,1,0,85,0,1
117915,-100,4,1,0,85,0,0
118147,-200,4,1,0,70,0,0
119775,232.558139534884,4,1,0,70,1,8
120008,582.52427184466,4,1,0,20,1,0
128163,500,4,1,0,45,1,8
128663,-66.6666666666667,4,1,0,85,0,0
129152,250,4,1,0,85,1,0
136152,245.901639344262,4,1,0,85,1,0
137126,230.769230769231,4,1,0,85,1,0
157433,-100,4,1,0,85,0,0
158356,-105.25595617142,4,1,0,85,0,0
159279,-111.095064046304,4,1,0,85,0,0
160202,-117.620075394468,4,1,0,85,0,0
160318,-118.490010699648,4,1,0,85,0,0
160549,-120.269065954353,4,1,0,85,0,0
160779,-122.102209317375,4,1,0,85,0,0
160895,-123.039973226502,4,1,0,85,0,0
161126,230.769230769231,6,1,0,85,1,0
161126,-124.959388198835,4,1,0,85,0,0
166664,-111.079021615977,4,1,0,85,0,0
171741,-111.111111111111,4,1,0,85,0,0
171856,-114.285714285714,4,1,0,85,0,0
171972,-117.647058823529,4,1,0,85,0,0
172087,-121.212121212121,4,1,0,85,0,0
172202,266.666666666667,4,1,0,20,1,0
172202,-108.173076923077,4,1,0,20,0,0
173251,232.558139534884,4,1,0,85,1,0
173483,-100,4,1,0,40,0,0
176041,-100,4,1,0,85,0,0
180692,-100,4,1,0,85,0,1
187204,-100,4,1,0,85,0,0
195576,-100,4,1,0,85,0,1
202088,-100,4,1,0,85,0,0
232785,-125,4,1,0,70,0,0
237437,-111.111111111111,4,1,0,70,0,0
237669,-108.108108108108,4,1,0,70,0,0
237902,-105.263157894737,4,1,0,70,0,0
237960,-104.575163398693,4,1,0,70,0,0
238018,-103.896103896104,4,1,0,70,0,0
238076,-103.225806451613,4,1,0,70,0,0
238134,-102.564102564103,4,1,0,70,0,0
238192,-101.910828025478,4,1,0,70,0,0
238251,-101.26582278481,4,1,0,70,0,0
238309,-100.62893081761,4,1,0,70,0,0
238367,-100,4,1,0,70,0,0
248599,-125,4,1,0,85,0,0
249530,-100,4,1,0,85,0,0
251623,-125,4,1,0,85,0,0
251739,-122.813459863947,4,1,0,85,0,0
251855,-120.701954285342,4,1,0,85,0,0
251971,-118.661967652748,4,1,0,85,0,0
252088,-116.689790693522,4,1,0,85,0,0
252204,-114.781965916643,4,1,0,85,0,0
252320,-112.935649267048,4,1,0,85,0,0
252437,-111.147789881772,4,1,0,85,0,0
252553,-109.415535036496,4,1,0,85,0,0
252669,-107.736562557235,4,1,0,85,0,0
252785,-106.108338736016,4,1,0,85,0,0
252902,-104.528487671388,4,1,0,85,0,0
253018,-102.995097433362,4,1,0,85,0,0
253076,-102.245097858783,4,1,0,85,0,0
253134,-101.506045192521,4,1,0,85,0,0
253192,-100.777498400157,4,1,0,85,0,0
253251,-100.059335185765,4,1,0,85,0,0
254181,-125,4,1,0,85,0,0
254239,-122.448929612682,4,1,0,85,0,0
254297,-120.000048000019,4,1,0,85,0,0
254355,-117.647058823529,4,1,0,85,0,0
254413,-115.384571005934,4,1,0,85,0,0
254471,-113.207589889657,4,1,0,85,0,0
254530,-111.111111111111,4,1,0,85,0,0
254588,-109.090869421502,4,1,0,85,0,0
254646,-107.142895408177,4,1,0,85,0,0
254704,-105.263157894737,4,1,0,85,0,0
254762,-103.448240190262,4,1,0,85,0,0
254820,-101.694949727102,4,1,0,85,0,0
254878,-100,4,1,0,85,0,0
255111,232.558139534884,4,1,0,85,1,8
255111,-111.111111111111,4,1,0,85,0,0
255343,232.558139534884,4,1,0,85,1,0
255343,-111.111111111111,4,1,0,85,0,0
255459,-108.108108108108,4,1,0,85,0,0
255517,-106.666666666667,4,1,0,85,0,0
255575,-105.263157894737,4,1,0,85,0,0
255633,-103.896103896104,4,1,0,85,0,0
255691,-102.564102564103,4,1,0,85,0,0
255749,-101.26582278481,4,1,0,85,0,0
255808,-100,4,1,0,85,0,0
255866,-98.7654320987654,4,1,0,85,0,0
255924,-97.5609756097561,4,1,0,85,0,0
255982,-96.3855421686747,4,1,0,85,0,0
256040,-95.2380952380952,4,1,0,85,0,0
256273,-90.9090909090909,4,1,0,85,0,1
269296,232.558139534884,4,1,0,85,1,8
269300,454.545454545455,4,1,0,85,1,0
269300,-46.5116279069767,4,1,0,85,0,0
271115,563.380281690141,4,1,0,20,1,0
273368,563.380281690141,4,1,0,20,1,8
273382,568.181818181818,4,1,0,20,1,0
288154,-100,4,1,0,20,0,0
288296,-66.6666666666667,4,1,0,20,0,0
288438,-100,4,1,0,19,0,0
288580,-100,4,1,0,19,0,0
288722,-100,4,1,0,18,0,0
288864,-100,4,1,0,18,0,0
289007,-100,4,1,0,17,0,0
289149,-100,4,1,0,17,0,0
289291,-100,4,1,0,16,0,0
289433,-100,4,1,0,16,0,0
289575,-100,4,1,0,15,0,0
289717,-100,4,1,0,15,0,0
289859,-100,4,1,0,14,0,0
290001,-100,4,1,0,14,0,0
290143,-100,4,1,0,13,0,0
290285,-100,4,1,0,13,0,0
290427,-100,4,1,0,12,0,0
290569,-100,4,1,0,12,0,0
290711,-100,4,1,0,12,0,0
290853,-100,4,1,0,11,0,0
290995,-100,4,1,0,11,0,0
291137,-100,4,1,0,10,0,0
291279,-100,4,1,0,10,0,0
291421,-100,4,1,0,9,0,0
291563,-100,4,1,0,9,0,0
291705,-100,4,1,0,8,0,0
291847,-100,4,1,0,8,0,0
291989,-100,4,1,0,7,0,0
292132,-100,4,1,0,7,0,0
292274,-100,4,1,0,6,0,0
292416,-100,4,1,0,6,0,0
292558,-100,4,1,0,5,0,0
292700,-100,4,1,0,5,0,0

[HitObjects]
256,192,492,5,0,0:0:0:0:
256,192,1066,1,8,0:0:0:0:
256,192,1640,1,0,0:0:0:0:
256,192,2788,1,0,0:0:0:0:
256,192,3362,1,8,0:0:0:0:
256,192,3936,1,0,0:0:0:0:
256,192,5085,1,0,0:0:0:0:
256,192,5659,1,8,0:0:0:0:
256,192,6233,1,0,0:0:0:0:
256,192,6520,1,0,0:0:0:0:
256,192,6807,1,8,0:0:0:0:
256,192,7094,1,8,0:0:0:0:
256,192,7381,1,0,0:0:0:0:
256,192,7669,1,0,0:0:0:0:
256,192,7956,1,8,0:0:0:0:
256,192,8243,1,8,0:0:0:0:
256,192,8530,1,0,0:0:0:0:
256,192,9678,1,0,0:0:0:0:
256,192,10252,1,8,0:0:0:0:
256,192,10826,1,0,0:0:0:0:
256,192,11975,1,8,0:0:0:0:
256,192,12549,1,0,0:0:0:0:
256,192,13123,1,0,0:0:0:0:
256,192,13697,1,8,0:0:0:0:
256,192,14271,1,8,0:0:0:0:
256,192,14558,1,0,0:0:0:0:
256,192,14846,1,0,0:0:0:0:
256,192,15133,1,8,0:0:0:0:
256,192,15420,1,8,0:0:0:0:
256,192,15994,1,8,0:0:0:0:
256,192,16568,1,8,0:0:0:0:
256,192,16712,1,8,0:0:0:0:
256,192,16783,1,8,0:0:0:0:
256,192,16855,1,0,0:0:0:0:
256,192,17142,1,0,0:0:0:0:
256,192,17429,1,8,0:0:0:0:
256,192,17716,1,0,0:0:0:0:
256,192,17860,8,0,21735,0:0:0:0:
256,192,21887,5,0,0:0:0:0:
256,192,22338,1,8,0:0:0:0:
256,192,22799,1,12,0:0:0:0:
256,192,22915,1,0,0:0:0:0:
256,192,22973,1,0,0:0:0:0:
256,192,23031,1,8,0:0:0:0:
256,192,23147,1,0,0:0:0:0:
256,192,23264,1,8,0:0:0:0:
256,192,23380,1,8,0:0:0:0:
256,192,23496,1,0,0:0:0:0:
256,192,23612,1,0,0:0:0:0:
256,192,23671,1,0,0:0:0:0:
256,192,23729,1,8,0:0:0:0:
256,192,23845,1,0,0:0:0:0:
256,192,23903,1,0,0:0:0:0:
256,192,23961,1,0,0:0:0:0:
256,192,24078,1,8,0:0:0:0:
256,192,24194,1,0,0:0:0:0:
256,192,24252,1,0,0:0:0:0:
256,192,24310,1,0,0:0:0:0:
256,192,24426,1,8,0:0:0:0:
256,192,24543,1,0,0:0:0:0:
256,192,24659,1,8,0:0:0:0:
256,192,24717,1,8,0:0:0:0:
256,192,24775,1,0,0:0:0:0:
256,192,24892,1,8,0:0:0:0:
256,192,25008,1,0,0:0:0:0:
256,192,25124,1,0,0:0:0:0:
256,192,25240,1,8,0:0:0:0:
256,192,25357,1,0,0:0:0:0:
256,192,25473,1,0,0:0:0:0:
256,192,25589,1,8,0:0:0:0:
256,192,25705,1,0,0:0:0:0:
256,192,25764,1,0,0:0:0:0:
256,192,25822,1,8,0:0:0:0:
256,192,25938,1,0,0:0:0:0:
256,192,26054,1,8,0:0:0:0:
256,192,26171,1,8,0:0:0:0:
256,192,26287,1,0,0:0:0:0:
256,192,26403,1,0,0:0:0:0:
256,192,26519,1,8,0:0:0:0:
256,192,26578,1,8,0:0:0:0:
256,192,26636,1,0,0:0:0:0:
256,192,26694,1,0,0:0:0:0:
256,192,26752,1,8,0:0:0:0:
256,192,26868,1,0,0:0:0:0:
256,192,26985,1,8,0:0:0:0:
256,192,27101,1,8,0:0:0:0:
256,192,27217,1,0,0:0:0:0:
256,192,27333,1,0,0:0:0:0:
256,192,27450,1,8,0:0:0:0:
256,192,27508,1,8,0:0:0:0:
256,192,27566,1,0,0:0:0:0:
256,192,27682,1,0,0:0:0:0:
256,192,27799,1,8,0:0:0:0:
256,192,27915,1,0,0:0:0:0:
256,192,28031,1,0,0:0:0:0:
256,192,28147,1,8,0:0:0:0:
256,192,28205,1,8,0:0:0:0:
256,192,28264,1,8,0:0:0:0:
256,192,28322,1,8,0:0:0:0:
256,192,28380,1,0,0:0:0:0:
256,192,28438,1,0,0:0:0:0:
256,192,28496,1,0,0:0:0:0:
256,192,28612,1,8,0:0:0:0:
256,192,28729,1,0,0:0:0:0:
256,192,28787,1,0,0:0:0:0:
256,192,28845,1,8,0:0:0:0:
256,192,28961,1,0,0:0:0:0:
256,192,29019,1,0,0:0:0:0:
256,192,29078,1,8,0:0:0:0:
256,192,29194,1,8,0:0:0:0:
256,192,29310,1,4,0:0:0:0:
256,192,29426,1,4,0:0:0:0:
256,192,29775,1,12,0:0:0:0:
256,192,29892,1,12,0:0:0:0:
256,192,30240,1,12,0:0:0:0:
256,192,30357,1,8,0:0:0:0:
256,192,30415,1,0,0:0:0:0:
256,192,30473,1,8,0:0:0:0:
256,192,30531,1,0,0:0:0:0:
256,192,30589,1,8,0:0:0:0:
256,192,30647,1,0,0:0:0:0:
256,192,30705,1,8,0:0:0:0:
256,192,30764,1,0,0:0:0:0:
256,192,30822,1,8,0:0:0:0:
256,192,30880,1,0,0:0:0:0:
256,192,30938,1,8,0:0:0:0:
256,192,30996,1,8,0:0:0:0:
256,192,31054,1,0,0:0:0:0:
256,192,31112,1,0,0:0:0:0:
256,192,31171,1,8,0:0:0:0:
256,192,31229,1,8,0:0:0:0:
256,192,31287,1,8,0:0:0:0:
256,192,31345,1,8,0:0:0:0:
256,192,31403,1,0,0:0:0:0:
256,192,31461,1,0,0:0:0:0:
256,192,31519,1,8,0:0:0:0:
256,192,31578,1,8,0:0:0:0:
256,192,31636,1,8,0:0:0:0:
256,192,31694,1,8,0:0:0:0:
256,192,31752,1,0,0:0:0:0:
256,192,31810,1,0,0:0:0:0:
256,192,31868,1,8,0:0:0:0:
256,192,31926,1,8,0:0:0:0:
256,192,31985,1,0,0:0:0:0:
256,192,32043,1,0,0:0:0:0:
256,192,32101,1,8,0:0:0:0:
256,192,32159,1,0,0:0:0:0:
256,192,32217,1,8,0:0:0:0:
256,192,32275,1,0,0:0:0:0:
256,192,32333,1,8,0:0:0:0:
256,192,32392,1,0,0:0:0:0:
256,192,32450,1,8,0:0:0:0:
256,192,32508,1,0,0:0:0:0:
256,192,32566,1,8,0:0:0:0:
256,192,32624,1,0,0:0:0:0:
256,192,32682,1,8,0:0:0:0:
256,192,32740,1,0,0:0:0:0:
256,192,32799,1,8,0:0:0:0:
256,192,32857,1,8,0:0:0:0:
256,192,32915,1,0,0:0:0:0:
256,192,32973,1,0,0:0:0:0:
256,192,33031,1,8,0:0:0:0:
256,192,33089,1,8,0:0:0:0:
256,192,33147,1,8,0:0:0:0:
256,192,33205,1,8,0:0:0:0:
256,192,33264,1,0,0:0:0:0:
256,192,33322,1,0,0:0:0:0:
256,192,33380,1,8,0:0:0:0:
256,192,33438,1,8,0:0:0:0:
256,192,33496,1,8,0:0:0:0:
256,192,33554,1,8,0:0:0:0:
256,192,33612,1,0,0:0:0:0:
256,192,33671,1,0,0:0:0:0:
256,192,33729,1,8,0:0:0:0:
256,192,33787,1,8,0:0:0:0:
256,192,33845,1,0,0:0:0:0:
256,192,33903,1,0,0:0:0:0:
256,192,33961,1,12,0:0:0:0:
256,192,34078,1,0,0:0:0:0:
256,192,34136,1,0,0:0:0:0:
256,192,34194,1,8,0:0:0:0:
256,192,34252,1,0,0:0:0:0:
256,192,34310,1,8,0:0:0:0:
256,192,34368,1,0,0:0:0:0:
256,192,34426,1,8,0:0:0:0:
256,192,34485,1,0,0:0:0:0:
256,192,34543,1,8,0:0:0:0:
256,192,34601,1,0,0:0:0:0:
256,192,34659,1,8,0:0:0:0:
256,192,34717,1,0,0:0:0:0:
256,192,34775,1,8,0:0:0:0:
256,192,34833,1,0,0:0:0:0:
256,192,34892,1,8,0:0:0:0:
256,192,34950,1,8,0:0:0:0:
256,192,35008,1,0,0:0:0:0:
256,192,35066,1,0,0:0:0:0:
256,192,35124,1,8,0:0:0:0:
256,192,35182,1,0,0:0:0:0:
256,192,35240,1,8,0:0:0:0:
256,192,35299,1,0,0:0:0:0:
256,192,35357,1,8,0:0:0:0:
256,192,35415,1,0,0:0:0:0:
256,192,35473,1,8,0:0:0:0:
256,192,35531,1,0,0:0:0:0:
256,192,35589,1,8,0:0:0:0:
256,192,35705,1,0,0:0:0:0:
256,192,35822,1,12,0:0:0:0:
256,192,35938,1,0,0:0:0:0:
256,192,35996,1,0,0:0:0:0:
256,192,36054,1,8,0:0:0:0:
256,192,36112,1,8,0:0:0:0:
256,192,36171,1,0,0:0:0:0:
256,192,36229,1,0,0:0:0:0:
256,192,36287,1,8,0:0:0:0:
256,192,36345,1,8,0:0:0:0:
256,192,36403,1,0,0:0:0:0:
256,192,36461,1,0,0:0:0:0:
256,192,36519,1,8,0:0:0:0:
256,192,36578,1,8,0:0:0:0:
256,192,36636,1,8,0:0:0:0:
256,192,36694,1,8,0:0:0:0:
256,192,36752,1,4,0:0:0:0:
256,192,37217,1,8,0:0:0:0:
256,192,37275,1,8,0:0:0:0:
256,192,37333,1,0,0:0:0:0:
256,192,37450,1,8,0:0:0:0:
256,192,37566,1,0,0:0:0:0:
256,192,37682,1,12,0:0:0:0:
256,192,37799,1,0,0:0:0:0:
256,192,37857,1,0,0:0:0:0:
256,192,37915,1,8,0:0:0:0:
256,192,38031,1,0,0:0:0:0:
256,192,38147,1,8,0:0:0:0:
256,192,38264,1,8,0:0:0:0:
256,192,38380,1,0,0:0:0:0:
256,192,38496,1,0,0:0:0:0:
256,192,38554,1,0,0:0:0:0:
256,192,38612,1,8,0:0:0:0:
256,192,38729,1,0,0:0:0:0:
256,192,38787,1,0,0:0:0:0:
256,192,38845,1,0,0:0:0:0:
256,192,38961,1,8,0:0:0:0:
256,192,39078,1,0,0:0:0:0:
256,192,39136,1,0,0:0:0:0:
256,192,39194,1,0,0:0:0:0:
256,192,39310,1,8,0:0:0:0:
256,192,39426,1,0,0:0:0:0:
256,192,39543,1,8,0:0:0:0:
256,192,39601,1,8,0:0:0:0:
256,192,39659,1,0,0:0:0:0:
256,192,39775,1,8,0:0:0:0:
256,192,39892,1,0,0:0:0:0:
256,192,40008,1,0,0:0:0:0:
256,192,40124,1,8,0:0:0:0:
256,192,40240,1,0,0:0:0:0:
256,192,40357,1,0,0:0:0:0:
256,192,40473,1,8,0:0:0:0:
256,192,40589,1,0,0:0:0:0:
256,192,40647,1,0,0:0:0:0:
256,192,40705,1,8,0:0:0:0:
256,192,40822,1,0,0:0:0:0:
256,192,40938,1,8,0:0:0:0:
256,192,41054,1,8,0:0:0:0:
256,192,41112,1,8,0:0:0:0:
256,192,41171,1,0,0:0:0:0:
256,192,41229,1,0,0:0:0:0:
256,192,41287,1,0,0:0:0:0:
256,192,41345,1,0,0:0:0:0:
256,192,41403,1,8,0:0:0:0:
256,192,41461,1,8,0:0:0:0:
256,192,41519,1,0,0:0:0:0:
256,192,41636,1,12,0:0:0:0:
256,192,41752,1,0,0:0:0:0:
256,192,41868,1,0,0:0:0:0:
256,192,41985,1,12,0:0:0:0:
256,192,42101,1,0,0:0:0:0:
256,192,42217,1,0,0:0:0:0:
256,192,42333,1,8,0:0:0:0:
256,192,42392,1,8,0:0:0:0:
256,192,42450,1,0,0:0:0:0:
256,192,42566,1,0,0:0:0:0:
256,192,42682,1,8,0:0:0:0:
256,192,42740,1,8,0:0:0:0:
256,192,42799,1,0,0:0:0:0:
256,192,42915,1,0,0:0:0:0:
256,192,43031,1,12,0:0:0:0:
256,192,43264,1,8,0:0:0:0:
256,192,43322,1,8,0:0:0:0:
256,192,43380,1,0,0:0:0:0:
256,192,43438,1,0,0:0:0:0:
256,192,43496,1,8,0:0:0:0:
256,192,43554,1,8,0:0:0:0:
256,192,43612,1,0,0:0:0:0:
256,192,43671,1,0,0:0:0:0:
256,192,43729,1,8,0:0:0:0:
256,192,43787,1,8,0:0:0:0:
256,192,43845,1,0,0:0:0:0:
256,192,43903,1,0,0:0:0:0:
256,192,43961,1,8,0:0:0:0:
256,192,44194,1,4,0:0:0:0:
256,192,44310,1,4,0:0:0:0:
256,192,44659,1,12,0:0:0:0:
256,192,44775,1,12,0:0:0:0:
256,192,45124,1,12,0:0:0:0:
256,192,45240,1,8,0:0:0:0:
256,192,45299,1,0,0:0:0:0:
256,192,45357,1,8,0:0:0:0:
256,192,45415,1,0,0:0:0:0:
256,192,45473,1,8,0:0:0:0:
256,192,45531,1,0,0:0:0:0:
256,192,45589,1,8,0:0:0:0:
256,192,45647,1,0,0:0:0:0:
256,192,45705,1,8,0:0:0:0:
256,192,45764,1,0,0:0:0:0:
256,192,45822,1,8,0:0:0:0:
256,192,45880,1,8,0:0:0:0:
256,192,45938,1,0,0:0:0:0:
256,192,45996,1,0,0:0:0:0:
256,192,46054,1,8,0:0:0:0:
256,192,46112,1,8,0:0:0:0:
256,192,46171,1,8,0:0:0:0:
256,192,46229,1,8,0:0:0:0:
256,192,46287,1,0,0:0:0:0:
256,192,46345,1,0,0:0:0:0:
256,192,46403,1,8,0:0:0:0:
256,192,46461,1,8,0:0:0:0:
256,192,46519,1,8,0:0:0:0:
256,192,46578,1,8,0:0:0:0:
256,192,46636,1,0,0:0:0:0:
256,192,46694,1,0,0:0:0:0:
256,192,46752,1,8,0:0:0:0:
256,192,46810,1,8,0:0:0:0:
256,192,46868,1,0,0:0:0:0:
256,192,46926,1,0,0:0:0:0:
256,192,46985,1,8,0:0:0:0:
256,192,47043,1,0,0:0:0:0:
256,192,47101,1,8,0:0:0:0:
256,192,47159,1,0,0:0:0:0:
256,192,47217,1,8,0:0:0:0:
256,192,47275,1,0,0:0:0:0:
256,192,47333,1,8,0:0:0:0:
256,192,47392,1,0,0:0:0:0:
256,192,47450,1,8,0:0:0:0:
256,192,47508,1,0,0:0:0:0:
256,192,47566,1,8,0:0:0:0:
256,192,47624,1,0,0:0:0:0:
256,192,47682,1,8,0:0:0:0:
256,192,47740,1,8,0:0:0:0:
256,192,47799,1,0,0:0:0:0:
256,192,47857,1,0,0:0:0:0:
256,192,47915,1,8,0:0:0:0:
256,192,47973,1,8,0:0:0:0:
256,192,48031,1,8,0:0:0:0:
256,192,48089,1,8,0:0:0:0:
256,192,48147,1,0,0:0:0:0:
256,192,48205,1,0,0:0:0:0:
256,192,48264,1,8,0:0:0:0:
256,192,48322,1,8,0:0:0:0:
256,192,48380,1,8,0:0:0:0:
256,192,48438,1,8,0:0:0:0:
256,192,48496,1,0,0:0:0:0:
256,192,48554,1,0,0:0:0:0:
256,192,48612,1,8,0:0:0:0:
256,192,48729,1,0,0:0:0:0:
256,192,48845,1,8,0:0:0:0:
256,192,48961,1,0,0:0:0:0:
256,192,49019,1,0,0:0:0:0:
256,192,49078,1,8,0:0:0:0:
256,192,49136,1,0,0:0:0:0:
256,192,49194,1,8,0:0:0:0:
256,192,49252,1,0,0:0:0:0:
256,192,49310,1,8,0:0:0:0:
256,192,49368,1,0,0:0:0:0:
256,192,49426,1,8,0:0:0:0:
256,192,49485,1,0,0:0:0:0:
256,192,49543,1,8,0:0:0:0:
256,192,49601,1,0,0:0:0:0:
256,192,49659,1,8,0:0:0:0:
256,192,49717,1,0,0:0:0:0:
256,192,49775,1,8,0:0:0:0:
256,192,49833,1,8,0:0:0:0:
256,192,49892,1,0,0:0:0:0:
256,192,49950,1,0,0:0:0:0:
256,192,50008,1,8,0:0:0:0:
256,192,50066,1,0,0:0:0:0:
256,192,50124,1,8,0:0:0:0:
256,192,50182,1,0,0:0:0:0:
256,192,50240,1,8,0:0:0:0:
256,192,50299,1,0,0:0:0:0:
256,192,50357,1,8,0:0:0:0:
256,192,50415,1,0,0:0:0:0:
256,192,50473,1,8,0:0:0:0:
256,192,50589,1,0,0:0:0:0:
256,192,50705,1,12,0:0:0:0:
256,192,50822,1,0,0:0:0:0:
256,192,50880,1,0,0:0:0:0:
256,192,50938,1,8,0:0:0:0:
256,192,50996,1,8,0:0:0:0:
256,192,51054,1,8,0:0:0:0:
256,192,51112,1,8,0:0:0:0:
256,192,51171,1,0,0:0:0:0:
256,192,51229,1,0,0:0:0:0:
256,192,51287,1,8,0:0:0:0:
256,192,51345,1,8,0:0:0:0:
256,192,51403,1,8,0:0:0:0:
256,192,51461,1,8,0:0:0:0:
256,192,51519,1,0,0:0:0:0:
256,192,51578,1,0,0:0:0:0:
256,192,51636,1,8,0:0:0:0:
256,192,51752,1,0,0:0:0:0:
256,192,51810,1,0,0:0:0:0:
256,192,51868,1,0,0:0:0:0:
256,192,51926,1,0,0:0:0:0:
256,192,51985,1,0,0:0:0:0:
256,192,52043,1,0,0:0:0:0:
256,192,52101,1,8,0:0:0:0:
256,192,52566,1,4,0:0:0:0:
256,192,52915,1,8,0:0:0:0:
256,192,53147,1,0,0:0:0:0:
256,192,53264,1,8,0:0:0:0:
256,192,53380,1,0,0:0:0:0:
256,192,53496,1,8,0:0:0:0:
256,192,53612,1,8,0:0:0:0:
256,192,53729,1,0,0:0:0:0:
256,192,53845,1,0,0:0:0:0:
256,192,53961,1,8,0:0:0:0:
256,192,54194,1,8,0:0:0:0:
256,192,54426,1,4,0:0:0:0:
256,192,54775,1,8,0:0:0:0:
256,192,55008,1,0,0:0:0:0:
256,192,55124,1,8,0:0:0:0:
256,192,55240,1,0,0:0:0:0:
256,192,55357,1,8,0:0:0:0:
256,192,55473,1,8,0:0:0:0:
256,192,55589,1,0,0:0:0:0:
256,192,55705,1,0,0:0:0:0:
256,192,55822,1,8,0:0:0:0:
256,192,56054,1,8,0:0:0:0:
256,192,56112,1,8,0:0:0:0:
256,192,56171,1,8,0:0:0:0:
256,192,56229,1,8,0:0:0:0:
256,192,56287,1,4,0:0:0:0:
256,192,56636,1,8,0:0:0:0:
256,192,56868,1,0,0:0:0:0:
256,192,56985,1,8,0:0:0:0:
256,192,57101,1,0,0:0:0:0:
256,192,57217,1,8,0:0:0:0:
256,192,57333,1,8,0:0:0:0:
256,192,57450,1,0,0:0:0:0:
256,192,57566,1,0,0:0:0:0:
256,192,57682,1,8,0:0:0:0:
256,192,57915,1,8,0:0:0:0:
256,192,58031,1,8,0:0:0:0:
256,192,58147,1,4,0:0:0:0:
256,192,58380,1,0,0:0:0:0:
256,192,58496,1,12,0:0:0:0:
256,192,58729,1,0,0:0:0:0:
256,192,58845,1,8,0:0:0:0:
256,192,58961,1,0,0:0:0:0:
256,192,59078,1,8,0:0:0:0:
256,192,59194,1,0,0:0:0:0:
256,192,59310,1,0,0:0:0:0:
256,192,59426,1,8,0:0:0:0:
256,192,59543,1,0,0:0:0:0:
256,192,59659,1,0,0:0:0:0:
256,192,59775,1,8,0:0:0:0:
256,192,59833,1,8,0:0:0:0:
256,192,59892,1,8,0:0:0:0:
256,192,60008,1,4,0:0:0:0:
256,192,60240,1,8,0:0:0:0:
256,192,60357,1,0,0:0:0:0:
256,192,60589,1,0,0:0:0:0:
256,192,60647,1,0,0:0:0:0:
256,192,60705,1,0,0:0:0:0:
256,192,60764,1,0,0:0:0:0:
256,192,60822,1,0,0:0:0:0:
256,192,60938,1,8,0:0:0:0:
256,192,61054,1,8,0:0:0:0:
256,192,61171,1,0,0:0:0:0:
256,192,61287,1,0,0:0:0:0:
256,192,61403,1,8,0:0:0:0:
256,192,61636,1,8,0:0:0:0:
256,192,61868,1,4,0:0:0:0:
256,192,62101,1,8,0:0:0:0:
256,192,62217,1,0,0:0:0:0:
256,192,62450,1,0,0:0:0:0:
256,192,62566,1,8,0:0:0:0:
256,192,62682,1,0,0:0:0:0:
256,192,62799,1,8,0:0:0:0:
256,192,62915,1,8,0:0:0:0:
256,192,63031,1,0,0:0:0:0:
256,192,63147,1,0,0:0:0:0:
256,192,63264,1,8,0:0:0:0:
256,192,63496,1,8,0:0:0:0:
256,192,63554,1,8,0:0:0:0:
256,192,63612,1,8,0:0:0:0:
256,192,63671,1,8,0:0:0:0:
256,192,63729,1,4,0:0:0:0:
256,192,63961,1,8,0:0:0:0:
256,192,64078,1,0,0:0:0:0:
256,192,64310,1,0,0:0:0:0:
256,192,64426,1,8,0:0:0:0:
256,192,64543,1,0,0:0:0:0:
256,192,64659,1,8,0:0:0:0:
256,192,64775,1,8,0:0:0:0:
256,192,64892,1,0,0:0:0:0:
256,192,65008,1,0,0:0:0:0:
256,192,65124,1,8,0:0:0:0:
256,192,65357,1,8,0:0:0:0:
256,192,65415,1,8,0:0:0:0:
256,192,65473,1,8,0:0:0:0:
256,192,65531,1,8,0:0:0:0:
256,192,65589,1,4,0:0:0:0:
256,192,66519,1,8,0:0:0:0:
256,192,67450,1,12,0:0:0:0:
256,192,67566,1,0,0:0:0:0:
256,192,67624,1,0,0:0:0:0:
256,192,67682,1,8,0:0:0:0:
256,192,67799,1,0,0:0:0:0:
256,192,67915,1,8,0:0:0:0:
256,192,68031,1,0,0:0:0:0:
256,192,68147,1,8,0:0:0:0:
256,192,68205,1,0,0:0:0:0:
256,192,68264,1,8,0:0:0:0:
256,192,68322,1,8,0:0:0:0:
256,192,68380,1,0,0:0:0:0:
256,192,68496,1,8,0:0:0:0:
256,192,68612,1,8,0:0:0:0:
256,192,68729,1,0,0:0:0:0:
256,192,68787,1,0,0:0:0:0:
256,192,68845,1,8,0:0:0:0:
256,192,68961,1,0,0:0:0:0:
256,192,69078,1,8,0:0:0:0:
256,192,69136,1,8,0:0:0:0:
256,192,69194,1,0,0:0:0:0:
256,192,69310,1,8,0:0:0:0:
256,192,69426,1,0,0:0:0:0:
256,192,69485,1,0,0:0:0:0:
256,192,69543,1,8,0:0:0:0:
256,192,69659,1,0,0:0:0:0:
256,192,69775,1,8,0:0:0:0:
256,192,69892,1,0,0:0:0:0:
256,192,70008,1,8,0:0:0:0:
256,192,70066,1,0,0:0:0:0:
256,192,70124,1,8,0:0:0:0:
256,192,70182,1,8,0:0:0:0:
256,192,70240,1,0,0:0:0:0:
256,192,70357,1,8,0:0:0:0:
256,192,70473,1,8,0:0:0:0:
256,192,70589,1,0,0:0:0:0:
256,192,70647,1,0,0:0:0:0:
256,192,70705,1,8,0:0:0:0:
256,192,70822,1,0,0:0:0:0:
256,192,70938,1,8,0:0:0:0:
256,192,70996,1,0,0:0:0:0:
256,192,71054,1,8,0:0:0:0:
256,192,71171,1,12,0:0:0:0:
256,192,71287,1,0,0:0:0:0:
256,192,71345,1,0,0:0:0:0:
256,192,71403,1,8,0:0:0:0:
256,192,71519,1,0,0:0:0:0:
256,192,71636,1,8,0:0:0:0:
256,192,71752,1,0,0:0:0:0:
256,192,71810,1,0,0:0:0:0:
256,192,71868,1,8,0:0:0:0:
256,192,71926,1,0,0:0:0:0:
256,192,71985,1,8,0:0:0:0:
256,192,72043,1,8,0:0:0:0:
256,192,72101,1,0,0:0:0:0:
256,192,72217,1,8,0:0:0:0:
256,192,72333,1,8,0:0:0:0:
256,192,72392,1,8,0:0:0:0:
256,192,72450,1,0,0:0:0:0:
256,192,72566,1,8,0:0:0:0:
256,192,72682,1,8,0:0:0:0:
256,192,72799,1,0,0:0:0:0:
256,192,72857,1,0,0:0:0:0:
256,192,72915,1,8,0:0:0:0:
256,192,73031,1,0,0:0:0:0:
256,192,73089,1,0,0:0:0:0:
256,192,73147,1,8,0:0:0:0:
256,192,73205,1,8,0:0:0:0:
256,192,73264,1,0,0:0:0:0:
256,192,73380,1,12,0:0:0:0:
256,192,73612,1,0,0:0:0:0:
256,192,73729,1,12,0:0:0:0:
256,192,73961,1,8,0:0:0:0:
256,192,74019,1,8,0:0:0:0:
256,192,74078,1,0,0:0:0:0:
256,192,74136,1,0,0:0:0:0:
256,192,74194,1,8,0:0:0:0:
256,192,74310,1,0,0:0:0:0:
256,192,74368,1,0,0:0:0:0:
256,192,74426,1,8,0:0:0:0:
256,192,74485,1,8,0:0:0:0:
256,192,74543,1,0,0:0:0:0:
256,192,74659,1,12,0:0:0:0:
256,192,74892,1,12,0:0:0:0:
256,192,75008,1,0,0:0:0:0:
256,192,75066,1,0,0:0:0:0:
256,192,75124,1,8,0:0:0:0:
256,192,75240,1,0,0:0:0:0:
256,192,75357,1,8,0:0:0:0:
256,192,75473,1,0,0:0:0:0:
256,192,75589,1,8,0:0:0:0:
256,192,75647,1,0,0:0:0:0:
256,192,75705,1,8,0:0:0:0:
256,192,75764,1,8,0:0:0:0:
256,192,75822,1,0,0:0:0:0:
256,192,75938,1,8,0:0:0:0:
256,192,76054,1,8,0:0:0:0:
256,192,76171,1,0,0:0:0:0:
256,192,76229,1,0,0:0:0:0:
256,192,76287,1,8,0:0:0:0:
256,192,76403,1,0,0:0:0:0:
256,192,76519,1,8,0:0:0:0:
256,192,76578,1,8,0:0:0:0:
256,192,76636,1,0,0:0:0:0:
256,192,76752,1,8,0:0:0:0:
256,192,76868,1,0,0:0:0:0:
256,192,76926,1,0,0:0:0:0:
256,192,76985,1,8,0:0:0:0:
256,192,77101,1,0,0:0:0:0:
256,192,77217,1,8,0:0:0:0:
256,192,77333,1,0,0:0:0:0:
256,192,77450,1,8,0:0:0:0:
256,192,77508,1,0,0:0:0:0:
256,192,77566,1,8,0:0:0:0:
256,192,77624,1,8,0:0:0:0:
256,192,77682,1,0,0:0:0:0:
256,192,77799,1,8,0:0:0:0:
256,192,77915,1,8,0:0:0:0:
256,192,78031,1,0,0:0:0:0:
256,192,78089,1,0,0:0:0:0:
256,192,78147,1,8,0:0:0:0:
256,192,78264,1,0,0:0:0:0:
256,192,78380,1,8,0:0:0:0:
256,192,78438,1,0,0:0:0:0:
256,192,78496,1,8,0:0:0:0:
256,192,78612,1,8,0:0:0:0:
256,192,78729,1,0,0:0:0:0:
256,192,78787,1,0,0:0:0:0:
256,192,78845,1,8,0:0:0:0:
256,192,78961,1,0,0:0:0:0:
256,192,79078,1,8,0:0:0:0:
256,192,79194,1,0,0:0:0:0:
256,192,79252,1,0,0:0:0:0:
256,192,79310,1,8,0:0:0:0:
256,192,79368,1,0,0:0:0:0:
256,192,79426,1,8,0:0:0:0:
256,192,79485,1,8,0:0:0:0:
256,192,79543,1,4,0:0:0:0:
256,192,79659,1,8,0:0:0:0:
256,192,79775,1,8,0:0:0:0:
256,192,79833,1,8,0:0:0:0:
256,192,79892,1,0,0:0:0:0:
256,192,80008,1,8,0:0:0:0:
256,192,80066,1,8,0:0:0:0:
256,192,80124,1,0,0:0:0:0:
256,192,80182,1,0,0:0:0:0:
256,192,80240,1,8,0:0:0:0:
256,192,80357,1,0,0:0:0:0:
256,192,80473,1,8,0:0:0:0:
256,192,80531,1,8,0:0:0:0:
256,192,80589,1,0,0:0:0:0:
256,192,80647,1,0,0:0:0:0:
256,192,80705,1,0,0:0:0:0:
256,192,80822,1,12,0:0:0:0:
256,192,81054,1,0,0:0:0:0:
256,192,81171,1,12,0:0:0:0:
256,192,81403,1,8,0:0:0:0:
256,192,81461,1,8,0:0:0:0:
256,192,81519,1,8,0:0:0:0:
256,192,81578,1,8,0:0:0:0:
256,192,81636,1,0,0:0:0:0:
256,192,81752,1,12,0:0:0:0:
256,192,81985,1,0,0:0:0:0:
256,192,82101,1,12,0:0:0:0:
256,192,82333,1,4,0:0:0:0:
256,192,82682,1,0,0:0:0:0:
256,192,83031,1,0,0:0:0:0:
256,192,83147,1,0,0:0:0:0:
256,192,83264,1,8,0:0:0:0:
256,192,83612,1,0,0:0:0:0:
256,192,83845,1,0,0:0:0:0:
256,192,83961,1,0,0:0:0:0:
256,192,84194,1,8,0:0:0:0:
256,192,84426,1,0,0:0:0:0:
256,192,84543,1,0,0:0:0:0:
256,192,84892,1,0,0:0:0:0:
256,192,85008,1,0,0:0:0:0:
256,192,85124,1,8,0:0:0:0:
256,192,85473,1,0,0:0:0:0:
256,192,85705,1,0,0:0:0:0:
256,192,85822,1,0,0:0:0:0:
256,192,86054,1,8,0:0:0:0:
256,192,86171,1,0,0:0:0:0:
256,192,86403,1,0,0:0:0:0:
256,192,86636,1,0,0:0:0:0:
256,192,86752,1,0,0:0:0:0:
256,192,86868,1,0,0:0:0:0:
256,192,86985,1,8,0:0:0:0:
256,192,87217,1,0,0:0:0:0:
256,192,87333,1,0,0:0:0:0:
256,192,87450,1,8,0:0:0:0:
256,192,87566,1,0,0:0:0:0:
256,192,87682,1,8,0:0:0:0:
256,192,87740,1,8,0:0:0:0:
256,192,87799,1,0,0:0:0:0:
256,192,87857,1,0,0:0:0:0:
256,192,87915,1,12,0:0:0:0:
256,192,88031,1,8,0:0:0:0:
256,192,88089,1,8,0:0:0:0:
256,192,88147,1,8,0:0:0:0:
256,192,88205,1,8,0:0:0:0:
256,192,88264,1,4,0:0:0:0:
256,192,88496,1,0,0:0:0:0:
256,192,88612,1,12,0:0:0:0:
256,192,88845,1,12,0:0:0:0:
256,192,88961,1,8,0:0:0:0:
256,192,89019,1,8,0:0:0:0:
256,192,89078,1,0,0:0:0:0:
256,192,89136,1,0,0:0:0:0:
256,192,89194,1,8,0:0:0:0:
256,192,89310,1,12,0:0:0:0:
256,192,89426,1,0,0:0:0:0:
256,192,89485,1,0,0:0:0:0:
256,192,89543,1,8,0:0:0:0:
256,192,89775,1,12,0:0:0:0:
256,192,89892,1,0,0:0:0:0:
256,192,89950,1,0,0:0:0:0:
256,192,90008,1,8,0:0:0:0:
256,192,90124,1,0,0:0:0:0:
256,192,90240,1,8,0:0:0:0:
256,192,90357,1,0,0:0:0:0:
256,192,90473,1,8,0:0:0:0:
256,192,90531,1,0,0:0:0:0:
256,192,90589,1,8,0:0:0:0:
256,192,90647,1,8,0:0:0:0:
256,192,90705,1,0,0:0:0:0:
256,192,90822,1,8,0:0:0:0:
256,192,90938,1,8,0:0:0:0:
256,192,91054,1,0,0:0:0:0:
256,192,91112,1,0,0:0:0:0:
256,192,91171,1,8,0:0:0:0:
256,192,91287,1,0,0:0:0:0:
256,192,91403,1,8,0:0:0:0:
256,192,91461,1,8,0:0:0:0:
256,192,91519,1,0,0:0:0:0:
256,192,91636,1,8,0:0:0:0:
256,192,91752,1,0,0:0:0:0:
256,192,91810,1,0,0:0:0:0:
256,192,91868,1,8,0:0:0:0:
256,192,91985,1,0,0:0:0:0:
256,192,92101,1,8,0:0:0:0:
256,192,92217,1,0,0:0:0:0:
256,192,92333,1,8,0:0:0:0:
256,192,92392,1,0,0:0:0:0:
256,192,92450,1,8,0:0:0:0:
256,192,92508,1,8,0:0:0:0:
256,192,92566,1,0,0:0:0:0:
256,192,92682,1,8,0:0:0:0:
256,192,92799,1,8,0:0:0:0:
256,192,92915,1,0,0:0:0:0:
256,192,92973,1,0,0:0:0:0:
256,192,93031,1,8,0:0:0:0:
256,192,93147,1,0,0:0:0:0:
256,192,93264,1,8,0:0:0:0:
256,192,93322,1,0,0:0:0:0:
256,192,93380,1,8,0:0:0:0:
256,192,93496,1,8,0:0:0:0:
256,192,93612,1,0,0:0:0:0:
256,192,93671,1,0,0:0:0:0:
256,192,93729,1,8,0:0:0:0:
256,192,93845,1,0,0:0:0:0:
256,192,93961,1,8,0:0:0:0:
256,192,94078,1,0,0:0:0:0:
256,192,94194,1,8,0:0:0:0:
256,192,94252,1,0,0:0:0:0:
256,192,94310,1,8,0:0:0:0:
256,192,94368,1,8,0:0:0:0:
256,192,94426,1,0,0:0:0:0:
256,192,94543,1,8,0:0:0:0:
256,192,94659,1,8,0:0:0:0:
256,192,94775,1,0,0:0:0:0:
256,192,94833,1,0,0:0:0:0:
256,192,94892,1,8,0:0:0:0:
256,192,95008,1,0,0:0:0:0:
256,192,95124,1,8,0:0:0:0:
256,192,95182,1,8,0:0:0:0:
256,192,95240,1,0,0:0:0:0:
256,192,95357,1,12,0:0:0:0:
256,192,95473,1,0,0:0:0:0:
256,192,95531,1,0,0:0:0:0:
256,192,95589,1,0,0:0:0:0:
256,192,95647,1,0,0:0:0:0:
256,192,95705,1,12,0:0:0:0:
256,192,95822,1,0,0:0:0:0:
256,192,95880,1,0,0:0:0:0:
256,192,95938,1,0,0:0:0:0:
256,192,96054,1,12,0:0:0:0:
256,192,96171,1,0,0:0:0:0:
256,192,96287,1,8,0:0:0:0:
256,192,96345,1,8,0:0:0:0:
256,192,96403,1,8,0:0:0:0:
256,192,96461,1,8,0:0:0:0:
256,192,96519,1,0,0:0:0:0:
256,192,96636,1,12,0:0:0:0:
256,192,96868,1,0,0:0:0:0:
256,192,96985,1,12,0:0:0:0:
256,192,97217,1,4,0:0:0:0:
256,192,98612,1,0,0:0:0:0:
256,192,98729,1,0,0:0:0:0:
256,192,98787,1,0,0:0:0:0:
256,192,98845,1,12,0:0:0:0:
256,192,99078,1,4,0:0:0:0:
256,192,99194,1,4,0:0:0:0:
256,192,100008,1,4,0:0:0:0:
256,192,100124,1,4,0:0:0:0:
256,192,100473,1,8,0:0:0:0:
256,192,100531,1,0,0:0:0:0:
256,192,100589,1,0,0:0:0:0:
256,192,100647,1,0,0:0:0:0:
256,192,100705,1,12,0:0:0:0:
256,192,100938,1,4,0:0:0:0:
256,192,101171,1,0,0:0:0:0:
256,192,101287,1,0,0:0:0:0:
256,192,101403,1,8,0:0:0:0:
256,192,101519,1,0,0:0:0:0:
256,192,101636,1,0,0:0:0:0:
256,192,101752,1,0,0:0:0:0:
256,192,101868,1,8,0:0:0:0:
256,192,101985,1,0,0:0:0:0:
256,192,102101,1,8,0:0:0:0:
256,192,102217,1,8,0:0:0:0:
256,192,102333,1,0,0:0:0:0:
256,192,102450,1,0,0:0:0:0:
256,192,102566,1,8,0:0:0:0:
256,192,102624,1,8,0:0:0:0:
256,192,102682,1,8,0:0:0:0:
256,192,102740,1,8,0:0:0:0:
256,192,102799,1,4,0:0:0:0:
256,192,103729,1,8,0:0:0:0:
256,192,103787,1,8,0:0:0:0:
256,192,103845,1,8,0:0:0:0:
256,192,103903,1,8,0:0:0:0:
256,192,103961,1,0,0:0:0:0:
256,192,104019,1,0,0:0:0:0:
256,192,104078,1,8,0:0:0:0:
256,192,104136,1,8,0:0:0:0:
256,192,104194,1,0,0:0:0:0:
256,192,104252,1,0,0:0:0:0:
256,192,104310,1,0,0:0:0:0:
256,192,104368,1,0,0:0:0:0:
256,192,104426,1,8,0:0:0:0:
256,192,104892,1,4,0:0:0:0:
256,192,105008,1,8,0:0:0:0:
256,192,105124,1,0,0:0:0:0:
256,192,105182,1,0,0:0:0:0:
256,192,105240,1,8,0:0:0:0:
256,192,105357,1,0,0:0:0:0:
256,192,105473,1,8,0:0:0:0:
256,192,105589,1,0,0:0:0:0:
256,192,105647,1,0,0:0:0:0:
256,192,105705,1,8,0:0:0:0:
256,192,105822,1,0,0:0:0:0:
256,192,105938,1,8,0:0:0:0:
256,192,106054,1,0,0:0:0:0:
256,192,106112,1,0,0:0:0:0:
256,192,106171,1,8,0:0:0:0:
256,192,106287,1,0,0:0:0:0:
256,192,106345,1,0,0:0:0:0:
256,192,106403,1,8,0:0:0:0:
256,192,106461,1,8,0:0:0:0:
256,192,106519,1,0,0:0:0:0:
256,192,106578,1,0,0:0:0:0:
256,192,106636,1,8,0:0:0:0:
256,192,106752,1,4,0:0:0:0:
256,192,106868,1,8,0:0:0:0:
256,192,106985,1,0,0:0:0:0:
256,192,107043,1,0,0:0:0:0:
256,192,107101,1,8,0:0:0:0:
256,192,107217,1,0,0:0:0:0:
256,192,107333,1,8,0:0:0:0:
256,192,107450,1,0,0:0:0:0:
256,192,107508,1,0,0:0:0:0:
256,192,107566,1,8,0:0:0:0:
256,192,107682,1,0,0:0:0:0:
256,192,107798,1,0,0:0:0:0:
256,192,107915,1,8,0:0:0:0:
256,192,107973,1,0,0:0:0:0:
256,192,108031,1,8,0:0:0:0:
256,192,108089,1,8,0:0:0:0:
256,192,108147,1,0,0:0:0:0:
256,192,108264,1,8,0:0:0:0:
256,192,108380,1,0,0:0:0:0:
256,192,108438,1,0,0:0:0:0:
256,192,108496,1,8,0:0:0:0:
256,192,108612,1,4,0:0:0:0:
256,192,108729,1,8,0:0:0:0:
256,192,108845,1,0,0:0:0:0:
256,192,108903,1,0,0:0:0:0:
256,192,108961,1,8,0:0:0:0:
256,192,109078,1,0,0:0:0:0:
256,192,109194,1,8,0:0:0:0:
256,192,109310,1,0,0:0:0:0:
256,192,109368,1,0,0:0:0:0:
256,192,109426,1,8,0:0:0:0:
256,192,109543,1,0,0:0:0:0:
256,192,109659,1,8,0:0:0:0:
256,192,109775,1,0,0:0:0:0:
256,192,109833,1,0,0:0:0:0:
256,192,109892,1,8,0:0:0:0:
256,192,109950,1,8,0:0:0:0:
256,192,110008,1,0,0:0:0:0:
256,192,110124,1,0,0:0:0:0:
256,192,110240,1,8,0:0:0:0:
256,192,110298,1,8,0:0:0:0:
256,192,110357,1,8,0:0:0:0:
256,192,110415,1,8,0:0:0:0:
256,192,110473,1,4,0:0:0:0:
256,192,110589,1,8,0:0:0:0:
256,192,110647,1,0,0:0:0:0:
256,192,110705,1,8,0:0:0:0:
256,192,110764,1,8,0:0:0:0:
256,192,110822,1,4,0:0:0:0:
256,192,111054,1,8,0:0:0:0:
256,192,111171,1,8,0:0:0:0:
256,192,111287,1,8,0:0:0:0:
256,192,111345,1,8,0:0:0:0:
256,192,111403,1,0,0:0:0:0:
256,192,111519,1,0,0:0:0:0:
256,192,111636,1,12,0:0:0:0:
256,192,111752,1,12,0:0:0:0:
256,192,111868,1,0,0:0:0:0:
256,192,111926,1,0,0:0:0:0:
256,192,111985,1,0,0:0:0:0:
256,192,112043,1,0,0:0:0:0:
256,192,112101,1,12,0:0:0:0:
256,192,112333,1,12,0:0:0:0:
256,192,112566,1,8,0:0:0:0:
256,192,112624,1,0,0:0:0:0:
256,192,112682,1,8,0:0:0:0:
256,192,112740,1,0,0:0:0:0:
256,192,112798,1,8,0:0:0:0:
256,192,112857,1,0,0:0:0:0:
256,192,112915,1,8,0:0:0:0:
256,192,112973,1,0,0:0:0:0:
256,192,113031,1,8,0:0:0:0:
256,192,113089,1,8,0:0:0:0:
256,192,113147,1,0,0:0:0:0:
256,192,113205,1,0,0:0:0:0:
256,192,113264,1,8,0:0:0:0:
256,192,113322,1,8,0:0:0:0:
256,192,113380,1,0,0:0:0:0:
256,192,113438,1,0,0:0:0:0:
256,192,113496,1,8,0:0:0:0:
256,192,113554,1,0,0:0:0:0:
256,192,113612,1,8,0:0:0:0:
256,192,113671,1,0,0:0:0:0:
256,192,113729,1,8,0:0:0:0:
256,192,113787,1,8,0:0:0:0:
256,192,113845,1,0,0:0:0:0:
256,192,113903,1,0,0:0:0:0:
256,192,113961,1,8,0:0:0:0:
256,192,114019,1,8,0:0:0:0:
256,192,114078,1,0,0:0:0:0:
256,192,114136,1,0,0:0:0:0:
256,192,114194,1,8,0:0:0:0:
256,192,114252,1,8,0:0:0:0:
256,192,114310,1,8,0:0:0:0:
256,192,114368,1,8,0:0:0:0:
256,192,114426,1,0,0:0:0:0:
256,192,114485,1,0,0:0:0:0:
256,192,114543,1,8,0:0:0:0:
256,192,114601,1,0,0:0:0:0:
256,192,114659,1,8,0:0:0:0:
256,192,114717,1,0,0:0:0:0:
256,192,114775,1,8,0:0:0:0:
256,192,114833,1,0,0:0:0:0:
256,192,114892,1,8,0:0:0:0:
256,192,114950,1,8,0:0:0:0:
256,192,115008,1,0,0:0:0:0:
256,192,115066,1,0,0:0:0:0:
256,192,115124,1,8,0:0:0:0:
256,192,115182,1,8,0:0:0:0:
256,192,115240,1,0,0:0:0:0:
256,192,115298,1,0,0:0:0:0:
256,192,115357,1,8,0:0:0:0:
256,192,115415,1,8,0:0:0:0:
256,192,115473,1,8,0:0:0:0:
256,192,115531,1,8,0:0:0:0:
256,192,115589,1,0,0:0:0:0:
256,192,115647,1,0,0:0:0:0:
256,192,115705,1,0,0:0:0:0:
256,192,115764,1,0,0:0:0:0:
256,192,115822,1,8,0:0:0:0:
256,192,115880,1,8,0:0:0:0:
256,192,115938,1,0,0:0:0:0:
256,192,115996,1,0,0:0:0:0:
256,192,116054,1,12,0:0:0:0:
256,192,116171,1,0,0:0:0:0:
256,192,116229,1,0,0:0:0:0:
256,192,116287,1,8,0:0:0:0:
256,192,116345,1,0,0:0:0:0:
256,192,116403,1,8,0:0:0:0:
256,192,116461,1,0,0:0:0:0:
256,192,116519,1,8,0:0:0:0:
256,192,116578,1,0,0:0:0:0:
256,192,116636,1,8,0:0:0:0:
256,192,116694,1,0,0:0:0:0:
256,192,116752,1,8,0:0:0:0:
256,192,116810,1,8,0:0:0:0:
256,192,116868,1,0,0:0:0:0:
256,192,116926,1,0,0:0:0:0:
256,192,116985,1,8,0:0:0:0:
256,192,117101,1,0,0:0:0:0:
256,192,117159,1,0,0:0:0:0:
256,192,117217,1,8,0:0:0:0:
256,192,117275,1,8,0:0:0:0:
256,192,117333,1,0,0:0:0:0:
256,192,117392,1,0,0:0:0:0:
256,192,117450,1,8,0:0:0:0:
256,192,117508,1,8,0:0:0:0:
256,192,117566,1,0,0:0:0:0:
256,192,117624,1,0,0:0:0:0:
256,192,117682,1,8,0:0:0:0:
256,192,117740,1,8,0:0:0:0:
256,192,117798,1,0,0:0:0:0:
256,192,117857,1,0,0:0:0:0:
256,192,117915,1,12,0:0:0:0:
256,192,118031,8,0,119775,0:0:0:0:
256,192,120008,5,8,0:0:0:0:
256,192,120153,1,0,0:0:0:0:
256,192,120299,1,0,0:0:0:0:
256,192,120444,1,0,0:0:0:0:
256,192,120590,1,8,0:0:0:0:
256,192,120881,1,0,0:0:0:0:
256,192,121173,1,8,0:0:0:0:
256,192,121609,1,0,0:0:0:0:
256,192,122046,1,0,0:0:0:0:
256,192,122192,1,0,0:0:0:0:
256,192,122338,1,8,0:0:0:0:
256,192,122774,1,8,0:0:0:0:
256,192,122920,1,0,0:0:0:0:
256,192,123211,1,8,0:0:0:0:
256,192,123503,1,0,0:0:0:0:
256,192,124668,1,8,0:0:0:0:
256,192,124813,1,0,0:0:0:0:
256,192,124959,1,0,0:0:0:0:
256,192,125105,1,0,0:0:0:0:
256,192,125250,1,8,0:0:0:0:
256,192,125541,1,0,0:0:0:0:
256,192,125833,1,8,0:0:0:0:
256,192,126270,1,0,0:0:0:0:
256,192,126707,1,0,0:0:0:0:
256,192,126852,1,0,0:0:0:0:
256,192,126998,1,8,0:0:0:0:
256,192,127435,1,8,0:0:0:0:
256,192,127580,1,0,0:0:0:0:
256,192,127726,1,0,0:0:0:0:
256,192,127872,1,8,0:0:0:0:
256,192,128163,1,0,0:0:0:0:
256,192,128663,1,12,0:0:0:0:
256,192,129152,1,4,0:0:0:0:
256,192,130152,1,4,0:0:0:0:
256,192,131152,1,12,0:0:0:0:
256,192,131652,1,4,0:0:0:0:
256,192,132152,1,12,0:0:0:0:
256,192,133152,1,4,0:0:0:0:
256,192,134152,1,4,0:0:0:0:
256,192,135152,1,12,0:0:0:0:
256,192,135652,1,12,0:0:0:0:
256,192,136152,1,0,0:0:0:0:
256,192,136274,1,0,0:0:0:0:
256,192,136336,1,0,0:0:0:0:
256,192,136397,1,8,0:0:0:0:
256,192,136459,1,8,0:0:0:0:
256,192,136520,1,0,0:0:0:0:
256,192,136582,1,0,0:0:0:0:
256,192,136643,1,8,0:0:0:0:
256,192,136705,1,0,0:0:0:0:
256,192,136766,1,8,0:0:0:0:
256,192,136828,1,0,0:0:0:0:
256,192,136889,1,8,0:0:0:0:
256,192,136951,1,0,0:0:0:0:
256,192,137012,1,8,0:0:0:0:
256,192,137126,1,4,0:0:0:0:
256,192,137241,1,0,0:0:0:0:
256,192,137356,1,8,0:0:0:0:
256,192,137472,1,0,0:0:0:0:
256,192,137587,1,8,0:0:0:0:
256,192,137702,1,8,0:0:0:0:
256,192,137760,1,8,0:0:0:0:
256,192,137818,1,0,0:0:0:0:
256,192,137933,1,0,0:0:0:0:
256,192,138049,1,8,0:0:0:0:
256,192,138164,1,0,0:0:0:0:
256,192,138222,1,0,0:0:0:0:
256,192,138279,1,0,0:0:0:0:
256,192,138395,1,8,0:0:0:0:
256,192,138510,1,0,0:0:0:0:
256,192,138568,1,0,0:0:0:0:
256,192,138626,1,0,0:0:0:0:
256,192,138741,1,8,0:0:0:0:
256,192,138856,1,0,0:0:0:0:
256,192,138972,1,8,0:0:0:0:
256,192,139087,1,8,0:0:0:0:
256,192,139145,1,8,0:0:0:0:
256,192,139202,1,0,0:0:0:0:
256,192,139318,1,0,0:0:0:0:
256,192,139433,1,8,0:0:0:0:
256,192,139549,1,0,0:0:0:0:
256,192,139664,1,8,0:0:0:0:
256,192,139779,1,0,0:0:0:0:
256,192,139837,1,0,0:0:0:0:
256,192,139895,1,8,0:0:0:0:
256,192,140010,1,0,0:0:0:0:
256,192,140068,1,0,0:0:0:0:
256,192,140126,1,8,0:0:0:0:
256,192,140241,1,0,0:0:0:0:
256,192,140299,1,0,0:0:0:0:
256,192,140356,1,8,0:0:0:0:
256,192,140472,1,0,0:0:0:0:
256,192,140529,1,0,0:0:0:0:
256,192,140587,1,8,0:0:0:0:
256,192,140645,1,0,0:0:0:0:
256,192,140702,1,8,0:0:0:0:
256,192,140760,1,8,0:0:0:0:
256,192,140818,1,4,0:0:0:0:
256,192,140933,1,0,0:0:0:0:
256,192,141049,1,8,0:0:0:0:
256,192,141164,1,0,0:0:0:0:
256,192,141279,1,8,0:0:0:0:
256,192,141395,1,8,0:0:0:0:
256,192,141452,1,8,0:0:0:0:
256,192,141510,1,0,0:0:0:0:
256,192,141626,1,0,0:0:0:0:
256,192,141741,1,8,0:0:0:0:
256,192,141856,1,0,0:0:0:0:
256,192,141914,1,0,0:0:0:0:
256,192,141972,1,0,0:0:0:0:
256,192,142087,1,8,0:0:0:0:
256,192,142202,1,0,0:0:0:0:
256,192,142260,1,0,0:0:0:0:
256,192,142318,1,0,0:0:0:0:
256,192,142433,1,8,0:0:0:0:
256,192,142549,1,8,0:0:0:0:
256,192,142664,1,4,0:0:0:0:
256,192,142779,1,8,0:0:0:0:
256,192,142837,1,8,0:0:0:0:
256,192,142895,1,8,0:0:0:0:
256,192,142952,1,8,0:0:0:0:
256,192,143010,1,0,0:0:0:0:
256,192,143241,1,0,0:0:0:0:
256,192,143356,1,12,0:0:0:0:
256,192,143587,1,12,0:0:0:0:
256,192,143702,1,0,0:0:0:0:
256,192,143760,1,0,0:0:0:0:
256,192,143818,1,8,0:0:0:0:
256,192,143876,1,8,0:0:0:0:
256,192,143933,1,0,0:0:0:0:
256,192,143991,1,0,0:0:0:0:
256,192,144049,1,8,0:0:0:0:
256,192,144106,1,8,0:0:0:0:
256,192,144164,1,0,0:0:0:0:
256,192,144222,1,0,0:0:0:0:
256,192,144279,1,8,0:0:0:0:
256,192,144337,1,8,0:0:0:0:
256,192,144395,1,0,0:0:0:0:
256,192,144452,1,0,0:0:0:0:
256,192,144510,1,12,0:0:0:0:
256,192,144626,1,0,0:0:0:0:
256,192,144741,1,8,0:0:0:0:
256,192,144856,1,0,0:0:0:0:
256,192,144972,1,8,0:0:0:0:
256,192,145087,1,8,0:0:0:0:
256,192,145145,1,8,0:0:0:0:
256,192,145202,1,0,0:0:0:0:
256,192,145318,1,0,0:0:0:0:
256,192,145433,1,8,0:0:0:0:
256,192,145549,1,0,0:0:0:0:
256,192,145606,1,0,0:0:0:0:
256,192,145664,1,0,0:0:0:0:
256,192,145779,1,8,0:0:0:0:
256,192,145895,1,0,0:0:0:0:
256,192,145952,1,0,0:0:0:0:
256,192,146010,1,0,0:0:0:0:
256,192,146126,1,8,0:0:0:0:
256,192,146241,1,0,0:0:0:0:
256,192,146356,1,8,0:0:0:0:
256,192,146472,1,8,0:0:0:0:
256,192,146529,1,8,0:0:0:0:
256,192,146587,1,0,0:0:0:0:
256,192,146702,1,0,0:0:0:0:
256,192,146818,1,8,0:0:0:0:
256,192,146933,1,0,0:0:0:0:
256,192,147049,1,8,0:0:0:0:
256,192,147164,1,0,0:0:0:0:
256,192,147222,1,0,0:0:0:0:
256,192,147279,1,8,0:0:0:0:
256,192,147395,1,0,0:0:0:0:
256,192,147452,1,0,0:0:0:0:
256,192,147510,1,8,0:0:0:0:
256,192,147626,1,0,0:0:0:0:
256,192,147683,1,0,0:0:0:0:
256,192,147741,1,8,0:0:0:0:
256,192,147856,1,0,0:0:0:0:
256,192,147914,1,0,0:0:0:0:
256,192,147972,1,8,0:0:0:0:
256,192,148029,1,0,0:0:0:0:
256,192,148087,1,8,0:0:0:0:
256,192,148145,1,8,0:0:0:0:
256,192,148202,1,4,0:0:0:0:
256,192,148318,1,0,0:0:0:0:
256,192,148433,1,8,0:0:0:0:
256,192,148549,1,0,0:0:0:0:
256,192,148664,1,8,0:0:0:0:
256,192,148779,1,8,0:0:0:0:
256,192,148837,1,8,0:0:0:0:
256,192,148895,1,0,0:0:0:0:
256,192,149010,1,0,0:0:0:0:
256,192,149126,1,8,0:0:0:0:
256,192,149241,1,0,0:0:0:0:
256,192,149299,1,0,0:0:0:0:
256,192,149356,1,0,0:0:0:0:
256,192,149472,1,8,0:0:0:0:
256,192,149587,1,0,0:0:0:0:
256,192,149645,1,0,0:0:0:0:
256,192,149702,1,0,0:0:0:0:
256,192,149818,1,8,0:0:0:0:
256,192,149933,1,8,0:0:0:0:
256,192,150049,1,4,0:0:0:0:
256,192,150164,1,8,0:0:0:0:
256,192,150222,1,8,0:0:0:0:
256,192,150279,1,8,0:0:0:0:
256,192,150337,1,8,0:0:0:0:
256,192,150395,1,4,0:0:0:0:
256,192,150626,1,8,0:0:0:0:
256,192,150741,1,0,0:0:0:0:
256,192,150856,1,8,0:0:0:0:
256,192,150972,1,4,0:0:0:0:
256,192,151087,1,8,0:0:0:0:
256,192,151145,1,8,0:0:0:0:
256,192,151202,1,8,0:0:0:0:
256,192,151260,1,8,0:0:0:0:
256,192,151318,1,4,0:0:0:0:
256,192,151549,1,8,0:0:0:0:
256,192,151664,1,0,0:0:0:0:
256,192,151779,1,8,0:0:0:0:
256,192,151895,1,4,0:0:0:0:
256,192,152010,1,8,0:0:0:0:
256,192,152068,1,8,0:0:0:0:
256,192,152126,1,8,0:0:0:0:
256,192,152183,1,8,0:0:0:0:
256,192,152241,1,4,0:0:0:0:
256,192,152472,1,8,0:0:0:0:
256,192,152587,1,0,0:0:0:0:
256,192,152702,1,8,0:0:0:0:
256,192,152818,1,4,0:0:0:0:
256,192,152933,1,8,0:0:0:0:
256,192,152991,1,8,0:0:0:0:
256,192,153049,1,8,0:0:0:0:
256,192,153106,1,8,0:0:0:0:
256,192,153164,1,4,0:0:0:0:
256,192,153395,1,8,0:0:0:0:
256,192,153510,1,8,0:0:0:0:
256,192,153626,1,8,0:0:0:0:
256,192,153741,1,4,0:0:0:0:
256,192,153856,1,8,0:0:0:0:
256,192,153914,1,8,0:0:0:0:
256,192,153972,1,0,0:0:0:0:
256,192,154087,1,8,0:0:0:0:
256,192,154202,1,0,0:0:0:0:
256,192,154318,1,0,0:0:0:0:
256,192,154433,1,8,0:0:0:0:
256,192,154491,1,0,0:0:0:0:
256,192,154549,1,0,0:0:0:0:
256,192,154664,1,8,0:0:0:0:
256,192,154779,1,0,0:0:0:0:
256,192,154895,1,8,0:0:0:0:
256,192,155010,1,8,0:0:0:0:
256,192,155126,1,0,0:0:0:0:
256,192,155241,1,0,0:0:0:0:
256,192,155356,1,8,0:0:0:0:
256,192,155472,1,0,0:0:0:0:
256,192,155587,1,12,0:0:0:0:
256,192,155702,1,8,0:0:0:0:
256,192,155760,1,8,0:0:0:0:
256,192,155818,1,0,0:0:0:0:
256,192,155933,1,8,0:0:0:0:
256,192,156049,1,0,0:0:0:0:
256,192,156164,1,0,0:0:0:0:
256,192,156279,1,8,0:0:0:0:
256,192,156337,1,0,0:0:0:0:
256,192,156395,1,0,0:0:0:0:
256,192,156510,1,12,0:0:0:0:
256,192,156626,1,0,0:0:0:0:
256,192,156683,1,0,0:0:0:0:
256,192,156741,1,8,0:0:0:0:
256,192,156799,1,8,0:0:0:0:
256,192,156856,1,0,0:0:0:0:
256,192,156914,1,0,0:0:0:0:
256,192,156972,1,8,0:0:0:0:
256,192,157029,1,0,0:0:0:0:
256,192,157087,1,8,0:0:0:0:
256,192,157145,1,0,0:0:0:0:
256,192,157202,1,8,0:0:0:0:
256,192,157260,1,8,0:0:0:0:
256,192,157318,1,0,0:0:0:0:
256,192,157376,1,0,0:0:0:0:
256,192,157433,1,12,0:0:0:0:
256,192,158356,1,12,0:0:0:0:
256,192,159279,1,12,0:0:0:0:
256,192,160202,1,0,0:0:0:0:
256,192,160318,1,0,0:0:0:0:
256,192,160549,1,0,0:0:0:0:
256,192,160779,1,0,0:0:0:0:
256,192,160895,1,0,0:0:0:0:
256,192,161126,1,4,0:0:0:0:
256,192,161241,1,4,0:0:0:0:
256,192,161472,1,4,0:0:0:0:
256,192,161702,1,4,0:0:0:0:
256,192,161818,1,4,0:0:0:0:
256,192,162049,1,12,0:0:0:0:
256,192,162279,1,12,0:0:0:0:
256,192,162510,1,4,0:0:0:0:
256,192,162626,1,4,0:0:0:0:
256,192,162856,1,4,0:0:0:0:
256,192,163087,1,4,0:0:0:0:
256,192,163202,1,4,0:0:0:0:
256,192,163433,1,12,0:0:0:0:
256,192,163664,1,12,0:0:0:0:
256,192,163895,1,4,0:0:0:0:
256,192,164010,1,4,0:0:0:0:
256,192,164241,1,4,0:0:0:0:
256,192,164472,1,4,0:0:0:0:
256,192,164587,1,4,0:0:0:0:
256,192,164818,1,12,0:0:0:0:
256,192,165049,1,12,0:0:0:0:
256,192,165279,1,4,0:0:0:0:
256,192,165395,1,4,0:0:0:0:
256,192,165626,1,4,0:0:0:0:
256,192,165741,1,8,0:0:0:0:
256,192,165856,1,4,0:0:0:0:
256,192,165972,1,4,0:0:0:0:
256,192,166202,1,12,0:0:0:0:
256,192,166433,1,12,0:0:0:0:
256,192,166664,1,4,0:0:0:0:
256,192,166779,1,4,0:0:0:0:
256,192,167010,1,4,0:0:0:0:
256,192,167241,1,4,0:0:0:0:
256,192,167356,1,4,0:0:0:0:
256,192,167587,1,12,0:0:0:0:
256,192,167818,1,12,0:0:0:0:
256,192,168049,1,4,0:0:0:0:
256,192,168164,1,4,0:0:0:0:
256,192,168395,1,4,0:0:0:0:
256,192,168626,1,4,0:0:0:0:
256,192,168741,1,4,0:0:0:0:
256,192,168972,1,12,0:0:0:0:
256,192,169202,1,12,0:0:0:0:
256,192,169433,1,4,0:0:0:0:
256,192,169549,1,4,0:0:0:0:
256,192,169779,1,4,0:0:0:0:
256,192,170010,1,4,0:0:0:0:
256,192,170126,1,4,0:0:0:0:
256,192,170356,1,12,0:0:0:0:
256,192,170587,1,12,0:0:0:0:
256,192,170818,1,4,0:0:0:0:
256,192,170933,1,4,0:0:0:0:
256,192,171164,1,4,0:0:0:0:
256,192,171279,1,8,0:0:0:0:
256,192,171395,1,4,0:0:0:0:
256,192,171510,1,4,0:0:0:0:
256,192,171741,1,8,0:0:0:0:
256,192,171856,1,0,0:0:0:0:
256,192,171972,1,8,0:0:0:0:
256,192,172087,1,8,0:0:0:0:
256,192,172202,1,0,0:0:0:0:
256,192,172735,1,0,0:0:0:0:
256,192,173251,1,4,0:0:0:0:
256,192,173367,1,4,0:0:0:0:
256,192,173483,12,0,175925,0:0:0:0:
256,192,176041,5,4,0:0:0:0:
256,192,176157,1,4,0:0:0:0:
256,192,176506,1,12,0:0:0:0:
256,192,176623,1,12,0:0:0:0:
256,192,176971,1,8,0:0:0:0:
256,192,177030,1,8,0:0:0:0:
256,192,177088,1,0,0:0:0:0:
256,192,177146,1,0,0:0:0:0:
256,192,177204,1,8,0:0:0:0:
256,192,177320,1,0,0:0:0:0:
256,192,177437,1,8,0:0:0:0:
256,192,177553,1,8,0:0:0:0:
256,192,177669,1,0,0:0:0:0:
256,192,177785,1,0,0:0:0:0:
256,192,177902,1,8,0:0:0:0:
256,192,177960,1,8,0:0:0:0:
256,192,178018,1,0,0:0:0:0:
256,192,178134,1,0,0:0:0:0:
256,192,178251,1,8,0:0:0:0:
256,192,178367,1,8,0:0:0:0:
256,192,178425,1,8,0:0:0:0:
256,192,178483,1,0,0:0:0:0:
256,192,178541,1,0,0:0:0:0:
256,192,178599,1,8,0:0:0:0:
256,192,178657,1,8,0:0:0:0:
256,192,178716,1,8,0:0:0:0:
256,192,178774,1,8,0:0:0:0:
256,192,178832,1,0,0:0:0:0:
256,192,178890,1,0,0:0:0:0:
256,192,178948,1,0,0:0:0:0:
256,192,179064,1,8,0:0:0:0:
256,192,179181,1,0,0:0:0:0:
256,192,179239,1,0,0:0:0:0:
256,192,179297,1,8,0:0:0:0:
256,192,179413,1,0,0:0:0:0:
256,192,179471,1,0,0:0:0:0:
256,192,179530,1,8,0:0:0:0:
256,192,179646,1,8,0:0:0:0:
256,192,179762,1,4,0:0:0:0:
256,192,179878,1,4,0:0:0:0:
256,192,180227,1,12,0:0:0:0:
256,192,180344,1,12,0:0:0:0:
256,192,180692,1,12,0:0:0:0:
256,192,180809,1,8,0:0:0:0:
256,192,180867,1,0,0:0:0:0:
256,192,180925,1,8,0:0:0:0:
256,192,180983,1,0,0:0:0:0:
256,192,181041,1,8,0:0:0:0:
256,192,181099,1,0,0:0:0:0:
256,192,181157,1,8,0:0:0:0:
256,192,181216,1,0,0:0:0:0:
256,192,181274,1,8,0:0:0:0:
256,192,181332,1,0,0:0:0:0:
256,192,181390,1,8,0:0:0:0:
256,192,181448,1,8,0:0:0:0:
256,192,181506,1,0,0:0:0:0:
256,192,181564,1,0,0:0:0:0:
256,192,181623,1,8,0:0:0:0:
256,192,181681,1,8,0:0:0:0:
256,192,181739,1,8,0:0:0:0:
256,192,181797,1,8,0:0:0:0:
256,192,181855,1,0,0:0:0:0:
256,192,181913,1,0,0:0:0:0:
256,192,181971,1,8,0:0:0:0:
256,192,182030,1,8,0:0:0:0:
256,192,182088,1,8,0:0:0:0:
256,192,182146,1,8,0:0:0:0:
256,192,182204,1,0,0:0:0:0:
256,192,182262,1,0,0:0:0:0:
256,192,182320,1,8,0:0:0:0:
256,192,182378,1,8,0:0:0:0:
256,192,182437,1,0,0:0:0:0:
256,192,182495,1,0,0:0:0:0:
256,192,182553,1,8,0:0:0:0:
256,192,182611,1,0,0:0:0:0:
256,192,182669,1,8,0:0:0:0:
256,192,182727,1,0,0:0:0:0:
256,192,182785,1,8,0:0:0:0:
256,192,182844,1,0,0:0:0:0:
256,192,182902,1,8,0:0:0:0:
256,192,182960,1,0,0:0:0:0:
256,192,183018,1,8,0:0:0:0:
256,192,183076,1,0,0:0:0:0:
256,192,183134,1,8,0:0:0:0:
256,192,183192,1,0,0:0:0:0:
256,192,183251,1,8,0:0:0:0:
256,192,183309,1,8,0:0:0:0:
256,192,183367,1,0,0:0:0:0:
256,192,183425,1,0,0:0:0:0:
256,192,183483,1,8,0:0:0:0:
256,192,183541,1,8,0:0:0:0:
256,192,183599,1,8,0:0:0:0:
256,192,183657,1,8,0:0:0:0:
256,192,183716,1,0,0:0:0:0:
256,192,183774,1,0,0:0:0:0:
256,192,183832,1,8,0:0:0:0:
256,192,183890,1,8,0:0:0:0:
256,192,183948,1,8,0:0:0:0:
256,192,184006,1,8,0:0:0:0:
256,192,184064,1,0,0:0:0:0:
256,192,184123,1,0,0:0:0:0:
256,192,184181,1,8,0:0:0:0:
256,192,184297,1,0,0:0:0:0:
256,192,184413,1,12,0:0:0:0:
256,192,184530,1,0,0:0:0:0:
256,192,184588,1,0,0:0:0:0:
256,192,184646,1,8,0:0:0:0:
256,192,184704,1,0,0:0:0:0:
256,192,184762,1,8,0:0:0:0:
256,192,184820,1,0,0:0:0:0:
256,192,184878,1,8,0:0:0:0:
256,192,184937,1,0,0:0:0:0:
256,192,184995,1,8,0:0:0:0:
256,192,185053,1,0,0:0:0:0:
256,192,185111,1,8,0:0:0:0:
256,192,185169,1,0,0:0:0:0:
256,192,185227,1,8,0:0:0:0:
256,192,185285,1,0,0:0:0:0:
256,192,185344,1,8,0:0:0:0:
256,192,185402,1,8,0:0:0:0:
256,192,185460,1,0,0:0:0:0:
256,192,185518,1,0,0:0:0:0:
256,192,185576,1,8,0:0:0:0:
256,192,185634,1,0,0:0:0:0:
256,192,185692,1,8,0:0:0:0:
256,192,185751,1,0,0:0:0:0:
256,192,185809,1,8,0:0:0:0:
256,192,185867,1,0,0:0:0:0:
256,192,185925,1,8,0:0:0:0:
256,192,185983,1,0,0:0:0:0:
256,192,186041,1,8,0:0:0:0:
256,192,186157,1,0,0:0:0:0:
256,192,186274,1,12,0:0:0:0:
256,192,186390,1,0,0:0:0:0:
256,192,186448,1,0,0:0:0:0:
256,192,186506,1,8,0:0:0:0:
256,192,186564,1,8,0:0:0:0:
256,192,186623,1,0,0:0:0:0:
256,192,186681,1,0,0:0:0:0:
256,192,186739,1,8,0:0:0:0:
256,192,186797,1,8,0:0:0:0:
256,192,186855,1,0,0:0:0:0:
256,192,186913,1,0,0:0:0:0:
256,192,186971,1,8,0:0:0:0:
256,192,187030,1,8,0:0:0:0:
256,192,187088,1,8,0:0:0:0:
256,192,187146,1,8,0:0:0:0:
256,192,187204,1,4,0:0:0:0:
256,192,187669,1,8,0:0:0:0:
256,192,187727,1,8,0:0:0:0:
256,192,187785,1,0,0:0:0:0:
256,192,187902,1,8,0:0:0:0:
256,192,188018,1,0,0:0:0:0:
256,192,188134,1,12,0:0:0:0:
256,192,188251,1,0,0:0:0:0:
256,192,188309,1,0,0:0:0:0:
256,192,188367,1,8,0:0:0:0:
256,192,188483,1,0,0:0:0:0:
256,192,188599,1,8,0:0:0:0:
256,192,188716,1,8,0:0:0:0:
256,192,188832,1,0,0:0:0:0:
256,192,188948,1,0,0:0:0:0:
256,192,189006,1,0,0:0:0:0:
256,192,189064,1,8,0:0:0:0:
256,192,189181,1,0,0:0:0:0:
256,192,189239,1,0,0:0:0:0:
256,192,189297,1,0,0:0:0:0:
256,192,189413,1,8,0:0:0:0:
256,192,189530,1,0,0:0:0:0:
256,192,189588,1,0,0:0:0:0:
256,192,189646,1,0,0:0:0:0:
256,192,189762,1,8,0:0:0:0:
256,192,189878,1,0,0:0:0:0:
256,192,189995,1,8,0:0:0:0:
256,192,190053,1,8,0:0:0:0:
256,192,190111,1,0,0:0:0:0:
256,192,190227,1,8,0:0:0:0:
256,192,190344,1,0,0:0:0:0:
256,192,190460,1,0,0:0:0:0:
256,192,190576,1,8,0:0:0:0:
256,192,190692,1,0,0:0:0:0:
256,192,190809,1,0,0:0:0:0:
256,192,190925,1,8,0:0:0:0:
256,192,191041,1,0,0:0:0:0:
256,192,191099,1,0,0:0:0:0:
256,192,191157,1,8,0:0:0:0:
256,192,191274,1,0,0:0:0:0:
256,192,191390,1,8,0:0:0:0:
256,192,191506,1,8,0:0:0:0:
256,192,191564,1,8,0:0:0:0:
256,192,191623,1,0,0:0:0:0:
256,192,191681,1,0,0:0:0:0:
256,192,191739,1,0,0:0:0:0:
256,192,191797,1,0,0:0:0:0:
256,192,191855,1,8,0:0:0:0:
256,192,191913,1,8,0:0:0:0:
256,192,191971,1,0,0:0:0:0:
256,192,192088,1,12,0:0:0:0:
256,192,192204,1,0,0:0:0:0:
256,192,192320,1,0,0:0:0:0:
256,192,192437,1,12,0:0:0:0:
256,192,192553,1,0,0:0:0:0:
256,192,192669,1,0,0:0:0:0:
256,192,192785,1,8,0:0:0:0:
256,192,192844,1,8,0:0:0:0:
256,192,192902,1,0,0:0:0:0:
256,192,193018,1,0,0:0:0:0:
256,192,193134,1,8,0:0:0:0:
256,192,193192,1,8,0:0:0:0:
256,192,193251,1,0,0:0:0:0:
256,192,193367,1,0,0:0:0:0:
256,192,193483,1,12,0:0:0:0:
256,192,193716,1,8,0:0:0:0:
256,192,193774,1,8,0:0:0:0:
256,192,193832,1,0,0:0:0:0:
256,192,193890,1,0,0:0:0:0:
256,192,193948,1,8,0:0:0:0:
256,192,194006,1,8,0:0:0:0:
256,192,194064,1,0,0:0:0:0:
256,192,194123,1,0,0:0:0:0:
256,192,194181,1,8,0:0:0:0:
256,192,194239,1,8,0:0:0:0:
256,192,194297,1,0,0:0:0:0:
256,192,194355,1,0,0:0:0:0:
256,192,194413,1,8,0:0:0:0:
256,192,194646,1,4,0:0:0:0:
256,192,194762,1,4,0:0:0:0:
256,192,195111,1,12,0:0:0:0:
256,192,195227,1,12,0:0:0:0:
256,192,195576,1,12,0:0:0:0:
256,192,195692,1,8,0:0:0:0:
256,192,195751,1,0,0:0:0:0:
256,192,195809,1,8,0:0:0:0:
256,192,195867,1,0,0:0:0:0:
256,192,195925,1,8,0:0:0:0:
256,192,195983,1,0,0:0:0:0:
256,192,196041,1,8,0:0:0:0:
256,192,196099,1,0,0:0:0:0:
256,192,196157,1,8,0:0:0:0:
256,192,196216,1,0,0:0:0:0:
256,192,196274,1,8,0:0:0:0:
256,192,196332,1,8,0:0:0:0:
256,192,196390,1,0,0:0:0:0:
256,192,196448,1,0,0:0:0:0:
256,192,196506,1,8,0:0:0:0:
256,192,196564,1,8,0:0:0:0:
256,192,196623,1,8,0:0:0:0:
256,192,196681,1,8,0:0:0:0:
256,192,196739,1,0,0:0:0:0:
256,192,196797,1,0,0:0:0:0:
256,192,196855,1,8,0:0:0:0:
256,192,196913,1,8,0:0:0:0:
256,192,196971,1,8,0:0:0:0:
256,192,197030,1,8,0:0:0:0:
256,192,197088,1,0,0:0:0:0:
256,192,197146,1,0,0:0:0:0:
256,192,197204,1,8,0:0:0:0:
256,192,197262,1,8,0:0:0:0:
256,192,197320,1,0,0:0:0:0:
256,192,197378,1,0,0:0:0:0:
256,192,197437,1,8,0:0:0:0:
256,192,197495,1,0,0:0:0:0:
256,192,197553,1,8,0:0:0:0:
256,192,197611,1,0,0:0:0:0:
256,192,197669,1,8,0:0:0:0:
256,192,197727,1,0,0:0:0:0:
256,192,197785,1,8,0:0:0:0:
256,192,197844,1,0,0:0:0:0:
256,192,197902,1,8,0:0:0:0:
256,192,197960,1,0,0:0:0:0:
256,192,198018,1,8,0:0:0:0:
256,192,198076,1,0,0:0:0:0:
256,192,198134,1,8,0:0:0:0:
256,192,198192,1,8,0:0:0:0:
256,192,198251,1,0,0:0:0:0:
256,192,198309,1,0,0:0:0:0:
256,192,198367,1,8,0:0:0:0:
256,192,198425,1,8,0:0:0:0:
256,192,198483,1,8,0:0:0:0:
256,192,198541,1,8,0:0:0:0:
256,192,198599,1,0,0:0:0:0:
256,192,198657,1,0,0:0:0:0:
256,192,198716,1,8,0:0:0:0:
256,192,198774,1,8,0:0:0:0:
256,192,198832,1,8,0:0:0:0:
256,192,198890,1,8,0:0:0:0:
256,192,198948,1,0,0:0:0:0:
256,192,199006,1,0,0:0:0:0:
256,192,199064,1,8,0:0:0:0:
256,192,199123,1,8,0:0:0:0:
256,192,199181,1,0,0:0:0:0:
256,192,199239,1,0,0:0:0:0:
256,192,199297,1,8,0:0:0:0:
256,192,199413,1,0,0:0:0:0:
256,192,199530,1,8,0:0:0:0:
256,192,199588,1,0,0:0:0:0:
256,192,199646,1,8,0:0:0:0:
256,192,199704,1,0,0:0:0:0:
256,192,199762,1,8,0:0:0:0:
256,192,199820,1,0,0:0:0:0:
256,192,199878,1,8,0:0:0:0:
256,192,199937,1,0,0:0:0:0:
256,192,199995,1,8,0:0:0:0:
256,192,200053,1,0,0:0:0:0:
256,192,200111,1,8,0:0:0:0:
256,192,200169,1,0,0:0:0:0:
256,192,200227,1,8,0:0:0:0:
256,192,200285,1,8,0:0:0:0:
256,192,200344,1,0,0:0:0:0:
256,192,200402,1,0,0:0:0:0:
256,192,200460,1,8,0:0:0:0:
256,192,200518,1,0,0:0:0:0:
256,192,200576,1,8,0:0:0:0:
256,192,200634,1,0,0:0:0:0:
256,192,200692,1,8,0:0:0:0:
256,192,200751,1,0,0:0:0:0:
256,192,200809,1,8,0:0:0:0:
256,192,200867,1,0,0:0:0:0:
256,192,200925,1,8,0:0:0:0:
256,192,201041,1,0,0:0:0:0:
256,192,201157,1,12,0:0:0:0:
256,192,201274,1,0,0:0:0:0:
256,192,201332,1,0,0:0:0:0:
256,192,201390,1,8,0:0:0:0:
256,192,201448,1,8,0:0:0:0:
256,192,201506,1,8,0:0:0:0:
256,192,201564,1,8,0:0:0:0:
256,192,201623,1,0,0:0:0:0:
256,192,201681,1,0,0:0:0:0:
256,192,201739,1,8,0:0:0:0:
256,192,201797,1,8,0:0:0:0:
256,192,201855,1,8,0:0:0:0:
256,192,201913,1,8,0:0:0:0:
256,192,201971,1,0,0:0:0:0:
256,192,202030,1,0,0:0:0:0:
256,192,202088,1,8,0:0:0:0:
256,192,202204,1,0,0:0:0:0:
256,192,202262,1,0,0:0:0:0:
256,192,202320,1,0,0:0:0:0:
256,192,202378,1,0,0:0:0:0:
256,192,202437,1,0,0:0:0:0:
256,192,202495,1,0,0:0:0:0:
256,192,202553,1,8,0:0:0:0:
256,192,203018,1,4,0:0:0:0:
256,192,203367,1,8,0:0:0:0:
256,192,203599,1,0,0:0:0:0:
256,192,203716,1,8,0:0:0:0:
256,192,203832,1,0,0:0:0:0:
256,192,203948,1,8,0:0:0:0:
256,192,204064,1,8,0:0:0:0:
256,192,204181,1,0,0:0:0:0:
256,192,204297,1,0,0:0:0:0:
256,192,204413,1,8,0:0:0:0:
256,192,204646,1,8,0:0:0:0:
256,192,204878,1,4,0:0:0:0:
256,192,205227,1,8,0:0:0:0:
256,192,205460,1,0,0:0:0:0:
256,192,205576,1,8,0:0:0:0:
256,192,205692,1,0,0:0:0:0:
256,192,205809,1,8,0:0:0:0:
256,192,205925,1,8,0:0:0:0:
256,192,206041,1,0,0:0:0:0:
256,192,206157,1,0,0:0:0:0:
256,192,206274,1,8,0:0:0:0:
256,192,206506,1,8,0:0:0:0:
256,192,206564,1,8,0:0:0:0:
256,192,206623,1,8,0:0:0:0:
256,192,206681,1,8,0:0:0:0:
256,192,206739,1,4,0:0:0:0:
256,192,207088,1,8,0:0:0:0:
256,192,207320,1,0,0:0:0:0:
256,192,207437,1,8,0:0:0:0:
256,192,207553,1,0,0:0:0:0:
256,192,207669,1,8,0:0:0:0:
256,192,207785,1,8,0:0:0:0:
256,192,207902,1,0,0:0:0:0:
256,192,208018,1,0,0:0:0:0:
256,192,208134,1,8,0:0:0:0:
256,192,208367,1,8,0:0:0:0:
256,192,208483,1,8,0:0:0:0:
256,192,208599,1,4,0:0:0:0:
256,192,208832,1,0,0:0:0:0:
256,192,208948,1,12,0:0:0:0:
256,192,209181,1,0,0:0:0:0:
256,192,209297,1,8,0:0:0:0:
256,192,209413,1,0,0:0:0:0:
256,192,209530,1,8,0:0:0:0:
256,192,209646,1,0,0:0:0:0:
256,192,209762,1,0,0:0:0:0:
256,192,209878,1,8,0:0:0:0:
256,192,209995,1,0,0:0:0:0:
256,192,210111,1,0,0:0:0:0:
256,192,210227,1,8,0:0:0:0:
256,192,210285,1,8,0:0:0:0:
256,192,210344,1,8,0:0:0:0:
256,192,210460,1,4,0:0:0:0:
256,192,210692,1,8,0:0:0:0:
256,192,210809,1,0,0:0:0:0:
256,192,211041,1,0,0:0:0:0:
256,192,211099,1,0,0:0:0:0:
256,192,211157,1,0,0:0:0:0:
256,192,211216,1,0,0:0:0:0:
256,192,211274,1,0,0:0:0:0:
256,192,211390,1,8,0:0:0:0:
256,192,211506,1,8,0:0:0:0:
256,192,211623,1,0,0:0:0:0:
256,192,211739,1,0,0:0:0:0:
256,192,211855,1,8,0:0:0:0:
256,192,212088,1,8,0:0:0:0:
256,192,212320,1,4,0:0:0:0:
256,192,212553,1,8,0:0:0:0:
256,192,212669,1,0,0:0:0:0:
256,192,212902,1,0,0:0:0:0:
256,192,213018,1,8,0:0:0:0:
256,192,213134,1,0,0:0:0:0:
256,192,213251,1,8,0:0:0:0:
256,192,213367,1,8,0:0:0:0:
256,192,213483,1,0,0:0:0:0:
256,192,213599,1,0,0:0:0:0:
256,192,213716,1,8,0:0:0:0:
256,192,213948,1,8,0:0:0:0:
256,192,214006,1,8,0:0:0:0:
256,192,214064,1,8,0:0:0:0:
256,192,214123,1,8,0:0:0:0:
256,192,214181,1,4,0:0:0:0:
256,192,214413,1,0,0:0:0:0:
256,192,214530,1,8,0:0:0:0:
256,192,214762,1,0,0:0:0:0:
256,192,214878,1,8,0:0:0:0:
256,192,214995,1,0,0:0:0:0:
256,192,215111,1,8,0:0:0:0:
256,192,215227,1,8,0:0:0:0:
256,192,215344,1,0,0:0:0:0:
256,192,215460,1,0,0:0:0:0:
256,192,215576,1,8,0:0:0:0:
256,192,215809,1,8,0:0:0:0:
256,192,215867,1,8,0:0:0:0:
256,192,215925,1,8,0:0:0:0:
256,192,215983,1,8,0:0:0:0:
256,192,216041,1,4,0:0:0:0:
256,192,216971,1,8,0:0:0:0:
256,192,217902,1,12,0:0:0:0:
256,192,218018,1,0,0:0:0:0:
256,192,218076,1,0,0:0:0:0:
256,192,218134,1,8,0:0:0:0:
256,192,218251,1,0,0:0:0:0:
256,192,218367,1,8,0:0:0:0:
256,192,218483,1,0,0:0:0:0:
256,192,218599,1,8,0:0:0:0:
256,192,218657,1,0,0:0:0:0:
256,192,218716,1,8,0:0:0:0:
256,192,218774,1,8,0:0:0:0:
256,192,218832,1,0,0:0:0:0:
256,192,218948,1,8,0:0:0:0:
256,192,219064,1,8,0:0:0:0:
256,192,219181,1,0,0:0:0:0:
256,192,219239,1,0,0:0:0:0:
256,192,219297,1,8,0:0:0:0:
256,192,219413,1,0,0:0:0:0:
256,192,219530,1,8,0:0:0:0:
256,192,219588,1,8,0:0:0:0:
256,192,219646,1,0,0:0:0:0:
256,192,219762,1,8,0:0:0:0:
256,192,219878,1,0,0:0:0:0:
256,192,219937,1,0,0:0:0:0:
256,192,219995,1,8,0:0:0:0:
256,192,220111,1,0,0:0:0:0:
256,192,220227,1,8,0:0:0:0:
256,192,220344,1,0,0:0:0:0:
256,192,220460,1,8,0:0:0:0:
256,192,220518,1,0,0:0:0:0:
256,192,220576,1,8,0:0:0:0:
256,192,220634,1,8,0:0:0:0:
256,192,220692,1,0,0:0:0:0:
256,192,220809,1,8,0:0:0:0:
256,192,220925,1,8,0:0:0:0:
256,192,221041,1,0,0:0:0:0:
256,192,221099,1,0,0:0:0:0:
256,192,221157,1,8,0:0:0:0:
256,192,221274,1,0,0:0:0:0:
256,192,221390,1,8,0:0:0:0:
256,192,221448,1,0,0:0:0:0:
256,192,221506,1,8,0:0:0:0:
256,192,221623,1,12,0:0:0:0:
256,192,221739,1,0,0:0:0:0:
256,192,221797,1,0,0:0:0:0:
256,192,221855,1,8,0:0:0:0:
256,192,221971,1,0,0:0:0:0:
256,192,222088,1,8,0:0:0:0:
256,192,222204,1,0,0:0:0:0:
256,192,222262,1,0,0:0:0:0:
256,192,222320,1,8,0:0:0:0:
256,192,222378,1,0,0:0:0:0:
256,192,222437,1,8,0:0:0:0:
256,192,222495,1,8,0:0:0:0:
256,192,222553,1,0,0:0:0:0:
256,192,222669,1,8,0:0:0:0:
256,192,222785,1,8,0:0:0:0:
256,192,222844,1,8,0:0:0:0:
256,192,222902,1,0,0:0:0:0:
256,192,223018,1,8,0:0:0:0:
256,192,223134,1,8,0:0:0:0:
256,192,223251,1,0,0:0:0:0:
256,192,223309,1,0,0:0:0:0:
256,192,223367,1,8,0:0:0:0:
256,192,223483,1,0,0:0:0:0:
256,192,223541,1,0,0:0:0:0:
256,192,223599,1,8,0:0:0:0:
256,192,223657,1,8,0:0:0:0:
256,192,223716,1,0,0:0:0:0:
256,192,223832,1,12,0:0:0:0:
256,192,224064,1,0,0:0:0:0:
256,192,224181,1,12,0:0:0:0:
256,192,224413,1,8,0:0:0:0:
256,192,224471,1,8,0:0:0:0:
256,192,224530,1,0,0:0:0:0:
256,192,224588,1,0,0:0:0:0:
256,192,224646,1,8,0:0:0:0:
256,192,224762,1,0,0:0:0:0:
256,192,224820,1,0,0:0:0:0:
256,192,224878,1,8,0:0:0:0:
256,192,224937,1,8,0:0:0:0:
256,192,224995,1,0,0:0:0:0:
256,192,225111,1,12,0:0:0:0:
256,192,225344,1,12,0:0:0:0:
256,192,225460,1,0,0:0:0:0:
256,192,225518,1,0,0:0:0:0:
256,192,225576,1,8,0:0:0:0:
256,192,225692,1,0,0:0:0:0:
256,192,225809,1,8,0:0:0:0:
256,192,225925,1,0,0:0:0:0:
256,192,226041,1,8,0:0:0:0:
256,192,226099,1,0,0:0:0:0:
256,192,226157,1,8,0:0:0:0:
256,192,226216,1,8,0:0:0:0:
256,192,226274,1,0,0:0:0:0:
256,192,226390,1,8,0:0:0:0:
256,192,226506,1,8,0:0:0:0:
256,192,226623,1,0,0:0:0:0:
256,192,226681,1,0,0:0:0:0:
256,192,226739,1,8,0:0:0:0:
256,192,226855,1,0,0:0:0:0:
256,192,226971,1,8,0:0:0:0:
256,192,227030,1,8,0:0:0:0:
256,192,227088,1,0,0:0:0:0:
256,192,227204,1,8,0:0:0:0:
256,192,227320,1,0,0:0:0:0:
256,192,227378,1,0,0:0:0:0:
256,192,227437,1,8,0:0:0:0:
256,192,227553,1,0,0:0:0:0:
256,192,227669,1,8,0:0:0:0:
256,192,227785,1,0,0:0:0:0:
256,192,227902,1,8,0:0:0:0:
256,192,227960,1,0,0:0:0:0:
256,192,228018,1,8,0:0:0:0:
256,192,228076,1,8,0:0:0:0:
256,192,228134,1,0,0:0:0:0:
256,192,228251,1,8,0:0:0:0:
256,192,228367,1,8,0:0:0:0:
256,192,228483,1,0,0:0:0:0:
256,192,228541,1,0,0:0:0:0:
256,192,228599,1,8,0:0:0:0:
256,192,228716,1,0,0:0:0:0:
256,192,228832,1,8,0:0:0:0:
256,192,228890,1,0,0:0:0:0:
256,192,228948,1,8,0:0:0:0:
256,192,229064,1,8,0:0:0:0:
256,192,229181,1,0,0:0:0:0:
256,192,229239,1,0,0:0:0:0:
256,192,229297,1,8,0:0:0:0:
256,192,229413,1,0,0:0:0:0:
256,192,229530,1,8,0:0:0:0:
256,192,229646,1,0,0:0:0:0:
256,192,229704,1,0,0:0:0:0:
256,192,229762,1,8,0:0:0:0:
256,192,229820,1,0,0:0:0:0:
256,192,229878,1,8,0:0:0:0:
256,192,229937,1,8,0:0:0:0:
256,192,229995,1,4,0:0:0:0:
256,192,230111,1,8,0:0:0:0:
256,192,230227,1,8,0:0:0:0:
256,192,230285,1,8,0:0:0:0:
256,192,230344,1,0,0:0:0:0:
256,192,230460,1,8,0:0:0:0:
256,192,230518,1,8,0:0:0:0:
256,192,230576,1,0,0:0:0:0:
256,192,230634,1,0,0:0:0:0:
256,192,230692,1,8,0:0:0:0:
256,192,230809,1,0,0:0:0:0:
256,192,230925,1,12,0:0:0:0:
256,192,231041,1,0,0:0:0:0:
256,192,231099,1,0,0:0:0:0:
256,192,231157,1,0,0:0:0:0:
256,192,231216,1,0,0:0:0:0:
256,192,231274,1,12,0:0:0:0:
256,192,231506,1,0,0:0:0:0:
256,192,231623,1,12,0:0:0:0:
256,192,231855,1,8,0:0:0:0:
256,192,231913,1,8,0:0:0:0:
256,192,231971,1,8,0:0:0:0:
256,192,232030,1,8,0:0:0:0:
256,192,232088,1,0,0:0:0:0:
256,192,232204,1,12,0:0:0:0:
256,192,232437,1,0,0:0:0:0:
256,192,232553,1,12,0:0:0:0:
256,192,232785,1,0,0:0:0:0:
256,192,233018,1,0,0:0:0:0:
256,192,233251,1,0,0:0:0:0:
256,192,233483,1,0,0:0:0:0:
256,192,233716,1,0,0:0:0:0:
256,192,233832,1,8,0:0:0:0:
256,192,233948,1,8,0:0:0:0:
256,192,234181,1,0,0:0:0:0:
256,192,234297,1,8,0:0:0:0:
256,192,234413,1,0,0:0:0:0:
256,192,234530,1,8,0:0:0:0:
256,192,234646,1,0,0:0:0:0:
256,192,234878,1,0,0:0:0:0:
256,192,234995,1,0,0:0:0:0:
256,192,235111,1,0,0:0:0:0:
256,192,235344,1,0,0:0:0:0:
256,192,235576,1,0,0:0:0:0:
256,192,235692,1,0,0:0:0:0:
256,192,235809,1,8,0:0:0:0:
256,192,236041,1,0,0:0:0:0:
256,192,236157,1,8,0:0:0:0:
256,192,236274,1,8,0:0:0:0:
256,192,236390,1,8,0:0:0:0:
256,192,236506,1,0,0:0:0:0:
256,192,236739,1,0,0:0:0:0:
256,192,236855,1,8,0:0:0:0:
256,192,236971,1,0,0:0:0:0:
256,192,237204,1,0,0:0:0:0:
256,192,237437,1,12,0:0:0:0:
256,192,237669,1,4,0:0:0:0:
256,192,237902,1,8,0:0:0:0:
256,192,237960,1,8,0:0:0:0:
256,192,238018,1,0,0:0:0:0:
256,192,238076,1,0,0:0:0:0:
256,192,238134,1,8,0:0:0:0:
256,192,238192,1,8,0:0:0:0:
256,192,238251,1,8,0:0:0:0:
256,192,238309,1,8,0:0:0:0:
256,192,238367,1,4,0:0:0:0:
256,192,238483,1,8,0:0:0:0:
256,192,238541,1,8,0:0:0:0:
256,192,238599,1,8,0:0:0:0:
256,192,238657,1,8,0:0:0:0:
256,192,238716,1,4,0:0:0:0:
256,192,238948,1,0,0:0:0:0:
256,192,239064,1,12,0:0:0:0:
256,192,239297,1,8,0:0:0:0:
256,192,239413,1,8,0:0:0:0:
256,192,239471,1,8,0:0:0:0:
256,192,239530,1,0,0:0:0:0:
256,192,239588,1,0,0:0:0:0:
256,192,239646,1,8,0:0:0:0:
256,192,239762,1,8,0:0:0:0:
256,192,239878,1,0,0:0:0:0:
256,192,239937,1,0,0:0:0:0:
256,192,239995,1,8,0:0:0:0:
256,192,240227,1,12,0:0:0:0:
256,192,240344,1,0,0:0:0:0:
256,192,240402,1,0,0:0:0:0:
256,192,240460,1,8,0:0:0:0:
256,192,240576,1,0,0:0:0:0:
256,192,240692,1,8,0:0:0:0:
256,192,240809,1,0,0:0:0:0:
256,192,240925,1,8,0:0:0:0:
256,192,240983,1,0,0:0:0:0:
256,192,241041,1,8,0:0:0:0:
256,192,241099,1,8,0:0:0:0:
256,192,241157,1,0,0:0:0:0:
256,192,241274,1,8,0:0:0:0:
256,192,241390,1,8,0:0:0:0:
256,192,241506,1,0,0:0:0:0:
256,192,241564,1,0,0:0:0:0:
256,192,241623,1,8,0:0:0:0:
256,192,241739,1,0,0:0:0:0:
256,192,241855,1,8,0:0:0:0:
256,192,241913,1,8,0:0:0:0:
256,192,241971,1,0,0:0:0:0:
256,192,242088,1,8,0:0:0:0:
256,192,242204,1,0,0:0:0:0:
256,192,242262,1,0,0:0:0:0:
256,192,242320,1,8,0:0:0:0:
256,192,242437,1,0,0:0:0:0:
256,192,242553,1,8,0:0:0:0:
256,192,242669,1,0,0:0:0:0:
256,192,242785,1,8,0:0:0:0:
256,192,242844,1,0,0:0:0:0:
256,192,242902,1,8,0:0:0:0:
256,192,242960,1,8,0:0:0:0:
256,192,243018,1,0,0:0:0:0:
256,192,243134,1,8,0:0:0:0:
256,192,243251,1,8,0:0:0:0:
256,192,243367,1,0,0:0:0:0:
256,192,243425,1,0,0:0:0:0:
256,192,243483,1,8,0:0:0:0:
256,192,243599,1,0,0:0:0:0:
256,192,243716,1,8,0:0:0:0:
256,192,243774,1,0,0:0:0:0:
256,192,243832,1,8,0:0:0:0:
256,192,243948,1,8,0:0:0:0:
256,192,244064,1,0,0:0:0:0:
256,192,244123,1,0,0:0:0:0:
256,192,244181,1,8,0:0:0:0:
256,192,244297,1,0,0:0:0:0:
256,192,244413,1,8,0:0:0:0:
256,192,244530,1,0,0:0:0:0:
256,192,244646,1,8,0:0:0:0:
256,192,244704,1,0,0:0:0:0:
256,192,244762,1,8,0:0:0:0:
256,192,244820,1,8,0:0:0:0:
256,192,244878,1,0,0:0:0:0:
256,192,244995,1,8,0:0:0:0:
256,192,245111,1,8,0:0:0:0:
256,192,245227,1,0,0:0:0:0:
256,192,245285,1,0,0:0:0:0:
256,192,245344,1,8,0:0:0:0:
256,192,245460,1,0,0:0:0:0:
256,192,245576,1,8,0:0:0:0:
256,192,245634,1,8,0:0:0:0:
256,192,245692,1,0,0:0:0:0:
256,192,245809,1,12,0:0:0:0:
256,192,245925,1,0,0:0:0:0:
256,192,245983,1,0,0:0:0:0:
256,192,246041,1,0,0:0:0:0:
256,192,246157,1,12,0:0:0:0:
256,192,246274,1,0,0:0:0:0:
256,192,246332,1,0,0:0:0:0:
256,192,246390,1,0,0:0:0:0:
256,192,246506,1,12,0:0:0:0:
256,192,246623,1,0,0:0:0:0:
256,192,246739,1,8,0:0:0:0:
256,192,246797,1,8,0:0:0:0:
256,192,246855,1,8,0:0:0:0:
256,192,246913,1,8,0:0:0:0:
256,192,246971,1,0,0:0:0:0:
256,192,247088,1,12,0:0:0:0:
256,192,247320,1,0,0:0:0:0:
256,192,247437,1,12,0:0:0:0:
256,192,247669,1,4,0:0:0:0:
256,192,247785,1,0,0:0:0:0:
256,192,249064,1,0,0:0:0:0:
256,192,249181,1,0,0:0:0:0:
256,192,249239,1,0,0:0:0:0:
256,192,249297,1,12,0:0:0:0:
256,192,249530,1,4,0:0:0:0:
256,192,249646,1,4,0:0:0:0:
256,192,250460,1,4,0:0:0:0:
256,192,250576,1,4,0:0:0:0:
256,192,250925,1,8,0:0:0:0:
256,192,250983,1,0,0:0:0:0:
256,192,251041,1,0,0:0:0:0:
256,192,251099,1,0,0:0:0:0:
256,192,251157,1,12,0:0:0:0:
256,192,251390,1,4,0:0:0:0:
256,192,251623,1,0,0:0:0:0:
256,192,251739,1,0,0:0:0:0:
256,192,251855,1,8,0:0:0:0:
256,192,251971,1,0,0:0:0:0:
256,192,252088,1,0,0:0:0:0:
256,192,252204,1,0,0:0:0:0:
256,192,252320,1,8,0:0:0:0:
256,192,252437,1,0,0:0:0:0:
256,192,252553,1,8,0:0:0:0:
256,192,252669,1,8,0:0:0:0:
256,192,252785,1,0,0:0:0:0:
256,192,252902,1,0,0:0:0:0:
256,192,253018,1,8,0:0:0:0:
256,192,253076,1,8,0:0:0:0:
256,192,253134,1,8,0:0:0:0:
256,192,253192,1,8,0:0:0:0:
256,192,253251,1,4,0:0:0:0:
256,192,254181,1,8,0:0:0:0:
256,192,254239,1,8,0:0:0:0:
256,192,254297,1,8,0:0:0:0:
256,192,254355,1,8,0:0:0:0:
256,192,254413,1,0,0:0:0:0:
256,192,254471,1,0,0:0:0:0:
256,192,254530,1,8,0:0:0:0:
256,192,254588,1,8,0:0:0:0:
256,192,254646,1,0,0:0:0:0:
256,192,254704,1,0,0:0:0:0:
256,192,254762,1,0,0:0:0:0:
256,192,254820,1,0,0:0:0:0:
256,192,254878,1,8,0:0:0:0:
256,192,255111,1,8,0:0:0:0:
256,192,255169,1,8,0:0:0:0:
256,192,255227,1,8,0:0:0:0:
256,192,255285,1,8,0:0:0:0:
256,192,255343,1,4,0:0:0:0:
256,192,255459,1,8,0:0:0:0:
256,192,255517,1,8,0:0:0:0:
256,192,255575,1,0,0:0:0:0:
256,192,255633,1,0,0:0:0:0:
256,192,255691,1,8,0:0:0:0:
256,192,255749,1,0,0:0:0:0:
256,192,255808,1,8,0:0:0:0:
256,192,255866,1,8,0:0:0:0:
256,192,255924,1,0,0:0:0:0:
256,192,255982,1,0,0:0:0:0:
256,192,256040,1,12,0:0:0:0:
256,192,256273,1,4,0:0:0:0:
256,192,256389,1,8,0:0:0:0:
256,192,256505,1,0,0:0:0:0:
256,192,256563,1,0,0:0:0:0:
256,192,256622,1,8,0:0:0:0:
256,192,256738,1,0,0:0:0:0:
256,192,256854,1,8,0:0:0:0:
256,192,256970,1,0,0:0:0:0:
256,192,257029,1,0,0:0:0:0:
256,192,257087,1,8,0:0:0:0:
256,192,257203,1,0,0:0:0:0:
256,192,257319,1,8,0:0:0:0:
256,192,257436,1,0,0:0:0:0:
256,192,257494,1,0,0:0:0:0:
256,192,257552,1,8,0:0:0:0:
256,192,257668,1,0,0:0:0:0:
256,192,257726,1,0,0:0:0:0:
256,192,257784,1,8,0:0:0:0:
256,192,257843,1,8,0:0:0:0:
256,192,257901,1,0,0:0:0:0:
256,192,257959,1,0,0:0:0:0:
256,192,258017,1,8,0:0:0:0:
256,192,258133,1,4,0:0:0:0:
256,192,258249,1,8,0:0:0:0:
256,192,258366,1,0,0:0:0:0:
256,192,258424,1,0,0:0:0:0:
256,192,258482,1,8,0:0:0:0:
256,192,258598,1,0,0:0:0:0:
256,192,258715,1,8,0:0:0:0:
256,192,258831,1,0,0:0:0:0:
256,192,258889,1,0,0:0:0:0:
256,192,258947,1,8,0:0:0:0:
256,192,259063,1,0,0:0:0:0:
256,192,259180,1,0,0:0:0:0:
256,192,259296,1,8,0:0:0:0:
256,192,259354,1,0,0:0:0:0:
256,192,259412,1,8,0:0:0:0:
256,192,259470,1,8,0:0:0:0:
256,192,259529,1,0,0:0:0:0:
256,192,259645,1,8,0:0:0:0:
256,192,259761,1,0,0:0:0:0:
256,192,259819,1,0,0:0:0:0:
256,192,259877,1,8,0:0:0:0:
256,192,259994,1,4,0:0:0:0:
256,192,260110,1,8,0:0:0:0:
256,192,260226,1,0,0:0:0:0:
256,192,260284,1,0,0:0:0:0:
256,192,260343,1,8,0:0:0:0:
256,192,260459,1,0,0:0:0:0:
256,192,260575,1,8,0:0:0:0:
256,192,260691,1,0,0:0:0:0:
256,192,260749,1,0,0:0:0:0:
256,192,260808,1,8,0:0:0:0:
256,192,260924,1,0,0:0:0:0:
256,192,261040,1,8,0:0:0:0:
256,192,261156,1,0,0:0:0:0:
256,192,261215,1,0,0:0:0:0:
256,192,261273,1,8,0:0:0:0:
256,192,261331,1,8,0:0:0:0:
256,192,261389,1,0,0:0:0:0:
256,192,261505,1,0,0:0:0:0:
256,192,261622,1,8,0:0:0:0:
256,192,261680,1,8,0:0:0:0:
256,192,261738,1,8,0:0:0:0:
256,192,261796,1,8,0:0:0:0:
256,192,261854,1,4,0:0:0:0:
256,192,261970,1,8,0:0:0:0:
256,192,262029,1,0,0:0:0:0:
256,192,262087,1,8,0:0:0:0:
256,192,262145,1,8,0:0:0:0:
256,192,262203,1,4,0:0:0:0:
256,192,262436,1,8,0:0:0:0:
256,192,262552,1,8,0:0:0:0:
256,192,262668,1,8,0:0:0:0:
256,192,262726,1,8,0:0:0:0:
256,192,262784,1,0,0:0:0:0:
256,192,262901,1,0,0:0:0:0:
256,192,263017,1,12,0:0:0:0:
256,192,263133,1,12,0:0:0:0:
256,192,263249,1,0,0:0:0:0:
256,192,263308,1,0,0:0:0:0:
256,192,263366,1,0,0:0:0:0:
256,192,263424,1,0,0:0:0:0:
256,192,263482,1,12,0:0:0:0:
256,192,263715,1,12,0:0:0:0:
256,192,263947,1,8,0:0:0:0:
256,192,264005,1,0,0:0:0:0:
256,192,264063,1,8,0:0:0:0:
256,192,264122,1,0,0:0:0:0:
256,192,264180,1,8,0:0:0:0:
256,192,264238,1,0,0:0:0:0:
256,192,264296,1,8,0:0:0:0:
256,192,264354,1,0,0:0:0:0:
256,192,264412,1,8,0:0:0:0:
256,192,264470,1,8,0:0:0:0:
256,192,264529,1,0,0:0:0:0:
256,192,264587,1,0,0:0:0:0:
256,192,264645,1,8,0:0:0:0:
256,192,264703,1,8,0:0:0:0:
256,192,264761,1,0,0:0:0:0:
256,192,264819,1,0,0:0:0:0:
256,192,264877,1,8,0:0:0:0:
256,192,264936,1,0,0:0:0:0:
256,192,264994,1,8,0:0:0:0:
256,192,265052,1,0,0:0:0:0:
256,192,265110,1,8,0:0:0:0:
256,192,265168,1,8,0:0:0:0:
256,192,265226,1,0,0:0:0:0:
256,192,265284,1,0,0:0:0:0:
256,192,265343,1,8,0:0:0:0:
256,192,265401,1,8,0:0:0:0:
256,192,265459,1,0,0:0:0:0:
256,192,265517,1,0,0:0:0:0:
256,192,265575,1,8,0:0:0:0:
256,192,265633,1,8,0:0:0:0:
256,192,265691,1,8,0:0:0:0:
256,192,265749,1,8,0:0:0:0:
256,192,265808,1,0,0:0:0:0:
256,192,265866,1,0,0:0:0:0:
256,192,265924,1,8,0:0:0:0:
256,192,265982,1,0,0:0:0:0:
256,192,266040,1,8,0:0:0:0:
256,192,266098,1,0,0:0:0:0:
256,192,266156,1,8,0:0:0:0:
256,192,266215,1,0,0:0:0:0:
256,192,266273,1,8,0:0:0:0:
256,192,266331,1,8,0:0:0:0:
256,192,266389,1,0,0:0:0:0:
256,192,266447,1,0,0:0:0:0:
256,192,266505,1,8,0:0:0:0:
256,192,266563,1,8,0:0:0:0:
256,192,266622,1,0,0:0:0:0:
256,192,266680,1,0,0:0:0:0:
256,192,266738,1,8,0:0:0:0:
256,192,266796,1,8,0:0:0:0:
256,192,266854,1,8,0:0:0:0:
256,192,266912,1,8,0:0:0:0:
256,192,266970,1,0,0:0:0:0:
256,192,267029,1,0,0:0:0:0:
256,192,267087,1,0,0:0:0:0:
256,192,267145,1,0,0:0:0:0:
256,192,267203,1,8,0:0:0:0:
256,192,267261,1,8,0:0:0:0:
256,192,267319,1,0,0:0:0:0:
256,192,267377,1,0,0:0:0:0:
256,192,267436,1,12,0:0:0:0:
256,192,267552,1,0,0:0:0:0:
256,192,267610,1,0,0:0:0:0:
256,192,267668,1,8,0:0:0:0:
256,192,267726,1,0,0:0:0:0:
256,192,267784,1,8,0:0:0:0:
256,192,267843,1,0,0:0:0:0:
256,192,267901,1,8,0:0:0:0:
256,192,267959,1,0,0:0:0:0:
256,192,268017,1,8,0:0:0:0:
256,192,268075,1,0,0:0:0:0:
256,192,268133,1,8,0:0:0:0:
256,192,268191,1,8,0:0:0:0:
256,192,268249,1,0,0:0:0:0:
256,192,268308,1,0,0:0:0:0:
256,192,268366,1,8,0:0:0:0:
256,192,268482,1,0,0:0:0:0:
256,192,268540,1,0,0:0:0:0:
256,192,268598,1,8,0:0:0:0:
256,192,268656,1,8,0:0:0:0:
256,192,268715,1,0,0:0:0:0:
256,192,268773,1,0,0:0:0:0:
256,192,268831,1,8,0:0:0:0:
256,192,268889,1,8,0:0:0:0:
256,192,268947,1,0,0:0:0:0:
256,192,269005,1,0,0:0:0:0:
256,192,269063,1,8,0:0:0:0:
256,192,269122,1,8,0:0:0:0:
256,192,269180,1,0,0:0:0:0:
256,192,269238,1,0,0:0:0:0:
256,192,269300,5,12,0:0:0:0:
256,192,271115,1,0,0:0:0:0:
256,192,271678,1,8,0:0:0:0:
256,192,272241,1,0,0:0:0:0:
256,192,273382,1,0,0:0:0:0:
256,192,273950,1,8,0:0:0:0:
256,192,274518,1,0,0:0:0:0:
256,192,275654,1,0,0:0:0:0:
256,192,276222,1,8,0:0:0:0:
256,192,276791,1,0,0:0:0:0:
256,192,277075,1,0,0:0:0:0:
256,192,277359,1,8,0:0:0:0:
256,192,277643,1,8,0:0:0:0:
256,192,277927,1,0,0:0:0:0:
256,192,278211,1,0,0:0:0:0:
256,192,278495,1,8,0:0:0:0:
256,192,278779,1,8,0:0:0:0:
256,192,279063,1,0,0:0:0:0:
256,192,280200,1,0,0:0:0:0:
256,192,280768,1,8,0:0:0:0:
256,192,281336,1,0,0:0:0:0:
256,192,282472,1,8,0:0:0:0:
256,192,283041,1,0,0:0:0:0:
256,192,283609,1,0,0:0:0:0:
256,192,284177,1,8,0:0:0:0:
256,192,284745,1,8,0:0:0:0:
256,192,285029,1,0,0:0:0:0:
256,192,285313,1,0,0:0:0:0:
256,192,285597,1,8,0:0:0:0:
256,192,285882,1,8,0:0:0:0:
256,192,286450,1,8,0:0:0:0:
256,192,287018,1,8,0:0:0:0:
256,192,287160,1,8,0:0:0:0:
256,192,287231,1,8,0:0:0:0:
256,192,287302,1,0,0:0:0:0:
256,192,287586,1,0,0:0:0:0:
256,192,287870,1,8,0:0:0:0:
256,192,288154,1,0,0:0:0:0:
256,192,288296,8,0,292700,0:0:0:0:
