osu file format v14

[General]
AudioFilename: audio.mp3
AudioLeadIn: 0
PreviewTime: 120078
Countdown: 0
SampleSet: Soft
StackLeniency: 0.7
Mode: 3
LetterboxInBreaks: 0
SpecialStyle: 0
WidescreenStoryboard: 0

[Editor]
Bookmarks: 52636,67520,82403,120369,120466,120611,120709,120854,120951,121097,121194,121340,121437,121582,121679,121825,121971,122116,122262,122359,122505,122650,122796,122942,123087,123233,123378,123524,123670,123815,123912,124058,124204,124349,124446,124592,124738,124883,125029,125126,125272,125417,125563,125660,125806,125951,126097,126194,126340,126485,126631,126777,126922,127068,127213,127311,127456,127602,127747,127893,128039,128184,128358,128524,128649,128816,128983,129108,129263,129430,129555,129722,129847,130013,130138,130305,130472,130638,130805,130972,131138,131263,131430,131597,131763,131930,132055,132222,132388,132513,132680,132847,132972,133138,133305,133472,133597,133763,133930,134055,134222,134388,134513,134680,134847,134972,135138,135305,135430,135597,135763,135930,136097,136263,136430,136597,136763,136930,137097,137272,137426,137599,137753,137926,138099,138292,138465,138638,138811,138984,139176,139349,139542,139696,139888,140061,140234,140407,140580,140753,140907,141080,141253,141426,141580,141734,141888,142061,142234,142407,142580,142753,142926,143080,143253,143446,143657,143830,144003,144176,144349,144522,144734,144888,145080,145272,145465,145657,145830,146003,146215,146388,146561,146753,146926,147119,147292,147484,147657,147830,148003,148215,148388,148580,148772,148965,149119,149292,149484,149676,149869,150042,150196,150388,150561,150753,150926,151119,151311,151484,151676,151869,152042,152215,152407,152580,152753,152946,153138,153311,153542,153715,153907,154099,154272,154465,154657,154830,155003,155176,155349,155503,155696,155869,156022,156215,156369,156561,156734,156907,157061,157234,157407,157561,157715,157849,158003,158119,158196,158465,158599,158715,158849,159003,159176,159330,159484,159638,159792,159965,160119,160292,160465,160619,160811,160984,172272,172447,172622,172754,172886,173017,173193,173321,173324,173398,173534,173669,173786,173941,174057,174193,174328,174464,174600,174735,174852,174987,175123,175258,175375,175510,175646,175762,175917,176053,176169,176305,176441,176557,176693,176848,176983,177119,177274,177410,177565,177720,177836,177991,178127,178282,178417,178572,178727,178863,179018,179173,179328,179483,179658,179813,179968,180142,180297,180452,180607,180762,180898,181034,181189,181305,181460,181615,181751,181906,182061,182216,182352,182507,182662,182817,183010,183185,183340,183514,183650,183824,183979,184154,184309,184464,184638,184793,184968,185123,185297,185472,185627,185821,185995,186150,186324,186499,186654,186809,186983,187138,187313,187468,187642,187817,187991,188165,188340,188495,188650,188844,189018,189193,189367,189541,189716,189890,190065,190220,190375,190569,190724,190898,191053,191227,191402,191576,191751,191925,192100,192274,192448,192623,192778,192972,193146,193340,193514,193689,193863,194057,194251,194406,194600,194793,194948,195123,195317,195491,195685,195859,196053,196189,196363,196538,196712,196906,197080,197255,197429,197603,197797,197991,198165,198359,198514,198708,198883,199057,199251,199425,199600,199793,199968,200123,200317,200491,200685,200859,201034,201227,201402,201576,201751,201925,202100,202293,202448,202623,202797,203092,217972,217976,218165,218301,218417,218534,218669,218805,218941,219076,219212,219348,219464,219600,219735,219871,220026,220162,220317,220472,220627,220782,220917,221072,221208,221383,221518,221654,221809,221945,222100,222235,222371,222507,222642,222797,222952,223088,223243,223398,223553,223689,223844,223979,224134,224289,224445,224580,224735,225414,225530,225665,225801,225917,226053,226189,226324,226460,226596,226731,226886,227022,227196,227332,227487,227623,227778,227914,228069,228224,228379,228534,228689,228824,228960,229096,229251,229386,229541,229677,229852,230007,230162,230336,230491,230801,230976,231131,231286,231441,231615,231809,231964,232041,232855,232894,233049,233088,233185,233321,233456,233611,233747,233883,234018,234173,234328,234483,234619,234774,234910,235065,235220,235355,235510,235685,235840,235976,236131,236266,236421,236576,236712,236867,237003,237158,237293,237468,237603,237758,237914,238049,238204,238340,238495,238650,238805,238960,239096,239251,239406,239561,240297,240336,240472,240646,240782,240917,241072,241227,241383,241538,241693,241848,242003,242177,242332,242487,242623,242797,242952,243127,243262,243437,243592,243747,243902,244057,244212,244367,244522,244696,244871,245026,245200,245375,245530,245704,245879,246034,246189,246344,246518,246693,246867,247022,247196,247352,247526,247743,255414
DistanceSpacing: 0.5
BeatDivisor: 4
GridSize: 4
TimelineZoom: 3.099999

[Metadata]
Title:Goodbye
TitleUnicode:Goodbye
Artist:BLANKFIELD
ArtistUnicode:BLANKFIELD
Creator:Arzenvald
Version:Asgore
Source:Undertale
Tags:ExUsagi ajeemaniz Toby Fox Bergentrückung Bergentruckung BGM Cover Arrangement Doujin Comiket 91 C91 UNTALED demo version warinside Instrumental Metal Rock
BeatmapID:1265744
BeatmapSetID:598814

[Difficulty]
HPDrainRate:8.5
CircleSize:4
OverallDifficulty:8
ApproachRate:5
SliderMultiplier:1.4
SliderTickRate:1

[Events]
//Background and Video events
0,0,"bg.jpg",0,0
//Break Periods
//Storyboard Layer 0 (Background)
//Storyboard Layer 1 (Fail)
//Storyboard Layer 2 (Pass)
//Storyboard Layer 3 (Foreground)
//Storyboard Layer 4 (Overlay)
//Storyboard Sound Samples

[TimingPoints]
557,574.162679425837,4,2,1,25,1,0
557,-50.5050505050505,4,2,1,25,0,0
21957,451.127819548872,4,2,1,25,1,0
21957,-51.5503875968992,4,2,1,25,0,0
22869,232.558139534884,4,2,1,40,1,0
22869,-99.9999999999999,4,2,1,40,0,0
30310,-99.9999999999999,4,2,1,40,0,1
37752,-99.9999999999999,4,2,1,40,0,0
45194,-99.9999999999999,4,2,1,40,0,1
51706,-99.9999999999999,4,2,1,40,0,0
104496,-166.666666666667,4,2,1,40,0,0
104729,-105.263157894737,4,2,1,40,0,0
104845,-71.4285714285714,4,2,1,40,0,0
104962,232.558139534884,4,2,1,40,1,0
104962,-99.9999999999999,4,2,1,40,0,0
112403,-99.9999999999999,4,2,1,40,0,1
119729,-83.3333333333333,4,2,1,40,0,0
119787,-90.9090909090909,4,2,1,40,0,0
119845,-100,4,2,1,40,0,0
119903,-111.111111111111,4,2,1,40,0,0
119991,-121.951219512195,4,2,1,40,0,0
120078,582.52427184466,4,2,1,40,1,0
120078,-53.475935828877,4,2,1,40,0,0
128233,500,4,2,1,40,1,0
128233,-46.5116279069767,4,2,1,40,0,0
129222,500,4,2,1,40,1,0
129222,-46.5116279069767,4,2,1,40,0,0
137196,230.769230769231,4,2,1,40,1,0
137196,-100.775193798449,4,2,1,40,0,0
161196,230.769230769231,6,2,1,40,1,0
161196,-100.775193798449,6,2,1,40,0,0
172272,526.315789473684,4,2,1,40,1,0
172272,-44.1860465116279,4,2,1,40,0,0
173321,232.558139534884,4,2,1,40,1,0
173321,-99.9999999999999,4,2,1,40,0,0
180762,-99.9999999999999,4,2,1,40,0,1
188204,-99.9999999999999,4,2,1,40,0,0
195646,-99.9999999999999,4,2,1,40,0,1
202158,-99.9999999999999,4,2,1,40,0,0
255414,232.558139534884,4,2,1,40,1,0
255414,-99.9999999999999,4,2,1,40,0,0
263786,-99.9999999999999,4,2,1,40,0,1
269371,454.545454545455,4,2,1,40,1,0
269371,-51.1627906976744,4,2,1,40,0,0
271186,563.380281690141,4,2,1,40,1,0
271186,-41.2790697674418,4,2,1,40,0,0
273453,568.181818181818,4,2,1,40,1,0
273453,-40.9302325581395,4,2,1,40,0,0

[HitObjects]
64,192,557,5,0,0:0:0:0:
320,192,1131,1,0,0:0:0:0:
192,192,1705,128,0,2853:0:0:0:0:
320,192,2853,1,0,0:0:0:0:
448,192,3427,1,0,0:0:0:0:
64,192,4001,128,0,5150:0:0:0:0:
192,192,5150,1,0,0:0:0:0:
448,192,5724,1,0,0:0:0:0:
320,192,6298,128,0,7446:0:0:0:0:
192,192,6585,1,0,0:0:0:0:
64,192,6872,1,0,0:0:0:0:
448,192,7159,1,0,0:0:0:0:
192,192,7446,128,0,8021:0:0:0:0:
64,192,7734,1,0,0:0:0:0:
320,192,8021,128,0,8595:0:0:0:0:
448,192,8308,1,0,0:0:0:0:
64,192,8595,128,0,9743:0:0:0:0:
320,192,9743,1,0,0:0:0:0:
448,192,10317,1,0,0:0:0:0:
192,192,10891,128,0,12040:0:0:0:0:
448,192,12040,1,0,0:0:0:0:
64,192,12614,1,0,0:0:0:0:
192,192,13188,128,0,14336:0:0:0:0:
320,192,13762,128,0,14336:0:0:0:0:
448,192,14336,128,0,14623:0:0:0:0:
64,192,14623,128,0,14911:0:0:0:0:
192,192,14911,128,0,15198:0:0:0:0:
320,192,15198,128,0,15485:0:0:0:0:
64,192,15485,128,0,16633:0:0:0:0:
448,192,16059,128,0,16633:0:0:0:0:
192,192,16633,128,0,16920:0:0:0:0:
448,192,16777,1,0,0:0:0:0:
320,192,16848,1,0,0:0:0:0:
64,192,16920,128,0,17207:0:0:0:0:
320,192,17207,128,0,17494:0:0:0:0:
448,192,17494,128,0,17781:0:0:0:0:
192,192,17781,128,0,18930:0:0:0:0:
64,192,21226,128,0,22182:0:0:0:0:
192,192,21944,128,0,22182:0:0:0:0:
320,192,22408,128,0,22633:0:0:0:0:
192,192,22408,128,0,22633:0:0:0:0:
448,192,22869,1,0,0:0:0:0:
64,192,22869,128,0,23101:0:0:0:0:
192,192,22927,1,0,0:0:0:0:
320,192,22985,1,0,0:0:0:0:
448,192,22985,1,0,0:0:0:0:
192,192,23101,1,0,0:0:0:0:
192,192,23217,1,0,0:0:0:0:
448,192,23217,1,0,0:0:0:0:
64,192,23334,1,0,0:0:0:0:
320,192,23450,1,0,0:0:0:0:
64,192,23450,1,0,0:0:0:0:
448,192,23566,128,0,23799:0:0:0:0:
192,192,23682,1,0,0:0:0:0:
320,192,23682,1,0,0:0:0:0:
64,192,23799,128,0,24031:0:0:0:0:
448,192,23915,1,0,0:0:0:0:
320,192,23915,1,0,0:0:0:0:
192,192,23973,1,0,0:0:0:0:
320,192,24031,1,0,0:0:0:0:
64,192,24148,1,0,0:0:0:0:
192,192,24148,128,0,24380:0:0:0:0:
448,192,24264,1,0,0:0:0:0:
320,192,24322,1,0,0:0:0:0:
64,192,24380,1,0,0:0:0:0:
448,192,24380,1,0,0:0:0:0:
320,192,24496,128,0,24613:0:0:0:0:
192,192,24613,1,0,0:0:0:0:
64,192,24613,1,0,0:0:0:0:
448,192,24729,128,0,25194:0:0:0:0:
64,192,24787,1,0,0:0:0:0:
192,192,24845,1,0,0:0:0:0:
320,192,24845,1,0,0:0:0:0:
64,192,24962,1,0,0:0:0:0:
320,192,25078,1,0,0:0:0:0:
64,192,25078,1,0,0:0:0:0:
192,192,25194,1,0,0:0:0:0:
192,192,25310,1,0,0:0:0:0:
448,192,25310,1,0,0:0:0:0:
320,192,25427,1,0,0:0:0:0:
320,192,25543,1,0,0:0:0:0:
448,192,25543,1,0,0:0:0:0:
64,192,25659,1,0,0:0:0:0:
192,192,25659,1,0,0:0:0:0:
64,192,25775,128,0,25892:0:0:0:0:
192,192,25775,128,0,25892:0:0:0:0:
320,192,25834,1,0,0:0:0:0:
448,192,25892,1,0,0:0:0:0:
64,192,26008,1,0,0:0:0:0:
192,192,26008,1,0,0:0:0:0:
448,192,26124,1,0,0:0:0:0:
320,192,26124,1,0,0:0:0:0:
320,192,26241,128,0,26357:0:0:0:0:
448,192,26241,128,0,26357:0:0:0:0:
64,192,26357,128,0,26473:0:0:0:0:
192,192,26473,128,0,26589:0:0:0:0:
448,192,26589,1,0,0:0:0:0:
64,192,26589,128,0,26822:0:0:0:0:
192,192,26648,1,0,0:0:0:0:
320,192,26706,1,0,0:0:0:0:
448,192,26706,1,0,0:0:0:0:
192,192,26822,1,0,0:0:0:0:
64,192,26938,1,0,0:0:0:0:
320,192,26938,1,0,0:0:0:0:
192,192,27055,1,0,0:0:0:0:
320,192,27171,1,0,0:0:0:0:
448,192,27171,1,0,0:0:0:0:
448,192,27287,128,0,27403:0:0:0:0:
320,192,27403,1,0,0:0:0:0:
192,192,27403,1,0,0:0:0:0:
64,192,27520,128,0,27636:0:0:0:0:
448,192,27578,1,0,0:0:0:0:
192,192,27636,1,0,0:0:0:0:
320,192,27636,1,0,0:0:0:0:
64,192,27752,1,0,0:0:0:0:
320,192,27869,1,0,0:0:0:0:
448,192,27869,128,0,27985:0:0:0:0:
192,192,27985,1,0,0:0:0:0:
320,192,27985,1,0,0:0:0:0:
64,192,27985,1,0,0:0:0:0:
192,192,28217,1,0,0:0:0:0:
64,192,28217,1,0,0:0:0:0:
320,192,28275,1,0,0:0:0:0:
64,192,28334,1,0,0:0:0:0:
192,192,28334,1,0,0:0:0:0:
320,192,28392,1,0,0:0:0:0:
448,192,28450,1,0,0:0:0:0:
64,192,28450,1,0,0:0:0:0:
192,192,28450,128,0,28682:0:0:0:0:
320,192,28508,1,0,0:0:0:0:
64,192,28682,1,0,0:0:0:0:
320,192,28682,1,0,0:0:0:0:
448,192,28682,1,0,0:0:0:0:
192,192,28799,1,0,0:0:0:0:
64,192,28799,1,0,0:0:0:0:
320,192,28857,1,0,0:0:0:0:
192,192,28915,1,0,0:0:0:0:
448,192,29031,1,0,0:0:0:0:
320,192,29089,1,0,0:0:0:0:
448,192,29148,1,0,0:0:0:0:
64,192,29148,1,0,0:0:0:0:
64,192,29264,1,0,0:0:0:0:
448,192,29264,1,0,0:0:0:0:
320,192,29380,1,0,0:0:0:0:
192,192,29380,1,0,0:0:0:0:
320,192,29496,1,0,0:0:0:0:
64,192,29496,1,0,0:0:0:0:
192,192,29496,1,0,0:0:0:0:
192,192,29845,1,0,0:0:0:0:
320,192,29845,1,0,0:0:0:0:
320,192,29962,1,0,0:0:0:0:
192,192,29962,1,0,0:0:0:0:
448,192,29962,1,0,0:0:0:0:
64,192,30310,1,0,0:0:0:0:
192,192,30310,1,0,0:0:0:0:
448,192,30310,1,0,0:0:0:0:
448,192,30427,1,0,0:0:0:0:
192,192,30485,1,0,0:0:0:0:
320,192,30543,1,0,0:0:0:0:
64,192,30601,1,0,0:0:0:0:
192,192,30659,1,0,0:0:0:0:
448,192,30717,1,0,0:0:0:0:
192,192,30775,1,0,0:0:0:0:
64,192,30834,1,0,0:0:0:0:
320,192,30892,1,0,0:0:0:0:
448,192,30950,1,0,0:0:0:0:
192,192,31008,1,0,0:0:0:0:
64,192,31008,1,0,0:0:0:0:
320,192,31066,1,0,0:0:0:0:
64,192,31124,1,0,0:0:0:0:
320,192,31182,1,0,0:0:0:0:
192,192,31241,1,0,0:0:0:0:
448,192,31241,1,0,0:0:0:0:
64,192,31299,1,0,0:0:0:0:
320,192,31357,1,0,0:0:0:0:
192,192,31415,1,0,0:0:0:0:
448,192,31473,1,0,0:0:0:0:
320,192,31531,1,0,0:0:0:0:
64,192,31589,1,0,0:0:0:0:
192,192,31589,1,0,0:0:0:0:
448,192,31648,1,0,0:0:0:0:
192,192,31706,1,0,0:0:0:0:
64,192,31764,1,0,0:0:0:0:
320,192,31822,1,0,0:0:0:0:
192,192,31880,1,0,0:0:0:0:
448,192,31938,1,0,0:0:0:0:
320,192,31938,1,0,0:0:0:0:
64,192,31996,1,0,0:0:0:0:
192,192,32055,1,0,0:0:0:0:
320,192,32113,1,0,0:0:0:0:
448,192,32171,1,0,0:0:0:0:
64,192,32171,1,0,0:0:0:0:
192,192,32229,1,0,0:0:0:0:
448,192,32287,1,0,0:0:0:0:
64,192,32345,1,0,0:0:0:0:
320,192,32403,1,0,0:0:0:0:
64,192,32462,1,0,0:0:0:0:
448,192,32520,1,0,0:0:0:0:
192,192,32578,1,0,0:0:0:0:
448,192,32636,1,0,0:0:0:0:
64,192,32694,1,0,0:0:0:0:
320,192,32752,1,0,0:0:0:0:
64,192,32810,1,0,0:0:0:0:
448,192,32869,1,0,0:0:0:0:
320,192,32869,1,0,0:0:0:0:
192,192,32927,1,0,0:0:0:0:
320,192,32985,1,0,0:0:0:0:
192,192,33043,1,0,0:0:0:0:
64,192,33101,1,0,0:0:0:0:
448,192,33101,1,0,0:0:0:0:
320,192,33159,1,0,0:0:0:0:
64,192,33217,1,0,0:0:0:0:
320,192,33275,1,0,0:0:0:0:
192,192,33334,1,0,0:0:0:0:
448,192,33392,1,0,0:0:0:0:
320,192,33450,1,0,0:0:0:0:
192,192,33450,1,0,0:0:0:0:
64,192,33508,1,0,0:0:0:0:
448,192,33566,1,0,0:0:0:0:
192,192,33624,1,0,0:0:0:0:
320,192,33682,1,0,0:0:0:0:
64,192,33741,1,0,0:0:0:0:
192,192,33799,1,0,0:0:0:0:
320,192,33799,1,0,0:0:0:0:
448,192,33857,1,0,0:0:0:0:
320,192,33915,1,0,0:0:0:0:
192,192,33973,1,0,0:0:0:0:
64,192,34031,1,0,0:0:0:0:
448,192,34031,1,0,0:0:0:0:
320,192,34031,1,0,0:0:0:0:
192,192,34089,1,0,0:0:0:0:
64,192,34148,1,0,0:0:0:0:
448,192,34206,1,0,0:0:0:0:
192,192,34264,1,0,0:0:0:0:
448,192,34322,1,0,0:0:0:0:
320,192,34380,1,0,0:0:0:0:
64,192,34438,1,0,0:0:0:0:
320,192,34496,1,0,0:0:0:0:
192,192,34555,1,0,0:0:0:0:
448,192,34613,1,0,0:0:0:0:
192,192,34671,1,0,0:0:0:0:
320,192,34729,1,0,0:0:0:0:
64,192,34787,1,0,0:0:0:0:
192,192,34845,1,0,0:0:0:0:
448,192,34903,1,0,0:0:0:0:
192,192,34962,1,0,0:0:0:0:
320,192,35020,1,0,0:0:0:0:
64,192,35078,1,0,0:0:0:0:
320,192,35136,1,0,0:0:0:0:
192,192,35194,1,0,0:0:0:0:
448,192,35252,1,0,0:0:0:0:
64,192,35310,1,0,0:0:0:0:
192,192,35369,1,0,0:0:0:0:
64,192,35427,1,0,0:0:0:0:
320,192,35485,1,0,0:0:0:0:
192,192,35543,1,0,0:0:0:0:
448,192,35601,1,0,0:0:0:0:
320,192,35659,1,0,0:0:0:0:
64,192,35659,1,0,0:0:0:0:
192,192,35659,1,0,0:0:0:0:
64,192,35892,1,0,0:0:0:0:
192,192,35892,1,0,0:0:0:0:
320,192,35950,1,0,0:0:0:0:
192,192,36008,1,0,0:0:0:0:
64,192,36066,1,0,0:0:0:0:
320,192,36124,1,0,0:0:0:0:
448,192,36124,1,0,0:0:0:0:
192,192,36182,1,0,0:0:0:0:
320,192,36241,1,0,0:0:0:0:
448,192,36299,1,0,0:0:0:0:
64,192,36357,1,0,0:0:0:0:
192,192,36357,1,0,0:0:0:0:
320,192,36415,1,0,0:0:0:0:
192,192,36473,1,0,0:0:0:0:
64,192,36531,1,0,0:0:0:0:
320,192,36589,1,0,0:0:0:0:
448,192,36589,1,0,0:0:0:0:
192,192,36648,1,0,0:0:0:0:
320,192,36706,1,0,0:0:0:0:
448,192,36764,1,0,0:0:0:0:
64,192,36822,1,0,0:0:0:0:
192,192,36822,1,0,0:0:0:0:
320,192,36822,1,0,0:0:0:0:
192,192,37287,1,0,0:0:0:0:
320,192,37287,1,0,0:0:0:0:
448,192,37287,1,0,0:0:0:0:
64,192,37345,1,0,0:0:0:0:
320,192,37403,1,0,0:0:0:0:
448,192,37403,1,0,0:0:0:0:
192,192,37462,1,0,0:0:0:0:
64,192,37520,1,0,0:0:0:0:
320,192,37636,1,0,0:0:0:0:
448,192,37752,1,0,0:0:0:0:
64,192,37752,128,0,37985:0:0:0:0:
192,192,37810,1,0,0:0:0:0:
320,192,37869,1,0,0:0:0:0:
448,192,37869,1,0,0:0:0:0:
192,192,37985,1,0,0:0:0:0:
320,192,38101,1,0,0:0:0:0:
192,192,38101,1,0,0:0:0:0:
64,192,38217,1,0,0:0:0:0:
64,192,38334,1,0,0:0:0:0:
192,192,38334,1,0,0:0:0:0:
448,192,38450,128,0,38566:0:0:0:0:
320,192,38566,1,0,0:0:0:0:
192,192,38566,1,0,0:0:0:0:
64,192,38682,128,0,38799:0:0:0:0:
320,192,38799,1,0,0:0:0:0:
192,192,38799,1,0,0:0:0:0:
448,192,38857,1,0,0:0:0:0:
64,192,38915,1,0,0:0:0:0:
192,192,39031,1,0,0:0:0:0:
320,192,39031,128,0,39148:0:0:0:0:
64,192,39148,1,0,0:0:0:0:
448,192,39148,1,0,0:0:0:0:
192,192,39206,1,0,0:0:0:0:
320,192,39264,1,0,0:0:0:0:
64,192,39264,1,0,0:0:0:0:
320,192,39380,1,0,0:0:0:0:
192,192,39380,128,0,39496:0:0:0:0:
448,192,39496,1,0,0:0:0:0:
64,192,39496,1,0,0:0:0:0:
192,192,39613,1,0,0:0:0:0:
448,192,39613,128,0,39845:0:0:0:0:
320,192,39671,1,0,0:0:0:0:
64,192,39729,1,0,0:0:0:0:
192,192,39729,1,0,0:0:0:0:
64,192,39845,1,0,0:0:0:0:
320,192,39845,1,0,0:0:0:0:
192,192,39962,1,0,0:0:0:0:
448,192,39962,1,0,0:0:0:0:
192,192,40078,1,0,0:0:0:0:
64,192,40078,1,0,0:0:0:0:
320,192,40194,1,0,0:0:0:0:
448,192,40194,1,0,0:0:0:0:
64,192,40310,1,0,0:0:0:0:
192,192,40427,1,0,0:0:0:0:
448,192,40427,1,0,0:0:0:0:
64,192,40543,1,0,0:0:0:0:
320,192,40543,1,0,0:0:0:0:
64,192,40659,128,0,40775:0:0:0:0:
320,192,40659,128,0,40775:0:0:0:0:
192,192,40717,1,0,0:0:0:0:
448,192,40775,1,0,0:0:0:0:
64,192,40892,1,0,0:0:0:0:
320,192,40892,1,0,0:0:0:0:
448,192,41008,1,0,0:0:0:0:
192,192,41008,1,0,0:0:0:0:
64,192,41066,1,0,0:0:0:0:
320,192,41124,128,0,41241:0:0:0:0:
448,192,41124,128,0,41415:0:0:0:0:
192,192,41182,1,0,0:0:0:0:
64,192,41241,128,0,41415:0:0:0:0:
320,192,41357,128,0,41415:0:0:0:0:
320,192,41473,1,0,0:0:0:0:
64,192,41473,1,0,0:0:0:0:
448,192,41473,1,0,0:0:0:0:
192,192,41531,1,0,0:0:0:0:
320,192,41589,1,0,0:0:0:0:
64,192,41706,1,0,0:0:0:0:
192,192,41706,1,0,0:0:0:0:
448,192,41706,1,0,0:0:0:0:
320,192,41822,1,0,0:0:0:0:
192,192,41822,1,0,0:0:0:0:
448,192,41880,1,0,0:0:0:0:
64,192,41938,1,0,0:0:0:0:
320,192,42055,1,0,0:0:0:0:
64,192,42055,1,0,0:0:0:0:
448,192,42055,1,0,0:0:0:0:
320,192,42171,1,0,0:0:0:0:
192,192,42171,1,0,0:0:0:0:
448,192,42229,1,0,0:0:0:0:
64,192,42287,1,0,0:0:0:0:
320,192,42403,1,0,0:0:0:0:
448,192,42403,1,0,0:0:0:0:
192,192,42462,1,0,0:0:0:0:
64,192,42462,1,0,0:0:0:0:
320,192,42520,1,0,0:0:0:0:
448,192,42520,1,0,0:0:0:0:
64,192,42636,1,0,0:0:0:0:
448,192,42636,1,0,0:0:0:0:
192,192,42752,1,0,0:0:0:0:
320,192,42752,1,0,0:0:0:0:
64,192,42810,1,0,0:0:0:0:
448,192,42810,1,0,0:0:0:0:
320,192,42869,1,0,0:0:0:0:
192,192,42869,1,0,0:0:0:0:
64,192,42985,1,0,0:0:0:0:
192,192,42985,1,0,0:0:0:0:
64,192,43101,1,0,0:0:0:0:
320,192,43101,1,0,0:0:0:0:
448,192,43101,128,0,43334:0:0:0:0:
64,192,43334,1,0,0:0:0:0:
192,192,43334,1,0,0:0:0:0:
320,192,43392,1,0,0:0:0:0:
448,192,43450,1,0,0:0:0:0:
192,192,43508,1,0,0:0:0:0:
320,192,43566,1,0,0:0:0:0:
448,192,43566,1,0,0:0:0:0:
64,192,43624,1,0,0:0:0:0:
192,192,43682,1,0,0:0:0:0:
320,192,43741,1,0,0:0:0:0:
64,192,43799,1,0,0:0:0:0:
192,192,43799,1,0,0:0:0:0:
320,192,43857,1,0,0:0:0:0:
448,192,43915,1,0,0:0:0:0:
192,192,43915,1,0,0:0:0:0:
64,192,43973,1,0,0:0:0:0:
320,192,44031,1,0,0:0:0:0:
448,192,44031,1,0,0:0:0:0:
64,192,44264,1,0,0:0:0:0:
192,192,44264,1,0,0:0:0:0:
448,192,44264,1,0,0:0:0:0:
64,192,44380,1,0,0:0:0:0:
320,192,44380,1,0,0:0:0:0:
320,192,44729,1,0,0:0:0:0:
448,192,44729,1,0,0:0:0:0:
64,192,44729,1,0,0:0:0:0:
192,192,44845,1,0,0:0:0:0:
448,192,44845,1,0,0:0:0:0:
64,192,45194,128,0,45427:0:0:0:0:
448,192,45194,1,0,0:0:0:0:
192,192,45194,1,0,0:0:0:0:
448,192,45310,1,0,0:0:0:0:
320,192,45310,1,0,0:0:0:0:
192,192,45369,1,0,0:0:0:0:
448,192,45427,1,0,0:0:0:0:
320,192,45485,1,0,0:0:0:0:
64,192,45543,1,0,0:0:0:0:
448,192,45601,1,0,0:0:0:0:
192,192,45659,1,0,0:0:0:0:
320,192,45717,1,0,0:0:0:0:
64,192,45775,1,0,0:0:0:0:
192,192,45834,1,0,0:0:0:0:
448,192,45892,1,0,0:0:0:0:
320,192,45892,1,0,0:0:0:0:
64,192,45950,1,0,0:0:0:0:
448,192,46008,1,0,0:0:0:0:
192,192,46066,1,0,0:0:0:0:
64,192,46124,1,0,0:0:0:0:
320,192,46124,1,0,0:0:0:0:
448,192,46182,1,0,0:0:0:0:
320,192,46241,1,0,0:0:0:0:
192,192,46299,1,0,0:0:0:0:
320,192,46357,1,0,0:0:0:0:
64,192,46415,1,0,0:0:0:0:
192,192,46473,1,0,0:0:0:0:
448,192,46473,1,0,0:0:0:0:
64,192,46531,1,0,0:0:0:0:
192,192,46589,1,0,0:0:0:0:
448,192,46648,1,0,0:0:0:0:
192,192,46706,1,0,0:0:0:0:
320,192,46764,1,0,0:0:0:0:
64,192,46822,1,0,0:0:0:0:
448,192,46822,1,0,0:0:0:0:
192,192,46880,1,0,0:0:0:0:
320,192,46938,1,0,0:0:0:0:
192,192,46996,1,0,0:0:0:0:
320,192,47055,1,0,0:0:0:0:
448,192,47055,1,0,0:0:0:0:
64,192,47113,1,0,0:0:0:0:
192,192,47171,1,0,0:0:0:0:
448,192,47229,1,0,0:0:0:0:
192,192,47287,1,0,0:0:0:0:
448,192,47345,1,0,0:0:0:0:
64,192,47403,1,0,0:0:0:0:
320,192,47462,1,0,0:0:0:0:
64,192,47520,1,0,0:0:0:0:
192,192,47578,1,0,0:0:0:0:
448,192,47636,1,0,0:0:0:0:
192,192,47694,1,0,0:0:0:0:
320,192,47752,1,0,0:0:0:0:
448,192,47752,1,0,0:0:0:0:
64,192,47810,1,0,0:0:0:0:
192,192,47869,1,0,0:0:0:0:
448,192,47927,1,0,0:0:0:0:
64,192,47985,1,0,0:0:0:0:
320,192,47985,1,0,0:0:0:0:
192,192,48043,1,0,0:0:0:0:
320,192,48101,1,0,0:0:0:0:
64,192,48159,1,0,0:0:0:0:
320,192,48217,1,0,0:0:0:0:
192,192,48275,1,0,0:0:0:0:
64,192,48334,1,0,0:0:0:0:
448,192,48334,1,0,0:0:0:0:
320,192,48392,1,0,0:0:0:0:
448,192,48450,1,0,0:0:0:0:
192,192,48508,1,0,0:0:0:0:
448,192,48566,1,0,0:0:0:0:
64,192,48624,1,0,0:0:0:0:
192,192,48682,1,0,0:0:0:0:
320,192,48682,1,0,0:0:0:0:
448,192,48741,1,0,0:0:0:0:
320,192,48799,1,0,0:0:0:0:
192,192,48857,1,0,0:0:0:0:
64,192,48915,1,0,0:0:0:0:
448,192,48915,1,0,0:0:0:0:
192,192,48973,1,0,0:0:0:0:
64,192,49031,1,0,0:0:0:0:
448,192,49089,1,0,0:0:0:0:
320,192,49148,1,0,0:0:0:0:
64,192,49206,1,0,0:0:0:0:
192,192,49264,1,0,0:0:0:0:
448,192,49322,1,0,0:0:0:0:
192,192,49380,1,0,0:0:0:0:
320,192,49438,1,0,0:0:0:0:
64,192,49496,1,0,0:0:0:0:
448,192,49555,1,0,0:0:0:0:
192,192,49613,1,0,0:0:0:0:
448,192,49671,1,0,0:0:0:0:
64,192,49729,1,0,0:0:0:0:
320,192,49787,1,0,0:0:0:0:
64,192,49845,1,0,0:0:0:0:
448,192,49903,1,0,0:0:0:0:
320,192,49962,1,0,0:0:0:0:
448,192,50020,1,0,0:0:0:0:
192,192,50078,1,0,0:0:0:0:
320,192,50136,1,0,0:0:0:0:
64,192,50194,1,0,0:0:0:0:
448,192,50252,1,0,0:0:0:0:
64,192,50310,1,0,0:0:0:0:
448,192,50369,1,0,0:0:0:0:
192,192,50427,1,0,0:0:0:0:
320,192,50485,1,0,0:0:0:0:
192,192,50543,1,0,0:0:0:0:
64,192,50543,1,0,0:0:0:0:
320,192,50601,1,0,0:0:0:0:
448,192,50659,1,0,0:0:0:0:
64,192,50659,1,0,0:0:0:0:
192,192,50717,1,0,0:0:0:0:
64,192,50775,1,0,0:0:0:0:
320,192,50775,1,0,0:0:0:0:
192,192,50892,1,0,0:0:0:0:
320,192,50950,1,0,0:0:0:0:
448,192,51008,1,0,0:0:0:0:
64,192,51008,1,0,0:0:0:0:
192,192,51066,1,0,0:0:0:0:
320,192,51124,1,0,0:0:0:0:
448,192,51182,1,0,0:0:0:0:
192,192,51241,1,0,0:0:0:0:
64,192,51241,1,0,0:0:0:0:
320,192,51299,1,0,0:0:0:0:
448,192,51357,1,0,0:0:0:0:
64,192,51415,1,0,0:0:0:0:
192,192,51473,1,0,0:0:0:0:
448,192,51473,1,0,0:0:0:0:
320,192,51531,1,0,0:0:0:0:
64,192,51589,1,0,0:0:0:0:
192,192,51648,1,0,0:0:0:0:
320,192,51706,1,0,0:0:0:0:
448,192,51706,128,0,51822:0:0:0:0:
192,192,51764,1,0,0:0:0:0:
320,192,51822,1,0,0:0:0:0:
192,192,51880,1,0,0:0:0:0:
320,192,51938,1,0,0:0:0:0:
192,192,51996,1,0,0:0:0:0:
320,192,52055,1,0,0:0:0:0:
192,192,52113,1,0,0:0:0:0:
448,192,52171,1,0,0:0:0:0:
64,192,52171,128,0,52287:0:0:0:0:
64,192,52636,128,0,52810:0:0:0:0:
192,192,52636,128,0,52810:0:0:0:0:
320,192,52752,128,0,52927:0:0:0:0:
448,192,52752,128,0,52927:0:0:0:0:
64,192,52869,128,0,52985:0:0:0:0:
192,192,52869,128,0,52985:0:0:0:0:
320,192,52985,128,0,53159:0:0:0:0:
448,192,52985,128,0,53159:0:0:0:0:
64,192,53101,128,0,53159:0:0:0:0:
192,192,53101,128,0,53159:0:0:0:0:
320,192,53217,1,0,0:0:0:0:
320,192,53334,1,0,0:0:0:0:
192,192,53450,1,0,0:0:0:0:
448,192,53450,128,0,53799:0:0:0:0:
320,192,53566,1,0,0:0:0:0:
64,192,53566,1,0,0:0:0:0:
192,192,53566,1,0,0:0:0:0:
320,192,53682,128,0,53799:0:0:0:0:
192,192,53799,128,0,53915:0:0:0:0:
64,192,53799,128,0,53915:0:0:0:0:
320,192,53915,128,0,54031:0:0:0:0:
64,192,54031,1,0,0:0:0:0:
192,192,54031,128,0,54264:0:0:0:0:
448,192,54031,128,0,54264:0:0:0:0:
320,192,54264,1,0,0:0:0:0:
64,192,54264,1,0,0:0:0:0:
320,192,54496,128,0,54671:0:0:0:0:
448,192,54496,128,0,54671:0:0:0:0:
192,192,54613,128,0,54787:0:0:0:0:
64,192,54613,128,0,54787:0:0:0:0:
320,192,54729,128,0,54845:0:0:0:0:
448,192,54729,128,0,54845:0:0:0:0:
64,192,54845,128,0,55020:0:0:0:0:
192,192,54845,128,0,55020:0:0:0:0:
320,192,54962,128,0,55020:0:0:0:0:
448,192,54962,128,0,55020:0:0:0:0:
192,192,55078,1,0,0:0:0:0:
192,192,55194,1,0,0:0:0:0:
320,192,55310,1,0,0:0:0:0:
64,192,55310,128,0,55659:0:0:0:0:
192,192,55427,1,0,0:0:0:0:
320,192,55427,1,0,0:0:0:0:
448,192,55427,1,0,0:0:0:0:
192,192,55543,128,0,55659:0:0:0:0:
448,192,55659,128,0,55775:0:0:0:0:
320,192,55659,128,0,55775:0:0:0:0:
192,192,55775,128,0,55892:0:0:0:0:
320,192,55892,128,0,56124:0:0:0:0:
64,192,55892,128,0,56124:0:0:0:0:
192,192,56124,1,0,0:0:0:0:
320,192,56182,1,0,0:0:0:0:
64,192,56241,1,0,0:0:0:0:
192,192,56299,1,0,0:0:0:0:
320,192,56357,128,0,56531:0:0:0:0:
448,192,56357,128,0,56531:0:0:0:0:
192,192,56473,128,0,56531:0:0:0:0:
64,192,56473,128,0,56531:0:0:0:0:
320,192,56589,128,0,56648:0:0:0:0:
192,192,56589,128,0,56764:0:0:0:0:
320,192,56706,128,0,56764:0:0:0:0:
448,192,56706,128,0,56880:0:0:0:0:
64,192,56822,128,0,56880:0:0:0:0:
192,192,56822,128,0,56880:0:0:0:0:
192,192,56938,1,0,0:0:0:0:
192,192,57055,1,0,0:0:0:0:
320,192,57171,1,0,0:0:0:0:
64,192,57171,128,0,57403:0:0:0:0:
192,192,57287,1,0,0:0:0:0:
320,192,57287,1,0,0:0:0:0:
448,192,57287,1,0,0:0:0:0:
448,192,57403,128,0,57520:0:0:0:0:
320,192,57462,1,0,0:0:0:0:
64,192,57520,128,0,57752:0:0:0:0:
192,192,57520,128,0,57636:0:0:0:0:
320,192,57636,128,0,57752:0:0:0:0:
448,192,57752,128,0,57927:0:0:0:0:
192,192,57752,128,0,57927:0:0:0:0:
192,192,57985,1,0,0:0:0:0:
448,192,57985,1,0,0:0:0:0:
192,192,58101,1,0,0:0:0:0:
448,192,58101,1,0,0:0:0:0:
192,192,58217,1,0,0:0:0:0:
64,192,58217,128,0,58566:0:0:0:0:
320,192,58217,1,0,0:0:0:0:
320,192,58566,1,0,0:0:0:0:
448,192,58566,128,0,58915:0:0:0:0:
192,192,58566,1,0,0:0:0:0:
192,192,58915,128,0,59148:0:0:0:0:
320,192,58915,1,0,0:0:0:0:
64,192,58915,1,0,0:0:0:0:
448,192,59031,1,0,0:0:0:0:
448,192,59148,1,0,0:0:0:0:
320,192,59148,128,0,59264:0:0:0:0:
64,192,59148,1,0,0:0:0:0:
192,192,59264,1,0,0:0:0:0:
64,192,59264,128,0,59380:0:0:0:0:
192,192,59496,128,0,59845:0:0:0:0:
320,192,59496,128,0,60078:0:0:0:0:
448,192,59845,128,0,60078:0:0:0:0:
192,192,60078,128,0,60252:0:0:0:0:
64,192,60078,128,0,60252:0:0:0:0:
448,192,60194,128,0,60369:0:0:0:0:
320,192,60194,128,0,60369:0:0:0:0:
192,192,60310,128,0,60427:0:0:0:0:
64,192,60310,128,0,60427:0:0:0:0:
320,192,60427,128,0,60601:0:0:0:0:
448,192,60427,128,0,60601:0:0:0:0:
64,192,60543,128,0,60601:0:0:0:0:
192,192,60543,128,0,60601:0:0:0:0:
320,192,60659,1,0,0:0:0:0:
192,192,60717,1,0,0:0:0:0:
320,192,60775,1,0,0:0:0:0:
192,192,60834,1,0,0:0:0:0:
448,192,60892,1,0,0:0:0:0:
64,192,60892,128,0,61241:0:0:0:0:
448,192,61008,1,0,0:0:0:0:
192,192,61008,1,0,0:0:0:0:
320,192,61008,1,0,0:0:0:0:
192,192,61124,128,0,61241:0:0:0:0:
320,192,61241,128,0,61357:0:0:0:0:
448,192,61241,128,0,61357:0:0:0:0:
192,192,61357,128,0,61473:0:0:0:0:
448,192,61473,128,0,61706:0:0:0:0:
64,192,61473,128,0,61706:0:0:0:0:
320,192,61706,1,0,0:0:0:0:
192,192,61706,1,0,0:0:0:0:
448,192,61938,128,0,62113:0:0:0:0:
320,192,61938,128,0,62113:0:0:0:0:
64,192,62055,128,0,62229:0:0:0:0:
192,192,62055,128,0,62229:0:0:0:0:
448,192,62171,128,0,62287:0:0:0:0:
320,192,62171,128,0,62287:0:0:0:0:
64,192,62287,128,0,62462:0:0:0:0:
192,192,62287,128,0,62462:0:0:0:0:
320,192,62403,128,0,62462:0:0:0:0:
448,192,62403,128,0,62462:0:0:0:0:
192,192,62520,1,0,0:0:0:0:
192,192,62636,1,0,0:0:0:0:
448,192,62752,1,0,0:0:0:0:
320,192,62752,128,0,63101:0:0:0:0:
192,192,62869,1,0,0:0:0:0:
64,192,62869,1,0,0:0:0:0:
448,192,62869,1,0,0:0:0:0:
64,192,62985,128,0,63101:0:0:0:0:
192,192,63101,128,0,63217:0:0:0:0:
448,192,63101,128,0,63217:0:0:0:0:
320,192,63217,128,0,63450:0:0:0:0:
64,192,63334,128,0,63450:0:0:0:0:
192,192,63334,128,0,63450:0:0:0:0:
320,192,63566,1,0,0:0:0:0:
192,192,63624,1,0,0:0:0:0:
64,192,63682,1,0,0:0:0:0:
320,192,63741,1,0,0:0:0:0:
448,192,63799,128,0,63973:0:0:0:0:
192,192,63799,128,0,63973:0:0:0:0:
64,192,63915,128,0,63973:0:0:0:0:
320,192,63915,128,0,63973:0:0:0:0:
192,192,64031,128,0,64089:0:0:0:0:
320,192,64031,128,0,64206:0:0:0:0:
448,192,64148,128,0,64322:0:0:0:0:
192,192,64148,128,0,64206:0:0:0:0:
64,192,64264,128,0,64322:0:0:0:0:
320,192,64264,128,0,64322:0:0:0:0:
448,192,64380,1,0,0:0:0:0:
448,192,64496,1,0,0:0:0:0:
64,192,64613,1,0,0:0:0:0:
192,192,64613,128,0,64962:0:0:0:0:
448,192,64729,1,0,0:0:0:0:
320,192,64729,1,0,0:0:0:0:
64,192,64729,1,0,0:0:0:0:
320,192,64845,128,0,64962:0:0:0:0:
448,192,64962,128,0,65078:0:0:0:0:
64,192,64962,128,0,65194:0:0:0:0:
320,192,65078,128,0,65194:0:0:0:0:
192,192,65194,128,0,65369:0:0:0:0:
448,192,65194,128,0,65369:0:0:0:0:
448,192,65427,1,0,0:0:0:0:
192,192,65427,1,0,0:0:0:0:
320,192,65485,1,0,0:0:0:0:
64,192,65543,1,0,0:0:0:0:
192,192,65601,1,0,0:0:0:0:
64,192,65659,1,0,0:0:0:0:
320,192,65659,1,0,0:0:0:0:
448,192,65659,128,0,66008:0:0:0:0:
192,192,66008,128,0,66357:0:0:0:0:
64,192,66357,128,0,66589:0:0:0:0:
192,192,66589,1,0,0:0:0:0:
448,192,66589,128,0,66706:0:0:0:0:
320,192,66706,128,0,66822:0:0:0:0:
192,192,66938,128,0,67287:0:0:0:0:
64,192,67287,128,0,67520:0:0:0:0:
448,192,67287,128,0,67520:0:0:0:0:
320,192,67520,1,0,0:0:0:0:
192,192,67520,1,0,0:0:0:0:
448,192,67636,1,0,0:0:0:0:
320,192,67636,1,0,0:0:0:0:
192,192,67752,1,0,0:0:0:0:
64,192,67752,1,0,0:0:0:0:
320,192,67810,1,0,0:0:0:0:
192,192,67869,1,0,0:0:0:0:
448,192,67869,1,0,0:0:0:0:
320,192,67985,1,0,0:0:0:0:
64,192,67985,1,0,0:0:0:0:
448,192,68101,1,0,0:0:0:0:
320,192,68159,1,0,0:0:0:0:
64,192,68217,1,0,0:0:0:0:
192,192,68217,1,0,0:0:0:0:
448,192,68275,1,0,0:0:0:0:
320,192,68334,1,0,0:0:0:0:
64,192,68334,128,0,68566:0:0:0:0:
192,192,68450,1,0,0:0:0:0:
320,192,68566,1,0,0:0:0:0:
448,192,68566,1,0,0:0:0:0:
192,192,68682,1,0,0:0:0:0:
448,192,68682,1,0,0:0:0:0:
320,192,68741,1,0,0:0:0:0:
64,192,68799,1,0,0:0:0:0:
192,192,68799,1,0,0:0:0:0:
320,192,68915,1,0,0:0:0:0:
448,192,68915,128,0,69148:0:0:0:0:
64,192,69031,1,0,0:0:0:0:
192,192,69089,1,0,0:0:0:0:
64,192,69148,128,0,69380:0:0:0:0:
320,192,69148,1,0,0:0:0:0:
192,192,69206,1,0,0:0:0:0:
320,192,69264,1,0,0:0:0:0:
192,192,69380,1,0,0:0:0:0:
448,192,69380,1,0,0:0:0:0:
192,192,69496,1,0,0:0:0:0:
320,192,69496,1,0,0:0:0:0:
448,192,69613,1,0,0:0:0:0:
64,192,69613,1,0,0:0:0:0:
192,192,69671,1,0,0:0:0:0:
448,192,69729,1,0,0:0:0:0:
320,192,69729,1,0,0:0:0:0:
192,192,69845,1,0,0:0:0:0:
64,192,69845,1,0,0:0:0:0:
448,192,69962,1,0,0:0:0:0:
192,192,70020,1,0,0:0:0:0:
64,192,70078,1,0,0:0:0:0:
320,192,70078,1,0,0:0:0:0:
448,192,70136,1,0,0:0:0:0:
64,192,70194,1,0,0:0:0:0:
192,192,70194,128,0,70427:0:0:0:0:
320,192,70310,1,0,0:0:0:0:
64,192,70427,1,0,0:0:0:0:
448,192,70427,1,0,0:0:0:0:
192,192,70543,1,0,0:0:0:0:
320,192,70543,1,0,0:0:0:0:
64,192,70601,1,0,0:0:0:0:
320,192,70659,1,0,0:0:0:0:
448,192,70659,1,0,0:0:0:0:
64,192,70775,128,0,71008:0:0:0:0:
192,192,70775,1,0,0:0:0:0:
448,192,70892,1,0,0:0:0:0:
192,192,71008,128,0,71241:0:0:0:0:
320,192,71066,1,0,0:0:0:0:
448,192,71124,1,0,0:0:0:0:
320,192,71182,1,0,0:0:0:0:
64,192,71241,1,0,0:0:0:0:
448,192,71241,1,0,0:0:0:0:
320,192,71357,1,0,0:0:0:0:
64,192,71357,1,0,0:0:0:0:
448,192,71473,1,0,0:0:0:0:
320,192,71531,1,0,0:0:0:0:
64,192,71589,1,0,0:0:0:0:
192,192,71589,1,0,0:0:0:0:
448,192,71706,1,0,0:0:0:0:
320,192,71706,1,0,0:0:0:0:
192,192,71822,1,0,0:0:0:0:
448,192,71880,1,0,0:0:0:0:
64,192,71938,1,0,0:0:0:0:
320,192,71938,1,0,0:0:0:0:
192,192,71996,1,0,0:0:0:0:
320,192,72055,1,0,0:0:0:0:
448,192,72055,128,0,72287:0:0:0:0:
64,192,72171,1,0,0:0:0:0:
192,192,72287,1,0,0:0:0:0:
320,192,72287,1,0,0:0:0:0:
64,192,72403,1,0,0:0:0:0:
192,192,72403,1,0,0:0:0:0:
320,192,72462,1,0,0:0:0:0:
448,192,72520,1,0,0:0:0:0:
192,192,72520,1,0,0:0:0:0:
320,192,72636,1,0,0:0:0:0:
448,192,72636,128,0,72869:0:0:0:0:
192,192,72752,1,0,0:0:0:0:
64,192,72869,1,0,0:0:0:0:
320,192,72869,1,0,0:0:0:0:
448,192,72927,1,0,0:0:0:0:
192,192,72985,1,0,0:0:0:0:
448,192,73101,1,0,0:0:0:0:
64,192,73101,128,0,73334:0:0:0:0:
192,192,73159,1,0,0:0:0:0:
320,192,73217,1,0,0:0:0:0:
448,192,73217,1,0,0:0:0:0:
192,192,73275,1,0,0:0:0:0:
320,192,73334,1,0,0:0:0:0:
448,192,73334,1,0,0:0:0:0:
64,192,73450,1,0,0:0:0:0:
192,192,73450,1,0,0:0:0:0:
448,192,73450,128,0,73799:0:0:0:0:
192,192,73799,1,0,0:0:0:0:
320,192,73799,1,0,0:0:0:0:
64,192,73799,128,0,74031:0:0:0:0:
320,192,74031,1,0,0:0:0:0:
448,192,74031,128,0,74148:0:0:0:0:
192,192,74089,1,0,0:0:0:0:
64,192,74148,1,0,0:0:0:0:
320,192,74148,128,0,74264:0:0:0:0:
192,192,74206,1,0,0:0:0:0:
64,192,74264,1,0,0:0:0:0:
448,192,74380,1,0,0:0:0:0:
192,192,74380,128,0,74613:0:0:0:0:
320,192,74438,1,0,0:0:0:0:
64,192,74496,1,0,0:0:0:0:
448,192,74555,1,0,0:0:0:0:
64,192,74613,1,0,0:0:0:0:
320,192,74613,1,0,0:0:0:0:
320,192,74729,128,0,74962:0:0:0:0:
448,192,74729,128,0,74962:0:0:0:0:
64,192,74962,1,0,0:0:0:0:
192,192,74962,1,0,0:0:0:0:
320,192,75078,1,0,0:0:0:0:
448,192,75078,1,0,0:0:0:0:
64,192,75194,1,0,0:0:0:0:
192,192,75194,1,0,0:0:0:0:
320,192,75252,1,0,0:0:0:0:
448,192,75310,1,0,0:0:0:0:
64,192,75310,1,0,0:0:0:0:
192,192,75427,1,0,0:0:0:0:
320,192,75427,1,0,0:0:0:0:
64,192,75543,1,0,0:0:0:0:
448,192,75659,1,0,0:0:0:0:
192,192,75659,1,0,0:0:0:0:
320,192,75717,1,0,0:0:0:0:
192,192,75775,1,0,0:0:0:0:
64,192,75775,128,0,76008:0:0:0:0:
320,192,75892,1,0,0:0:0:0:
448,192,75892,1,0,0:0:0:0:
192,192,76008,1,0,0:0:0:0:
448,192,76008,1,0,0:0:0:0:
64,192,76124,1,0,0:0:0:0:
320,192,76124,1,0,0:0:0:0:
192,192,76182,1,0,0:0:0:0:
64,192,76241,1,0,0:0:0:0:
448,192,76241,1,0,0:0:0:0:
448,192,76357,1,0,0:0:0:0:
320,192,76357,128,0,76589:0:0:0:0:
192,192,76473,1,0,0:0:0:0:
64,192,76589,1,0,0:0:0:0:
448,192,76589,128,0,76822:0:0:0:0:
320,192,76648,1,0,0:0:0:0:
192,192,76706,1,0,0:0:0:0:
320,192,76822,1,0,0:0:0:0:
64,192,76822,1,0,0:0:0:0:
192,192,76938,1,0,0:0:0:0:
320,192,76938,1,0,0:0:0:0:
64,192,77055,1,0,0:0:0:0:
448,192,77055,1,0,0:0:0:0:
192,192,77113,1,0,0:0:0:0:
448,192,77171,1,0,0:0:0:0:
320,192,77171,1,0,0:0:0:0:
192,192,77287,1,0,0:0:0:0:
320,192,77287,1,0,0:0:0:0:
448,192,77403,1,0,0:0:0:0:
192,192,77520,1,0,0:0:0:0:
64,192,77520,1,0,0:0:0:0:
320,192,77578,1,0,0:0:0:0:
192,192,77636,1,0,0:0:0:0:
448,192,77636,128,0,77869:0:0:0:0:
320,192,77752,1,0,0:0:0:0:
192,192,77869,1,0,0:0:0:0:
64,192,77869,1,0,0:0:0:0:
448,192,77985,1,0,0:0:0:0:
320,192,77985,1,0,0:0:0:0:
192,192,78043,1,0,0:0:0:0:
64,192,78101,1,0,0:0:0:0:
320,192,78101,1,0,0:0:0:0:
64,192,78217,1,0,0:0:0:0:
448,192,78217,128,0,78450:0:0:0:0:
320,192,78334,1,0,0:0:0:0:
64,192,78450,128,0,78682:0:0:0:0:
192,192,78450,1,0,0:0:0:0:
320,192,78508,1,0,0:0:0:0:
448,192,78566,1,0,0:0:0:0:
192,192,78682,1,0,0:0:0:0:
320,192,78682,1,0,0:0:0:0:
192,192,78799,1,0,0:0:0:0:
320,192,78799,1,0,0:0:0:0:
64,192,78915,1,0,0:0:0:0:
448,192,78915,1,0,0:0:0:0:
320,192,78973,1,0,0:0:0:0:
64,192,79031,1,0,0:0:0:0:
192,192,79031,1,0,0:0:0:0:
448,192,79148,1,0,0:0:0:0:
320,192,79148,1,0,0:0:0:0:
192,192,79264,1,0,0:0:0:0:
64,192,79322,1,0,0:0:0:0:
320,192,79380,1,0,0:0:0:0:
64,192,79438,1,0,0:0:0:0:
320,192,79496,1,0,0:0:0:0:
448,192,79496,1,0,0:0:0:0:
64,192,79613,1,0,0:0:0:0:
192,192,79613,1,0,0:0:0:0:
448,192,79613,1,0,0:0:0:0:
64,192,79729,1,0,0:0:0:0:
320,192,79729,1,0,0:0:0:0:
192,192,79787,1,0,0:0:0:0:
448,192,79845,1,0,0:0:0:0:
320,192,79845,1,0,0:0:0:0:
64,192,79903,1,0,0:0:0:0:
192,192,79962,1,0,0:0:0:0:
448,192,79962,1,0,0:0:0:0:
320,192,80078,1,0,0:0:0:0:
64,192,80078,1,0,0:0:0:0:
192,192,80136,1,0,0:0:0:0:
448,192,80194,1,0,0:0:0:0:
320,192,80194,1,0,0:0:0:0:
64,192,80252,1,0,0:0:0:0:
192,192,80310,1,0,0:0:0:0:
320,192,80310,1,0,0:0:0:0:
64,192,80427,1,0,0:0:0:0:
320,192,80543,1,0,0:0:0:0:
448,192,80543,1,0,0:0:0:0:
192,192,80601,1,0,0:0:0:0:
64,192,80601,1,0,0:0:0:0:
320,192,80659,1,0,0:0:0:0:
448,192,80659,1,0,0:0:0:0:
192,192,80717,1,0,0:0:0:0:
64,192,80717,1,0,0:0:0:0:
320,192,80775,1,0,0:0:0:0:
448,192,80775,1,0,0:0:0:0:
64,192,80892,1,0,0:0:0:0:
192,192,80892,1,0,0:0:0:0:
448,192,80892,128,0,81124:0:0:0:0:
192,192,81124,1,0,0:0:0:0:
320,192,81124,1,0,0:0:0:0:
320,192,81241,1,0,0:0:0:0:
448,192,81241,1,0,0:0:0:0:
64,192,81241,128,0,81473:0:0:0:0:
192,192,81473,1,0,0:0:0:0:
320,192,81473,1,0,0:0:0:0:
448,192,81473,1,0,0:0:0:0:
64,192,81531,1,0,0:0:0:0:
192,192,81589,1,0,0:0:0:0:
448,192,81589,1,0,0:0:0:0:
320,192,81648,1,0,0:0:0:0:
64,192,81706,1,0,0:0:0:0:
448,192,81822,1,0,0:0:0:0:
192,192,81822,1,0,0:0:0:0:
320,192,81822,128,0,82055:0:0:0:0:
192,192,82055,1,0,0:0:0:0:
64,192,82055,1,0,0:0:0:0:
320,192,82171,1,0,0:0:0:0:
448,192,82171,1,0,0:0:0:0:
192,192,82171,128,0,82403:0:0:0:0:
320,192,82403,128,0,82520:0:0:0:0:
64,192,82403,1,0,0:0:0:0:
448,192,82520,128,0,82636:0:0:0:0:
320,192,82636,128,0,82752:0:0:0:0:
448,192,82752,128,0,82869:0:0:0:0:
64,192,82752,1,0,0:0:0:0:
320,192,82869,128,0,82985:0:0:0:0:
64,192,83217,1,0,0:0:0:0:
192,192,83334,1,0,0:0:0:0:
320,192,83334,1,0,0:0:0:0:
64,192,83334,128,0,83450:0:0:0:0:
448,192,83450,128,0,83566:0:0:0:0:
320,192,83566,128,0,83682:0:0:0:0:
192,192,83682,128,0,83799:0:0:0:0:
64,192,83682,1,0,0:0:0:0:
448,192,83799,128,0,83915:0:0:0:0:
64,192,84031,1,0,0:0:0:0:
64,192,84264,1,0,0:0:0:0:
448,192,84264,128,0,84380:0:0:0:0:
320,192,84380,128,0,84496:0:0:0:0:
64,192,84496,1,0,0:0:0:0:
448,192,84496,128,0,84613:0:0:0:0:
64,192,84613,1,0,0:0:0:0:
320,192,84613,128,0,84729:0:0:0:0:
192,192,84729,128,0,84845:0:0:0:0:
448,192,85078,1,0,0:0:0:0:
320,192,85194,1,0,0:0:0:0:
448,192,85194,1,0,0:0:0:0:
192,192,85194,128,0,85310:0:0:0:0:
64,192,85310,128,0,85427:0:0:0:0:
320,192,85427,128,0,85543:0:0:0:0:
448,192,85543,128,0,85659:0:0:0:0:
64,192,85543,1,0,0:0:0:0:
192,192,85659,128,0,85775:0:0:0:0:
64,192,85775,1,0,0:0:0:0:
64,192,85892,1,0,0:0:0:0:
320,192,86124,1,0,0:0:0:0:
448,192,86124,128,0,87462:0:0:0:0:
320,192,86241,1,0,0:0:0:0:
64,192,86241,128,0,86357:0:0:0:0:
192,192,86357,128,0,86473:0:0:0:0:
64,192,86473,128,0,86589:0:0:0:0:
320,192,86473,1,0,0:0:0:0:
192,192,86589,128,0,86706:0:0:0:0:
64,192,86938,1,0,0:0:0:0:
64,192,87055,1,0,0:0:0:0:
320,192,87055,1,0,0:0:0:0:
192,192,87055,128,0,87578:0:0:0:0:
64,192,87287,1,0,0:0:0:0:
64,192,87520,1,0,0:0:0:0:
448,192,87520,128,0,87752:0:0:0:0:
320,192,87520,128,0,87636:0:0:0:0:
192,192,87636,128,0,87752:0:0:0:0:
320,192,87752,128,0,87810:0:0:0:0:
192,192,87810,128,0,87869:0:0:0:0:
448,192,87869,128,0,87927:0:0:0:0:
320,192,87927,128,0,87985:0:0:0:0:
64,192,87985,1,0,0:0:0:0:
192,192,87985,1,0,0:0:0:0:
448,192,88101,1,0,0:0:0:0:
320,192,88101,1,0,0:0:0:0:
192,192,88159,1,0,0:0:0:0:
64,192,88159,1,0,0:0:0:0:
448,192,88217,1,0,0:0:0:0:
320,192,88217,1,0,0:0:0:0:
64,192,88275,1,0,0:0:0:0:
320,192,88334,1,0,0:0:0:0:
192,192,88334,1,0,0:0:0:0:
448,192,88334,1,0,0:0:0:0:
320,192,88566,1,0,0:0:0:0:
448,192,88566,1,0,0:0:0:0:
64,192,88682,1,0,0:0:0:0:
192,192,88682,1,0,0:0:0:0:
448,192,88682,1,0,0:0:0:0:
192,192,88915,1,0,0:0:0:0:
320,192,88915,1,0,0:0:0:0:
448,192,88915,1,0,0:0:0:0:
320,192,89031,1,0,0:0:0:0:
64,192,89031,1,0,0:0:0:0:
192,192,89148,1,0,0:0:0:0:
64,192,89206,1,0,0:0:0:0:
320,192,89264,1,0,0:0:0:0:
448,192,89264,1,0,0:0:0:0:
320,192,89380,1,0,0:0:0:0:
448,192,89380,1,0,0:0:0:0:
64,192,89496,1,0,0:0:0:0:
192,192,89555,1,0,0:0:0:0:
64,192,89613,1,0,0:0:0:0:
320,192,89613,1,0,0:0:0:0:
448,192,89613,1,0,0:0:0:0:
64,192,89845,1,0,0:0:0:0:
192,192,89845,1,0,0:0:0:0:
448,192,89845,1,0,0:0:0:0:
320,192,89962,1,0,0:0:0:0:
448,192,89962,1,0,0:0:0:0:
192,192,90078,1,0,0:0:0:0:
320,192,90078,1,0,0:0:0:0:
64,192,90194,1,0,0:0:0:0:
448,192,90194,1,0,0:0:0:0:
64,192,90310,1,0,0:0:0:0:
192,192,90310,1,0,0:0:0:0:
320,192,90427,1,0,0:0:0:0:
448,192,90427,1,0,0:0:0:0:
192,192,90543,1,0,0:0:0:0:
448,192,90543,1,0,0:0:0:0:
64,192,90659,128,0,90892:0:0:0:0:
320,192,90659,1,0,0:0:0:0:
192,192,90775,1,0,0:0:0:0:
448,192,90775,1,0,0:0:0:0:
320,192,90892,1,0,0:0:0:0:
448,192,90892,128,0,91008:0:0:0:0:
192,192,91008,1,0,0:0:0:0:
320,192,91008,128,0,91124:0:0:0:0:
64,192,91124,1,0,0:0:0:0:
192,192,91124,128,0,91241:0:0:0:0:
64,192,91241,1,0,0:0:0:0:
448,192,91241,128,0,91473:0:0:0:0:
192,192,91357,1,0,0:0:0:0:
320,192,91357,1,0,0:0:0:0:
64,192,91473,1,0,0:0:0:0:
320,192,91473,1,0,0:0:0:0:
192,192,91589,1,0,0:0:0:0:
448,192,91589,1,0,0:0:0:0:
448,192,91706,1,0,0:0:0:0:
320,192,91706,1,0,0:0:0:0:
192,192,91822,1,0,0:0:0:0:
64,192,91822,1,0,0:0:0:0:
320,192,91938,1,0,0:0:0:0:
192,192,91938,1,0,0:0:0:0:
448,192,92055,1,0,0:0:0:0:
64,192,92055,1,0,0:0:0:0:
448,192,92171,1,0,0:0:0:0:
320,192,92171,1,0,0:0:0:0:
192,192,92287,1,0,0:0:0:0:
64,192,92287,1,0,0:0:0:0:
320,192,92403,1,0,0:0:0:0:
64,192,92403,1,0,0:0:0:0:
448,192,92520,128,0,92752:0:0:0:0:
192,192,92520,1,0,0:0:0:0:
320,192,92636,1,0,0:0:0:0:
64,192,92636,1,0,0:0:0:0:
192,192,92752,1,0,0:0:0:0:
64,192,92752,128,0,92869:0:0:0:0:
320,192,92869,1,0,0:0:0:0:
192,192,92869,128,0,92985:0:0:0:0:
448,192,92985,1,0,0:0:0:0:
320,192,92985,128,0,93101:0:0:0:0:
448,192,93101,1,0,0:0:0:0:
64,192,93101,128,0,93334:0:0:0:0:
320,192,93217,1,0,0:0:0:0:
192,192,93217,1,0,0:0:0:0:
448,192,93334,1,0,0:0:0:0:
192,192,93334,1,0,0:0:0:0:
320,192,93450,1,0,0:0:0:0:
64,192,93450,1,0,0:0:0:0:
320,192,93566,1,0,0:0:0:0:
448,192,93566,1,0,0:0:0:0:
320,192,93682,1,0,0:0:0:0:
192,192,93682,1,0,0:0:0:0:
192,192,93799,1,0,0:0:0:0:
64,192,93799,1,0,0:0:0:0:
320,192,93915,1,0,0:0:0:0:
448,192,93915,1,0,0:0:0:0:
64,192,94031,1,0,0:0:0:0:
448,192,94031,1,0,0:0:0:0:
320,192,94148,1,0,0:0:0:0:
192,192,94148,1,0,0:0:0:0:
320,192,94264,1,0,0:0:0:0:
64,192,94264,1,0,0:0:0:0:
192,192,94380,1,0,0:0:0:0:
448,192,94380,128,0,94613:0:0:0:0:
320,192,94496,1,0,0:0:0:0:
64,192,94496,1,0,0:0:0:0:
320,192,94613,128,0,94729:0:0:0:0:
192,192,94613,1,0,0:0:0:0:
192,192,94729,128,0,94845:0:0:0:0:
64,192,94729,1,0,0:0:0:0:
64,192,94845,128,0,94962:0:0:0:0:
448,192,94845,1,0,0:0:0:0:
320,192,94962,128,0,95194:0:0:0:0:
448,192,94962,1,0,0:0:0:0:
192,192,95078,1,0,0:0:0:0:
64,192,95078,1,0,0:0:0:0:
192,192,95194,1,0,0:0:0:0:
448,192,95194,1,0,0:0:0:0:
320,192,95310,1,0,0:0:0:0:
64,192,95310,1,0,0:0:0:0:
64,192,95427,1,0,0:0:0:0:
192,192,95427,1,0,0:0:0:0:
448,192,95427,1,0,0:0:0:0:
192,192,95543,1,0,0:0:0:0:
320,192,95543,1,0,0:0:0:0:
320,192,95659,1,0,0:0:0:0:
192,192,95659,1,0,0:0:0:0:
64,192,95775,1,0,0:0:0:0:
448,192,95775,1,0,0:0:0:0:
320,192,95775,1,0,0:0:0:0:
192,192,96008,1,0,0:0:0:0:
448,192,96008,1,0,0:0:0:0:
64,192,96124,1,0,0:0:0:0:
320,192,96124,1,0,0:0:0:0:
192,192,96124,1,0,0:0:0:0:
320,192,96241,1,0,0:0:0:0:
64,192,96241,1,0,0:0:0:0:
64,192,96357,1,0,0:0:0:0:
192,192,96357,1,0,0:0:0:0:
448,192,96357,1,0,0:0:0:0:
320,192,96415,1,0,0:0:0:0:
192,192,96473,1,0,0:0:0:0:
448,192,96473,1,0,0:0:0:0:
320,192,96531,1,0,0:0:0:0:
64,192,96589,1,0,0:0:0:0:
192,192,96706,1,0,0:0:0:0:
448,192,96706,1,0,0:0:0:0:
320,192,96706,128,0,96938:0:0:0:0:
64,192,96938,1,0,0:0:0:0:
448,192,96938,1,0,0:0:0:0:
192,192,97055,1,0,0:0:0:0:
320,192,97055,1,0,0:0:0:0:
448,192,97055,128,0,97287:0:0:0:0:
192,192,97287,1,0,0:0:0:0:
320,192,97287,1,0,0:0:0:0:
64,192,97287,128,0,99089:0:0:0:0:
192,192,98682,128,0,98799:0:0:0:0:
448,192,98799,1,0,0:0:0:0:
192,192,98857,1,0,0:0:0:0:
320,192,98915,1,0,0:0:0:0:
448,192,98915,128,0,99031:0:0:0:0:
320,192,99148,1,0,0:0:0:0:
448,192,99148,1,0,0:0:0:0:
64,192,99148,1,0,0:0:0:0:
448,192,99264,1,0,0:0:0:0:
192,192,99264,128,0,99613:0:0:0:0:
64,192,99845,128,0,100078:0:0:0:0:
192,192,100078,1,0,0:0:0:0:
320,192,100078,1,0,0:0:0:0:
448,192,100078,128,0,100194:0:0:0:0:
320,192,100194,1,0,0:0:0:0:
192,192,100194,1,0,0:0:0:0:
64,192,100194,128,0,100310:0:0:0:0:
448,192,100427,128,0,100717:0:0:0:0:
320,192,100427,1,0,0:0:0:0:
192,192,100427,1,0,0:0:0:0:
64,192,100543,1,0,0:0:0:0:
192,192,100601,1,0,0:0:0:0:
320,192,100659,1,0,0:0:0:0:
64,192,100659,1,0,0:0:0:0:
192,192,100717,1,0,0:0:0:0:
448,192,100775,1,0,0:0:0:0:
320,192,100775,128,0,101008:0:0:0:0:
192,192,101008,1,0,0:0:0:0:
64,192,101008,128,0,101473:0:0:0:0:
448,192,101008,128,0,101473:0:0:0:0:
192,192,101241,1,0,0:0:0:0:
320,192,101241,1,0,0:0:0:0:
192,192,101357,1,0,0:0:0:0:
320,192,101357,1,0,0:0:0:0:
320,192,101473,1,0,0:0:0:0:
192,192,101473,1,0,0:0:0:0:
320,192,101589,1,0,0:0:0:0:
192,192,101589,1,0,0:0:0:0:
64,192,101706,1,0,0:0:0:0:
448,192,101706,1,0,0:0:0:0:
448,192,101822,1,0,0:0:0:0:
64,192,101822,1,0,0:0:0:0:
64,192,101938,1,0,0:0:0:0:
320,192,101938,1,0,0:0:0:0:
192,192,101938,1,0,0:0:0:0:
192,192,102055,1,0,0:0:0:0:
448,192,102055,1,0,0:0:0:0:
448,192,102171,1,0,0:0:0:0:
320,192,102171,1,0,0:0:0:0:
64,192,102171,1,0,0:0:0:0:
192,192,102287,1,0,0:0:0:0:
64,192,102287,1,0,0:0:0:0:
192,192,102403,1,0,0:0:0:0:
320,192,102403,1,0,0:0:0:0:
448,192,102403,1,0,0:0:0:0:
448,192,102520,1,0,0:0:0:0:
64,192,102520,1,0,0:0:0:0:
64,192,102636,1,0,0:0:0:0:
320,192,102636,1,0,0:0:0:0:
192,192,102636,1,0,0:0:0:0:
448,192,102694,1,0,0:0:0:0:
320,192,102752,1,0,0:0:0:0:
448,192,102810,1,0,0:0:0:0:
64,192,102869,1,0,0:0:0:0:
192,192,102869,1,0,0:0:0:0:
320,192,103799,1,0,0:0:0:0:
448,192,103799,1,0,0:0:0:0:
192,192,103857,1,0,0:0:0:0:
320,192,103915,1,0,0:0:0:0:
448,192,103915,1,0,0:0:0:0:
64,192,103973,1,0,0:0:0:0:
192,192,104031,1,0,0:0:0:0:
320,192,104089,1,0,0:0:0:0:
64,192,104148,1,0,0:0:0:0:
192,192,104148,1,0,0:0:0:0:
448,192,104206,1,0,0:0:0:0:
64,192,104264,1,0,0:0:0:0:
192,192,104264,1,0,0:0:0:0:
320,192,104322,1,0,0:0:0:0:
64,192,104380,1,0,0:0:0:0:
448,192,104380,1,0,0:0:0:0:
192,192,104438,1,0,0:0:0:0:
448,192,104496,1,0,0:0:0:0:
320,192,104496,1,0,0:0:0:0:
64,192,104962,1,0,0:0:0:0:
192,192,104962,1,0,0:0:0:0:
448,192,104962,1,0,0:0:0:0:
192,192,105078,1,0,0:0:0:0:
320,192,105078,1,0,0:0:0:0:
64,192,105194,1,0,0:0:0:0:
192,192,105252,1,0,0:0:0:0:
448,192,105310,1,0,0:0:0:0:
320,192,105310,1,0,0:0:0:0:
64,192,105427,1,0,0:0:0:0:
192,192,105427,1,0,0:0:0:0:
320,192,105543,1,0,0:0:0:0:
448,192,105543,1,0,0:0:0:0:
448,192,105659,1,0,0:0:0:0:
320,192,105717,1,0,0:0:0:0:
192,192,105775,1,0,0:0:0:0:
64,192,105775,1,0,0:0:0:0:
448,192,105892,1,0,0:0:0:0:
320,192,105892,1,0,0:0:0:0:
64,192,106008,1,0,0:0:0:0:
192,192,106008,1,0,0:0:0:0:
64,192,106124,1,0,0:0:0:0:
192,192,106182,1,0,0:0:0:0:
320,192,106241,1,0,0:0:0:0:
448,192,106241,1,0,0:0:0:0:
64,192,106357,1,0,0:0:0:0:
192,192,106357,1,0,0:0:0:0:
320,192,106357,1,0,0:0:0:0:
448,192,106473,1,0,0:0:0:0:
320,192,106473,1,0,0:0:0:0:
64,192,106589,1,0,0:0:0:0:
192,192,106589,1,0,0:0:0:0:
448,192,106589,1,0,0:0:0:0:
320,192,106648,1,0,0:0:0:0:
192,192,106706,1,0,0:0:0:0:
64,192,106822,1,0,0:0:0:0:
320,192,106822,1,0,0:0:0:0:
448,192,106822,1,0,0:0:0:0:
192,192,106938,1,0,0:0:0:0:
320,192,106938,1,0,0:0:0:0:
64,192,107055,1,0,0:0:0:0:
192,192,107113,1,0,0:0:0:0:
320,192,107171,1,0,0:0:0:0:
448,192,107171,1,0,0:0:0:0:
192,192,107287,1,0,0:0:0:0:
448,192,107287,1,0,0:0:0:0:
64,192,107403,1,0,0:0:0:0:
320,192,107403,1,0,0:0:0:0:
320,192,107520,1,0,0:0:0:0:
448,192,107520,1,0,0:0:0:0:
64,192,107520,1,0,0:0:0:0:
192,192,107578,1,0,0:0:0:0:
320,192,107636,1,0,0:0:0:0:
64,192,107752,1,0,0:0:0:0:
448,192,107752,1,0,0:0:0:0:
192,192,107752,1,0,0:0:0:0:
320,192,107868,1,0,0:0:0:0:
64,192,107985,1,0,0:0:0:0:
320,192,107985,1,0,0:0:0:0:
448,192,107985,1,0,0:0:0:0:
192,192,108043,1,0,0:0:0:0:
320,192,108101,1,0,0:0:0:0:
448,192,108101,1,0,0:0:0:0:
192,192,108217,1,0,0:0:0:0:
64,192,108217,1,0,0:0:0:0:
448,192,108334,1,0,0:0:0:0:
320,192,108334,1,0,0:0:0:0:
64,192,108450,1,0,0:0:0:0:
192,192,108450,1,0,0:0:0:0:
448,192,108450,1,0,0:0:0:0:
320,192,108508,1,0,0:0:0:0:
192,192,108566,1,0,0:0:0:0:
64,192,108682,1,0,0:0:0:0:
320,192,108682,1,0,0:0:0:0:
448,192,108682,128,0,109729:0:0:0:0:
64,192,108799,1,0,0:0:0:0:
192,192,108799,1,0,0:0:0:0:
320,192,108915,1,0,0:0:0:0:
64,192,108973,1,0,0:0:0:0:
192,192,109031,1,0,0:0:0:0:
320,192,109031,1,0,0:0:0:0:
192,192,109148,1,0,0:0:0:0:
64,192,109148,1,0,0:0:0:0:
192,192,109264,1,0,0:0:0:0:
320,192,109264,1,0,0:0:0:0:
64,192,109380,1,0,0:0:0:0:
320,192,109438,1,0,0:0:0:0:
64,192,109496,1,0,0:0:0:0:
192,192,109496,1,0,0:0:0:0:
192,192,109613,1,0,0:0:0:0:
320,192,109613,1,0,0:0:0:0:
64,192,109729,1,0,0:0:0:0:
320,192,109729,1,0,0:0:0:0:
192,192,109845,1,0,0:0:0:0:
64,192,109845,1,0,0:0:0:0:
320,192,109903,1,0,0:0:0:0:
448,192,109962,1,0,0:0:0:0:
192,192,109962,1,0,0:0:0:0:
64,192,110078,1,0,0:0:0:0:
320,192,110078,1,0,0:0:0:0:
192,192,110078,1,0,0:0:0:0:
320,192,110194,1,0,0:0:0:0:
448,192,110194,1,0,0:0:0:0:
64,192,110310,1,0,0:0:0:0:
192,192,110310,1,0,0:0:0:0:
448,192,110310,1,0,0:0:0:0:
320,192,110368,1,0,0:0:0:0:
64,192,110427,1,0,0:0:0:0:
448,192,110427,1,0,0:0:0:0:
192,192,110485,1,0,0:0:0:0:
320,192,110543,1,0,0:0:0:0:
448,192,110543,1,0,0:0:0:0:
64,192,110543,1,0,0:0:0:0:
192,192,110659,1,0,0:0:0:0:
320,192,110659,1,0,0:0:0:0:
448,192,110717,1,0,0:0:0:0:
64,192,110775,1,0,0:0:0:0:
192,192,110775,1,0,0:0:0:0:
320,192,110834,1,0,0:0:0:0:
448,192,110892,1,0,0:0:0:0:
64,192,110892,1,0,0:0:0:0:
192,192,111124,1,0,0:0:0:0:
320,192,111124,1,0,0:0:0:0:
320,192,111241,1,0,0:0:0:0:
448,192,111241,128,0,111473:0:0:0:0:
192,192,111357,1,0,0:0:0:0:
64,192,111357,1,0,0:0:0:0:
192,192,111473,1,0,0:0:0:0:
320,192,111473,128,0,111706:0:0:0:0:
64,192,111589,1,0,0:0:0:0:
448,192,111589,1,0,0:0:0:0:
192,192,111706,128,0,111822:0:0:0:0:
64,192,111706,1,0,0:0:0:0:
448,192,111706,1,0,0:0:0:0:
64,192,111822,128,0,111938:0:0:0:0:
448,192,111822,1,0,0:0:0:0:
320,192,111880,1,0,0:0:0:0:
192,192,111938,1,0,0:0:0:0:
448,192,111977,1,0,0:0:0:0:
64,192,112035,1,0,0:0:0:0:
448,192,112093,1,0,0:0:0:0:
192,192,112132,1,0,0:0:0:0:
320,192,112171,1,0,0:0:0:0:
64,192,112171,128,0,112403:0:0:0:0:
192,192,112403,1,0,0:0:0:0:
448,192,112403,1,0,0:0:0:0:
320,192,112403,128,0,112636:0:0:0:0:
448,192,112636,1,0,0:0:0:0:
64,192,112636,1,0,0:0:0:0:
320,192,112752,1,0,0:0:0:0:
448,192,112752,1,0,0:0:0:0:
192,192,112868,1,0,0:0:0:0:
64,192,112868,1,0,0:0:0:0:
64,192,112985,1,0,0:0:0:0:
320,192,112985,1,0,0:0:0:0:
192,192,113101,1,0,0:0:0:0:
448,192,113101,1,0,0:0:0:0:
192,192,113217,1,0,0:0:0:0:
320,192,113217,1,0,0:0:0:0:
64,192,113334,1,0,0:0:0:0:
320,192,113334,1,0,0:0:0:0:
64,192,113450,1,0,0:0:0:0:
192,192,113450,1,0,0:0:0:0:
320,192,113566,1,0,0:0:0:0:
448,192,113566,1,0,0:0:0:0:
192,192,113682,1,0,0:0:0:0:
320,192,113682,1,0,0:0:0:0:
64,192,113799,1,0,0:0:0:0:
192,192,113799,1,0,0:0:0:0:
448,192,113799,1,0,0:0:0:0:
64,192,113915,1,0,0:0:0:0:
320,192,113915,1,0,0:0:0:0:
64,192,114031,1,0,0:0:0:0:
448,192,114031,1,0,0:0:0:0:
192,192,114031,1,0,0:0:0:0:
448,192,114148,1,0,0:0:0:0:
320,192,114148,1,0,0:0:0:0:
64,192,114264,1,0,0:0:0:0:
448,192,114264,1,0,0:0:0:0:
192,192,114264,1,0,0:0:0:0:
192,192,114380,1,0,0:0:0:0:
320,192,114380,1,0,0:0:0:0:
64,192,114496,1,0,0:0:0:0:
192,192,114496,1,0,0:0:0:0:
320,192,114613,1,0,0:0:0:0:
448,192,114613,1,0,0:0:0:0:
192,192,114729,1,0,0:0:0:0:
320,192,114729,1,0,0:0:0:0:
320,192,114845,1,0,0:0:0:0:
448,192,114845,1,0,0:0:0:0:
192,192,114962,1,0,0:0:0:0:
320,192,114962,1,0,0:0:0:0:
64,192,114962,1,0,0:0:0:0:
64,192,115078,1,0,0:0:0:0:
448,192,115078,1,0,0:0:0:0:
192,192,115194,1,0,0:0:0:0:
320,192,115194,1,0,0:0:0:0:
448,192,115194,1,0,0:0:0:0:
64,192,115310,1,0,0:0:0:0:
192,192,115310,1,0,0:0:0:0:
64,192,115427,1,0,0:0:0:0:
320,192,115427,1,0,0:0:0:0:
448,192,115427,1,0,0:0:0:0:
64,192,115543,1,0,0:0:0:0:
192,192,115543,1,0,0:0:0:0:
448,192,115543,1,0,0:0:0:0:
192,192,115659,1,0,0:0:0:0:
320,192,115659,1,0,0:0:0:0:
64,192,115775,1,0,0:0:0:0:
320,192,115775,1,0,0:0:0:0:
448,192,115892,1,0,0:0:0:0:
64,192,115892,1,0,0:0:0:0:
192,192,115892,1,0,0:0:0:0:
192,192,116008,1,0,0:0:0:0:
320,192,116008,1,0,0:0:0:0:
64,192,116124,1,0,0:0:0:0:
320,192,116124,1,0,0:0:0:0:
448,192,116124,1,0,0:0:0:0:
192,192,116241,1,0,0:0:0:0:
448,192,116241,1,0,0:0:0:0:
192,192,116357,1,0,0:0:0:0:
320,192,116357,1,0,0:0:0:0:
64,192,116473,1,0,0:0:0:0:
320,192,116473,1,0,0:0:0:0:
192,192,116589,1,0,0:0:0:0:
320,192,116589,1,0,0:0:0:0:
192,192,116706,1,0,0:0:0:0:
448,192,116706,1,0,0:0:0:0:
192,192,116822,1,0,0:0:0:0:
320,192,116822,1,0,0:0:0:0:
64,192,116938,1,0,0:0:0:0:
320,192,116938,1,0,0:0:0:0:
192,192,117055,1,0,0:0:0:0:
320,192,117055,1,0,0:0:0:0:
448,192,117113,1,0,0:0:0:0:
64,192,117171,1,0,0:0:0:0:
192,192,117229,1,0,0:0:0:0:
320,192,117287,1,0,0:0:0:0:
448,192,117287,1,0,0:0:0:0:
64,192,117345,1,0,0:0:0:0:
192,192,117403,1,0,0:0:0:0:
448,192,117462,1,0,0:0:0:0:
320,192,117520,1,0,0:0:0:0:
64,192,117520,1,0,0:0:0:0:
192,192,117578,1,0,0:0:0:0:
448,192,117636,1,0,0:0:0:0:
320,192,117694,1,0,0:0:0:0:
448,192,117752,1,0,0:0:0:0:
192,192,117752,1,0,0:0:0:0:
64,192,117810,1,0,0:0:0:0:
320,192,117868,1,0,0:0:0:0:
192,192,117927,1,0,0:0:0:0:
64,192,117985,1,0,0:0:0:0:
320,192,117985,1,0,0:0:0:0:
448,192,117985,128,0,119729:0:0:0:0:
64,192,119729,128,0,120078:0:0:0:0:
448,192,120078,1,0,0:0:0:0:
320,192,120223,1,0,0:0:0:0:
192,192,120369,1,0,0:0:0:0:
64,192,120514,1,0,0:0:0:0:
320,192,120660,1,0,0:0:0:0:
64,192,120951,1,0,0:0:0:0:
448,192,121243,128,0,121679:0:0:0:0:
64,192,121679,1,0,0:0:0:0:
64,192,122116,1,0,0:0:0:0:
192,192,122262,1,0,0:0:0:0:
320,192,122408,128,0,122844:0:0:0:0:
192,192,122844,128,0,123281:0:0:0:0:
448,192,123281,128,0,123573:0:0:0:0:
320,192,123573,128,0,124738:0:0:0:0:
64,192,123573,1,0,0:0:0:0:
448,192,124738,1,0,0:0:0:0:
320,192,124883,1,0,0:0:0:0:
192,192,125029,1,0,0:0:0:0:
64,192,125175,1,0,0:0:0:0:
320,192,125320,1,0,0:0:0:0:
64,192,125611,1,0,0:0:0:0:
192,192,125903,128,0,126340:0:0:0:0:
64,192,126340,1,0,0:0:0:0:
64,192,126777,1,0,0:0:0:0:
192,192,126922,1,0,0:0:0:0:
448,192,127068,128,0,127505:0:0:0:0:
320,192,127505,128,0,127796:0:0:0:0:
320,192,127942,128,0,128233:0:0:0:0:
64,192,128233,128,0,128608:0:0:0:0:
448,192,128233,1,0,0:0:0:0:
448,192,128608,128,0,129108:0:0:0:0:
320,192,128733,1,0,0:0:0:0:
64,192,128733,128,0,129108:0:0:0:0:
192,192,128733,128,0,129108:0:0:0:0:
64,192,129222,1,0,0:0:0:0:
192,192,129222,1,0,0:0:0:0:
448,192,129222,128,0,129347:0:0:0:0:
320,192,129347,128,0,129472:0:0:0:0:
192,192,129472,128,0,129597:0:0:0:0:
64,192,129597,128,0,129722:0:0:0:0:
320,192,129722,128,0,129972:0:0:0:0:
192,192,129972,128,0,130222:0:0:0:0:
64,192,130222,1,0,0:0:0:0:
448,192,130222,128,0,130597:0:0:0:0:
320,192,130222,1,0,0:0:0:0:
320,192,130597,128,0,130847:0:0:0:0:
64,192,130972,128,0,131097:0:0:0:0:
192,192,131097,128,0,131222:0:0:0:0:
320,192,131222,1,0,0:0:0:0:
448,192,131222,128,0,131472:0:0:0:0:
64,192,131222,1,0,0:0:0:0:
192,192,131472,1,0,0:0:0:0:
320,192,131597,128,0,131847:0:0:0:0:
64,192,131722,1,0,0:0:0:0:
448,192,131722,1,0,0:0:0:0:
192,192,131722,1,0,0:0:0:0:
64,192,131847,1,0,0:0:0:0:
192,192,131972,128,0,132222:0:0:0:0:
448,192,132222,1,0,0:0:0:0:
64,192,132222,128,0,133097:0:0:0:0:
320,192,132222,1,0,0:0:0:0:
320,192,133222,1,0,0:0:0:0:
448,192,133222,128,0,133347:0:0:0:0:
64,192,133222,1,0,0:0:0:0:
192,192,133347,128,0,133472:0:0:0:0:
320,192,133472,128,0,133597:0:0:0:0:
64,192,133597,128,0,133722:0:0:0:0:
448,192,133722,128,0,133972:0:0:0:0:
192,192,133972,128,0,134222:0:0:0:0:
64,192,134222,1,0,0:0:0:0:
320,192,134222,128,0,134597:0:0:0:0:
448,192,134222,1,0,0:0:0:0:
192,192,134597,128,0,134847:0:0:0:0:
64,192,134972,128,0,135097:0:0:0:0:
192,192,135097,128,0,135222:0:0:0:0:
320,192,135222,1,0,0:0:0:0:
448,192,135222,128,0,135472:0:0:0:0:
64,192,135222,1,0,0:0:0:0:
192,192,135472,1,0,0:0:0:0:
320,192,135597,128,0,135847:0:0:0:0:
64,192,135722,1,0,0:0:0:0:
448,192,135722,1,0,0:0:0:0:
192,192,135722,1,0,0:0:0:0:
64,192,135847,1,0,0:0:0:0:
320,192,135972,128,0,136222:0:0:0:0:
192,192,136222,1,0,0:0:0:0:
64,192,136222,128,0,136472:0:0:0:0:
448,192,136347,1,0,0:0:0:0:
320,192,136409,1,0,0:0:0:0:
192,192,136472,1,0,0:0:0:0:
320,192,136534,1,0,0:0:0:0:
64,192,136597,1,0,0:0:0:0:
192,192,136659,1,0,0:0:0:0:
320,192,136722,1,0,0:0:0:0:
192,192,136784,1,0,0:0:0:0:
448,192,136847,1,0,0:0:0:0:
320,192,136909,1,0,0:0:0:0:
192,192,136972,1,0,0:0:0:0:
320,192,137034,1,0,0:0:0:0:
64,192,137097,1,0,0:0:0:0:
320,192,137196,1,0,0:0:0:0:
448,192,137196,1,0,0:0:0:0:
448,192,137311,1,0,0:0:0:0:
64,192,137311,1,0,0:0:0:0:
320,192,137426,1,0,0:0:0:0:
192,192,137426,1,0,0:0:0:0:
64,192,137542,1,0,0:0:0:0:
448,192,137542,1,0,0:0:0:0:
320,192,137657,1,0,0:0:0:0:
64,192,137657,1,0,0:0:0:0:
448,192,137772,1,0,0:0:0:0:
192,192,137772,1,0,0:0:0:0:
64,192,137888,1,0,0:0:0:0:
320,192,137888,1,0,0:0:0:0:
448,192,138003,1,0,0:0:0:0:
192,192,138003,1,0,0:0:0:0:
320,192,138119,1,0,0:0:0:0:
64,192,138119,128,0,138234:0:0:0:0:
320,192,138234,1,0,0:0:0:0:
448,192,138349,1,0,0:0:0:0:
64,192,138465,1,0,0:0:0:0:
448,192,138465,128,0,138580:0:0:0:0:
64,192,138580,1,0,0:0:0:0:
192,192,138696,1,0,0:0:0:0:
448,192,138811,1,0,0:0:0:0:
320,192,138811,1,0,0:0:0:0:
64,192,138926,1,0,0:0:0:0:
192,192,138926,1,0,0:0:0:0:
320,192,139042,1,0,0:0:0:0:
448,192,139042,1,0,0:0:0:0:
192,192,139157,1,0,0:0:0:0:
448,192,139157,1,0,0:0:0:0:
320,192,139272,1,0,0:0:0:0:
64,192,139272,1,0,0:0:0:0:
64,192,139388,1,0,0:0:0:0:
192,192,139388,1,0,0:0:0:0:
320,192,139503,1,0,0:0:0:0:
448,192,139503,1,0,0:0:0:0:
192,192,139619,1,0,0:0:0:0:
448,192,139619,1,0,0:0:0:0:
64,192,139734,1,0,0:0:0:0:
320,192,139734,1,0,0:0:0:0:
192,192,139849,1,0,0:0:0:0:
448,192,139849,1,0,0:0:0:0:
64,192,139965,1,0,0:0:0:0:
320,192,139965,1,0,0:0:0:0:
64,192,140080,1,0,0:0:0:0:
192,192,140196,1,0,0:0:0:0:
320,192,140196,1,0,0:0:0:0:
192,192,140311,1,0,0:0:0:0:
320,192,140426,1,0,0:0:0:0:
448,192,140426,1,0,0:0:0:0:
448,192,140542,1,0,0:0:0:0:
64,192,140657,1,0,0:0:0:0:
192,192,140657,1,0,0:0:0:0:
192,192,140772,1,0,0:0:0:0:
320,192,140772,1,0,0:0:0:0:
448,192,140888,1,0,0:0:0:0:
320,192,140888,1,0,0:0:0:0:
64,192,140888,1,0,0:0:0:0:
192,192,141003,1,0,0:0:0:0:
320,192,141003,1,0,0:0:0:0:
64,192,141119,1,0,0:0:0:0:
448,192,141119,1,0,0:0:0:0:
192,192,141234,1,0,0:0:0:0:
64,192,141234,1,0,0:0:0:0:
320,192,141349,1,0,0:0:0:0:
448,192,141349,1,0,0:0:0:0:
192,192,141465,1,0,0:0:0:0:
64,192,141465,1,0,0:0:0:0:
448,192,141580,1,0,0:0:0:0:
320,192,141580,1,0,0:0:0:0:
64,192,141696,1,0,0:0:0:0:
448,192,141696,1,0,0:0:0:0:
320,192,141811,1,0,0:0:0:0:
192,192,141811,1,0,0:0:0:0:
192,192,141926,1,0,0:0:0:0:
448,192,142042,1,0,0:0:0:0:
448,192,142157,1,0,0:0:0:0:
64,192,142157,1,0,0:0:0:0:
64,192,142272,1,0,0:0:0:0:
192,192,142388,1,0,0:0:0:0:
64,192,142503,1,0,0:0:0:0:
320,192,142503,1,0,0:0:0:0:
192,192,142619,1,0,0:0:0:0:
448,192,142619,1,0,0:0:0:0:
320,192,142734,1,0,0:0:0:0:
448,192,142734,1,0,0:0:0:0:
64,192,142734,1,0,0:0:0:0:
192,192,142849,1,0,0:0:0:0:
320,192,142907,1,0,0:0:0:0:
192,192,142965,1,0,0:0:0:0:
320,192,143022,1,0,0:0:0:0:
192,192,143080,1,0,0:0:0:0:
64,192,143080,1,0,0:0:0:0:
448,192,143080,1,0,0:0:0:0:
192,192,143311,1,0,0:0:0:0:
320,192,143426,1,0,0:0:0:0:
448,192,143426,1,0,0:0:0:0:
64,192,143426,1,0,0:0:0:0:
64,192,143657,1,0,0:0:0:0:
448,192,143657,1,0,0:0:0:0:
320,192,143715,1,0,0:0:0:0:
192,192,143772,1,0,0:0:0:0:
320,192,143830,1,0,0:0:0:0:
192,192,143888,1,0,0:0:0:0:
64,192,143888,1,0,0:0:0:0:
448,192,143946,1,0,0:0:0:0:
320,192,144003,1,0,0:0:0:0:
192,192,144061,1,0,0:0:0:0:
320,192,144119,1,0,0:0:0:0:
448,192,144119,1,0,0:0:0:0:
192,192,144176,1,0,0:0:0:0:
64,192,144234,1,0,0:0:0:0:
448,192,144292,1,0,0:0:0:0:
320,192,144349,1,0,0:0:0:0:
192,192,144349,1,0,0:0:0:0:
64,192,144465,1,0,0:0:0:0:
192,192,144465,1,0,0:0:0:0:
320,192,144580,1,0,0:0:0:0:
448,192,144580,1,0,0:0:0:0:
448,192,144696,1,0,0:0:0:0:
64,192,144696,1,0,0:0:0:0:
320,192,144811,1,0,0:0:0:0:
192,192,144811,1,0,0:0:0:0:
64,192,144926,1,0,0:0:0:0:
448,192,144926,1,0,0:0:0:0:
320,192,145042,1,0,0:0:0:0:
64,192,145042,1,0,0:0:0:0:
448,192,145157,1,0,0:0:0:0:
192,192,145157,1,0,0:0:0:0:
64,192,145272,1,0,0:0:0:0:
320,192,145272,1,0,0:0:0:0:
448,192,145388,1,0,0:0:0:0:
192,192,145388,1,0,0:0:0:0:
320,192,145503,1,0,0:0:0:0:
64,192,145503,128,0,145619:0:0:0:0:
320,192,145619,1,0,0:0:0:0:
448,192,145734,1,0,0:0:0:0:
64,192,145849,1,0,0:0:0:0:
448,192,145849,128,0,145965:0:0:0:0:
64,192,145965,1,0,0:0:0:0:
192,192,146080,1,0,0:0:0:0:
448,192,146196,1,0,0:0:0:0:
320,192,146196,1,0,0:0:0:0:
64,192,146311,1,0,0:0:0:0:
192,192,146311,1,0,0:0:0:0:
320,192,146426,1,0,0:0:0:0:
448,192,146426,1,0,0:0:0:0:
192,192,146542,1,0,0:0:0:0:
448,192,146542,1,0,0:0:0:0:
320,192,146657,1,0,0:0:0:0:
64,192,146657,1,0,0:0:0:0:
64,192,146772,1,0,0:0:0:0:
192,192,146772,1,0,0:0:0:0:
320,192,146888,1,0,0:0:0:0:
448,192,146888,1,0,0:0:0:0:
192,192,147003,1,0,0:0:0:0:
448,192,147003,1,0,0:0:0:0:
64,192,147119,1,0,0:0:0:0:
320,192,147119,1,0,0:0:0:0:
192,192,147234,1,0,0:0:0:0:
448,192,147234,1,0,0:0:0:0:
64,192,147349,1,0,0:0:0:0:
320,192,147349,1,0,0:0:0:0:
64,192,147465,1,0,0:0:0:0:
192,192,147580,1,0,0:0:0:0:
320,192,147580,1,0,0:0:0:0:
192,192,147696,1,0,0:0:0:0:
320,192,147811,1,0,0:0:0:0:
448,192,147811,1,0,0:0:0:0:
448,192,147926,1,0,0:0:0:0:
64,192,148042,1,0,0:0:0:0:
320,192,148042,1,0,0:0:0:0:
192,192,148157,1,0,0:0:0:0:
448,192,148157,1,0,0:0:0:0:
448,192,148272,1,0,0:0:0:0:
320,192,148272,1,0,0:0:0:0:
64,192,148272,1,0,0:0:0:0:
192,192,148388,1,0,0:0:0:0:
64,192,148388,1,0,0:0:0:0:
192,192,148503,1,0,0:0:0:0:
448,192,148503,1,0,0:0:0:0:
320,192,148619,1,0,0:0:0:0:
64,192,148619,1,0,0:0:0:0:
320,192,148734,1,0,0:0:0:0:
448,192,148734,1,0,0:0:0:0:
192,192,148849,1,0,0:0:0:0:
64,192,148849,1,0,0:0:0:0:
448,192,148965,1,0,0:0:0:0:
320,192,148965,1,0,0:0:0:0:
64,192,149080,1,0,0:0:0:0:
448,192,149080,1,0,0:0:0:0:
320,192,149196,1,0,0:0:0:0:
192,192,149196,1,0,0:0:0:0:
192,192,149311,1,0,0:0:0:0:
448,192,149426,1,0,0:0:0:0:
448,192,149542,1,0,0:0:0:0:
64,192,149542,1,0,0:0:0:0:
64,192,149657,1,0,0:0:0:0:
192,192,149772,1,0,0:0:0:0:
64,192,149888,1,0,0:0:0:0:
320,192,149888,1,0,0:0:0:0:
192,192,150003,1,0,0:0:0:0:
448,192,150003,1,0,0:0:0:0:
320,192,150119,1,0,0:0:0:0:
448,192,150119,1,0,0:0:0:0:
64,192,150119,1,0,0:0:0:0:
192,192,150234,1,0,0:0:0:0:
320,192,150292,1,0,0:0:0:0:
192,192,150349,1,0,0:0:0:0:
320,192,150407,1,0,0:0:0:0:
192,192,150465,1,0,0:0:0:0:
64,192,150465,1,0,0:0:0:0:
448,192,150465,1,0,0:0:0:0:
192,192,150696,1,0,0:0:0:0:
320,192,150811,1,0,0:0:0:0:
448,192,150811,1,0,0:0:0:0:
64,192,150811,1,0,0:0:0:0:
192,192,150926,1,0,0:0:0:0:
64,192,151042,1,0,0:0:0:0:
448,192,151042,1,0,0:0:0:0:
320,192,151042,1,0,0:0:0:0:
192,192,151157,1,0,0:0:0:0:
64,192,151215,1,0,0:0:0:0:
192,192,151272,1,0,0:0:0:0:
320,192,151330,1,0,0:0:0:0:
448,192,151388,1,0,0:0:0:0:
192,192,151388,1,0,0:0:0:0:
64,192,151388,1,0,0:0:0:0:
64,192,151619,1,0,0:0:0:0:
448,192,151734,1,0,0:0:0:0:
64,192,151734,1,0,0:0:0:0:
192,192,151734,1,0,0:0:0:0:
320,192,151849,1,0,0:0:0:0:
192,192,151965,1,0,0:0:0:0:
64,192,151965,1,0,0:0:0:0:
448,192,151965,1,0,0:0:0:0:
320,192,152080,1,0,0:0:0:0:
192,192,152138,1,0,0:0:0:0:
320,192,152196,1,0,0:0:0:0:
192,192,152253,1,0,0:0:0:0:
320,192,152311,1,0,0:0:0:0:
64,192,152311,1,0,0:0:0:0:
448,192,152311,1,0,0:0:0:0:
192,192,152542,1,0,0:0:0:0:
64,192,152657,1,0,0:0:0:0:
448,192,152657,1,0,0:0:0:0:
320,192,152657,1,0,0:0:0:0:
192,192,152772,1,0,0:0:0:0:
192,192,152888,1,0,0:0:0:0:
448,192,152888,1,0,0:0:0:0:
64,192,152888,1,0,0:0:0:0:
320,192,153003,1,0,0:0:0:0:
192,192,153061,1,0,0:0:0:0:
320,192,153119,1,0,0:0:0:0:
192,192,153176,1,0,0:0:0:0:
64,192,153234,1,0,0:0:0:0:
320,192,153234,1,0,0:0:0:0:
448,192,153234,1,0,0:0:0:0:
320,192,153465,1,0,0:0:0:0:
64,192,153580,1,0,0:0:0:0:
192,192,153580,1,0,0:0:0:0:
320,192,153696,1,0,0:0:0:0:
192,192,153696,1,0,0:0:0:0:
448,192,153811,1,0,0:0:0:0:
320,192,153811,1,0,0:0:0:0:
64,192,153811,1,0,0:0:0:0:
448,192,153926,1,0,0:0:0:0:
192,192,153926,1,0,0:0:0:0:
320,192,154042,1,0,0:0:0:0:
320,192,154157,1,0,0:0:0:0:
64,192,154157,1,0,0:0:0:0:
448,192,154157,1,0,0:0:0:0:
192,192,154272,1,0,0:0:0:0:
192,192,154388,1,0,0:0:0:0:
448,192,154388,1,0,0:0:0:0:
64,192,154503,1,0,0:0:0:0:
320,192,154503,1,0,0:0:0:0:
448,192,154503,1,0,0:0:0:0:
64,192,154619,1,0,0:0:0:0:
448,192,154734,1,0,0:0:0:0:
320,192,154734,1,0,0:0:0:0:
192,192,154734,1,0,0:0:0:0:
448,192,154849,1,0,0:0:0:0:
64,192,154849,1,0,0:0:0:0:
320,192,154965,1,0,0:0:0:0:
192,192,155080,1,0,0:0:0:0:
320,192,155080,1,0,0:0:0:0:
64,192,155196,1,0,0:0:0:0:
64,192,155311,1,0,0:0:0:0:
448,192,155311,1,0,0:0:0:0:
320,192,155426,1,0,0:0:0:0:
192,192,155426,1,0,0:0:0:0:
448,192,155542,1,0,0:0:0:0:
64,192,155542,1,0,0:0:0:0:
192,192,155657,1,0,0:0:0:0:
448,192,155657,1,0,0:0:0:0:
320,192,155657,1,0,0:0:0:0:
64,192,155657,1,0,0:0:0:0:
320,192,155772,1,0,0:0:0:0:
192,192,155772,1,0,0:0:0:0:
64,192,155888,1,0,0:0:0:0:
320,192,156003,1,0,0:0:0:0:
64,192,156003,1,0,0:0:0:0:
448,192,156003,1,0,0:0:0:0:
192,192,156119,1,0,0:0:0:0:
192,192,156234,1,0,0:0:0:0:
448,192,156234,1,0,0:0:0:0:
64,192,156349,1,0,0:0:0:0:
320,192,156349,1,0,0:0:0:0:
448,192,156349,1,0,0:0:0:0:
192,192,156465,1,0,0:0:0:0:
448,192,156580,1,0,0:0:0:0:
64,192,156580,1,0,0:0:0:0:
192,192,156580,1,0,0:0:0:0:
448,192,156696,1,0,0:0:0:0:
64,192,156696,1,0,0:0:0:0:
320,192,156753,1,0,0:0:0:0:
192,192,156811,1,0,0:0:0:0:
64,192,156811,1,0,0:0:0:0:
448,192,156869,1,0,0:0:0:0:
320,192,156926,1,0,0:0:0:0:
192,192,156926,1,0,0:0:0:0:
64,192,156984,1,0,0:0:0:0:
448,192,157042,1,0,0:0:0:0:
320,192,157042,1,0,0:0:0:0:
192,192,157099,1,0,0:0:0:0:
448,192,157157,1,0,0:0:0:0:
64,192,157157,1,0,0:0:0:0:
320,192,157215,1,0,0:0:0:0:
192,192,157272,1,0,0:0:0:0:
64,192,157272,1,0,0:0:0:0:
320,192,157330,1,0,0:0:0:0:
448,192,157388,1,0,0:0:0:0:
192,192,157446,1,0,0:0:0:0:
320,192,157503,1,0,0:0:0:0:
448,192,157503,128,0,160272:0:0:0:0:
64,192,157503,1,0,0:0:0:0:
64,192,158426,128,0,158657:0:0:0:0:
64,192,159349,128,0,159580:0:0:0:0:
64,192,160272,1,0,0:0:0:0:
64,192,160388,1,0,0:0:0:0:
64,192,160619,1,0,0:0:0:0:
64,192,160849,1,0,0:0:0:0:
320,192,160849,1,0,0:0:0:0:
448,192,160965,128,0,161138:0:0:0:0:
64,192,160965,128,0,161138:0:0:0:0:
320,192,161196,1,0,0:0:0:0:
448,192,161196,1,0,0:0:0:0:
64,192,161196,1,0,0:0:0:0:
64,192,161311,1,0,0:0:0:0:
320,192,161311,1,0,0:0:0:0:
64,192,161542,1,0,0:0:0:0:
320,192,161542,1,0,0:0:0:0:
192,192,161657,1,0,0:0:0:0:
64,192,161772,1,0,0:0:0:0:
320,192,161772,1,0,0:0:0:0:
320,192,161888,1,0,0:0:0:0:
64,192,161888,1,0,0:0:0:0:
64,192,162119,1,0,0:0:0:0:
448,192,162119,1,0,0:0:0:0:
192,192,162119,1,0,0:0:0:0:
320,192,162119,1,0,0:0:0:0:
320,192,162349,1,0,0:0:0:0:
64,192,162349,1,0,0:0:0:0:
320,192,162580,1,0,0:0:0:0:
448,192,162580,1,0,0:0:0:0:
64,192,162580,1,0,0:0:0:0:
64,192,162696,1,0,0:0:0:0:
320,192,162696,1,0,0:0:0:0:
64,192,162926,1,0,0:0:0:0:
320,192,162926,1,0,0:0:0:0:
192,192,163042,1,0,0:0:0:0:
64,192,163157,1,0,0:0:0:0:
320,192,163157,1,0,0:0:0:0:
320,192,163272,1,0,0:0:0:0:
64,192,163272,1,0,0:0:0:0:
64,192,163503,1,0,0:0:0:0:
448,192,163503,1,0,0:0:0:0:
192,192,163503,1,0,0:0:0:0:
320,192,163734,1,0,0:0:0:0:
64,192,163734,1,0,0:0:0:0:
64,192,163965,1,0,0:0:0:0:
448,192,163965,1,0,0:0:0:0:
320,192,163965,1,0,0:0:0:0:
192,192,163965,1,0,0:0:0:0:
320,192,164080,1,0,0:0:0:0:
64,192,164080,1,0,0:0:0:0:
320,192,164311,1,0,0:0:0:0:
64,192,164311,1,0,0:0:0:0:
192,192,164426,1,0,0:0:0:0:
320,192,164542,1,0,0:0:0:0:
64,192,164542,1,0,0:0:0:0:
64,192,164657,1,0,0:0:0:0:
320,192,164657,1,0,0:0:0:0:
64,192,164888,1,0,0:0:0:0:
192,192,164888,1,0,0:0:0:0:
448,192,164888,1,0,0:0:0:0:
320,192,165119,1,0,0:0:0:0:
64,192,165119,1,0,0:0:0:0:
320,192,165349,1,0,0:0:0:0:
448,192,165349,1,0,0:0:0:0:
64,192,165349,1,0,0:0:0:0:
64,192,165465,1,0,0:0:0:0:
320,192,165465,1,0,0:0:0:0:
64,192,165696,1,0,0:0:0:0:
320,192,165696,1,0,0:0:0:0:
448,192,165811,1,0,0:0:0:0:
320,192,165811,1,0,0:0:0:0:
192,192,165811,1,0,0:0:0:0:
320,192,165926,1,0,0:0:0:0:
64,192,165926,1,0,0:0:0:0:
64,192,166042,1,0,0:0:0:0:
320,192,166042,1,0,0:0:0:0:
64,192,166272,1,0,0:0:0:0:
320,192,166272,1,0,0:0:0:0:
448,192,166272,1,0,0:0:0:0:
64,192,166503,1,0,0:0:0:0:
192,192,166503,1,0,0:0:0:0:
64,192,166734,1,0,0:0:0:0:
448,192,166734,1,0,0:0:0:0:
320,192,166734,1,0,0:0:0:0:
320,192,166849,1,0,0:0:0:0:
64,192,166849,1,0,0:0:0:0:
320,192,167080,1,0,0:0:0:0:
64,192,167080,1,0,0:0:0:0:
192,192,167196,1,0,0:0:0:0:
320,192,167311,1,0,0:0:0:0:
64,192,167311,1,0,0:0:0:0:
64,192,167426,1,0,0:0:0:0:
320,192,167426,1,0,0:0:0:0:
320,192,167657,1,0,0:0:0:0:
192,192,167657,1,0,0:0:0:0:
448,192,167657,1,0,0:0:0:0:
64,192,167657,1,0,0:0:0:0:
64,192,167888,1,0,0:0:0:0:
320,192,167888,1,0,0:0:0:0:
320,192,168119,1,0,0:0:0:0:
64,192,168119,1,0,0:0:0:0:
448,192,168119,1,0,0:0:0:0:
64,192,168234,1,0,0:0:0:0:
320,192,168234,1,0,0:0:0:0:
64,192,168465,1,0,0:0:0:0:
320,192,168465,1,0,0:0:0:0:
192,192,168580,1,0,0:0:0:0:
320,192,168696,1,0,0:0:0:0:
64,192,168696,1,0,0:0:0:0:
64,192,168811,1,0,0:0:0:0:
320,192,168811,1,0,0:0:0:0:
64,192,169042,1,0,0:0:0:0:
192,192,169042,1,0,0:0:0:0:
448,192,169042,1,0,0:0:0:0:
64,192,169272,1,0,0:0:0:0:
320,192,169272,1,0,0:0:0:0:
64,192,169503,1,0,0:0:0:0:
320,192,169503,1,0,0:0:0:0:
448,192,169503,1,0,0:0:0:0:
192,192,169503,1,0,0:0:0:0:
64,192,169619,1,0,0:0:0:0:
320,192,169619,1,0,0:0:0:0:
320,192,169849,1,0,0:0:0:0:
64,192,169849,1,0,0:0:0:0:
192,192,169965,1,0,0:0:0:0:
64,192,170080,1,0,0:0:0:0:
320,192,170080,1,0,0:0:0:0:
64,192,170196,1,0,0:0:0:0:
320,192,170196,1,0,0:0:0:0:
64,192,170426,1,0,0:0:0:0:
192,192,170426,1,0,0:0:0:0:
448,192,170426,1,0,0:0:0:0:
320,192,170657,1,0,0:0:0:0:
64,192,170657,1,0,0:0:0:0:
64,192,170888,1,0,0:0:0:0:
448,192,170888,1,0,0:0:0:0:
320,192,170888,1,0,0:0:0:0:
320,192,171003,1,0,0:0:0:0:
64,192,171003,1,0,0:0:0:0:
64,192,171234,1,0,0:0:0:0:
320,192,171234,1,0,0:0:0:0:
320,192,171349,1,0,0:0:0:0:
192,192,171349,1,0,0:0:0:0:
448,192,171349,1,0,0:0:0:0:
64,192,171465,1,0,0:0:0:0:
320,192,171465,1,0,0:0:0:0:
320,192,171580,1,0,0:0:0:0:
64,192,171580,1,0,0:0:0:0:
64,192,171811,1,0,0:0:0:0:
448,192,171811,1,0,0:0:0:0:
320,192,171811,1,0,0:0:0:0:
320,192,171926,1,0,0:0:0:0:
192,192,171926,1,0,0:0:0:0:
192,192,172042,1,0,0:0:0:0:
320,192,172042,1,0,0:0:0:0:
320,192,172157,1,0,0:0:0:0:
192,192,172157,1,0,0:0:0:0:
64,192,172272,1,0,0:0:0:0:
448,192,172798,1,0,0:0:0:0:
192,192,173321,1,0,0:0:0:0:
320,192,173321,1,0,0:0:0:0:
448,192,173321,1,0,0:0:0:0:
320,192,173437,1,0,0:0:0:0:
448,192,173437,1,0,0:0:0:0:
192,192,173437,128,0,173902:0:0:0:0:
64,192,173553,1,0,0:0:0:0:
448,192,173669,1,0,0:0:0:0:
64,192,173786,1,0,0:0:0:0:
320,192,173902,1,0,0:0:0:0:
448,192,174018,128,0,174251:0:0:0:0:
320,192,174134,1,0,0:0:0:0:
64,192,174251,128,0,174600:0:0:0:0:
448,192,174367,1,0,0:0:0:0:
192,192,174425,1,0,0:0:0:0:
320,192,174483,1,0,0:0:0:0:
192,192,174600,128,0,174948:0:0:0:0:
64,192,174716,1,0,0:0:0:0:
320,192,174774,1,0,0:0:0:0:
448,192,174832,1,0,0:0:0:0:
320,192,174948,128,0,175181:0:0:0:0:
192,192,175065,1,0,0:0:0:0:
64,192,175181,1,0,0:0:0:0:
448,192,175181,128,0,175879:0:0:0:0:
192,192,175239,1,0,0:0:0:0:
64,192,175297,1,0,0:0:0:0:
320,192,175414,1,0,0:0:0:0:
192,192,175530,1,0,0:0:0:0:
64,192,175646,1,0,0:0:0:0:
320,192,175762,1,0,0:0:0:0:
64,192,175879,1,0,0:0:0:0:
320,192,175995,1,0,0:0:0:0:
192,192,176111,1,0,0:0:0:0:
64,192,176111,1,0,0:0:0:0:
448,192,176111,1,0,0:0:0:0:
320,192,176227,1,0,0:0:0:0:
64,192,176227,128,0,176344:0:0:0:0:
192,192,176227,128,0,176344:0:0:0:0:
448,192,176344,1,0,0:0:0:0:
192,192,176460,1,0,0:0:0:0:
64,192,176576,1,0,0:0:0:0:
320,192,176576,1,0,0:0:0:0:
448,192,176576,1,0,0:0:0:0:
448,192,176693,1,0,0:0:0:0:
192,192,176693,128,0,176925:0:0:0:0:
320,192,176693,128,0,176809:0:0:0:0:
64,192,176809,128,0,177041:0:0:0:0:
448,192,177041,1,0,0:0:0:0:
320,192,177041,1,0,0:0:0:0:
192,192,177100,1,0,0:0:0:0:
320,192,177158,1,0,0:0:0:0:
448,192,177158,1,0,0:0:0:0:
192,192,177274,1,0,0:0:0:0:
64,192,177390,1,0,0:0:0:0:
448,192,177390,1,0,0:0:0:0:
192,192,177507,1,0,0:0:0:0:
64,192,177623,1,0,0:0:0:0:
448,192,177623,1,0,0:0:0:0:
192,192,177739,128,0,177855:0:0:0:0:
320,192,177855,1,0,0:0:0:0:
448,192,177855,1,0,0:0:0:0:
64,192,177972,128,0,178088:0:0:0:0:
192,192,178030,1,0,0:0:0:0:
320,192,178088,1,0,0:0:0:0:
448,192,178088,1,0,0:0:0:0:
192,192,178204,1,0,0:0:0:0:
64,192,178321,1,0,0:0:0:0:
448,192,178321,128,0,178437:0:0:0:0:
320,192,178437,1,0,0:0:0:0:
192,192,178495,1,0,0:0:0:0:
64,192,178553,1,0,0:0:0:0:
448,192,178611,1,0,0:0:0:0:
320,192,178669,1,0,0:0:0:0:
192,192,178669,128,0,178786:0:0:0:0:
448,192,178727,1,0,0:0:0:0:
64,192,178786,1,0,0:0:0:0:
320,192,178844,1,0,0:0:0:0:
192,192,178902,1,0,0:0:0:0:
448,192,178902,1,0,0:0:0:0:
320,192,178960,1,0,0:0:0:0:
64,192,178960,1,0,0:0:0:0:
192,192,179018,1,0,0:0:0:0:
64,192,179076,1,0,0:0:0:0:
320,192,179134,1,0,0:0:0:0:
448,192,179134,1,0,0:0:0:0:
64,192,179251,1,0,0:0:0:0:
448,192,179309,1,0,0:0:0:0:
64,192,179367,1,0,0:0:0:0:
320,192,179425,1,0,0:0:0:0:
64,192,179483,1,0,0:0:0:0:
192,192,179541,1,0,0:0:0:0:
320,192,179600,1,0,0:0:0:0:
448,192,179600,1,0,0:0:0:0:
192,192,179716,1,0,0:0:0:0:
320,192,179716,1,0,0:0:0:0:
192,192,179832,1,0,0:0:0:0:
64,192,179832,1,0,0:0:0:0:
448,192,179832,1,0,0:0:0:0:
192,192,179948,1,0,0:0:0:0:
320,192,179948,1,0,0:0:0:0:
64,192,179948,1,0,0:0:0:0:
320,192,180297,1,0,0:0:0:0:
448,192,180297,1,0,0:0:0:0:
64,192,180297,1,0,0:0:0:0:
320,192,180414,1,0,0:0:0:0:
448,192,180414,1,0,0:0:0:0:
192,192,180414,1,0,0:0:0:0:
192,192,180762,1,0,0:0:0:0:
64,192,180762,1,0,0:0:0:0:
320,192,180762,1,0,0:0:0:0:
448,192,180762,1,0,0:0:0:0:
448,192,180879,1,0,0:0:0:0:
320,192,180937,1,0,0:0:0:0:
192,192,180995,1,0,0:0:0:0:
64,192,181053,1,0,0:0:0:0:
320,192,181111,1,0,0:0:0:0:
448,192,181169,1,0,0:0:0:0:
320,192,181227,1,0,0:0:0:0:
64,192,181286,1,0,0:0:0:0:
192,192,181344,1,0,0:0:0:0:
448,192,181402,1,0,0:0:0:0:
320,192,181460,1,0,0:0:0:0:
64,192,181460,1,0,0:0:0:0:
192,192,181518,1,0,0:0:0:0:
64,192,181576,1,0,0:0:0:0:
192,192,181634,1,0,0:0:0:0:
320,192,181693,1,0,0:0:0:0:
448,192,181693,1,0,0:0:0:0:
64,192,181751,1,0,0:0:0:0:
192,192,181809,1,0,0:0:0:0:
320,192,181867,1,0,0:0:0:0:
448,192,181925,1,0,0:0:0:0:
192,192,181983,1,0,0:0:0:0:
64,192,182041,1,0,0:0:0:0:
320,192,182041,1,0,0:0:0:0:
448,192,182100,1,0,0:0:0:0:
320,192,182158,1,0,0:0:0:0:
64,192,182216,1,0,0:0:0:0:
192,192,182274,1,0,0:0:0:0:
320,192,182332,1,0,0:0:0:0:
448,192,182390,1,0,0:0:0:0:
192,192,182390,1,0,0:0:0:0:
64,192,182448,1,0,0:0:0:0:
320,192,182507,1,0,0:0:0:0:
192,192,182565,1,0,0:0:0:0:
448,192,182623,1,0,0:0:0:0:
64,192,182623,1,0,0:0:0:0:
320,192,182681,1,0,0:0:0:0:
448,192,182739,1,0,0:0:0:0:
64,192,182797,1,0,0:0:0:0:
192,192,182855,1,0,0:0:0:0:
64,192,182914,1,0,0:0:0:0:
448,192,182972,1,0,0:0:0:0:
320,192,183030,1,0,0:0:0:0:
448,192,183088,1,0,0:0:0:0:
64,192,183146,1,0,0:0:0:0:
192,192,183204,1,0,0:0:0:0:
64,192,183262,1,0,0:0:0:0:
448,192,183321,1,0,0:0:0:0:
192,192,183321,1,0,0:0:0:0:
320,192,183379,1,0,0:0:0:0:
192,192,183437,1,0,0:0:0:0:
320,192,183495,1,0,0:0:0:0:
64,192,183553,1,0,0:0:0:0:
448,192,183553,1,0,0:0:0:0:
192,192,183611,1,0,0:0:0:0:
64,192,183669,1,0,0:0:0:0:
192,192,183727,1,0,0:0:0:0:
320,192,183786,1,0,0:0:0:0:
448,192,183844,1,0,0:0:0:0:
192,192,183902,1,0,0:0:0:0:
320,192,183902,1,0,0:0:0:0:
64,192,183960,1,0,0:0:0:0:
448,192,184018,1,0,0:0:0:0:
320,192,184076,1,0,0:0:0:0:
192,192,184134,1,0,0:0:0:0:
64,192,184193,1,0,0:0:0:0:
320,192,184251,1,0,0:0:0:0:
192,192,184251,1,0,0:0:0:0:
448,192,184309,1,0,0:0:0:0:
192,192,184367,1,0,0:0:0:0:
320,192,184425,1,0,0:0:0:0:
64,192,184483,1,0,0:0:0:0:
448,192,184483,1,0,0:0:0:0:
192,192,184483,1,0,0:0:0:0:
320,192,184541,1,0,0:0:0:0:
64,192,184600,1,0,0:0:0:0:
192,192,184600,1,0,0:0:0:0:
448,192,184658,1,0,0:0:0:0:
320,192,184716,1,0,0:0:0:0:
192,192,184716,1,0,0:0:0:0:
64,192,184774,1,0,0:0:0:0:
320,192,184832,1,0,0:0:0:0:
448,192,184832,1,0,0:0:0:0:
192,192,184890,1,0,0:0:0:0:
64,192,184948,1,0,0:0:0:0:
448,192,184948,1,0,0:0:0:0:
320,192,185007,1,0,0:0:0:0:
192,192,185065,1,0,0:0:0:0:
64,192,185065,1,0,0:0:0:0:
320,192,185123,1,0,0:0:0:0:
192,192,185181,1,0,0:0:0:0:
448,192,185181,1,0,0:0:0:0:
64,192,185239,1,0,0:0:0:0:
320,192,185297,1,0,0:0:0:0:
192,192,185297,1,0,0:0:0:0:
448,192,185355,1,0,0:0:0:0:
320,192,185414,1,0,0:0:0:0:
64,192,185414,1,0,0:0:0:0:
192,192,185472,1,0,0:0:0:0:
320,192,185530,1,0,0:0:0:0:
448,192,185530,1,0,0:0:0:0:
64,192,185588,1,0,0:0:0:0:
320,192,185646,1,0,0:0:0:0:
192,192,185646,1,0,0:0:0:0:
448,192,185704,1,0,0:0:0:0:
64,192,185762,1,0,0:0:0:0:
192,192,185762,1,0,0:0:0:0:
320,192,185821,1,0,0:0:0:0:
64,192,185879,1,0,0:0:0:0:
448,192,185879,1,0,0:0:0:0:
192,192,185937,1,0,0:0:0:0:
320,192,185995,1,0,0:0:0:0:
448,192,185995,1,0,0:0:0:0:
192,192,186053,1,0,0:0:0:0:
64,192,186111,1,0,0:0:0:0:
320,192,186111,1,0,0:0:0:0:
448,192,186111,1,0,0:0:0:0:
192,192,186227,1,0,0:0:0:0:
64,192,186344,1,0,0:0:0:0:
320,192,186344,1,0,0:0:0:0:
192,192,186402,1,0,0:0:0:0:
320,192,186460,1,0,0:0:0:0:
64,192,186518,1,0,0:0:0:0:
192,192,186576,1,0,0:0:0:0:
448,192,186576,1,0,0:0:0:0:
320,192,186634,1,0,0:0:0:0:
192,192,186693,1,0,0:0:0:0:
448,192,186751,1,0,0:0:0:0:
64,192,186809,1,0,0:0:0:0:
320,192,186809,1,0,0:0:0:0:
192,192,186867,1,0,0:0:0:0:
320,192,186925,1,0,0:0:0:0:
64,192,186983,1,0,0:0:0:0:
192,192,187041,1,0,0:0:0:0:
448,192,187041,1,0,0:0:0:0:
320,192,187100,1,0,0:0:0:0:
192,192,187158,1,0,0:0:0:0:
448,192,187216,1,0,0:0:0:0:
64,192,187274,1,0,0:0:0:0:
320,192,187274,1,0,0:0:0:0:
192,192,187274,1,0,0:0:0:0:
320,192,187739,1,0,0:0:0:0:
192,192,187739,1,0,0:0:0:0:
448,192,187739,1,0,0:0:0:0:
64,192,187797,1,0,0:0:0:0:
192,192,187855,1,0,0:0:0:0:
448,192,187855,1,0,0:0:0:0:
320,192,187914,1,0,0:0:0:0:
64,192,187972,1,0,0:0:0:0:
192,192,188088,1,0,0:0:0:0:
448,192,188204,1,0,0:0:0:0:
64,192,188204,128,0,188437:0:0:0:0:
192,192,188262,1,0,0:0:0:0:
448,192,188321,1,0,0:0:0:0:
320,192,188321,1,0,0:0:0:0:
192,192,188437,1,0,0:0:0:0:
448,192,188437,1,0,0:0:0:0:
64,192,188553,1,0,0:0:0:0:
320,192,188553,1,0,0:0:0:0:
192,192,188669,1,0,0:0:0:0:
64,192,188669,1,0,0:0:0:0:
320,192,188786,1,0,0:0:0:0:
448,192,188786,1,0,0:0:0:0:
64,192,188902,1,0,0:0:0:0:
192,192,189018,1,0,0:0:0:0:
448,192,189018,1,0,0:0:0:0:
192,192,189134,1,0,0:0:0:0:
64,192,189134,128,0,189251:0:0:0:0:
448,192,189251,1,0,0:0:0:0:
320,192,189251,1,0,0:0:0:0:
192,192,189309,1,0,0:0:0:0:
64,192,189367,1,0,0:0:0:0:
448,192,189367,1,0,0:0:0:0:
320,192,189483,1,0,0:0:0:0:
192,192,189483,128,0,189600:0:0:0:0:
64,192,189600,1,0,0:0:0:0:
448,192,189600,1,0,0:0:0:0:
320,192,189658,1,0,0:0:0:0:
192,192,189716,1,0,0:0:0:0:
64,192,189716,1,0,0:0:0:0:
192,192,189832,1,0,0:0:0:0:
320,192,189832,128,0,189948:0:0:0:0:
448,192,189948,1,0,0:0:0:0:
64,192,189948,1,0,0:0:0:0:
320,192,190065,1,0,0:0:0:0:
448,192,190065,128,0,190297:0:0:0:0:
192,192,190123,1,0,0:0:0:0:
64,192,190181,1,0,0:0:0:0:
320,192,190181,1,0,0:0:0:0:
64,192,190297,1,0,0:0:0:0:
192,192,190297,1,0,0:0:0:0:
320,192,190414,1,0,0:0:0:0:
448,192,190414,1,0,0:0:0:0:
320,192,190530,1,0,0:0:0:0:
64,192,190530,1,0,0:0:0:0:
192,192,190646,1,0,0:0:0:0:
448,192,190646,1,0,0:0:0:0:
64,192,190762,1,0,0:0:0:0:
320,192,190879,1,0,0:0:0:0:
448,192,190879,1,0,0:0:0:0:
64,192,190995,1,0,0:0:0:0:
192,192,190995,1,0,0:0:0:0:
64,192,191111,128,0,191227:0:0:0:0:
192,192,191111,128,0,191227:0:0:0:0:
320,192,191169,1,0,0:0:0:0:
448,192,191227,1,0,0:0:0:0:
64,192,191344,1,0,0:0:0:0:
192,192,191344,1,0,0:0:0:0:
448,192,191460,1,0,0:0:0:0:
320,192,191460,1,0,0:0:0:0:
64,192,191518,1,0,0:0:0:0:
192,192,191576,128,0,191693:0:0:0:0:
448,192,191576,128,0,191867:0:0:0:0:
320,192,191634,1,0,0:0:0:0:
64,192,191693,128,0,191867:0:0:0:0:
192,192,191809,128,0,191867:0:0:0:0:
192,192,191925,1,0,0:0:0:0:
64,192,191925,1,0,0:0:0:0:
448,192,191925,1,0,0:0:0:0:
320,192,191983,1,0,0:0:0:0:
192,192,192041,1,0,0:0:0:0:
64,192,192158,1,0,0:0:0:0:
320,192,192158,1,0,0:0:0:0:
448,192,192158,1,0,0:0:0:0:
192,192,192274,1,0,0:0:0:0:
320,192,192274,1,0,0:0:0:0:
448,192,192332,1,0,0:0:0:0:
64,192,192390,1,0,0:0:0:0:
192,192,192507,1,0,0:0:0:0:
64,192,192507,1,0,0:0:0:0:
448,192,192507,1,0,0:0:0:0:
320,192,192623,1,0,0:0:0:0:
192,192,192623,1,0,0:0:0:0:
64,192,192681,1,0,0:0:0:0:
448,192,192739,1,0,0:0:0:0:
320,192,192855,1,0,0:0:0:0:
64,192,192855,1,0,0:0:0:0:
192,192,192914,1,0,0:0:0:0:
448,192,192914,1,0,0:0:0:0:
320,192,192972,1,0,0:0:0:0:
64,192,192972,1,0,0:0:0:0:
64,192,193088,1,0,0:0:0:0:
448,192,193088,1,0,0:0:0:0:
320,192,193204,1,0,0:0:0:0:
192,192,193204,1,0,0:0:0:0:
64,192,193262,1,0,0:0:0:0:
448,192,193262,1,0,0:0:0:0:
192,192,193321,1,0,0:0:0:0:
320,192,193321,1,0,0:0:0:0:
64,192,193437,1,0,0:0:0:0:
320,192,193437,1,0,0:0:0:0:
64,192,193553,1,0,0:0:0:0:
192,192,193553,1,0,0:0:0:0:
448,192,193553,128,0,193786:0:0:0:0:
64,192,193786,1,0,0:0:0:0:
320,192,193786,1,0,0:0:0:0:
192,192,193844,1,0,0:0:0:0:
448,192,193902,1,0,0:0:0:0:
320,192,193960,1,0,0:0:0:0:
192,192,194018,1,0,0:0:0:0:
448,192,194018,1,0,0:0:0:0:
64,192,194076,1,0,0:0:0:0:
320,192,194134,1,0,0:0:0:0:
192,192,194193,1,0,0:0:0:0:
64,192,194251,1,0,0:0:0:0:
320,192,194251,1,0,0:0:0:0:
192,192,194309,1,0,0:0:0:0:
448,192,194367,1,0,0:0:0:0:
320,192,194367,1,0,0:0:0:0:
64,192,194425,1,0,0:0:0:0:
192,192,194483,1,0,0:0:0:0:
448,192,194483,1,0,0:0:0:0:
64,192,194716,1,0,0:0:0:0:
320,192,194716,1,0,0:0:0:0:
448,192,194716,1,0,0:0:0:0:
64,192,194832,1,0,0:0:0:0:
192,192,194832,1,0,0:0:0:0:
192,192,195181,1,0,0:0:0:0:
448,192,195181,1,0,0:0:0:0:
64,192,195181,1,0,0:0:0:0:
320,192,195297,1,0,0:0:0:0:
448,192,195297,1,0,0:0:0:0:
64,192,195646,128,0,195879:0:0:0:0:
448,192,195646,1,0,0:0:0:0:
320,192,195646,1,0,0:0:0:0:
448,192,195762,1,0,0:0:0:0:
192,192,195762,1,0,0:0:0:0:
320,192,195821,1,0,0:0:0:0:
448,192,195879,1,0,0:0:0:0:
192,192,195937,1,0,0:0:0:0:
64,192,195995,1,0,0:0:0:0:
448,192,196053,1,0,0:0:0:0:
320,192,196111,1,0,0:0:0:0:
192,192,196169,1,0,0:0:0:0:
64,192,196227,1,0,0:0:0:0:
320,192,196286,1,0,0:0:0:0:
448,192,196344,1,0,0:0:0:0:
192,192,196344,1,0,0:0:0:0:
64,192,196402,1,0,0:0:0:0:
448,192,196460,1,0,0:0:0:0:
320,192,196518,1,0,0:0:0:0:
64,192,196576,1,0,0:0:0:0:
192,192,196576,1,0,0:0:0:0:
448,192,196634,1,0,0:0:0:0:
192,192,196693,1,0,0:0:0:0:
320,192,196751,1,0,0:0:0:0:
192,192,196809,1,0,0:0:0:0:
64,192,196867,1,0,0:0:0:0:
320,192,196925,1,0,0:0:0:0:
448,192,196925,1,0,0:0:0:0:
64,192,196983,1,0,0:0:0:0:
320,192,197041,1,0,0:0:0:0:
448,192,197100,1,0,0:0:0:0:
320,192,197158,1,0,0:0:0:0:
192,192,197216,1,0,0:0:0:0:
64,192,197274,1,0,0:0:0:0:
448,192,197274,1,0,0:0:0:0:
320,192,197332,1,0,0:0:0:0:
192,192,197390,1,0,0:0:0:0:
320,192,197448,1,0,0:0:0:0:
192,192,197507,1,0,0:0:0:0:
448,192,197507,1,0,0:0:0:0:
64,192,197507,1,0,0:0:0:0:
320,192,197565,1,0,0:0:0:0:
192,192,197623,1,0,0:0:0:0:
448,192,197681,1,0,0:0:0:0:
320,192,197739,1,0,0:0:0:0:
448,192,197797,1,0,0:0:0:0:
64,192,197855,1,0,0:0:0:0:
192,192,197914,1,0,0:0:0:0:
64,192,197972,1,0,0:0:0:0:
320,192,198030,1,0,0:0:0:0:
448,192,198088,1,0,0:0:0:0:
320,192,198146,1,0,0:0:0:0:
192,192,198204,1,0,0:0:0:0:
448,192,198204,1,0,0:0:0:0:
64,192,198262,1,0,0:0:0:0:
320,192,198321,1,0,0:0:0:0:
448,192,198379,1,0,0:0:0:0:
64,192,198437,1,0,0:0:0:0:
192,192,198437,1,0,0:0:0:0:
320,192,198495,1,0,0:0:0:0:
192,192,198553,1,0,0:0:0:0:
64,192,198611,1,0,0:0:0:0:
192,192,198669,1,0,0:0:0:0:
320,192,198727,1,0,0:0:0:0:
64,192,198786,1,0,0:0:0:0:
448,192,198786,1,0,0:0:0:0:
192,192,198844,1,0,0:0:0:0:
448,192,198902,1,0,0:0:0:0:
320,192,198960,1,0,0:0:0:0:
448,192,199018,1,0,0:0:0:0:
64,192,199076,1,0,0:0:0:0:
320,192,199134,1,0,0:0:0:0:
192,192,199134,1,0,0:0:0:0:
448,192,199193,1,0,0:0:0:0:
192,192,199251,1,0,0:0:0:0:
320,192,199309,1,0,0:0:0:0:
64,192,199367,1,0,0:0:0:0:
448,192,199367,1,0,0:0:0:0:
192,192,199367,1,0,0:0:0:0:
320,192,199425,1,0,0:0:0:0:
64,192,199483,1,0,0:0:0:0:
192,192,199483,1,0,0:0:0:0:
448,192,199541,1,0,0:0:0:0:
192,192,199600,1,0,0:0:0:0:
320,192,199600,1,0,0:0:0:0:
64,192,199658,1,0,0:0:0:0:
320,192,199716,1,0,0:0:0:0:
448,192,199716,1,0,0:0:0:0:
192,192,199774,1,0,0:0:0:0:
448,192,199832,1,0,0:0:0:0:
64,192,199832,1,0,0:0:0:0:
192,192,199890,1,0,0:0:0:0:
64,192,199948,1,0,0:0:0:0:
320,192,199948,1,0,0:0:0:0:
448,192,200007,1,0,0:0:0:0:
320,192,200065,1,0,0:0:0:0:
192,192,200065,1,0,0:0:0:0:
64,192,200123,1,0,0:0:0:0:
320,192,200181,1,0,0:0:0:0:
448,192,200181,1,0,0:0:0:0:
192,192,200239,1,0,0:0:0:0:
64,192,200297,1,0,0:0:0:0:
448,192,200297,1,0,0:0:0:0:
320,192,200355,1,0,0:0:0:0:
192,192,200414,1,0,0:0:0:0:
64,192,200414,1,0,0:0:0:0:
448,192,200472,1,0,0:0:0:0:
320,192,200530,1,0,0:0:0:0:
64,192,200530,1,0,0:0:0:0:
192,192,200588,1,0,0:0:0:0:
320,192,200646,1,0,0:0:0:0:
448,192,200646,1,0,0:0:0:0:
64,192,200704,1,0,0:0:0:0:
192,192,200762,1,0,0:0:0:0:
320,192,200762,1,0,0:0:0:0:
448,192,200821,1,0,0:0:0:0:
64,192,200879,1,0,0:0:0:0:
192,192,200879,1,0,0:0:0:0:
320,192,200937,1,0,0:0:0:0:
64,192,200995,1,0,0:0:0:0:
448,192,200995,1,0,0:0:0:0:
192,192,201053,1,0,0:0:0:0:
448,192,201111,1,0,0:0:0:0:
320,192,201169,1,0,0:0:0:0:
64,192,201227,1,0,0:0:0:0:
192,192,201227,1,0,0:0:0:0:
320,192,201344,1,0,0:0:0:0:
192,192,201402,1,0,0:0:0:0:
448,192,201460,1,0,0:0:0:0:
64,192,201460,1,0,0:0:0:0:
320,192,201518,1,0,0:0:0:0:
192,192,201576,1,0,0:0:0:0:
448,192,201634,1,0,0:0:0:0:
320,192,201693,1,0,0:0:0:0:
64,192,201693,1,0,0:0:0:0:
192,192,201751,1,0,0:0:0:0:
448,192,201809,1,0,0:0:0:0:
64,192,201867,1,0,0:0:0:0:
320,192,201925,1,0,0:0:0:0:
448,192,201925,1,0,0:0:0:0:
192,192,201983,1,0,0:0:0:0:
64,192,202041,1,0,0:0:0:0:
320,192,202100,1,0,0:0:0:0:
192,192,202158,1,0,0:0:0:0:
448,192,202158,128,0,202274:0:0:0:0:
320,192,202216,1,0,0:0:0:0:
192,192,202274,1,0,0:0:0:0:
320,192,202332,1,0,0:0:0:0:
192,192,202390,1,0,0:0:0:0:
320,192,202448,1,0,0:0:0:0:
192,192,202507,1,0,0:0:0:0:
320,192,202565,1,0,0:0:0:0:
448,192,202623,1,0,0:0:0:0:
64,192,202623,128,0,202739:0:0:0:0:
320,192,203088,128,0,203262:0:0:0:0:
192,192,203088,128,0,203262:0:0:0:0:
64,192,203204,128,0,203379:0:0:0:0:
448,192,203204,128,0,203379:0:0:0:0:
320,192,203321,128,0,203437:0:0:0:0:
192,192,203321,128,0,203437:0:0:0:0:
64,192,203437,128,0,203611:0:0:0:0:
448,192,203437,128,0,203611:0:0:0:0:
192,192,203553,128,0,203611:0:0:0:0:
320,192,203553,128,0,203611:0:0:0:0:
448,192,203669,1,0,0:0:0:0:
448,192,203786,1,0,0:0:0:0:
320,192,203902,1,0,0:0:0:0:
64,192,203902,128,0,204251:0:0:0:0:
448,192,204018,1,0,0:0:0:0:
192,192,204018,1,0,0:0:0:0:
320,192,204018,1,0,0:0:0:0:
192,192,204134,128,0,204251:0:0:0:0:
448,192,204251,128,0,204367:0:0:0:0:
320,192,204251,128,0,204367:0:0:0:0:
192,192,204367,128,0,204483:0:0:0:0:
320,192,204483,1,0,0:0:0:0:
64,192,204483,128,0,204716:0:0:0:0:
448,192,204483,128,0,204716:0:0:0:0:
192,192,204716,1,0,0:0:0:0:
320,192,204716,1,0,0:0:0:0:
64,192,204948,128,0,205123:0:0:0:0:
448,192,204948,128,0,205123:0:0:0:0:
192,192,205065,128,0,205239:0:0:0:0:
320,192,205065,128,0,205239:0:0:0:0:
64,192,205181,128,0,205297:0:0:0:0:
448,192,205181,128,0,205297:0:0:0:0:
320,192,205297,128,0,205472:0:0:0:0:
192,192,205297,128,0,205472:0:0:0:0:
64,192,205414,128,0,205472:0:0:0:0:
448,192,205414,128,0,205472:0:0:0:0:
192,192,205530,1,0,0:0:0:0:
192,192,205646,1,0,0:0:0:0:
448,192,205762,1,0,0:0:0:0:
64,192,205762,128,0,206111:0:0:0:0:
192,192,205879,1,0,0:0:0:0:
320,192,205879,1,0,0:0:0:0:
448,192,205879,1,0,0:0:0:0:
192,192,205995,128,0,206111:0:0:0:0:
320,192,206111,128,0,206227:0:0:0:0:
448,192,206111,128,0,206227:0:0:0:0:
64,192,206227,128,0,206344:0:0:0:0:
448,192,206344,128,0,206460:0:0:0:0:
192,192,206344,128,0,206460:0:0:0:0:
192,192,206576,1,0,0:0:0:0:
64,192,206634,1,0,0:0:0:0:
320,192,206693,1,0,0:0:0:0:
192,192,206751,1,0,0:0:0:0:
64,192,206809,128,0,206983:0:0:0:0:
448,192,206809,128,0,206983:0:0:0:0:
320,192,206925,128,0,206983:0:0:0:0:
192,192,206925,128,0,206983:0:0:0:0:
320,192,207041,128,0,207216:0:0:0:0:
64,192,207041,128,0,207100:0:0:0:0:
448,192,207158,128,0,207332:0:0:0:0:
192,192,207158,128,0,207216:0:0:0:0:
320,192,207274,128,0,207332:0:0:0:0:
64,192,207274,128,0,207332:0:0:0:0:
448,192,207390,1,0,0:0:0:0:
448,192,207507,1,0,0:0:0:0:
192,192,207623,1,0,0:0:0:0:
64,192,207623,128,0,207855:0:0:0:0:
192,192,207739,1,0,0:0:0:0:
320,192,207739,1,0,0:0:0:0:
448,192,207739,1,0,0:0:0:0:
448,192,207855,1,0,0:0:0:0:
320,192,207914,1,0,0:0:0:0:
192,192,207972,128,0,208204:0:0:0:0:
64,192,207972,128,0,208088:0:0:0:0:
320,192,208088,128,0,208204:0:0:0:0:
448,192,208204,128,0,208379:0:0:0:0:
64,192,208204,128,0,208379:0:0:0:0:
64,192,208437,1,0,0:0:0:0:
448,192,208437,1,0,0:0:0:0:
320,192,208437,1,0,0:0:0:0:
64,192,208553,1,0,0:0:0:0:
448,192,208553,1,0,0:0:0:0:
192,192,208669,1,0,0:0:0:0:
320,192,208669,128,0,209018:0:0:0:0:
64,192,208669,1,0,0:0:0:0:
64,192,209018,1,0,0:0:0:0:
448,192,209018,128,0,209367:0:0:0:0:
192,192,209018,1,0,0:0:0:0:
192,192,209367,128,0,209600:0:0:0:0:
64,192,209367,1,0,0:0:0:0:
320,192,209367,1,0,0:0:0:0:
448,192,209483,1,0,0:0:0:0:
448,192,209600,1,0,0:0:0:0:
64,192,209600,128,0,209716:0:0:0:0:
320,192,209600,1,0,0:0:0:0:
192,192,209716,1,0,0:0:0:0:
320,192,209716,128,0,209832:0:0:0:0:
192,192,209948,128,0,210239:0:0:0:0:
64,192,209948,128,0,210239:0:0:0:0:
320,192,210065,1,0,0:0:0:0:
64,192,210297,128,0,210530:0:0:0:0:
448,192,210297,128,0,210530:0:0:0:0:
320,192,210297,1,0,0:0:0:0:
192,192,210530,128,0,210704:0:0:0:0:
320,192,210530,128,0,210704:0:0:0:0:
448,192,210646,128,0,210821:0:0:0:0:
64,192,210646,128,0,210821:0:0:0:0:
192,192,210762,128,0,210879:0:0:0:0:
320,192,210762,128,0,210879:0:0:0:0:
64,192,210879,128,0,211053:0:0:0:0:
448,192,210879,128,0,211053:0:0:0:0:
192,192,210995,128,0,211053:0:0:0:0:
320,192,210995,128,0,211053:0:0:0:0:
448,192,211111,1,0,0:0:0:0:
64,192,211111,1,0,0:0:0:0:
192,192,211169,1,0,0:0:0:0:
320,192,211227,1,0,0:0:0:0:
192,192,211286,1,0,0:0:0:0:
448,192,211344,1,0,0:0:0:0:
64,192,211344,128,0,211693:0:0:0:0:
448,192,211460,1,0,0:0:0:0:
192,192,211460,1,0,0:0:0:0:
320,192,211460,1,0,0:0:0:0:
192,192,211576,128,0,211693:0:0:0:0:
320,192,211693,128,0,211809:0:0:0:0:
448,192,211693,128,0,211809:0:0:0:0:
192,192,211809,128,0,211925:0:0:0:0:
448,192,211925,128,0,212158:0:0:0:0:
64,192,211925,128,0,212158:0:0:0:0:
320,192,212158,1,0,0:0:0:0:
192,192,212158,1,0,0:0:0:0:
448,192,212390,128,0,212565:0:0:0:0:
64,192,212390,128,0,212565:0:0:0:0:
320,192,212507,128,0,212681:0:0:0:0:
192,192,212507,128,0,212681:0:0:0:0:
448,192,212623,128,0,212739:0:0:0:0:
64,192,212623,128,0,212739:0:0:0:0:
192,192,212739,128,0,212914:0:0:0:0:
320,192,212739,128,0,212914:0:0:0:0:
64,192,212855,128,0,212914:0:0:0:0:
448,192,212855,128,0,212914:0:0:0:0:
192,192,212972,1,0,0:0:0:0:
192,192,213088,1,0,0:0:0:0:
64,192,213204,1,0,0:0:0:0:
320,192,213204,128,0,213553:0:0:0:0:
192,192,213321,1,0,0:0:0:0:
64,192,213321,1,0,0:0:0:0:
448,192,213321,1,0,0:0:0:0:
448,192,213437,128,0,213553:0:0:0:0:
192,192,213553,128,0,213669:0:0:0:0:
64,192,213553,128,0,213669:0:0:0:0:
448,192,213669,128,0,213902:0:0:0:0:
320,192,213786,128,0,213902:0:0:0:0:
192,192,213786,128,0,213902:0:0:0:0:
64,192,214018,1,0,0:0:0:0:
192,192,214076,1,0,0:0:0:0:
320,192,214134,1,0,0:0:0:0:
64,192,214193,1,0,0:0:0:0:
192,192,214251,128,0,214425:0:0:0:0:
320,192,214251,128,0,214425:0:0:0:0:
448,192,214367,128,0,214425:0:0:0:0:
64,192,214367,128,0,214425:0:0:0:0:
320,192,214483,128,0,214541:0:0:0:0:
64,192,214483,128,0,214658:0:0:0:0:
448,192,214600,128,0,214658:0:0:0:0:
320,192,214600,128,0,214774:0:0:0:0:
448,192,214716,128,0,214774:0:0:0:0:
64,192,214716,128,0,214774:0:0:0:0:
192,192,214832,1,0,0:0:0:0:
192,192,214948,1,0,0:0:0:0:
448,192,215065,1,0,0:0:0:0:
64,192,215065,128,0,215414:0:0:0:0:
448,192,215181,1,0,0:0:0:0:
192,192,215181,1,0,0:0:0:0:
320,192,215181,1,0,0:0:0:0:
192,192,215297,128,0,215414:0:0:0:0:
448,192,215414,128,0,215530:0:0:0:0:
320,192,215414,128,0,215646:0:0:0:0:
64,192,215530,128,0,215646:0:0:0:0:
192,192,215646,128,0,215821:0:0:0:0:
448,192,215646,128,0,215821:0:0:0:0:
320,192,215879,1,0,0:0:0:0:
448,192,215879,1,0,0:0:0:0:
192,192,215879,1,0,0:0:0:0:
64,192,215937,1,0,0:0:0:0:
192,192,215995,1,0,0:0:0:0:
320,192,216053,1,0,0:0:0:0:
64,192,216111,1,0,0:0:0:0:
448,192,216111,128,0,216460:0:0:0:0:
320,192,216460,128,0,216809:0:0:0:0:
192,192,216809,128,0,217041:0:0:0:0:
320,192,217041,1,0,0:0:0:0:
448,192,217041,128,0,217158:0:0:0:0:
64,192,217158,128,0,217274:0:0:0:0:
192,192,217390,128,0,217739:0:0:0:0:
320,192,217739,128,0,217972:0:0:0:0:
448,192,217739,128,0,217972:0:0:0:0:
192,192,217972,1,0,0:0:0:0:
64,192,217972,1,0,0:0:0:0:
64,192,218088,1,0,0:0:0:0:
448,192,218088,1,0,0:0:0:0:
320,192,218204,1,0,0:0:0:0:
192,192,218204,1,0,0:0:0:0:
64,192,218262,1,0,0:0:0:0:
320,192,218321,1,0,0:0:0:0:
448,192,218321,1,0,0:0:0:0:
192,192,218437,1,0,0:0:0:0:
64,192,218437,1,0,0:0:0:0:
448,192,218553,1,0,0:0:0:0:
64,192,218611,1,0,0:0:0:0:
320,192,218669,1,0,0:0:0:0:
192,192,218669,1,0,0:0:0:0:
448,192,218727,1,0,0:0:0:0:
64,192,218786,1,0,0:0:0:0:
320,192,218786,128,0,218902:0:0:0:0:
192,192,218902,1,0,0:0:0:0:
64,192,219018,1,0,0:0:0:0:
320,192,219018,1,0,0:0:0:0:
192,192,219134,1,0,0:0:0:0:
448,192,219134,1,0,0:0:0:0:
64,192,219193,1,0,0:0:0:0:
320,192,219251,1,0,0:0:0:0:
192,192,219251,1,0,0:0:0:0:
448,192,219367,1,0,0:0:0:0:
64,192,219367,128,0,219600:0:0:0:0:
192,192,219483,1,0,0:0:0:0:
320,192,219541,1,0,0:0:0:0:
192,192,219600,128,0,219832:0:0:0:0:
448,192,219600,1,0,0:0:0:0:
320,192,219658,1,0,0:0:0:0:
448,192,219716,1,0,0:0:0:0:
64,192,219716,1,0,0:0:0:0:
320,192,219832,1,0,0:0:0:0:
64,192,219832,1,0,0:0:0:0:
448,192,219948,1,0,0:0:0:0:
320,192,219948,1,0,0:0:0:0:
192,192,220065,1,0,0:0:0:0:
64,192,220065,1,0,0:0:0:0:
320,192,220123,1,0,0:0:0:0:
448,192,220181,1,0,0:0:0:0:
64,192,220181,1,0,0:0:0:0:
320,192,220297,1,0,0:0:0:0:
192,192,220297,1,0,0:0:0:0:
448,192,220414,1,0,0:0:0:0:
192,192,220472,1,0,0:0:0:0:
320,192,220530,1,0,0:0:0:0:
64,192,220530,1,0,0:0:0:0:
448,192,220588,1,0,0:0:0:0:
320,192,220646,1,0,0:0:0:0:
192,192,220646,128,0,220762:0:0:0:0:
64,192,220762,1,0,0:0:0:0:
320,192,220879,1,0,0:0:0:0:
192,192,220879,1,0,0:0:0:0:
192,192,220995,1,0,0:0:0:0:
64,192,220995,1,0,0:0:0:0:
320,192,221053,1,0,0:0:0:0:
64,192,221111,1,0,0:0:0:0:
448,192,221111,1,0,0:0:0:0:
320,192,221227,128,0,221460:0:0:0:0:
192,192,221227,1,0,0:0:0:0:
64,192,221344,1,0,0:0:0:0:
448,192,221344,1,0,0:0:0:0:
192,192,221460,128,0,221693:0:0:0:0:
64,192,221518,1,0,0:0:0:0:
320,192,221576,1,0,0:0:0:0:
448,192,221576,1,0,0:0:0:0:
64,192,221693,1,0,0:0:0:0:
448,192,221693,1,0,0:0:0:0:
192,192,221809,1,0,0:0:0:0:
64,192,221809,1,0,0:0:0:0:
320,192,221925,1,0,0:0:0:0:
448,192,221925,1,0,0:0:0:0:
64,192,222041,1,0,0:0:0:0:
320,192,222041,1,0,0:0:0:0:
64,192,222158,1,0,0:0:0:0:
448,192,222158,128,0,222274:0:0:0:0:
192,192,222274,1,0,0:0:0:0:
448,192,222332,1,0,0:0:0:0:
320,192,222390,1,0,0:0:0:0:
64,192,222390,1,0,0:0:0:0:
192,192,222448,1,0,0:0:0:0:
64,192,222507,1,0,0:0:0:0:
448,192,222507,1,0,0:0:0:0:
320,192,222623,1,0,0:0:0:0:
192,192,222739,1,0,0:0:0:0:
64,192,222739,1,0,0:0:0:0:
448,192,222797,1,0,0:0:0:0:
320,192,222855,1,0,0:0:0:0:
192,192,222855,1,0,0:0:0:0:
64,192,222914,1,0,0:0:0:0:
448,192,222972,1,0,0:0:0:0:
192,192,222972,1,0,0:0:0:0:
448,192,223088,1,0,0:0:0:0:
64,192,223088,128,0,223321:0:0:0:0:
192,192,223204,1,0,0:0:0:0:
448,192,223204,1,0,0:0:0:0:
320,192,223321,1,0,0:0:0:0:
192,192,223321,128,0,223437:0:0:0:0:
64,192,223379,1,0,0:0:0:0:
320,192,223437,1,0,0:0:0:0:
64,192,223553,1,0,0:0:0:0:
448,192,223553,128,0,223786:0:0:0:0:
320,192,223611,1,0,0:0:0:0:
64,192,223669,1,0,0:0:0:0:
192,192,223669,1,0,0:0:0:0:
320,192,223727,1,0,0:0:0:0:
64,192,223786,1,0,0:0:0:0:
192,192,223786,1,0,0:0:0:0:
448,192,223902,1,0,0:0:0:0:
192,192,223902,1,0,0:0:0:0:
320,192,223902,128,0,224251:0:0:0:0:
192,192,224251,1,0,0:0:0:0:
64,192,224251,1,0,0:0:0:0:
448,192,224251,128,0,224483:0:0:0:0:
64,192,224483,1,0,0:0:0:0:
320,192,224483,1,0,0:0:0:0:
192,192,224541,1,0,0:0:0:0:
448,192,224600,1,0,0:0:0:0:
64,192,224658,1,0,0:0:0:0:
192,192,224716,1,0,0:0:0:0:
320,192,224716,1,0,0:0:0:0:
448,192,224832,1,0,0:0:0:0:
192,192,224832,1,0,0:0:0:0:
64,192,224890,1,0,0:0:0:0:
320,192,224948,1,0,0:0:0:0:
192,192,225007,1,0,0:0:0:0:
64,192,225065,1,0,0:0:0:0:
448,192,225065,1,0,0:0:0:0:
320,192,225181,128,0,225414:0:0:0:0:
448,192,225181,128,0,225414:0:0:0:0:
192,192,225414,1,0,0:0:0:0:
64,192,225414,1,0,0:0:0:0:
64,192,225530,1,0,0:0:0:0:
448,192,225530,1,0,0:0:0:0:
320,192,225646,1,0,0:0:0:0:
192,192,225646,1,0,0:0:0:0:
64,192,225704,1,0,0:0:0:0:
448,192,225762,1,0,0:0:0:0:
320,192,225762,1,0,0:0:0:0:
192,192,225879,1,0,0:0:0:0:
64,192,225879,1,0,0:0:0:0:
320,192,225995,1,0,0:0:0:0:
448,192,226111,1,0,0:0:0:0:
192,192,226111,1,0,0:0:0:0:
64,192,226169,1,0,0:0:0:0:
192,192,226227,1,0,0:0:0:0:
320,192,226227,128,0,226460:0:0:0:0:
64,192,226344,1,0,0:0:0:0:
192,192,226460,1,0,0:0:0:0:
448,192,226460,1,0,0:0:0:0:
320,192,226576,1,0,0:0:0:0:
64,192,226576,1,0,0:0:0:0:
192,192,226634,1,0,0:0:0:0:
320,192,226693,1,0,0:0:0:0:
448,192,226693,1,0,0:0:0:0:
448,192,226809,1,0,0:0:0:0:
64,192,226809,128,0,227041:0:0:0:0:
192,192,226925,1,0,0:0:0:0:
320,192,227041,1,0,0:0:0:0:
448,192,227041,128,0,227274:0:0:0:0:
64,192,227100,1,0,0:0:0:0:
192,192,227158,1,0,0:0:0:0:
64,192,227274,1,0,0:0:0:0:
320,192,227274,1,0,0:0:0:0:
192,192,227390,1,0,0:0:0:0:
64,192,227390,1,0,0:0:0:0:
320,192,227507,1,0,0:0:0:0:
448,192,227507,1,0,0:0:0:0:
192,192,227565,1,0,0:0:0:0:
448,192,227623,1,0,0:0:0:0:
64,192,227623,1,0,0:0:0:0:
192,192,227739,1,0,0:0:0:0:
64,192,227739,1,0,0:0:0:0:
448,192,227855,1,0,0:0:0:0:
192,192,227972,1,0,0:0:0:0:
320,192,227972,1,0,0:0:0:0:
64,192,228030,1,0,0:0:0:0:
192,192,228088,1,0,0:0:0:0:
448,192,228088,128,0,228321:0:0:0:0:
64,192,228204,1,0,0:0:0:0:
192,192,228321,1,0,0:0:0:0:
320,192,228321,1,0,0:0:0:0:
448,192,228437,1,0,0:0:0:0:
64,192,228437,1,0,0:0:0:0:
192,192,228495,1,0,0:0:0:0:
320,192,228553,1,0,0:0:0:0:
64,192,228553,1,0,0:0:0:0:
320,192,228669,1,0,0:0:0:0:
448,192,228669,128,0,228902:0:0:0:0:
64,192,228786,1,0,0:0:0:0:
320,192,228902,128,0,229134:0:0:0:0:
192,192,228902,1,0,0:0:0:0:
64,192,228960,1,0,0:0:0:0:
448,192,229018,1,0,0:0:0:0:
192,192,229134,1,0,0:0:0:0:
64,192,229134,1,0,0:0:0:0:
192,192,229251,1,0,0:0:0:0:
64,192,229251,1,0,0:0:0:0:
320,192,229367,1,0,0:0:0:0:
448,192,229367,1,0,0:0:0:0:
64,192,229425,1,0,0:0:0:0:
320,192,229483,1,0,0:0:0:0:
192,192,229483,1,0,0:0:0:0:
448,192,229600,1,0,0:0:0:0:
64,192,229600,1,0,0:0:0:0:
192,192,229716,1,0,0:0:0:0:
320,192,229774,1,0,0:0:0:0:
64,192,229832,1,0,0:0:0:0:
320,192,229890,1,0,0:0:0:0:
64,192,229948,1,0,0:0:0:0:
448,192,229948,1,0,0:0:0:0:
320,192,230065,1,0,0:0:0:0:
192,192,230065,1,0,0:0:0:0:
448,192,230065,1,0,0:0:0:0:
320,192,230181,1,0,0:0:0:0:
64,192,230181,1,0,0:0:0:0:
192,192,230239,1,0,0:0:0:0:
448,192,230297,1,0,0:0:0:0:
320,192,230355,1,0,0:0:0:0:
64,192,230414,1,0,0:0:0:0:
448,192,230414,1,0,0:0:0:0:
320,192,230530,1,0,0:0:0:0:
192,192,230530,1,0,0:0:0:0:
64,192,230588,1,0,0:0:0:0:
320,192,230646,1,0,0:0:0:0:
448,192,230646,1,0,0:0:0:0:
192,192,230704,1,0,0:0:0:0:
320,192,230762,1,0,0:0:0:0:
64,192,230762,1,0,0:0:0:0:
192,192,230879,1,0,0:0:0:0:
64,192,230995,1,0,0:0:0:0:
448,192,230995,1,0,0:0:0:0:
192,192,231053,1,0,0:0:0:0:
320,192,231053,1,0,0:0:0:0:
64,192,231111,1,0,0:0:0:0:
448,192,231111,1,0,0:0:0:0:
192,192,231169,1,0,0:0:0:0:
320,192,231169,1,0,0:0:0:0:
64,192,231227,1,0,0:0:0:0:
448,192,231227,1,0,0:0:0:0:
320,192,231344,1,0,0:0:0:0:
192,192,231344,1,0,0:0:0:0:
448,192,231344,128,0,231576:0:0:0:0:
192,192,231576,1,0,0:0:0:0:
64,192,231576,1,0,0:0:0:0:
64,192,231693,1,0,0:0:0:0:
448,192,231693,1,0,0:0:0:0:
320,192,231693,128,0,231925:0:0:0:0:
192,192,231925,1,0,0:0:0:0:
64,192,231925,1,0,0:0:0:0:
448,192,231925,1,0,0:0:0:0:
320,192,231983,1,0,0:0:0:0:
64,192,232041,1,0,0:0:0:0:
192,192,232041,1,0,0:0:0:0:
448,192,232100,1,0,0:0:0:0:
192,192,232158,1,0,0:0:0:0:
320,192,232158,1,0,0:0:0:0:
448,192,232274,1,0,0:0:0:0:
192,192,232274,1,0,0:0:0:0:
64,192,232274,128,0,232507:0:0:0:0:
192,192,232507,1,0,0:0:0:0:
320,192,232507,1,0,0:0:0:0:
64,192,232623,1,0,0:0:0:0:
448,192,232623,1,0,0:0:0:0:
320,192,232623,128,0,232855:0:0:0:0:
64,192,232855,128,0,232972:0:0:0:0:
192,192,232855,1,0,0:0:0:0:
448,192,232972,128,0,233088:0:0:0:0:
64,192,233088,128,0,233204:0:0:0:0:
192,192,233088,1,0,0:0:0:0:
448,192,233204,128,0,233321:0:0:0:0:
64,192,233321,128,0,233437:0:0:0:0:
192,192,233321,1,0,0:0:0:0:
192,192,233553,1,0,0:0:0:0:
64,192,233553,1,0,0:0:0:0:
320,192,233669,128,0,233902:0:0:0:0:
192,192,233786,1,0,0:0:0:0:
64,192,233786,1,0,0:0:0:0:
448,192,233902,128,0,234018:0:0:0:0:
192,192,233902,1,0,0:0:0:0:
64,192,234018,128,0,234134:0:0:0:0:
320,192,234018,1,0,0:0:0:0:
448,192,234134,128,0,234251:0:0:0:0:
320,192,234251,128,0,234367:0:0:0:0:
64,192,234367,1,0,0:0:0:0:
192,192,234367,1,0,0:0:0:0:
64,192,234600,1,0,0:0:0:0:
192,192,234600,1,0,0:0:0:0:
448,192,234716,128,0,234832:0:0:0:0:
320,192,234716,1,0,0:0:0:0:
64,192,234832,128,0,234948:0:0:0:0:
448,192,234948,128,0,235065:0:0:0:0:
320,192,234948,1,0,0:0:0:0:
64,192,235065,128,0,235181:0:0:0:0:
320,192,235181,128,0,235297:0:0:0:0:
448,192,235181,1,0,0:0:0:0:
320,192,235414,1,0,0:0:0:0:
448,192,235414,1,0,0:0:0:0:
192,192,235530,1,0,0:0:0:0:
64,192,235530,128,0,235762:0:0:0:0:
448,192,235646,1,0,0:0:0:0:
320,192,235646,1,0,0:0:0:0:
192,192,235762,128,0,235879:0:0:0:0:
64,192,235879,128,0,235995:0:0:0:0:
320,192,235879,1,0,0:0:0:0:
448,192,235995,128,0,236111:0:0:0:0:
64,192,236111,128,0,236227:0:0:0:0:
320,192,236111,1,0,0:0:0:0:
192,192,236227,1,0,0:0:0:0:
192,192,236344,1,0,0:0:0:0:
192,192,236460,1,0,0:0:0:0:
64,192,236576,1,0,0:0:0:0:
448,192,236576,128,0,237933:0:0:0:0:
192,192,236693,128,0,236809:0:0:0:0:
320,192,236809,128,0,236925:0:0:0:0:
192,192,236925,128,0,237041:0:0:0:0:
64,192,236925,1,0,0:0:0:0:
320,192,237041,128,0,237158:0:0:0:0:
64,192,237274,1,0,0:0:0:0:
192,192,237507,1,0,0:0:0:0:
64,192,237507,1,0,0:0:0:0:
320,192,237507,128,0,237972:0:0:0:0:
192,192,237739,128,0,238010:0:0:0:0:
64,192,237972,128,0,238049:0:0:0:0:
448,192,238010,128,0,238359:0:0:0:0:
320,192,238049,128,0,238359:0:0:0:0:
192,192,238088,128,0,238359:0:0:0:0:
64,192,238127,128,0,238359:0:0:0:0:
192,192,238437,1,0,0:0:0:0:
320,192,238437,1,0,0:0:0:0:
320,192,238553,1,0,0:0:0:0:
64,192,238553,1,0,0:0:0:0:
448,192,238611,1,0,0:0:0:0:
192,192,238611,1,0,0:0:0:0:
320,192,238669,1,0,0:0:0:0:
64,192,238669,1,0,0:0:0:0:
192,192,238727,1,0,0:0:0:0:
64,192,238786,1,0,0:0:0:0:
320,192,238786,1,0,0:0:0:0:
448,192,238786,1,0,0:0:0:0:
64,192,239018,1,0,0:0:0:0:
448,192,239018,1,0,0:0:0:0:
192,192,239134,1,0,0:0:0:0:
64,192,239134,1,0,0:0:0:0:
448,192,239134,1,0,0:0:0:0:
320,192,239367,1,0,0:0:0:0:
64,192,239367,1,0,0:0:0:0:
448,192,239367,1,0,0:0:0:0:
64,192,239483,1,0,0:0:0:0:
448,192,239483,1,0,0:0:0:0:
192,192,239600,1,0,0:0:0:0:
448,192,239658,1,0,0:0:0:0:
320,192,239716,1,0,0:0:0:0:
64,192,239716,1,0,0:0:0:0:
320,192,239832,1,0,0:0:0:0:
64,192,239832,1,0,0:0:0:0:
192,192,239948,1,0,0:0:0:0:
320,192,240007,1,0,0:0:0:0:
192,192,240065,1,0,0:0:0:0:
64,192,240065,1,0,0:0:0:0:
448,192,240065,1,0,0:0:0:0:
192,192,240297,1,0,0:0:0:0:
320,192,240297,1,0,0:0:0:0:
448,192,240297,1,0,0:0:0:0:
64,192,240414,1,0,0:0:0:0:
448,192,240414,1,0,0:0:0:0:
320,192,240530,1,0,0:0:0:0:
64,192,240530,1,0,0:0:0:0:
192,192,240646,1,0,0:0:0:0:
448,192,240646,1,0,0:0:0:0:
192,192,240762,1,0,0:0:0:0:
320,192,240762,1,0,0:0:0:0:
64,192,240879,1,0,0:0:0:0:
448,192,240879,1,0,0:0:0:0:
320,192,240995,1,0,0:0:0:0:
448,192,240995,1,0,0:0:0:0:
192,192,241111,128,0,241344:0:0:0:0:
64,192,241111,1,0,0:0:0:0:
320,192,241227,1,0,0:0:0:0:
448,192,241227,1,0,0:0:0:0:
64,192,241344,1,0,0:0:0:0:
448,192,241344,128,0,241460:0:0:0:0:
320,192,241460,1,0,0:0:0:0:
64,192,241460,128,0,241576:0:0:0:0:
192,192,241576,1,0,0:0:0:0:
320,192,241576,128,0,241693:0:0:0:0:
192,192,241693,1,0,0:0:0:0:
448,192,241693,128,0,241925:0:0:0:0:
320,192,241809,1,0,0:0:0:0:
64,192,241809,1,0,0:0:0:0:
192,192,241925,1,0,0:0:0:0:
64,192,241925,1,0,0:0:0:0:
320,192,242041,1,0,0:0:0:0:
448,192,242041,1,0,0:0:0:0:
448,192,242158,1,0,0:0:0:0:
64,192,242158,1,0,0:0:0:0:
320,192,242274,1,0,0:0:0:0:
192,192,242274,1,0,0:0:0:0:
64,192,242390,1,0,0:0:0:0:
320,192,242390,1,0,0:0:0:0:
448,192,242507,1,0,0:0:0:0:
192,192,242507,1,0,0:0:0:0:
448,192,242623,1,0,0:0:0:0:
64,192,242623,1,0,0:0:0:0:
320,192,242739,1,0,0:0:0:0:
192,192,242739,1,0,0:0:0:0:
64,192,242855,1,0,0:0:0:0:
192,192,242855,1,0,0:0:0:0:
448,192,242972,128,0,243204:0:0:0:0:
320,192,242972,1,0,0:0:0:0:
64,192,243088,1,0,0:0:0:0:
192,192,243088,1,0,0:0:0:0:
320,192,243204,1,0,0:0:0:0:
192,192,243204,128,0,243321:0:0:0:0:
64,192,243321,1,0,0:0:0:0:
320,192,243321,128,0,243437:0:0:0:0:
448,192,243437,1,0,0:0:0:0:
64,192,243437,128,0,243553:0:0:0:0:
448,192,243553,1,0,0:0:0:0:
192,192,243553,128,0,243786:0:0:0:0:
64,192,243669,1,0,0:0:0:0:
320,192,243669,1,0,0:0:0:0:
448,192,243786,1,0,0:0:0:0:
320,192,243786,1,0,0:0:0:0:
64,192,243902,1,0,0:0:0:0:
192,192,243902,1,0,0:0:0:0:
64,192,244018,1,0,0:0:0:0:
448,192,244018,1,0,0:0:0:0:
64,192,244134,1,0,0:0:0:0:
320,192,244134,1,0,0:0:0:0:
320,192,244251,1,0,0:0:0:0:
192,192,244251,1,0,0:0:0:0:
64,192,244367,1,0,0:0:0:0:
448,192,244367,1,0,0:0:0:0:
192,192,244483,1,0,0:0:0:0:
448,192,244483,1,0,0:0:0:0:
64,192,244600,1,0,0:0:0:0:
320,192,244600,1,0,0:0:0:0:
64,192,244716,1,0,0:0:0:0:
192,192,244716,1,0,0:0:0:0:
320,192,244832,1,0,0:0:0:0:
448,192,244832,128,0,245065:0:0:0:0:
64,192,244948,1,0,0:0:0:0:
192,192,244948,1,0,0:0:0:0:
64,192,245065,128,0,245181:0:0:0:0:
320,192,245065,1,0,0:0:0:0:
320,192,245181,128,0,245297:0:0:0:0:
192,192,245181,1,0,0:0:0:0:
192,192,245297,128,0,245414:0:0:0:0:
448,192,245297,1,0,0:0:0:0:
64,192,245414,128,0,245646:0:0:0:0:
448,192,245414,1,0,0:0:0:0:
320,192,245530,1,0,0:0:0:0:
192,192,245530,1,0,0:0:0:0:
320,192,245646,1,0,0:0:0:0:
448,192,245646,1,0,0:0:0:0:
64,192,245762,1,0,0:0:0:0:
192,192,245762,1,0,0:0:0:0:
192,192,245879,1,0,0:0:0:0:
320,192,245879,1,0,0:0:0:0:
448,192,245879,1,0,0:0:0:0:
320,192,245995,1,0,0:0:0:0:
64,192,245995,1,0,0:0:0:0:
64,192,246111,1,0,0:0:0:0:
320,192,246111,1,0,0:0:0:0:
192,192,246227,1,0,0:0:0:0:
448,192,246227,1,0,0:0:0:0:
64,192,246227,1,0,0:0:0:0:
320,192,246460,1,0,0:0:0:0:
448,192,246460,1,0,0:0:0:0:
192,192,246576,1,0,0:0:0:0:
64,192,246576,1,0,0:0:0:0:
320,192,246576,1,0,0:0:0:0:
64,192,246693,1,0,0:0:0:0:
192,192,246693,1,0,0:0:0:0:
192,192,246809,1,0,0:0:0:0:
320,192,246809,1,0,0:0:0:0:
448,192,246809,1,0,0:0:0:0:
64,192,246867,1,0,0:0:0:0:
320,192,246925,1,0,0:0:0:0:
448,192,246925,1,0,0:0:0:0:
64,192,246983,1,0,0:0:0:0:
192,192,247041,1,0,0:0:0:0:
448,192,247041,1,0,0:0:0:0:
192,192,247158,1,0,0:0:0:0:
320,192,247158,1,0,0:0:0:0:
64,192,247158,128,0,247390:0:0:0:0:
192,192,247390,1,0,0:0:0:0:
448,192,247390,1,0,0:0:0:0:
320,192,247507,1,0,0:0:0:0:
64,192,247507,1,0,0:0:0:0:
448,192,247507,128,0,247739:0:0:0:0:
320,192,247739,1,0,0:0:0:0:
64,192,247739,1,0,0:0:0:0:
192,192,247739,128,0,249541:0:0:0:0:
64,192,247855,1,0,0:0:0:0:
320,192,247855,1,0,0:0:0:0:
448,192,249076,128,0,249193:0:0:0:0:
320,192,249251,1,0,0:0:0:0:
64,192,249309,1,0,0:0:0:0:
320,192,249367,128,0,249541:0:0:0:0:
448,192,249367,1,0,0:0:0:0:
192,192,249600,1,0,0:0:0:0:
320,192,249600,1,0,0:0:0:0:
320,192,249716,1,0,0:0:0:0:
448,192,249716,1,0,0:0:0:0:
192,192,249716,128,0,250181:0:0:0:0:
64,192,250297,128,0,250530:0:0:0:0:
192,192,250530,1,0,0:0:0:0:
320,192,250530,1,0,0:0:0:0:
448,192,250530,1,0,0:0:0:0:
64,192,250646,1,0,0:0:0:0:
192,192,250646,1,0,0:0:0:0:
448,192,250879,128,0,251227:0:0:0:0:
320,192,250995,1,0,0:0:0:0:
192,192,251053,1,0,0:0:0:0:
64,192,251111,1,0,0:0:0:0:
192,192,251169,1,0,0:0:0:0:
320,192,251227,1,0,0:0:0:0:
64,192,251227,1,0,0:0:0:0:
192,192,251460,128,0,252390:0:0:0:0:
64,192,251460,128,0,252158:0:0:0:0:
448,192,251693,1,0,0:0:0:0:
448,192,251809,1,0,0:0:0:0:
448,192,251925,1,0,0:0:0:0:
320,192,251925,1,0,0:0:0:0:
320,192,252041,1,0,0:0:0:0:
320,192,252158,1,0,0:0:0:0:
448,192,252158,1,0,0:0:0:0:
320,192,252274,1,0,0:0:0:0:
448,192,252274,1,0,0:0:0:0:
448,192,252390,1,0,0:0:0:0:
64,192,252390,1,0,0:0:0:0:
64,192,252507,1,0,0:0:0:0:
320,192,252507,1,0,0:0:0:0:
64,192,252623,1,0,0:0:0:0:
448,192,252623,1,0,0:0:0:0:
192,192,252739,1,0,0:0:0:0:
448,192,252739,1,0,0:0:0:0:
448,192,252855,1,0,0:0:0:0:
320,192,252855,1,0,0:0:0:0:
64,192,252855,1,0,0:0:0:0:
320,192,252972,1,0,0:0:0:0:
64,192,253088,1,0,0:0:0:0:
192,192,253088,1,0,0:0:0:0:
448,192,253088,1,0,0:0:0:0:
320,192,253146,1,0,0:0:0:0:
192,192,253204,1,0,0:0:0:0:
320,192,253262,1,0,0:0:0:0:
64,192,253321,1,0,0:0:0:0:
448,192,253321,1,0,0:0:0:0:
320,192,254251,1,0,0:0:0:0:
448,192,254251,1,0,0:0:0:0:
192,192,254309,1,0,0:0:0:0:
448,192,254367,1,0,0:0:0:0:
320,192,254367,1,0,0:0:0:0:
64,192,254425,1,0,0:0:0:0:
192,192,254483,1,0,0:0:0:0:
320,192,254541,1,0,0:0:0:0:
64,192,254541,1,0,0:0:0:0:
192,192,254600,1,0,0:0:0:0:
320,192,254658,1,0,0:0:0:0:
448,192,254716,1,0,0:0:0:0:
192,192,254774,1,0,0:0:0:0:
320,192,254832,1,0,0:0:0:0:
448,192,254832,1,0,0:0:0:0:
192,192,254890,1,0,0:0:0:0:
64,192,254890,1,0,0:0:0:0:
448,192,254948,1,0,0:0:0:0:
320,192,254948,1,0,0:0:0:0:
320,192,255181,1,0,0:0:0:0:
448,192,255181,1,0,0:0:0:0:
192,192,255239,1,0,0:0:0:0:
64,192,255239,1,0,0:0:0:0:
320,192,255297,1,0,0:0:0:0:
448,192,255297,1,0,0:0:0:0:
192,192,255355,1,0,0:0:0:0:
64,192,255355,1,0,0:0:0:0:
320,192,255414,1,0,0:0:0:0:
448,192,255414,1,0,0:0:0:0:
64,192,255530,1,0,0:0:0:0:
448,192,255569,1,0,0:0:0:0:
192,192,255646,1,0,0:0:0:0:
448,192,255685,1,0,0:0:0:0:
64,192,255762,1,0,0:0:0:0:
192,192,255762,1,0,0:0:0:0:
448,192,255801,1,0,0:0:0:0:
320,192,255840,1,0,0:0:0:0:
64,192,255879,1,0,0:0:0:0:
320,192,255937,1,0,0:0:0:0:
448,192,255995,1,0,0:0:0:0:
64,192,256034,1,0,0:0:0:0:
192,192,256072,1,0,0:0:0:0:
320,192,256111,1,0,0:0:0:0:
448,192,256111,1,0,0:0:0:0:
64,192,256344,1,0,0:0:0:0:
192,192,256344,1,0,0:0:0:0:
448,192,256344,1,0,0:0:0:0:
192,192,256460,1,0,0:0:0:0:
320,192,256460,1,0,0:0:0:0:
64,192,256576,1,0,0:0:0:0:
192,192,256634,1,0,0:0:0:0:
320,192,256693,1,0,0:0:0:0:
448,192,256693,1,0,0:0:0:0:
64,192,256809,1,0,0:0:0:0:
192,192,256809,1,0,0:0:0:0:
320,192,256925,1,0,0:0:0:0:
448,192,256925,1,0,0:0:0:0:
448,192,257041,1,0,0:0:0:0:
320,192,257100,1,0,0:0:0:0:
64,192,257158,1,0,0:0:0:0:
192,192,257158,1,0,0:0:0:0:
192,192,257274,1,0,0:0:0:0:
320,192,257274,1,0,0:0:0:0:
192,192,257390,1,0,0:0:0:0:
448,192,257390,1,0,0:0:0:0:
64,192,257507,1,0,0:0:0:0:
192,192,257565,1,0,0:0:0:0:
448,192,257623,1,0,0:0:0:0:
320,192,257623,1,0,0:0:0:0:
64,192,257739,1,0,0:0:0:0:
192,192,257739,1,0,0:0:0:0:
320,192,257739,1,0,0:0:0:0:
448,192,257855,1,0,0:0:0:0:
320,192,257855,1,0,0:0:0:0:
64,192,257972,1,0,0:0:0:0:
192,192,257972,1,0,0:0:0:0:
448,192,257972,1,0,0:0:0:0:
320,192,258030,1,0,0:0:0:0:
192,192,258088,1,0,0:0:0:0:
64,192,258204,1,0,0:0:0:0:
320,192,258204,1,0,0:0:0:0:
448,192,258204,1,0,0:0:0:0:
192,192,258320,1,0,0:0:0:0:
448,192,258320,1,0,0:0:0:0:
64,192,258437,1,0,0:0:0:0:
192,192,258495,1,0,0:0:0:0:
448,192,258553,1,0,0:0:0:0:
320,192,258553,1,0,0:0:0:0:
192,192,258669,1,0,0:0:0:0:
448,192,258669,1,0,0:0:0:0:
64,192,258786,1,0,0:0:0:0:
192,192,258786,1,0,0:0:0:0:
320,192,258902,1,0,0:0:0:0:
448,192,258902,1,0,0:0:0:0:
64,192,258902,1,0,0:0:0:0:
192,192,258960,1,0,0:0:0:0:
320,192,259018,1,0,0:0:0:0:
64,192,259134,1,0,0:0:0:0:
448,192,259134,1,0,0:0:0:0:
192,192,259134,1,0,0:0:0:0:
320,192,259251,1,0,0:0:0:0:
64,192,259367,1,0,0:0:0:0:
320,192,259367,1,0,0:0:0:0:
448,192,259367,1,0,0:0:0:0:
192,192,259425,1,0,0:0:0:0:
320,192,259483,1,0,0:0:0:0:
448,192,259483,1,0,0:0:0:0:
192,192,259600,1,0,0:0:0:0:
64,192,259600,1,0,0:0:0:0:
448,192,259716,1,0,0:0:0:0:
320,192,259716,1,0,0:0:0:0:
64,192,259832,1,0,0:0:0:0:
192,192,259832,1,0,0:0:0:0:
448,192,259832,1,0,0:0:0:0:
320,192,259890,1,0,0:0:0:0:
64,192,259948,1,0,0:0:0:0:
192,192,260065,1,0,0:0:0:0:
320,192,260065,1,0,0:0:0:0:
448,192,260065,128,0,261111:0:0:0:0:
64,192,260181,1,0,0:0:0:0:
192,192,260181,1,0,0:0:0:0:
320,192,260297,1,0,0:0:0:0:
64,192,260355,1,0,0:0:0:0:
192,192,260414,1,0,0:0:0:0:
320,192,260414,1,0,0:0:0:0:
192,192,260530,1,0,0:0:0:0:
64,192,260530,1,0,0:0:0:0:
64,192,260646,1,0,0:0:0:0:
320,192,260646,1,0,0:0:0:0:
192,192,260762,1,0,0:0:0:0:
64,192,260820,1,0,0:0:0:0:
192,192,260879,1,0,0:0:0:0:
320,192,260879,1,0,0:0:0:0:
64,192,260995,1,0,0:0:0:0:
192,192,260995,1,0,0:0:0:0:
64,192,261111,1,0,0:0:0:0:
320,192,261111,1,0,0:0:0:0:
192,192,261227,1,0,0:0:0:0:
448,192,261227,1,0,0:0:0:0:
320,192,261286,1,0,0:0:0:0:
64,192,261344,1,0,0:0:0:0:
448,192,261344,1,0,0:0:0:0:
64,192,261460,1,0,0:0:0:0:
320,192,261460,1,0,0:0:0:0:
192,192,261460,1,0,0:0:0:0:
320,192,261576,1,0,0:0:0:0:
448,192,261576,1,0,0:0:0:0:
64,192,261693,1,0,0:0:0:0:
192,192,261693,1,0,0:0:0:0:
448,192,261693,1,0,0:0:0:0:
320,192,261751,1,0,0:0:0:0:
64,192,261809,1,0,0:0:0:0:
448,192,261809,1,0,0:0:0:0:
192,192,261867,1,0,0:0:0:0:
320,192,261925,1,0,0:0:0:0:
448,192,261925,1,0,0:0:0:0:
64,192,261925,1,0,0:0:0:0:
192,192,262041,1,0,0:0:0:0:
320,192,262041,1,0,0:0:0:0:
448,192,262100,1,0,0:0:0:0:
64,192,262158,1,0,0:0:0:0:
192,192,262158,1,0,0:0:0:0:
320,192,262216,1,0,0:0:0:0:
448,192,262274,1,0,0:0:0:0:
64,192,262274,1,0,0:0:0:0:
192,192,262507,1,0,0:0:0:0:
320,192,262507,1,0,0:0:0:0:
320,192,262623,1,0,0:0:0:0:
448,192,262623,128,0,262855:0:0:0:0:
192,192,262739,1,0,0:0:0:0:
64,192,262739,1,0,0:0:0:0:
192,192,262855,1,0,0:0:0:0:
320,192,262855,128,0,263088:0:0:0:0:
64,192,262972,1,0,0:0:0:0:
448,192,262972,1,0,0:0:0:0:
192,192,263088,128,0,263204:0:0:0:0:
64,192,263088,1,0,0:0:0:0:
448,192,263088,1,0,0:0:0:0:
64,192,263204,128,0,263320:0:0:0:0:
320,192,263204,1,0,0:0:0:0:
448,192,263204,1,0,0:0:0:0:
192,192,263320,1,0,0:0:0:0:
448,192,263379,1,0,0:0:0:0:
320,192,263437,1,0,0:0:0:0:
192,192,263495,1,0,0:0:0:0:
448,192,263553,1,0,0:0:0:0:
64,192,263553,128,0,263786:0:0:0:0:
192,192,263786,1,0,0:0:0:0:
448,192,263786,1,0,0:0:0:0:
320,192,263786,128,0,264018:0:0:0:0:
448,192,264018,1,0,0:0:0:0:
192,192,264018,1,0,0:0:0:0:
64,192,264076,1,0,0:0:0:0:
320,192,264134,1,0,0:0:0:0:
448,192,264134,1,0,0:0:0:0:
192,192,264193,1,0,0:0:0:0:
448,192,264251,1,0,0:0:0:0:
64,192,264251,1,0,0:0:0:0:
320,192,264309,1,0,0:0:0:0:
192,192,264367,1,0,0:0:0:0:
64,192,264367,1,0,0:0:0:0:
320,192,264425,1,0,0:0:0:0:
192,192,264483,1,0,0:0:0:0:
448,192,264483,1,0,0:0:0:0:
64,192,264541,1,0,0:0:0:0:
448,192,264600,1,0,0:0:0:0:
320,192,264600,1,0,0:0:0:0:
192,192,264658,1,0,0:0:0:0:
448,192,264716,1,0,0:0:0:0:
64,192,264716,1,0,0:0:0:0:
320,192,264774,1,0,0:0:0:0:
64,192,264832,1,0,0:0:0:0:
192,192,264832,1,0,0:0:0:0:
448,192,264890,1,0,0:0:0:0:
320,192,264948,1,0,0:0:0:0:
64,192,264948,1,0,0:0:0:0:
192,192,265007,1,0,0:0:0:0:
448,192,265065,1,0,0:0:0:0:
320,192,265065,1,0,0:0:0:0:
192,192,265123,1,0,0:0:0:0:
64,192,265181,1,0,0:0:0:0:
448,192,265181,1,0,0:0:0:0:
320,192,265181,1,0,0:0:0:0:
192,192,265239,1,0,0:0:0:0:
64,192,265297,1,0,0:0:0:0:
448,192,265355,1,0,0:0:0:0:
192,192,265414,1,0,0:0:0:0:
320,192,265414,1,0,0:0:0:0:
64,192,265414,1,0,0:0:0:0:
448,192,265472,1,0,0:0:0:0:
192,192,265530,1,0,0:0:0:0:
320,192,265588,1,0,0:0:0:0:
448,192,265646,1,0,0:0:0:0:
192,192,265646,1,0,0:0:0:0:
64,192,265646,1,0,0:0:0:0:
320,192,265704,1,0,0:0:0:0:
448,192,265762,1,0,0:0:0:0:
64,192,265820,1,0,0:0:0:0:
320,192,265879,1,0,0:0:0:0:
192,192,265879,1,0,0:0:0:0:
448,192,265937,1,0,0:0:0:0:
64,192,265995,1,0,0:0:0:0:
192,192,265995,1,0,0:0:0:0:
320,192,266053,1,0,0:0:0:0:
192,192,266111,1,0,0:0:0:0:
448,192,266111,1,0,0:0:0:0:
64,192,266169,1,0,0:0:0:0:
192,192,266227,1,0,0:0:0:0:
320,192,266227,1,0,0:0:0:0:
448,192,266286,1,0,0:0:0:0:
64,192,266344,1,0,0:0:0:0:
192,192,266344,1,0,0:0:0:0:
320,192,266344,1,0,0:0:0:0:
448,192,266402,1,0,0:0:0:0:
64,192,266460,1,0,0:0:0:0:
192,192,266518,1,0,0:0:0:0:
448,192,266576,1,0,0:0:0:0:
320,192,266576,1,0,0:0:0:0:
64,192,266576,1,0,0:0:0:0:
192,192,266634,1,0,0:0:0:0:
320,192,266693,1,0,0:0:0:0:
448,192,266751,1,0,0:0:0:0:
320,192,266809,1,0,0:0:0:0:
192,192,266809,1,0,0:0:0:0:
64,192,266867,1,0,0:0:0:0:
448,192,266925,1,0,0:0:0:0:
320,192,266925,1,0,0:0:0:0:
192,192,266983,1,0,0:0:0:0:
64,192,267041,1,0,0:0:0:0:
192,192,267100,1,0,0:0:0:0:
448,192,267158,1,0,0:0:0:0:
320,192,267216,1,0,0:0:0:0:
64,192,267274,1,0,0:0:0:0:
192,192,267274,1,0,0:0:0:0:
448,192,267274,1,0,0:0:0:0:
320,192,267332,1,0,0:0:0:0:
64,192,267390,1,0,0:0:0:0:
192,192,267448,1,0,0:0:0:0:
448,192,267507,1,0,0:0:0:0:
320,192,267507,1,0,0:0:0:0:
64,192,267507,1,0,0:0:0:0:
192,192,267565,1,0,0:0:0:0:
320,192,267623,1,0,0:0:0:0:
448,192,267623,1,0,0:0:0:0:
64,192,267681,1,0,0:0:0:0:
448,192,267739,1,0,0:0:0:0:
192,192,267739,1,0,0:0:0:0:
64,192,267797,1,0,0:0:0:0:
320,192,267855,1,0,0:0:0:0:
192,192,267855,1,0,0:0:0:0:
448,192,267914,1,0,0:0:0:0:
192,192,267972,1,0,0:0:0:0:
64,192,267972,1,0,0:0:0:0:
320,192,268030,1,0,0:0:0:0:
192,192,268088,1,0,0:0:0:0:
64,192,268088,1,0,0:0:0:0:
320,192,268146,1,0,0:0:0:0:
448,192,268204,1,0,0:0:0:0:
64,192,268204,1,0,0:0:0:0:
192,192,268262,1,0,0:0:0:0:
320,192,268320,1,0,0:0:0:0:
448,192,268320,1,0,0:0:0:0:
64,192,268379,1,0,0:0:0:0:
320,192,268437,1,0,0:0:0:0:
448,192,268437,1,0,0:0:0:0:
192,192,268495,1,0,0:0:0:0:
320,192,268553,1,0,0:0:0:0:
192,192,268611,1,0,0:0:0:0:
320,192,268669,1,0,0:0:0:0:
448,192,268669,1,0,0:0:0:0:
192,192,268727,1,0,0:0:0:0:
320,192,268786,1,0,0:0:0:0:
192,192,268844,1,0,0:0:0:0:
320,192,268902,1,0,0:0:0:0:
448,192,268902,1,0,0:0:0:0:
192,192,268960,1,0,0:0:0:0:
320,192,269018,1,0,0:0:0:0:
192,192,269076,1,0,0:0:0:0:
448,192,269134,1,0,0:0:0:0:
64,192,269134,1,0,0:0:0:0:
320,192,269193,1,0,0:0:0:0:
192,192,269251,1,0,0:0:0:0:
64,192,269309,1,0,0:0:0:0:
320,192,269367,1,0,0:0:0:0:
448,192,269367,128,0,271467:0:0:0:0:
192,192,269371,1,0,0:0:0:0:
64,192,271186,128,0,271467:0:0:0:0:
320,192,271749,1,0,0:0:0:0:
192,192,272312,128,0,273453:0:0:0:0:
320,192,273453,1,0,0:0:0:0:
448,192,274021,1,0,0:0:0:0:
64,192,274589,128,0,275725:0:0:0:0:
192,192,275725,1,0,0:0:0:0:
448,192,276293,1,0,0:0:0:0:
320,192,276862,128,0,277998:0:0:0:0:
192,192,277146,1,0,0:0:0:0:
64,192,277430,1,0,0:0:0:0:
448,192,277714,1,0,0:0:0:0:
192,192,277998,128,0,278566:0:0:0:0:
64,192,278282,1,0,0:0:0:0:
320,192,278566,128,0,279134:0:0:0:0:
448,192,278850,1,0,0:0:0:0:
64,192,279134,128,0,280271:0:0:0:0:
320,192,280271,1,0,0:0:0:0:
448,192,280839,1,0,0:0:0:0:
192,192,281407,128,0,282543:0:0:0:0:
448,192,282543,1,0,0:0:0:0:
64,192,283112,1,0,0:0:0:0:
192,192,283680,128,0,284816:0:0:0:0:
448,192,284248,128,0,284816:0:0:0:0:
320,192,284816,128,0,285100:0:0:0:0:
64,192,285100,128,0,285384:0:0:0:0:
320,192,285384,128,0,285668:0:0:0:0:
192,192,285668,128,0,285953:0:0:0:0:
320,192,285953,128,0,287089:0:0:0:0:
448,192,286521,128,0,287089:0:0:0:0:
192,192,287089,128,0,287373:0:0:0:0:
448,192,287231,1,0,0:0:0:0:
320,192,287302,1,0,0:0:0:0:
64,192,287373,128,0,287657:0:0:0:0:
320,192,287657,128,0,287941:0:0:0:0:
448,192,287941,128,0,288225:0:0:0:0:
192,192,288225,128,0,290356:0:0:0:0:
