osu file format v14

[General]
AudioFilename: audio.mp3
AudioLeadIn: 0
PreviewTime: 28921
Countdown: 0
SampleSet: Soft
StackLeniency: 0.4
Mode: 0
LetterboxInBreaks: 0
WidescreenStoryboard: 0

[Editor]
Bookmarks: 198,3848,7498,11148,14798,18437,21746,25281,28921,32571,36221,39871,43521,47171,50822,54472,57209,59947,63597,65419,69611,73279
DistanceSpacing: 2
BeatDivisor: 4
GridSize: 32
TimelineZoom: 2.5

[Metadata]
Title:Flowering Game Night
TitleUnicode:Flowering Game Night
Artist:BLANKFIELD
ArtistUnicode:BLANKFIELD
Creator:eiri-
Version:Sakuya
Source:東方花映塚 ~ Phantasmagoria of Flower View.
Tags:Ayyri Featured Artist FA 東方Project ZUN Team Shanghai Alice Touhou Izayoi Sakuya 十六夜 咲夜 PoFV TH09 TH 9 Flower Reflecting Mound Kaeizuka permutation suicide Instrumental Video Game Metal Comiket 79 C79 warinside
BeatmapID:2478408
BeatmapSetID:1185325

[Difficulty]
HPDrainRate:4
CircleSize:4
OverallDifficulty:10
ApproachRate:10
SliderMultiplier:1.8
SliderTickRate:1

[Events]
//Background and Video events
0,0,"Sakuya 685.jpg",0,0
//Break Periods
//Storyboard Layer 0 (Background)
//Storyboard Layer 1 (Fail)
//Storyboard Layer 2 (Pass)
//Storyboard Layer 3 (Foreground)
//Storyboard Layer 4 (Overlay)
//Storyboard Sound Samples

[TimingPoints]
198,228.136882129278,4,2,1,80,1,0
14798,220.588235294118,4,2,1,70,1,0
24393,222.222222222222,4,2,1,70,1,0
24504,222.222222222222,4,2,1,70,1,0
25392,220.588235294118,4,2,1,70,1,0
28921,228.136882129278,4,2,1,75,1,0
54472,-100,4,2,1,80,0,0
65194,225.563909774436,4,2,1,80,1,0
65419,262.008733624454,4,2,1,30,1,0

[Colours]
Combo1 : 117,196,238
Combo2 : 248,112,112
Combo3 : 243,190,92
Combo4 : 118,235,112

[HitObjects]
416,352,198,5,6,1:2:0:0:
400,135,312,1,2,1:2:0:0:
400,135,369,1,2,1:2:0:0:
400,135,426,2,0,L|522:164,1,90,10|0,0:0|1:0,0:0:0:0:
243,251,654,1,10,0:0:0:0:
243,251,711,1,10,0:0:0:0:
243,251,768,1,0,1:0:0:0:
236,304,825,1,0,1:0:0:0:
229,357,882,1,10,0:0:0:0:
176,350,939,1,10,0:0:0:0:
122,343,996,1,10,0:0:0:0:
69,336,1053,1,10,0:0:0:0:
16,329,1110,6,0,L|33:266,1,45,6|0,1:2|1:0,0:0:0:0:
15,125,1224,1,0,1:0:0:0:
15,125,1281,1,0,1:0:0:0:
15,125,1338,1,10,0:0:0:0:
68,118,1395,1,10,0:0:0:0:
122,111,1452,1,10,0:0:0:0:
175,104,1509,1,10,0:0:0:0:
224,122,1566,1,0,1:0:0:0:
277,115,1623,1,0,1:0:0:0:
331,108,1680,1,0,1:0:0:0:
384,101,1737,1,0,1:0:0:0:
433,119,1794,1,14,0:0:0:0:
433,119,2023,5,6,1:2:0:0:
75,28,2137,1,2,1:2:0:0:
75,28,2194,1,2,1:2:0:0:
75,28,2251,2,0,L|65:152,1,90,10|0,0:0|1:0,0:0:0:0:
57,355,2479,1,10,0:0:0:0:
105,347,2536,1,10,0:0:0:0:
154,339,2593,1,10,0:0:0:0:
203,332,2650,1,10,0:0:0:0:
252,324,2707,2,0,L|182:310,1,45,0|0,1:0|1:0,0:0:0:0:
5,277,2821,1,0,1:0:0:0:
5,277,2878,1,0,1:0:0:0:
5,277,2935,5,14,0:0:0:0:
8,220,2992,1,10,0:0:0:0:
13,164,3049,1,2,1:2:0:0:
298,119,3163,1,6,1:2:0:0:
295,176,3220,1,2,1:2:0:0:
290,232,3277,1,2,1:2:0:0:
0,117,3391,1,6,1:2:0:0:
3,60,3448,1,2,1:2:0:0:
8,4,3505,1,2,1:2:0:0:
323,376,3620,1,14,0:0:0:0:
323,376,3848,5,6,1:2:0:0:
290,232,3962,1,8,0:0:0:0:
122,314,4076,5,10,0:0:0:0:
158,155,4190,1,8,0:0:0:0:
448,256,4304,5,10,0:0:0:0:
408,81,4418,1,10,0:0:0:0:
49,196,4532,5,10,0:0:0:0:
93,3,4646,1,8,0:0:0:0:
463,223,4760,5,10,0:0:0:0:
210,120,4874,1,8,0:0:0:0:
323,376,4988,5,10,0:0:0:0:
218,22,5102,1,8,0:0:0:0:
218,22,5159,1,8,0:0:0:0:
218,22,5217,1,2,1:2:0:0:
214,71,5274,1,2,1:2:0:0:
210,120,5331,1,2,1:2:0:0:
206,170,5388,1,2,1:2:0:0:
202,219,5445,1,14,0:0:0:0:
202,219,5673,6,0,L|283:210,1,45,6|2,1:2|1:2,0:0:0:0:
506,194,5787,1,10,0:0:0:0:
506,194,5844,1,10,0:0:0:0:
506,194,5901,1,10,0:0:0:0:
499,145,5958,1,10,0:0:0:0:
492,98,6015,1,10,0:0:0:0:
487,52,6072,1,10,0:0:0:0:
482,6,6129,1,10,0:0:0:0:
433,13,6186,1,10,0:0:0:0:
386,20,6243,1,10,0:0:0:0:
340,25,6300,1,10,0:0:0:0:
294,30,6357,1,10,0:0:0:0:
301,79,6414,1,10,0:0:0:0:
308,126,6471,1,10,0:0:0:0:
313,172,6528,1,10,0:0:0:0:
318,218,6585,5,6,1:2:0:0:
406,1,6699,1,8,0:0:0:0:
406,1,6813,1,8,0:0:0:0:
384,188,6928,1,8,0:0:0:0:
82,81,7042,1,6,1:2:0:0:
150,354,7156,1,10,0:0:0:0:
150,354,7213,1,10,0:0:0:0:
150,354,7270,2,0,L|162:280,1,45,10|10,0:0|0:0,0:0:0:0:
7,200,7384,2,0,L|-5:274,1,45,10|10,0:0|0:0,0:0:0:0:
324,99,7498,6,0,L|425:89,1,90,6|8,1:2|0:0,0:0:0:0:
192,224,7726,1,2,1:2:0:0:
192,224,7783,1,2,1:2:0:0:
192,224,7840,1,10,0:0:0:0:
109,56,7954,2,0,P|144:18|201:0,1,90,2|8,1:2|0:0,0:0:0:0:
73,231,8182,2,0,P|35:196|17:139,1,90,2|8,1:2|0:0,0:0:0:0:
321,234,8410,6,0,L|302:113,1,90,2|8,1:2|0:0,0:0:0:0:
188,349,8639,1,2,1:2:0:0:
408,290,8753,2,0,L|220:264,1,180,14|8,0:0|0:0,0:0:0:0:
472,207,9095,1,6,1:2:0:0:
472,207,9152,1,2,1:2:0:0:
472,207,9209,1,10,0:0:0:0:
172,118,9323,6,0,L|191:-3,1,90,6|8,1:2|0:0,0:0:0:0:
349,130,9551,1,2,1:2:0:0:
349,130,9608,1,2,1:2:0:0:
349,130,9665,1,10,0:0:0:0:
94,194,9779,2,0,P|48:161|-19:147,1,90,2|8,1:2|0:0,0:0:0:0:
265,112,10007,2,0,P|249:153|221:189,1,90,2|10,1:2|0:0,0:0:0:0:
19,0,10236,6,0,L|38:121,1,90,2|8,1:2|0:0,0:0:0:0:
75,372,10464,1,2,1:2:0:0:
75,372,10521,1,2,1:2:0:0:
75,372,10578,2,0,L|94:194,1,180,14|8,0:0|0:0,0:0:0:0:
384,111,10920,2,0,L|371:-8,1,90,6|8,1:2|0:0,0:0:0:0:
415,369,11148,6,0,L|302:339,1,90,6|8,1:2|0:0,0:0:0:0:
66,283,11376,1,2,1:2:0:0:
295,226,11490,1,8,0:0:0:0:
6,121,11604,2,0,P|35:79|76:39,1,90,2|8,1:2|0:0,0:0:0:0:
128,352,11832,1,2,1:2:0:0:
128,352,11890,1,2,1:2:0:0:
128,352,11947,1,10,0:0:0:0:
192,96,12061,6,0,L|172:-26,1,90,2|8,1:2|0:0,0:0:0:0:
18,224,12289,1,2,1:2:0:0:
301,313,12403,2,0,L|480:288,1,180,14|8,0:0|0:0,0:0:0:0:
170,197,12745,1,6,1:2:0:0:
170,197,12802,1,2,1:2:0:0:
170,197,12859,1,10,0:0:0:0:
201,378,12973,5,6,1:2:0:0:
256,224,13087,1,10,0:0:0:0:
64,288,13201,5,10,0:0:0:0:
15,46,13315,1,10,0:0:0:0:
384,224,13429,5,10,0:0:0:0:
96,128,13544,1,10,0:0:0:0:
96,128,13601,1,2,1:2:0:0:
96,128,13658,5,10,0:0:0:0:
498,66,13772,1,10,0:0:0:0:
256,384,13886,5,14,0:0:0:0:
256,0,14114,5,14,0:0:0:0:
0,192,14342,5,14,0:0:0:0:
512,192,14570,5,14,0:0:0:0:
416,128,14684,1,2,1:2:0:0:
256,192,14798,5,2,1:2:0:0:
256,192,14908,1,2,1:2:0:0:
256,32,15018,1,14,0:0:0:0:
256,32,17886,6,0,P|288:96|413:85,1,180,2|2,1:2|1:2,0:0:0:0:
512,56,18217,1,2,1:2:0:0:
512,56,18272,1,2,1:2:0:0:
512,56,18327,1,2,1:2:0:0:
506,109,18382,1,2,1:2:0:0:
501,163,18437,1,14,0:0:0:0:
501,163,20753,1,2,1:2:0:0:
288,288,20864,5,10,0:0:0:0:
288,288,20919,1,10,0:0:0:0:
288,288,20974,1,2,1:2:0:0:
284,246,21029,1,0,1:0:0:0:
280,202,21084,1,0,1:0:0:0:
276,159,21139,1,0,1:0:0:0:
272,116,21195,1,10,0:0:0:0:
220,122,21250,1,10,0:0:0:0:
168,126,21305,1,10,0:0:0:0:
117,131,21360,1,10,0:0:0:0:
65,136,21415,1,10,0:0:0:0:
323,259,21525,1,0,1:0:0:0:
18,335,21636,1,10,0:0:0:0:
126,15,21746,5,6,1:2:0:0:
192,378,22077,1,6,1:2:0:0:
192,378,24283,1,10,0:0:0:0:
84,332,24393,6,0,P|157:340|198:231,1,180,2|10,1:2|0:0,0:0:0:0:
25,166,24726,2,0,L|29:86,2,45,10|2|2,0:0|1:2|1:2,0:0:0:0:
19,264,24948,1,2,1:2:0:0:
266,187,25059,1,2,1:2:0:0:
217,268,25170,1,8,0:0:0:0:
193,15,25281,5,6,1:2:0:0:
240,376,25612,1,6,1:2:0:0:
240,376,26053,5,10,0:0:0:0:
272,8,26494,5,10,0:0:0:0:
0,160,26936,5,10,0:0:0:0:
129,220,27046,6,0,P|112:161|12:146,1,135,2|0,1:2|0:0,0:0:0:0:
0,160,27267,1,2,1:2:0:0:
288,128,27377,1,10,0:0:0:0:
288,128,27487,1,10,0:0:0:0:
242,284,27597,1,10,0:0:0:0:
213,84,27708,1,0,1:0:0:0:
512,142,27818,1,10,0:0:0:0:
32,288,27928,6,0,B|103:303|103:303|88:380,1,135,6|0,1:2|0:0,0:0:0:0:
91,364,28149,1,2,1:2:0:0:
34,89,28259,2,0,L|191:68,1,135,14|0,0:0|0:0,0:0:0:0:
240,105,28480,1,2,1:2:0:0:
98,40,28590,1,2,1:2:0:0:
67,264,28700,1,10,0:0:0:0:
67,264,28811,1,10,0:0:0:0:
374,196,28921,6,0,P|304:154|168:149,1,180,6|0,1:2|0:0,0:0:0:0:
465,224,29263,2,0,P|445:144|352:45,1,180,2|0,1:2|0:0,0:0:0:0:
457,342,29605,2,0,P|499:272|509:229,1,90,2|0,1:2|0:0,0:0:0:0:
140,303,29833,5,14,0:0:0:0:
178,375,29947,1,2,0:0:0:0:
341,231,30061,5,2,0:0:0:0:
309,327,30175,1,2,1:2:0:0:
183,142,30289,5,2,0:0:0:0:
218,247,30403,1,2,0:0:0:0:
386,80,30517,5,10,0:0:0:0:
327,186,30631,1,2,0:0:0:0:
186,32,30746,6,0,P|272:14|388:6,1,180,6|0,1:2|0:0,0:0:0:0:
265,102,31088,2,0,P|183:69|70:41,1,180,2|0,1:2|0:0,0:0:0:0:
224,216,31430,2,0,L|240:86,1,90,2|0,1:2|0:0,0:0:0:0:
256,377,31658,5,14,0:0:0:0:
215,48,31886,1,2,0:0:0:0:
257,132,32000,1,2,1:2:0:0:
0,177,32114,5,2,0:0:0:0:
512,273,32343,1,10,0:0:0:0:
64,320,32571,6,0,P|75:250|109:134,1,180,6|0,1:2|0:0,0:0:0:0:
289,175,32913,2,0,P|278:105|244:-11,1,180,2|0,1:2|0:0,0:0:0:0:
237,238,33255,2,0,P|281:217|344:210,1,90,2|0,1:2|0:0,0:0:0:0:
496,297,33483,5,14,0:0:0:0:
121,125,33711,1,2,0:0:0:0:
191,210,33825,1,2,1:2:0:0:
498,68,33940,2,0,L|494:8,1,45,2|0,0:1|0:0,0:0:0:0:
372,27,34054,2,0,L|376:87,1,45,2|0,0:1|0:0,0:0:0:0:
439,173,34168,1,10,0:0:0:0:
396,272,34282,1,2,0:0:0:0:
474,370,34396,6,0,L|409:173,1,180,6|0,1:2|0:0,0:0:0:0:
205,238,34738,2,0,L|248:24,1,180,2|0,1:2|0:0,0:0:0:0:
269,323,35080,2,0,L|162:345,1,90,2|0,1:2|0:0,0:0:0:0:
0,291,35308,5,14,0:0:0:0:
440,172,35536,1,2,0:0:0:0:
96,96,35765,5,2,0:0:0:0:
512,283,35993,1,10,0:0:0:0:
14,377,36221,6,0,L|35:184,1,180,6|0,1:2|0:0,0:0:0:0:
289,289,36563,2,0,L|499:264,1,180,2|0,1:2|0:0,0:0:0:0:
168,215,36905,2,0,L|184:321,1,90,2|0,1:2|0:0,0:0:0:0:
224,32,37133,5,14,0:0:0:0:
256,128,37247,1,2,0:0:0:0:
410,130,37362,5,2,0:0:0:0:
374,235,37476,1,2,1:2:0:0:
125,184,37590,5,2,0:0:0:0:
164,299,37704,1,2,0:0:0:0:
404,250,37818,5,10,0:0:0:0:
361,376,37932,1,2,0:0:0:0:
31,321,38046,6,0,P|132:290|232:282,1,180,6|0,1:2|0:0,0:0:0:0:
94,249,38388,2,0,P|143:155|208:79,1,180,2|0,1:2|0:0,0:0:0:0:
87,153,38730,2,0,P|55:51|52:33,1,90,2|0,1:2|0:0,0:0:0:0:
416,128,38959,5,14,0:0:0:0:
96,352,39187,1,2,0:0:0:0:
203,377,39301,1,2,1:2:0:0:
163,177,39415,5,2,0:0:0:0:
501,258,39643,1,10,0:0:0:0:
282,6,39871,6,0,L|298:211,1,180,6|0,1:2|0:0,0:0:0:0:
468,344,40213,2,0,L|484:139,1,180,2|0,1:2|0:0,0:0:0:0:
270,213,40555,2,0,L|280:327,1,90,2|0,1:2|0:0,0:0:0:0:
320,32,40784,5,14,0:0:0:0:
32,96,41012,1,2,0:0:0:0:
116,119,41126,1,2,1:2:0:0:
80,11,41240,5,2,0:0:0:0:
34,138,41354,1,2,0:0:0:0:
118,198,41468,5,10,0:0:0:0:
132,283,41582,1,2,0:0:0:0:
32,369,41696,6,0,P|112:334|232:315,1,180,6|0,1:2|0:0,0:0:0:0:
410,376,42038,2,0,P|321:359|239:323,1,180,2|0,1:2|0:0,0:0:0:0:
478,295,42381,2,0,L|497:171,1,90,2|0,1:2|0:0,0:0:0:0:
32,256,42609,6,0,P|53:178|147:186,1,180,14|0,0:0|0:0,0:0:0:0:
480,256,42951,2,0,P|459:178|365:186,1,180,14|0,0:0|0:0,0:0:0:0:
256,352,43293,2,0,L|256:224,1,90,14|0,0:0|0:0,0:0:0:0:
256,32,43521,5,6,1:2:0:0:
256,288,43635,1,2,1:2:0:0:
256,64,43749,1,2,1:2:0:0:
256,320,43863,1,2,1:2:0:0:
256,32,43978,1,10,0:0:0:0:
256,32,44206,6,0,L|256:128,2,90,2|2|2,0:1|0:1|0:1,0:0:0:0:
256,32,44662,5,2,1:2:0:0:
256,224,44776,1,2,1:2:0:0:
256,64,44890,1,2,1:2:0:0:
256,256,45004,1,2,1:2:0:0:
256,64,45346,6,0,L|256:192,1,90,2|2,0:1|0:1,0:0:0:0:
256,256,45574,5,2,1:2:0:0:
256,64,45688,1,2,1:2:0:0:
256,64,46031,5,2,0:1:0:0:
256,64,46259,6,0,P|435:64|496:-9,1,270,14|0,0:0|0:0,0:0:0:0:
489,250,46715,2,0,P|359:272|256:192,1,270,14|0,0:0|0:0,0:0:0:0:
512,160,47171,5,6,1:2:0:0:
416,320,47286,1,2,1:2:0:0:
384,32,47400,1,2,1:2:0:0:
495,145,47514,1,2,1:2:0:0:
96,192,47628,1,10,0:0:0:0:
96,192,47856,6,0,L|82:86,2,90,2|2|2,0:1|0:1|0:1,0:0:0:0:
96,192,48312,5,2,1:2:0:0:
337,143,48426,1,2,1:2:0:0:
207,306,48540,1,2,1:2:0:0:
238,68,48654,1,2,1:2:0:0:
238,68,48997,5,2,0:1:0:0:
238,68,49225,5,2,1:2:0:0:
207,306,49339,1,2,1:2:0:0:
196,218,49453,2,0,L|182:112,2,90,2|2|2,0:1|0:1|0:1,0:0:0:0:
207,306,49795,1,2,0:1:0:0:
495,253,49909,6,0,P|419:144|293:187,1,270,14|0,0:0|0:0,0:0:0:0:
17,253,50365,2,0,P|93:144|219:187,1,270,14|0,0:0|0:0,0:0:0:0:
256,352,50822,6,0,L|255:269,3,45,2|0|0|0,0:1|0:0|0:0|0:0,0:0:0:0:
224,320,51107,2,0,L|224:256,2,45,2|0|0,0:1|0:0|0:0,0:0:0:0:
320,256,51335,2,0,L|320:192,6,45,2|0|0|0|0|0|0,0:1|0:0|0:0|0:0|0:0|0:0|0:0,0:0:0:0:
160,224,51791,2,0,L|160:160,6,45,2|0|0|0|0|0|0,0:1|0:0|0:0|0:0|0:0|0:0|0:0,0:0:0:0:
480,192,52590,2,0,L|480:128,8,45,2|0|0|0|0|0|0|0|0,0:1|0:0|0:0|0:0|0:0|0:0|0:0|0:0|0:0,0:0:0:0:
224,128,53217,2,0,L|224:64,1,45,2|0,0:1|0:0,0:0:0:0:
416,64,53388,2,0,L|416:0,4,45,2|0|0|0|0,0:1|0:0|0:0|0:0|0:0,0:0:0:0:
416,352,54016,5,2,0:1:0:0:
416,352,54472,5,6,1:2:0:0:
425,301,54548,1,2,1:2:0:0:
434,250,54624,1,2,1:2:0:0:
443,199,54700,6,0,L|512:190,2,60,2|2|2,1:2|1:2|1:2,0:0:0:0:
305,213,54928,5,2,1:2:0:0:
305,213,55156,6,0,L|324:361,1,120,14|0,0:0|0:0,0:0:0:0:
369,128,55384,5,6,1:2:0:0:
325,87,55460,1,2,1:2:0:0:
268,69,55536,1,2,1:2:0:0:
209,78,55613,5,2,1:2:0:0:
165,118,55689,1,2,1:2:0:0:
108,136,55765,1,2,1:2:0:0:
49,127,55841,6,0,L|68:-21,1,120,14|0,0:0|0:0,0:0:0:0:
158,196,56069,5,14,0:0:0:0:
150,255,56145,1,10,0:0:0:0:
142,315,56221,1,10,0:0:0:0:
134,375,56297,5,10,0:0:0:0:
193,367,56373,1,10,0:0:0:0:
253,359,56449,1,10,0:0:0:0:
313,351,56525,5,2,1:2:0:0:
313,351,56753,6,0,L|294:203,1,120,14|0,0:0|0:0,0:0:0:0:
284,91,56981,5,2,1:2:0:0:
284,91,57038,5,0,1:0:0:0:
284,91,57095,6,0,L|360:107,1,45,0|0,1:0|1:0,0:0:0:0:
508,60,57209,5,6,1:2:0:0:
461,97,57285,1,2,1:2:0:0:
436,151,57361,1,2,1:2:0:0:
435,204,57438,5,2,1:2:0:0:
481,241,57514,1,2,1:2:0:0:
506,295,57590,1,2,1:2:0:0:
508,347,57666,5,2,1:2:0:0:
508,347,57894,6,0,P|449:319|380:307,1,120,14|0,0:0|0:0,0:0:0:0:
192,352,58122,5,6,1:2:0:0:
201,301,58198,1,2,1:2:0:0:
210,250,58274,1,2,1:2:0:0:
200,198,58350,5,2,1:2:0:0:
209,147,58426,1,2,1:2:0:0:
218,96,58502,1,2,1:2:0:0:
285,134,58578,5,2,1:2:0:0:
336,125,58654,1,2,1:2:0:0:
387,116,58730,1,2,1:2:0:0:
448,160,58806,5,2,1:2:0:0:
448,160,59035,6,0,L|461:309,1,120,2|2,1:2|1:2,0:0:0:0:
458,279,59263,1,2,1:2:0:0:
482,25,59491,5,14,0:0:0:0:
489,32,59719,5,2,1:2:0:0:
489,32,59776,5,0,1:0:0:0:
489,32,59833,6,0,L|421:43,1,45,0|0,1:0|1:0,0:0:0:0:
331,54,59947,5,6,1:2:0:0:
336,113,60023,1,2,1:2:0:0:
341,173,60099,1,2,1:2:0:0:
387,234,60175,5,2,1:2:0:0:
392,293,60251,1,2,1:2:0:0:
397,353,60327,1,2,1:2:0:0:
324,333,60403,5,2,1:2:0:0:
324,333,60632,6,0,L|155:358,1,120,14|0,0:0|0:0,0:0:0:0:
79,369,60860,5,6,1:2:0:0:
74,310,60936,1,2,1:2:0:0:
69,250,61012,1,2,1:2:0:0:
23,189,61088,5,2,1:2:0:0:
18,130,61164,1,2,1:2:0:0:
13,70,61240,1,2,1:2:0:0:
86,90,61316,6,0,L|255:65,1,120,14|0,0:0|0:0,0:0:0:0:
406,48,61544,5,14,0:0:0:0:
402,119,61620,1,10,0:0:0:0:
399,191,61696,1,10,0:0:0:0:
334,152,61772,5,10,0:0:0:0:
262,148,61848,1,10,0:0:0:0:
190,145,61924,1,10,0:0:0:0:
125,185,62000,5,10,0:0:0:0:
125,185,62228,5,2,1:2:0:0:
150,253,62304,1,2,1:2:0:0:
214,289,62380,1,2,1:2:0:0:
286,273,62456,5,14,0:0:0:0:
249,8,62685,5,0,1:0:0:0:
226,370,62913,6,0,L|237:194,1,120,14|0,0:0|0:0,0:0:0:0:
249,26,63141,5,2,1:2:0:0:
251,41,63255,5,2,1:2:0:0:
253,56,63369,6,0,B|227:93|227:93|115:84,1,120,14|0,0:0|0:0,0:0:0:0:
9,80,63597,5,6,1:2:0:0:
58,111,63673,1,2,1:2:0:0:
77,167,63749,1,2,1:2:0:0:
77,241,63825,5,2,1:2:0:0:
28,272,63901,1,2,1:2:0:0:
9,328,63977,1,2,1:2:0:0:
90,323,64054,5,14,0:0:0:0:
90,323,64282,6,0,L|79:251,2,60,8|8|8,0:0|0:0|0:0,0:0:0:0:
167,370,64510,5,14,0:0:0:0:
226,363,64586,1,2,1:2:0:0:
286,357,64662,1,2,1:2:0:0:
337,290,64738,5,14,0:0:0:0:
265,281,64814,1,2,1:2:0:0:
192,274,64890,1,2,1:2:0:0:
139,201,64966,5,14,0:0:0:0:
225,190,65042,1,2,1:2:0:0:
313,182,65118,1,2,1:2:0:0:
375,109,65194,5,14,0:0:0:0:
256,192,65419,12,0,73279,0:0:0:0:
